osu file format v14

[General]
AudioFilename: audio.mp3
AudioLeadIn: 0
PreviewTime: 51034
Countdown: 0
SampleSet: Soft
StackLeniency: 0.6
Mode: 0
LetterboxInBreaks: 0
WidescreenStoryboard: 1

[Editor]
Bookmarks: 7506,13625,26454,39085,45401,51717,64348,83098
DistanceSpacing: 0.9
BeatDivisor: 4
GridSize: 8
TimelineZoom: 1.6

[Metadata]
Title:Blue Bird
TitleUnicode:ブルーバード
Artist:Poppin'Party
ArtistUnicode:Poppin'Party
Creator:-Mikan
Version:Froskya's Expert
Source:バンドリ!ガールズバンドパーティ!
Tags:Blitzifyyy Froskya Revialink いきものがかり Ikimono-gakari NARUTO -ナルト- 疾風伝 Shippuden Anime Japanese Video Game size Sasuke popipa ポピパ ポッピン パーティー 戸山香澄 Toyama Kasumi 愛美 Aimi 山吹 沙綾 Yamabuki Saaya 大橋彩香 Ohashi Ayaka 牛込 りみ Ushigome Rimi 西本 りみ Nishimoto 花園 たえ Hanazono Tae 大塚紗英 Otsuka Sae 市ヶ谷有咲 Ichigaya Arisa 伊藤 彩沙 Itou Ayasa BanG Dream! Girls Band Party! Garupa Bandori! ガルパ!
BeatmapID:2223073
BeatmapSetID:1061601

[Difficulty]
HPDrainRate:5
CircleSize:3.8
OverallDifficulty:7.5
ApproachRate:8
SliderMultiplier:1.6
SliderTickRate:1

[Events]
//Background and Video events
0,0,"08piqQhAZnM.jpg",0,0
Video,-363,"Poppin'Party - Blue Bird.avi"
//Break Periods
//Storyboard Layer 0 (Background)
//Storyboard Layer 1 (Fail)
//Storyboard Layer 2 (Pass)
//Storyboard Layer 3 (Foreground)
//Storyboard Layer 4 (Overlay)
//Storyboard Sound Samples

[TimingPoints]
-388,394.736842105263,4,2,1,50,1,0
598,-222.222222222222,4,2,1,50,0,0
1190,-133.333333333333,4,2,1,50,0,0
3756,-222.222222222222,4,2,1,50,0,0
4348,-133.333333333333,4,2,1,50,0,0
7506,-111.111111111111,4,2,1,60,0,0
7516,400,4,2,1,50,1,0
7516,-111.111111111111,4,2,1,60,0,0
8316,405.405405405405,4,2,1,60,1,0
8316,-111.111111111111,4,2,1,60,0,0
8888,394.736842105263,4,2,1,60,1,0
9085,394.736842105263,4,2,1,60,1,0
9085,-111.111111111111,4,2,1,60,0,0
10072,-111.111111111111,4,2,1,70,0,0
10861,-111.111111111111,4,2,1,80,0,0
11651,-111.111111111111,4,2,1,90,0,0
12046,-111.111111111111,4,2,1,60,0,0
13624,-100,4,2,1,80,0,1
21529,394.736842105263,4,2,1,80,1,1
21725,394.736842105263,4,2,1,80,1,1
25465,-100,4,2,1,70,0,1
26461,-133.333333333333,4,2,1,50,0,0
39083,-117.647058823529,4,2,1,60,0,0
43822,-117.647058823529,4,2,1,80,0,0
44217,-117.647058823529,4,2,1,60,0,0
45399,-100,4,2,1,70,0,0
48756,-100,4,2,1,80,0,0
49940,-100,4,2,1,90,0,0
51125,-100,4,2,1,70,0,0
51724,-90.9090909090909,4,2,1,91,0,1
79938,-83.3333333333333,4,2,1,91,0,1
83106,-90.9090909090909,4,2,1,80,0,0
89412,-125,4,2,1,80,0,0
90993,-125,4,2,1,70,0,0
95927,-125,4,2,1,5,0,0

[Colours]
Combo1 : 255,223,125
Combo2 : 255,184,149
Combo3 : 255,130,130
Combo4 : 192,131,131

[HitObjects]
332,238,598,6,0,L|326:203,2,35.9999989013672,0|0|0,0:0|0:0|0:0,0:0:0:0:
388,156,1190,2,0,P|301:128|247:198,1,180.000006866455,2|0,0:0|0:0,0:0:0:0:
214,305,1980,2,0,P|199:250|128:221,1,120.000004577637,2|0,0:0|0:0,0:0:0:0:
15,293,2572,2,0,B|60:307|60:307|133:297,1,120.000004577637,2|0,0:0|0:0,0:0:0:0:
146,220,3164,1,0,0:0:0:0:
118,147,3361,1,0,0:0:0:0:
118,147,3756,6,0,L|122:111,2,35.9999989013672,0|0|0,0:0|0:0|0:0,0:0:0:0:
58,67,4348,2,0,P|136:32|198:90,1,180.000006866455,2|0,0:0|0:0,0:0:0:0:
277,72,5138,2,0,P|267:130|216:168,1,120.000004577637,2|0,0:0|0:0,0:0:0:0:
346,165,5730,2,0,P|343:201|356:228,1,60.0000022888184,2|0,0:0|0:0,0:0:0:0:
487,273,6125,2,0,P|473:216|422:190,1,120.000004577637,2|0,0:0|0:0,0:0:0:0:
421,189,6914,1,0,0:0:0:0:
352,222,7111,1,0,0:0:0:0:
340,298,7309,1,0,0:0:0:0:
340,298,7516,6,0,B|269:277|269:326|170:291,1,143.999995605469,6|0,3:2|3:0,0:0:0:0:
56,211,8116,1,0,3:0:0:0:
56,211,8216,1,0,3:0:0:0:
56,211,8316,2,0,B|127:190|127:239|226:204,1,143.999995605469,2|0,3:2|3:0,0:0:0:0:
258,81,8888,5,2,3:2:0:0:
258,81,8986,1,0,3:0:0:0:
258,81,9085,2,0,L|255:-8,1,71.9999978027344,0|0,3:2|3:0,0:0:0:0:
361,32,9480,2,0,L|358:111,1,71.9999978027344,8|8,0:0|0:0,0:0:0:0:
352,222,9875,1,8,3:2:0:0:
201,135,10072,6,0,P|170:118|128:114,2,71.9999978027344,10|8|10,0:2|3:2|0:0,0:0:0:0:
267,248,10664,1,8,3:2:0:0:
146,195,10861,2,0,P|110:194|71:210,2,71.9999978027344,10|8|10,0:0|3:2|0:0,0:0:0:0:
283,268,11454,1,8,3:2:0:0:
127,273,11651,2,0,P|151:299|183:315,1,71.9999978027344,10|8,0:0|3:2,0:0:0:0:
222,322,11947,1,8,0:0:0:0:
222,322,12046,1,6,3:2:0:0:
222,322,12440,5,10,0:0:0:0:
346,162,12638,1,10,0:0:0:0:
414,283,12835,1,8,0:0:0:0:
432,154,13033,5,10,0:1:0:0:
418,116,13131,1,0,3:0:0:0:
390,89,13230,1,0,3:0:0:0:
352,77,13329,1,0,3:0:0:0:
313,83,13427,1,0,3:0:0:0:
281,106,13526,1,0,3:0:0:0:
262,141,13625,6,2,P|185:151|120:78,1,160,6|0,3:1|3:0,0:1:0:0:
210,72,14217,1,2,1:3:0:0:
55,143,14414,2,2,L|52:227,1,80,2|0,0:1|3:0,0:1:0:0:
136,251,14809,2,0,L|138:330,1,80,0|2,3:0|1:3,0:0:0:0:
245,237,15204,6,2,P|324:222|408:228,1,160,2|0,3:1|3:0,0:1:0:0:
333,337,15796,1,2,1:3:0:0:
502,272,15993,1,2,0:1:0:0:
502,272,16092,1,0,3:0:0:0:
502,272,16190,1,0,3:0:0:0:
450,30,16388,1,0,3:0:0:0:
443,71,16486,1,0,0:0:0:0:
436,113,16585,1,2,1:3:0:0:
321,62,16783,6,2,B|280:21|280:21|233:19|171:40,1,160,2|0,3:1|3:0,0:1:0:0:
109,90,17375,1,2,1:3:0:0:
256,192,17572,2,2,P|254:152|248:113,1,80,2|0,0:1|3:0,0:1:0:0:
167,189,17868,1,0,3:0:0:0:
167,189,17967,2,0,P|161:228|159:268,1,80,0|2,3:0|1:3,0:0:0:0:
41,352,18361,6,2,B|76:356|107:336|107:336|151:362|202:342,1,160,6|0,3:1|3:0,0:1:0:0:
256,192,18954,1,2,1:3:0:0:
317,344,19151,2,2,B|361:362|405:336|405:336|436:356|471:352,1,160,2|8,3:1|3:0,0:1:0:0:
487,126,19743,1,8,3:0:0:0:
461,267,19940,6,2,P|442:206|340:175,1,160,6|0,3:1|3:0,0:1:0:0:
373,258,20533,1,2,1:3:0:0:
463,93,20730,2,2,P|426:99|367:82,1,80,2|0,0:1|3:0,0:1:0:0:
315,35,21125,2,0,P|278:29|219:46,1,80,0|2,3:0|1:3,0:0:0:0:
235,258,21529,6,2,B|283:221|281:152|281:152|279:113,1,160,2|0,3:1|3:0,0:1:0:0:
192,178,22119,1,2,1:3:0:0:
255,344,22317,2,2,P|215:345|179:328,1,80,2|0,3:1|3:0,0:1:0:0:
51,258,22711,1,0,3:0:0:0:
91,259,22810,1,0,3:0:0:0:
134,262,22909,1,2,1:3:0:0:
330,272,23107,6,2,B|448:279|448:279|422:239,1,160,6|0,3:1|3:0,0:1:0:0:
378,361,23698,1,2,1:3:0:0:
376,176,23896,1,2,0:1:0:0:
376,176,23994,1,0,3:0:0:0:
376,176,24093,2,0,L|374:83,1,80,0|0,3:0|3:0,0:0:0:0:
499,133,24488,1,2,1:3:0:0:
311,34,24685,6,2,B|273:50|232:35|193:21|154:38,1,160,6|4,3:1|0:3,0:1:0:0:
16,89,25277,1,4,0:3:0:0:
91,259,25475,2,2,P|57:191|93:123,1,160,6|2,1:0|3:0,0:1:0:0:
251,124,26067,1,8,0:0:0:0:
249,163,26166,1,8,0:0:0:0:
248,203,26264,1,8,0:3:0:0:
246,243,26363,1,8,0:3:0:0:
244,283,26461,6,0,P|312:283|385:286,1,120.000004577637,4|0,3:1|0:0,0:0:0:0:
439,235,27054,2,0,L|436:169,1,60.0000022888184,2|0,0:0|0:0,0:0:0:0:
428,85,27448,1,2,0:0:0:0:
509,123,27646,1,0,0:0:0:0:
356,164,27843,6,0,P|307:126|248:124,1,120.000004577637,0|0,3:0|0:0,0:0:0:0:
172,79,28435,1,0,0:0:0:0:
172,79,28633,2,0,P|158:109|161:148,1,60.0000022888184,2|0,0:0|3:0,0:0:0:0:
193,217,29027,1,0,0:0:0:0:
281,205,29225,1,2,0:0:0:0:
255,347,29422,1,0,3:0:0:0:
256,348,29619,6,0,L|248:288,1,60.0000022888184,2|0,3:2|0:0,0:0:0:0:
336,308,30014,1,2,0:0:0:0:
170,334,30212,2,0,P|111:330|64:293,1,120.000004577637,2|0,0:0|0:0,0:0:0:0:
142,249,30804,1,2,0:0:0:0:
40,165,31001,1,0,3:0:0:0:
40,165,31198,6,0,L|100:169,1,60.0000022888184,2|0,3:2|0:0,0:0:0:0:
174,118,31593,1,2,0:0:0:0:
174,118,31791,2,0,L|304:116,1,120.000004577637,2|2,3:2|3:0,0:0:0:0:
356,51,32383,1,2,0:0:0:0:
425,165,32580,1,2,0:3:0:0:
425,165,32777,6,0,P|432:197|425:236,1,60.0000022888184,2|0,3:2|0:0,0:0:0:0:
379,299,33172,1,2,0:0:0:0:
229,225,33369,2,0,B|263:202|263:202|343:201,1,120.000004577637,2|2,0:0|0:0,0:0:0:0:
391,319,33962,1,2,0:0:0:0:
208,245,34159,6,0,B|207:289|194:332|194:332|159:301,1,120.000004577637,0|0,3:0|0:0,0:0:0:0:
98,255,34751,1,2,0:0:0:0:
98,255,34948,2,0,P|100:220|106:185,1,60.0000022888184,0|2,3:0|0:0,0:0:0:0:
126,108,35343,1,2,0:0:0:0:
91,24,35541,1,2,0:0:0:0:
28,145,35738,1,2,0:0:0:0:
184,39,35935,6,0,P|240:20|303:42,2,120.000004577637,0|2|2,3:2|0:0|0:0,0:0:0:0:
126,108,36922,1,0,0:0:0:0:
243,221,37119,1,2,0:0:0:0:
243,221,37317,2,0,B|223:163|268:163|242:104,1,120.000004577637,0|2,3:0|0:0,0:0:0:0:
327,189,37909,2,0,B|386:175|386:175|463:191,1,120.000004577637,2|2,0:0|0:0,0:0:0:0:
508,250,38501,1,2,3:2:0:0:
455,330,38698,1,4,3:0:0:0:
355,352,38896,1,2,0:0:0:0:
245,297,39093,6,0,P|199:263|118:284,1,136.000002593994,4|0,3:1|3:0,0:0:0:0:
50,250,39685,2,0,P|76:338|184:332,1,204.000003890991,8|8,3:3|3:3,0:0:0:0:
227,185,40475,1,0,3:0:0:0:
57,123,40672,6,0,B|53:158|53:158|62:190|62:190|55:239,2,102.000001945496,4|8|4,3:0|3:0|3:0,0:0:0:0:
63,89,41659,1,8,3:0:0:0:
147,32,41856,1,8,3:0:0:0:
206,123,42054,1,0,3:0:0:0:
282,36,42251,6,0,B|349:16|349:66|427:36,1,136.000002593994,4|0,3:1|3:0,0:0:0:0:
496,35,42843,2,0,P|470:96|382:111,1,136.000002593994,8|0,3:0|3:0,0:0:0:0:
256,51,43435,1,0,3:0:0:0:
304,160,43633,5,0,3:0:0:0:
308,177,43731,1,0,3:0:0:0:
312,194,43830,1,4,1:2:0:0:
256,51,44225,1,0,3:0:0:0:
252,68,44323,1,0,3:0:0:0:
248,85,44422,2,0,L|162:83,1,68.0000012969971,8|0,0:0|0:0,0:0:0:0:
95,25,44817,1,2,3:0:0:0:
209,166,45014,1,0,1:0:0:0:
35,124,45212,1,8,0:0:0:0:
32,157,45310,1,8,0:0:0:0:
29,191,45409,6,0,P|71:196|116:217,1,80,4|2,3:1|0:0,0:0:0:0:
180,289,45804,1,8,0:0:0:0:
179,289,46001,2,0,P|140:293|103:308,1,80,2|0,0:0|3:0,0:0:0:0:
271,346,46396,2,0,P|310:342|347:327,1,80,2|8,0:0|0:0,0:0:0:0:
455,329,46791,2,0,P|435:253|342:221,1,160,2|2,0:0|0:0,0:0:0:0:
262,249,47383,1,8,0:0:0:0:
372,115,47580,1,2,0:0:0:0:
372,115,47777,6,0,L|376:21,1,80,0|0,3:0|3:0,0:0:0:0:
274,74,48172,1,8,3:0:0:0:
234,80,48271,1,0,3:0:0:0:
202,103,48369,1,0,3:0:0:0:
183,138,48468,1,0,3:0:0:0:
181,177,48567,1,4,3:0:0:0:
181,177,48764,6,0,L|188:252,1,40,4|0,1:2|0:0,0:0:0:0:
104,217,48962,2,0,L|98:297,1,80,0|0,1:0|3:0,0:0:0:0:
151,356,49258,1,0,3:0:0:0:
197,340,49356,2,0,L|250:342,3,40,8|0|8|8,3:0|0:0|0:0|0:0,0:0:0:0:
287,323,49751,1,0,1:0:0:0:
463,240,49948,6,0,P|399:195|326:221,1,160,4|0,3:2|3:0,0:0:0:0:
197,340,50541,1,0,1:0:0:0:
389,284,50738,1,0,1:0:0:0:
266,159,50935,1,4,1:0:0:0:
386,88,51133,5,8,0:0:0:0:
403,91,51231,1,8,0:0:0:0:
420,95,51330,1,0,1:0:0:0:
268,41,51527,1,8,0:2:0:0:
251,44,51626,1,8,0:2:0:0:
234,48,51725,6,0,P|232:145|224:245,2,176.000005371094,4|2|2,1:0|1:3|3:2,0:0:0:0:
135,87,52712,1,0,3:0:0:0:
49,25,52909,1,2,1:3:0:0:
60,195,53106,6,0,B|151:168|134:260|242:217,1,176.000005371094,2|0,3:2|3:0,0:0:0:0:
316,256,53698,2,0,P|317:213|312:169,1,88.000002685547,2|0,1:3|0:0,0:0:0:0:
232,126,54093,1,0,3:0:0:0:
408,175,54291,2,0,P|406:132|411:88,2,88.000002685547,2|2|2,3:2|1:3|0:0,0:0:0:0:
246,340,54883,6,0,B|334:358|334:358|407:311,2,176.000005371094,2|2|2,3:2|1:3|3:2,0:0:0:0:
147,302,55869,1,0,3:0:0:0:
45,332,56067,1,2,1:3:0:0:
125,212,56264,6,0,P|168:210|206:232,1,88.000002685547,2|0,3:2|0:0,0:0:0:0:
28,204,56659,2,0,P|72:130|162:123,1,176.000005371094,2|0,3:2|0:0,0:0:0:0:
287,161,57251,1,0,3:0:0:0:
146,19,57448,1,2,3:2:0:0:
146,19,57547,1,0,0:0:0:0:
146,19,57646,1,2,1:3:0:0:
125,212,57843,1,2,0:0:0:0:
245,65,58041,6,0,B|296:55|296:55|356:77|356:77|416:67,2,176.000005371094,6|2|2,3:2|1:3|3:2,0:0:0:0:
287,161,59027,1,0,3:0:0:0:
205,231,59225,1,2,1:3:0:0:
357,346,59422,6,0,P|426:325|362:272,1,176.000005371094,2|0,3:2|3:0,0:0:0:0:
183,253,60014,2,0,P|136:260|83:278,1,88.000002685547,2|0,1:3|3:0,0:0:0:0:
159,357,60409,1,0,3:2:0:0:
314,169,60606,6,0,P|271:156|228:150,2,88.000002685547,2|2|2,3:2|1:3|0:0,0:0:0:0:
376,267,61198,1,0,3:2:0:0:
396,109,61396,2,0,P|357:85|317:68,2,88.000002685547,2|2|2,3:2|1:3|3:2,0:0:0:0:
413,133,61889,1,0,3:0:0:0:
413,133,61988,1,0,3:0:0:0:
183,253,62185,1,2,3:2:0:0:
365,291,62383,1,2,1:3:0:0:
314,169,62580,5,4,3:1:0:0:
314,169,62975,1,2,3:2:0:0:
413,19,63172,1,2,1:3:0:0:
458,223,63369,5,6,3:2:0:0:
318,68,63567,1,2,0:0:0:0:
271,247,63764,1,2,3:2:0:0:
227,250,63863,1,0,3:0:0:0:
183,253,63962,1,2,1:3:0:0:
53,148,64159,1,8,0:0:0:0:
96,151,64258,1,8,0:0:0:0:
140,154,64356,6,0,P|143:70|49:35,2,176.000005371094,4|2|2,3:1|1:3|3:2,0:0:0:0:
84,243,65343,1,0,3:0:0:0:
129,338,65541,1,2,1:3:0:0:
336,242,65738,6,0,B|307:257|275:246|275:246|242:292|279:354,1,176.000005371094,2|0,3:2|3:0,0:0:0:0:
422,244,66330,2,0,P|413:201|385:169,1,88.000002685547,2|0,1:3|0:0,0:0:0:0:
302,163,66725,1,0,3:0:0:0:
480,307,66922,2,0,P|503:270|506:227,2,88.000002685547,2|2|2,3:2|1:3|0:0,0:0:0:0:
302,163,67514,6,0,P|346:91|443:115,2,176.000005371094,2|2|2,3:2|1:3|3:2,0:0:0:0:
333,264,68501,1,0,3:0:0:0:
277,352,68698,1,2,1:3:0:0:
119,273,68896,2,0,L|207:271,1,88.000002685547,2|0,3:2|0:0,0:0:0:0:
37,231,69291,6,0,B|62:187|115:184|115:184|211:180,1,176.000005371094,2|0,3:2|3:0,0:0:0:0:
221,180,69784,1,0,3:0:0:0:
221,180,69883,1,0,3:0:0:0:
255,353,70080,1,2,3:2:0:0:
333,264,70277,1,2,1:3:0:0:
119,273,70475,1,8,0:0:0:0:
119,273,70573,1,8,0:0:0:0:
119,273,70672,6,0,B|76:188|170:188|109:89,2,176.000005371094,6|2|2,3:2|1:3|3:2,0:0:0:0:
156,372,71659,1,0,3:0:0:0:
53,347,71856,1,2,1:3:0:0:
40,137,72054,6,0,B|67:161|67:161|132:160|243:157,1,176.000005371094,2|0,3:2|3:0,0:0:0:0:
288,90,72646,2,0,P|309:130|308:191,1,88.000002685547,2|0,1:3|3:0,0:0:0:0:
250,258,73041,1,0,3:0:0:0:
189,71,73238,6,0,P|139:73|79:74,2,88.000002685547,2|2|2,3:2|1:3|0:0,0:0:0:0:
291,16,73830,1,0,3:0:0:0:
409,122,74027,2,0,P|459:124|519:125,2,88.000002685547,2|2|2,3:2|1:3|3:2,0:0:0:0:
291,16,74619,1,0,3:0:0:0:
312,172,74817,2,0,P|317:220|321:268,1,88.000002685547,2|2,3:2|1:3,0:0:0:0:
448,349,75212,6,0,B|362:309|362:375|270:342,1,176.000005371094,4|2,3:1|3:2,0:0:0:0:
195,277,75804,1,2,1:3:0:0:
89,359,76001,1,0,3:0:0:0:
89,359,76100,1,0,3:0:0:0:
89,359,76198,1,0,3:0:0:0:
191,181,76396,1,10,0:0:0:0:
191,181,76494,1,8,0:0:0:0:
191,181,76593,1,2,1:3:0:0:
193,314,76791,1,2,3:2:0:0:
55,141,76988,5,4,3:1:0:0:
191,181,77185,2,0,P|193:131|194:71,2,88.000002685547,2|2|2,3:2|1:3|0:0,0:0:0:0:
175,206,77679,1,2,0:0:0:0:
175,206,77777,1,0,3:0:0:0:
106,63,77975,1,2,3:2:0:0:
28,232,78172,1,2,1:3:0:0:
122,47,78369,6,0,P|200:12|281:91,1,176.000005371094,6|2,3:2|3:2,0:0:0:0:
312,172,78962,1,2,1:3:0:0:
393,50,79159,1,0,3:0:0:0:
393,50,79258,1,0,3:0:0:0:
393,50,79356,1,0,3:0:0:0:
453,156,79554,1,10,0:0:0:0:
454,199,79652,1,8,0:0:0:0:
455,243,79751,1,10,0:0:0:0:
456,287,79850,1,8,0:0:0:0:
457,331,79948,6,0,B|402:305|402:305|342:343|273:306,1,191.999994140625,4|2,3:1|3:2,0:0:0:0:
335,212,80541,1,2,1:3:0:0:
199,355,80738,2,0,B|162:261|233:261|195:162,1,191.999994140625,4|10,3:2|0:0,0:0:0:0:
116,92,81330,1,10,0:0:0:0:
9,332,81527,6,0,P|21:255|124:215,1,191.999994140625,4|10,3:1|0:0,0:0:0:0:
278,308,82119,1,10,0:0:0:0:
208,82,82317,1,8,0:0:0:0:
101,309,82514,1,10,0:0:0:0:
221,59,82712,5,10,0:0:0:0:
260,33,82810,1,8,0:0:0:0:
308,30,82909,1,10,0:0:0:0:
350,51,83008,1,8,0:0:0:0:
377,90,83106,6,2,B|386:129|371:158|371:158|379:192|379:192|359:229|384:280,1,176.000005371094,4|0,3:1|3:0,0:1:0:0:
465,233,83698,1,2,1:3:0:0:
366,359,83896,2,2,P|411:356|456:312,1,88.000002685547,2|0,3:1|0:0,0:1:0:0:
376,261,84291,2,0,P|340:235|297:233,1,88.000002685547,0|2,3:0|1:3,0:0:0:0:
195,330,84685,6,2,B|142:353|142:353|83:334|80:235,1,176.000005371094,6|0,3:1|3:0,0:1:0:0:
171,236,85277,1,2,1:3:0:0:
32,174,85475,2,2,P|72:157|114:164,1,88.000002685547,2|0,3:1|0:0,0:1:0:0:
191,104,85869,2,0,P|233:111|273:94,1,88.000002685547,0|2,3:0|1:3,0:0:0:0:
147,20,86264,6,2,P|91:85|126:175,1,176.000005371094,6|0,3:1|3:0,0:1:0:0:
173,236,86856,1,2,1:3:0:0:
273,94,87054,1,2,3:1:0:0:
273,94,87152,1,0,3:0:0:0:
273,94,87251,2,0,P|318:97|380:105,1,88.000002685547,0|0,3:0|3:0,0:0:0:0:
456,123,87646,1,2,1:3:0:0:
438,262,87843,6,2,B|433:290|415:307|415:307|360:270|391:196,1,176.000005371094,4|0,3:2|3:0,0:1:0:0:
456,123,88435,1,2,1:3:0:0:
324,323,88633,2,2,B|292:274|307:206|307:206|292:227|260:237,1,176.000005371094,4|8,3:2|3:0,0:1:0:0:
175,192,89225,1,4,3:0:0:0:
120,351,89422,6,2,B|130:284|78:299|91:230,1,128,4|8,3:1|0:0,0:1:0:0:
96,199,89916,1,8,0:0:0:0:
100,167,90014,1,0,3:0:0:0:
264,29,90310,5,8,0:0:0:0:
264,29,90409,1,8,0:0:0:0:
260,188,90606,1,8,3:0:0:0:
388,284,90804,1,4,3:0:0:0:
465,72,91001,5,6,3:1:0:0:
256,192,91100,12,0,95935,0:0:0:0:
