osu file format v14

[General]
AudioFilename: audio.mp3
AudioLeadIn: 0
PreviewTime: -1
Countdown: 0
SampleSet: Normal
StackLeniency: 0.7
Mode: 0
LetterboxInBreaks: 0
WidescreenStoryboard: 0

[Editor]
DistanceSpacing: 0.8
BeatDivisor: 4
GridSize: 32
TimelineZoom: 1

[Metadata]
Title:Be Mine (Tharntype Ost)
TitleUnicode:Be Mine (Tharntype Ost)
Artist:Pop jirapat
ArtistUnicode:Pop jirapat
Creator:tesoui
Version:
Source:
Tags:
BeatmapID:2309356
BeatmapSetID:1104965

[Difficulty]
HPDrainRate:3
CircleSize:4
OverallDifficulty:6
ApproachRate:4
SliderMultiplier:1.5
SliderTickRate:1

[Events]
//Background and Video events
0,0,"64854320_370066043865452_2105939245389578240_o.jpg",0,0
Video,0,"y2mate.com - official_mv_osttharntype_the_series_GErIL_x2ucw_240p.mp4"
//Break Periods
2,3538,19604
2,72747,86897
2,125502,132079
2,140910,142917
//Storyboard Layer 0 (Background)
//Storyboard Layer 1 (Fail)
//Storyboard Layer 2 (Pass)
//Storyboard Layer 3 (Foreground)
//Storyboard Layer 4 (Overlay)
//Storyboard Sound Samples

[TimingPoints]
2816.63325355312,522.329589971272,4,1,0,100,1,0

[HitObjects]
105,268,2294,5,0,0:0:0:0:
126,150,2816,1,0,0:0:0:0:
239,97,3338,1,0,0:0:0:0:
105,284,20924,6,0,P|91:158|127:138,2,150
222,297,22491,1,0,0:0:0:0:
329,235,22926,1,0,0:0:0:0:
454,279,23579,1,0,0:0:0:0:
454,279,23709,6,0,P|456:205|391:165,1,150
231,117,24580,2,0,P|171:184|119:141,1,150
155,78,25276,1,0,0:0:0:0:
155,78,25407,1,0,0:0:0:0:
345,40,26669,5,0,0:0:0:0:
355,127,27192,2,0,P|423:182|436:221,1,100
392,265,27888,2,0,P|347:310|274:300,1,100
225,258,28410,1,0,0:0:0:0:
221,254,28584,1,0,0:0:0:0:
187,173,28933,2,0,L|187:96,1,50
306,52,29847,5,0,0:0:0:0:
306,52,29977,6,0,L|415:52,1,100
417,168,31196,1,0,0:0:0:0:
280,232,31544,1,0,0:0:0:0:
230,156,31718,2,0,P|163:195|192:276,2,150
308,80,33285,5,0,0:0:0:0:
386,82,33459,1,0,0:0:0:0:
303,308,33982,1,0,0:0:0:0:
417,271,34330,1,0,0:0:0:0:
374,163,34852,5,0,0:0:0:0:
374,163,35026,2,0,P|354:238|267:263,1,150
87,198,36768,2,0,P|110:95|180:72,1,150
142,76,37464,1,0,0:0:0:0:
225,97,37812,6,0,L|326:174,1,100
326,227,38335,2,0,L|208:278,1,100
272,328,38857,2,0,P|175:335|133:241,1,200
131,254,39640,1,0,0:0:0:0:
136,257,39771,1,0,0:0:0:0:
131,133,41469,5,0,0:0:0:0:
247,87,41643,1,0,0:0:0:0:
247,87,41991,2,0,P|359:158|379:215,1,150
426,210,42861,2,0,P|390:298|291:291,1,200
357,217,43819,5,0,0:0:0:0:
359,133,43950,1,0,0:0:0:0:
298,76,44211,2,0,P|191:42|152:87,1,150
117,115,44994,5,0,0:0:0:0:
117,115,45125,1,0,0:0:0:0:
87,194,45386,2,0,P|86:306|84:323,1,100
178,293,46039,1,0,0:0:0:0:
272,296,46169,1,0,0:0:0:0:
276,220,47214,1,0,0:0:0:0:
276,220,47388,6,0,L|276:116,1,100
173,121,48085,1,0,0:0:0:0:
173,121,48259,1,0,0:0:0:0:
83,139,48607,2,0,P|88:227|176:252,1,150
271,269,49478,2,0,P|377:263|437:159,2,200
169,77,52437,5,0,0:0:0:0:
101,186,52960,1,0,0:0:0:0:
184,298,53482,1,0,0:0:0:0:
266,308,53830,6,0,P|367:283|421:227,1,150
400,254,54527,1,0,0:0:0:0:
373,122,55049,5,0,0:0:0:0:
373,122,55223,1,0,0:0:0:0:
85,135,55571,2,0,P|125:63|164:52,1,100
136,52,56094,5,0,0:0:0:0:
261,56,56616,1,0,0:0:0:0:
261,56,56790,2,0,P|326:127|320:163,1,100
326,203,57487,2,0,L|327:291,1,50
213,290,58009,5,0,0:0:0:0:
90,289,58183,1,0,0:0:0:0:
46,213,58531,2,0,P|31:138|74:82,1,150
155,61,59228,1,0,0:0:0:0:
247,67,59576,6,0,L|406:64,1,150
313,272,60446,1,0,0:0:0:0:
191,280,60621,1,0,0:0:0:0:
175,209,60795,6,0,P|128:167|154:137,2,100
394,134,62188,1,0,0:0:0:0:
453,189,62536,2,0,P|491:245|448:337,1,150
461,317,63232,1,0,0:0:0:0:
376,325,63406,6,0,P|324:242|376:193,1,150
345,208,64103,1,0,0:0:0:0:
376,293,64277,2,0,P|457:220|454:152,1,150
387,120,64973,2,0,L|289:122,1,50
259,117,65496,5,0,0:0:0:0:
165,119,65670,1,0,0:0:0:0:
158,203,65844,2,0,L|157:317,2,100
223,339,67063,5,0,0:0:0:0:
363,174,67411,1,0,0:0:0:0:
292,115,67759,1,0,0:0:0:0:
214,146,67977,1,0,0:0:0:0:
202,242,68238,2,0,L|204:318,1,75
311,311,69152,5,0,0:0:0:0:
413,309,69413,1,0,0:0:0:0:
445,217,70066,2,0,P|480:144|443:112,1,112.5
468,126,70588,1,0,0:0:0:0:
359,105,71111,1,0,0:0:0:0:
256,81,71372,6,0,P|150:59|96:158,1,225
94,251,72417,1,0,0:0:0:0:
192,320,72547,1,0,0:0:0:0:
122,104,88217,5,0,0:0:0:0:
387,295,88609,1,0,0:0:0:0:
401,140,89523,1,0,0:0:0:0:
401,140,89784,2,0,P|277:58|180:82,1,225
113,107,90829,1,0,0:0:0:0:
57,201,91090,1,0,0:0:0:0:
165,257,91351,1,0,0:0:0:0:
258,278,91612,6,0,P|339:258|357:201,1,150
271,167,92265,2,0,P|245:98|315:56,1,150
296,55,92918,1,0,0:0:0:0:
91,69,93440,6,0,P|91:139|91:153,1,75
78,178,93832,2,0,P|26:243|106:296,1,187.5
196,296,94746,1,0,0:0:0:0:
195,203,95007,2,0,L|193:122,2,75
273,235,95660,2,0,L|274:322,1,75
424,131,96313,5,0,0:0:0:0:
424,131,96574,1,0,0:0:0:0:
344,86,96835,2,0,L|239:89,1,75
206,158,97358,1,0,0:0:0:0:
182,80,97488,2,0,P|73:133|98:207,1,187.5
226,280,98794,1,0,0:0:0:0:
315,279,98925,1,0,0:0:0:0:
314,189,99317,6,0,L|312:133,2,37.5
315,279,99839,1,0,0:0:0:0:
197,279,100100,1,0,0:0:0:0:
92,241,100492,2,0,P|70:197|83:168,1,75
147,120,100884,2,0,L|204:121,1,37.5
236,193,101275,2,0,L|289:193,1,37.5
316,117,101536,2,0,L|376:116,1,37.5
256,192,102059,12,0,104148,0:0:0:0:
441,183,104409,6,0,P|436:100|360:80,1,150
382,75,105062,1,0,0:0:0:0:
276,79,105584,2,0,P|181:63|156:76,1,112.5
221,141,106107,2,0,P|287:172|353:136,1,150
416,72,106890,1,0,0:0:0:0:
314,71,107151,6,0,L|206:72,1,75
225,99,107543,2,0,P|146:152|161:254,1,187.5
170,265,108327,1,0,0:0:0:0:
309,270,108588,2,0,L|394:270,2,75
210,250,109371,1,0,0:0:0:0:
281,177,109502,1,0,0:0:0:0:
401,47,110024,5,0,0:0:0:0:
455,123,110155,1,0,0:0:0:0:
387,158,110416,2,0,P|299:241|245:235,1,150
277,242,111069,1,0,0:0:0:0:
255,173,111330,6,0,P|369:138|409:258,1,262.5
299,297,112375,2,0,L|202:298,1,75
144,257,112897,2,0,L|80:193,1,75
90,203,113289,1,0,0:0:0:0:
115,121,113419,1,0,0:0:0:0:
216,93,113811,5,0,0:0:0:0:
291,102,114072,2,0,P|345:125|357:154,1,75
348,239,114595,1,0,0:0:0:0:
278,285,114725,2,0,P|296:334|357:334,1,112.5
420,290,115378,2,0,L|419:197,1,75
396,142,115900,1,0,0:0:0:0:
69,76,116945,5,0,0:0:0:0:
170,89,117206,2,0,P|247:120|246:161,1,112.5
172,192,117729,2,0,P|141:239|233:300,1,187.5
226,302,118512,1,0,0:0:0:0:
431,55,119557,5,0,0:0:0:0:
440,130,119687,2,0,P|427:181|380:203,1,75
323,163,120210,1,0,0:0:0:0:
247,107,120471,1,0,0:0:0:0:
174,160,120732,1,0,0:0:0:0:
70,176,120993,2,0,P|72:259|178:283,1,187.5
99,77,122299,5,0,0:0:0:0:
99,77,122430,1,0,0:0:0:0:
396,68,123083,2,0,P|449:101|440:158,1,112.5
374,167,123605,2,0,L|299:168,1,75
221,168,124258,2,0,P|206:230|252:262,1,112.5
320,264,124780,2,0,L|474:264,1,150
129,118,133399,5,0,0:0:0:0:
260,116,135488,1,0,0:0:0:0:
428,126,137838,1,0,0:0:0:0:
434,224,138491,1,0,0:0:0:0:
362,273,139144,1,0,0:0:0:0:
260,283,139405,2,0,P|169:273|120:188,2,187.5
241,290,144237,6,0,B|136:240|158:249,1,75
121,180,144890,1,0,0:0:0:0:
177,106,145151,1,0,0:0:0:0:
374,62,145934,6,0,P|419:84|426:112,1,75
381,215,146457,1,0,0:0:0:0:
244,316,147110,1,0,0:0:0:0:
170,230,147632,1,0,0:0:0:0:
219,111,148024,1,0,0:0:0:0:
354,92,148546,6,0,L|446:83,1,75
436,168,149068,1,0,0:0:0:0:
432,259,149460,2,0,P|396:289|359:272,1,75
279,239,149982,1,0,0:0:0:0:
277,145,150244,2,0,L|277:67,1,75
163,62,150766,2,0,P|95:65|56:103,1,112.5
205,281,151419,5,0,0:0:0:0:
341,183,151941,1,0,0:0:0:0:
331,92,152333,1,0,0:0:0:0:
81,191,152987,5,0,0:0:0:0:
88,181,153117,2,0,P|140:112|187:102,2,112.5
137,274,154162,1,0,0:0:0:0:
256,292,154292,1,0,0:0:0:0:
358,281,154684,2,0,P|476:233|498:170,1,187.5
496,184,155468,1,0,0:0:0:0:
443,102,155598,1,0,0:0:0:0:
356,98,155990,6,0,P|266:97|256:109,1,112.5
257,106,156512,1,0,0:0:0:0:
317,198,156904,1,0,0:0:0:0:
317,198,157035,2,0,P|316:262|228:286,1,150
152,254,157818,1,0,0:0:0:0:
152,254,157949,5,0,0:0:0:0:
114,149,158210,1,0,0:0:0:0:
114,149,158340,1,0,0:0:0:0:
205,87,158601,2,0,P|290:88|336:124,2,112.5
