osu file format v14

[General]
AudioFilename: audio.mp3
AudioLeadIn: 0
PreviewTime: 12418
Countdown: 0
SampleSet: Soft
StackLeniency: 0.7
Mode: 0
LetterboxInBreaks: 0
WidescreenStoryboard: 1

[Editor]
Bookmarks: 8418,16098,23778,31458,41058,48738,56418,64098,71778,87138,102498,117858,133218
DistanceSpacing: 1
BeatDivisor: 4
GridSize: 4
TimelineZoom: 2.3

[Metadata]
Title:$5 Subtweet
TitleUnicode:$5 Subtweet
Artist:Pool Kids
ArtistUnicode:Pool Kids
Creator:pishifat
Version:normal
Source:
Tags:flake music to practice safe sex to five dollar twitter english rock punk emo indie alternative
BeatmapID:3786630
BeatmapSetID:1581519

[Difficulty]
HPDrainRate:3.5
CircleSize:3
OverallDifficulty:4.5
ApproachRate:5.5
SliderMultiplier:1.3
SliderTickRate:1

[Events]
//Background and Video events
0,0,"71MrgeQo4rL._SL1200_.jpg",0,0
//Break Periods
//Storyboard Layer 0 (Background)
//Storyboard Layer 1 (Fail)
//Storyboard Layer 2 (Pass)
//Storyboard Layer 3 (Foreground)
//Storyboard Layer 4 (Overlay)
//Storyboard Sound Samples

[TimingPoints]
652,480,4,2,1,70,1,0
1012,-100,4,2,1,70,0,0
1072,-100,4,2,1,5,0,0
2572,-100,4,2,1,70,0,0
2932,-100,4,2,1,70,0,0
2992,-100,4,2,1,5,0,0
3172,-100,4,2,1,70,0,0
3232,-100,4,2,1,5,0,0
3412,-100,4,2,1,70,0,0
3472,-100,4,2,1,5,0,0
3532,-100,4,2,1,70,0,0
3612,-100,4,2,1,50,0,0
3772,-100,4,2,1,70,0,0
3852,-100,4,2,1,50,0,0
4012,-100,4,2,1,70,0,0
4092,-100,4,2,1,60,0,0
4492,-100,4,2,1,70,0,0
4852,-100,4,2,1,70,0,0
4912,-100,4,2,1,5,0,0
4972,-100,4,2,1,70,0,0
6772,-100,4,2,1,70,0,0
6832,-100,4,2,1,5,0,0
6892,-100,4,2,1,70,0,0
8452,-100,4,2,1,65,0,0
8812,-100,4,2,1,62,0,0
9292,-100,4,2,1,62,0,0
9772,-100,4,2,1,62,0,0
10252,-100,4,2,1,62,0,0
10732,-100,4,2,1,62,0,0
10972,-100,4,2,1,62,0,0
11212,-100,4,2,1,62,0,0
12172,-100,4,2,1,62,0,0
12652,-100,4,2,1,62,0,0
12892,-100,4,2,1,62,0,0
13132,-100,4,2,1,62,0,0
13852,-100,4,2,1,62,0,0
14092,-100,4,2,1,62,0,0
14572,-100,4,2,1,62,0,0
14812,-100,4,2,1,62,0,0
16012,-100,4,2,1,70,0,0
16372,-100,4,2,1,70,0,0
16432,-100,4,2,1,5,0,0
16492,-100,4,2,1,70,0,0
18292,-100,4,2,1,70,0,0
18352,-100,4,2,1,5,0,0
18532,-100,4,2,1,70,0,0
18592,-100,4,2,1,5,0,0
18772,-100,4,2,1,70,0,0
18832,-100,4,2,1,5,0,0
18892,-100,4,2,1,70,0,0
18972,-100,4,2,1,60,0,0
19372,-100,4,2,1,70,0,0
19452,-100,4,2,1,60,0,0
19852,-100,4,2,1,70,0,0
20212,-100,4,2,1,70,0,0
20272,-100,4,2,1,5,0,0
20332,-100,4,2,1,70,0,0
22132,-100,4,2,1,70,0,0
22192,-100,4,2,1,5,0,0
22252,-100,4,2,1,60,0,0
23692,-100,4,2,1,65,0,0
24172,-100,4,2,1,65,0,0
24652,-100,4,2,1,65,0,0
25132,-100,4,2,1,65,0,0
25612,-100,4,2,1,65,0,0
29092,-100,4,2,1,65,0,0
29452,-100,4,2,1,65,0,0
30412,-100,4,2,1,65,0,0
30652,-100,4,2,1,65,0,0
31372,-100,4,2,1,61,0,0
31492,-100,4,2,1,61,0,0
32812,-100,4,2,1,71,0,0
33292,-100,4,2,1,61,0,0
34732,-100,4,2,1,71,0,0
35212,-100,4,2,1,61,0,0
35692,-100,4,2,1,61,0,0
35932,-100,4,2,1,61,0,0
36652,-100,4,2,1,71,0,0
37132,-100,4,2,1,61,0,0
37612,-100,4,2,1,61,0,0
37852,-100,4,2,1,61,0,0
38572,-100,4,2,1,71,0,0
39052,-100,4,2,1,60,0,0
39852,-100,4,2,1,40,0,0
40252,-100,4,2,1,45,0,0
40972,-100,4,2,1,61,0,1
41452,-100,4,2,1,61,0,1
41692,-100,4,2,1,61,0,1
42412,-100,4,2,1,61,0,1
42772,-100,4,2,1,61,0,1
43132,-100,4,2,1,61,0,1
43372,-100,4,2,1,61,0,1
43612,-100,4,2,1,61,0,1
43852,-100,4,2,1,61,0,1
44572,-100,4,2,1,61,0,1
44812,-100,4,2,1,61,0,1
45532,-100,4,2,1,61,0,1
46252,-100,4,2,1,61,0,1
46612,-100,4,2,1,61,0,1
46972,-100,4,2,1,61,0,1
47212,-100,4,2,1,61,0,1
47692,-100,4,2,1,55,0,0
48652,-100,4,2,1,61,0,1
49372,-100,4,2,1,61,0,1
50092,-100,4,2,1,61,0,1
50452,-100,4,2,1,61,0,1
50812,-100,4,2,1,61,0,1
51052,-100,4,2,1,61,0,1
51292,-100,4,2,1,61,0,1
51532,-100,4,2,1,61,0,1
52252,-100,4,2,1,61,0,1
52492,-100,4,2,1,61,0,1
53212,-100,4,2,1,61,0,1
53932,-100,4,2,1,61,0,1
54172,-100,4,2,1,61,0,1
54412,-100,4,2,1,61,0,1
54492,-100,4,2,1,55,0,1
54652,-100,4,2,1,61,0,1
54732,-100,4,2,1,55,0,1
54892,-100,4,2,1,61,0,1
54972,-100,4,2,1,55,0,1
55372,-100,4,2,1,61,0,0
56332,-100,4,2,1,61,0,1
56572,-100,4,2,1,61,0,1
57052,-100,4,2,1,61,0,1
57412,-100,4,2,1,61,0,1
57772,-100,4,2,1,61,0,1
58012,-100,4,2,1,61,0,1
58492,-100,4,2,1,61,0,1
58732,-100,4,2,1,61,0,1
58972,-100,4,2,1,61,0,1
59692,-100,4,2,1,61,0,1
59932,-100,4,2,1,61,0,1
60172,-100,4,2,1,61,0,1
60412,-100,4,2,1,61,0,1
60892,-100,4,2,1,61,0,1
61252,-100,4,2,1,61,0,1
61612,-100,4,2,1,61,0,1
61852,-100,4,2,1,61,0,1
62332,-100,4,2,1,61,0,1
62572,-100,4,2,1,61,0,1
62812,-100,4,2,1,61,0,1
63052,-100,4,2,1,30,0,0
64012,-100,4,2,1,61,0,1
64492,-100,4,2,1,61,0,1
64732,-100,4,2,1,61,0,1
65452,-100,4,2,1,61,0,1
65812,-100,4,2,1,61,0,1
66172,-100,4,2,1,61,0,1
66412,-100,4,2,1,61,0,1
66652,-100,4,2,1,61,0,1
66892,-100,4,2,1,61,0,1
67612,-100,4,2,1,61,0,1
67852,-100,4,2,1,61,0,1
68572,-100,4,2,1,61,0,1
69292,-100,4,2,1,61,0,1
69652,-100,4,2,1,61,0,1
70012,-100,4,2,1,61,0,1
70252,-100,4,2,1,61,0,1
70492,-100,4,2,1,61,0,1
70732,-100,4,2,1,31,0,0
71692,-150.01500150015,4,2,1,55,0,1
71932,-150.01500150015,4,2,1,50,0,0
72652,-150.01500150015,4,2,1,44,0,0
73072,-150.01500150015,4,2,1,5,0,0
73132,-150.01500150015,4,2,1,44,0,0
76912,-150.01500150015,4,2,1,5,0,0
76972,-150.01500150015,4,2,1,44,0,0
80752,-150.01500150015,4,2,1,5,0,0
80812,-150.01500150015,4,2,1,44,0,0
84592,-150.01500150015,4,2,1,5,0,0
84652,-150.01500150015,4,2,1,45,0,0
88432,-150.01500150015,4,2,1,5,0,0
88492,-150.01500150015,4,2,1,45,0,0
92272,-150.01500150015,4,2,1,5,0,0
92332,-150.01500150015,4,2,1,45,0,0
96112,-150.01500150015,4,2,1,5,0,0
96172,-150.01500150015,4,2,1,45,0,0
99952,-150.01500150015,4,2,1,5,0,0
100012,-150.01500150015,4,2,1,45,0,0
101442,468.75,4,2,1,45,1,0
101442,-150.000015000001,4,2,1,45,0,0
102892,480,4,2,1,45,1,0
103792,-150.01500150015,4,2,1,5,0,0
104332,480,4,2,1,45,1,0
104332,-150.01500150015,4,2,1,45,0,0
107692,-150.01500150015,4,2,1,45,0,0
111472,-150.01500150015,4,2,1,5,0,0
111532,-150.01500150015,4,2,1,45,0,0
115312,-150.01500150015,4,2,1,5,0,0
115372,-150.01500150015,4,2,1,45,0,0
119152,-150.01500150015,4,2,1,5,0,0
119212,-150.01500150015,4,2,1,45,0,0
122992,-150.01500150015,4,2,1,5,0,0
123052,-150.01500150015,4,2,1,45,0,0
126832,-150.01500150015,4,2,1,5,0,0
126892,-150.01500150015,4,2,1,45,0,0
130672,-150.01500150015,4,2,1,5,0,0
130732,-150.01500150015,4,2,1,45,0,0

[Colours]
Combo1 : 114,82,131
Combo2 : 0,128,255
Combo3 : 128,128,192
Combo4 : 0,128,192

[HitObjects]
135,70,652,6,0,B|150:97|150:97|228:115,1,97.5,8|8,0:0|0:0,0:0:0:0:
151,59,2572,6,0,B|166:86|166:86|244:104,1,97.5,8|8,0:0|0:0,0:0:0:0:
285,78,3172,2,0,L|397:104,1,97.5,8|8,0:0|0:3,0:0:0:0:
419,143,3772,2,0,L|485:124,2,65,8|4|4,0:3|0:3|0:3,0:0:0:0:
383,189,4492,6,0,B|362:216|362:216|388:302,1,97.5,8|8,0:0|0:0,0:0:0:0:
396,198,6412,6,0,B|375:225|375:225|401:311,1,97.5,8|8,0:0|0:0,0:0:0:0:
401,294,7852,1,8,0:0:0:0:
401,294,8092,1,8,0:0:0:0:
401,294,8332,6,0,P|350:303|260:336,1,130,4|8,0:3|0:0,0:0:0:0:
173,384,9292,2,0,L|162:300,1,65,4|2,0:3|0:3,0:0:0:0:
119,282,9772,1,8,0:0:0:0:
119,282,10012,2,0,L|150:126,1,130,2|0,0:3|0:0,0:0:0:0:
109,107,10732,1,8,0:0:0:0:
222,78,11212,2,0,P|257:113|301:127,2,97.5,6|2|2,0:3|0:3|0:3,0:0:0:0:
200,23,12172,5,6,0:3:0:0:
316,23,12652,2,0,L|403:8,1,65,8|2,0:0|0:3,0:0:0:0:
438,17,13132,2,0,L|490:70,1,65,6|0,0:3|0:0,0:0:0:0:
501,119,13612,2,0,L|486:206,1,65,8|2,0:0|0:3,0:0:0:0:
471,298,14332,1,0,0:0:0:0:
413,307,14572,1,8,0:0:0:0:
355,317,14812,1,2,0:3:0:0:
275,231,15292,2,0,L|264:145,2,65,2|10|2,0:3|0:0|0:0,0:0:0:0:
230,268,16012,6,0,B|203:246|203:246|120:259,1,97.5,8|8,0:0|0:0,0:0:0:0:
223,284,17932,6,0,B|196:262|196:262|113:275,1,97.5,8|8,0:0|0:0,0:0:0:0:
100,319,18532,2,0,L|-18:337,1,97.5,8|8,0:0|0:0,0:0:0:0:
39,222,19372,1,4,0:3:0:0:
21,106,19852,6,0,B|38:131|38:131|129:149,1,97.5,8|8,0:0|0:0,0:0:0:0:
33,94,21772,6,0,B|50:119|50:119|141:137,1,97.5,8|8,0:0|0:0,0:0:0:0:
116,132,23212,1,8,0:0:0:0:
199,50,23692,6,0,P|277:67|316:118,1,130,4|2,0:1|0:3,0:0:0:0:
337,159,24412,1,10,0:0:0:0:
337,159,24652,1,8,0:0:0:0:
337,159,24892,2,0,P|240:155|188:257,1,195,8|4,0:0|0:1,0:0:0:0:
195,286,25852,1,8,0:0:0:0:
298,339,26332,5,8,0:0:0:0:
337,382,26572,2,0,L|477:359,1,130,8|6,0:0|0:3,0:0:0:0:
509,322,27292,2,0,P|518:270|479:199,1,130,2|8,0:0|0:0,0:0:0:0:
369,183,28252,1,8,0:0:0:0:
360,125,28492,2,0,L|347:48,1,65,10|8,0:0|0:0,0:0:0:0:
383,13,28972,2,0,P|452:39|478:65,2,97.5,8|8|8,0:0|0:0|0:0,0:0:0:0:
266,22,30172,1,8,0:0:0:0:
266,22,30412,2,0,L|199:32,1,65,6|8,0:3|0:0,0:0:0:0:
145,15,30892,2,0,P|123:45|123:100,1,65,2|2,0:0|0:0,0:0:0:0:
136,127,31372,6,0,L|29:148,1,97.5,6|2,0:3|0:0,0:0:0:0:
33,233,32092,2,0,L|128:214,1,97.5,6|2,0:3|0:0,0:0:0:0:
207,252,32812,2,0,P|186:283|181:317,1,65,8|2,0:0|0:0,0:0:0:0:
223,350,33292,6,0,L|331:371,1,97.5,6|2,0:3|0:0,0:0:0:0:
308,281,34012,2,0,L|403:299,1,97.5,6|2,0:3|0:0,0:0:0:0:
461,233,34732,2,0,P|440:213|427:163,1,65,10|2,0:0|0:0,0:0:0:0:
446,124,35212,6,0,P|460:84|387:34,1,130,6|10,0:3|0:0,0:0:0:0:
348,55,35932,1,2,0:0:0:0:
348,55,36172,2,0,L|268:41,1,65,6|2,0:3|0:0,0:0:0:0:
236,9,36652,2,0,P|234:83|171:97,1,130,10|6,0:0|0:3,0:0:0:0:
83,52,37612,6,0,L|68:135,1,65,10|2,0:0|0:0,0:0:0:0:
103,164,38092,2,0,L|119:229,1,65,6|2,0:3|0:0,0:0:0:0:
169,256,38572,2,0,L|219:314,1,65,10|2,0:0|0:0,0:0:0:0:
266,326,39052,6,0,P|174:304|86:45,1,390,4|4,0:1|0:3,0:0:0:0:
193,12,40972,5,4,0:1:0:0:
272,98,41452,2,0,B|296:79|296:79|349:71,1,65,8|4,0:0|0:3,0:0:0:0:
388,66,41932,1,0,0:0:0:0:
431,174,42412,2,0,L|362:189,1,65,8|0,0:0|0:0,0:0:0:0:
330,232,42892,2,0,B|344:265|344:265|337:309,1,65,0|6,0:0|0:3,0:0:0:0:
297,335,43372,1,10,0:0:0:0:
203,264,43852,2,0,L|76:246,2,97.5,6|2|4,0:3|0:3|0:3,0:0:0:0:
242,221,44812,1,4,0:1:0:0:
152,145,45292,6,0,L|144:81,2,65,8|4|0,0:0|0:3|0:0,0:0:0:0:
39,176,46252,1,8,0:0:0:0:
16,230,46492,1,0,0:0:0:0:
48,278,46732,2,0,B|80:285|80:285|117:314,1,65,0|6,0:0|0:3,0:0:0:0:
125,359,47212,1,10,0:0:0:0:
229,305,47692,2,0,L|314:284,1,65,8|8,0:3|0:3,0:0:0:0:
342,319,48172,2,0,L|427:298,1,65,8|4,0:0|0:3,0:0:0:0:
457,329,48652,5,4,0:1:0:0:
489,221,49132,1,8,0:0:0:0:
373,200,49612,2,0,B|358:170|358:170|365:129,1,65,0|0,0:0|0:0,0:0:0:0:
378,82,50092,2,0,B|284:71,1,65,8|0,0:0|0:0,0:0:0:0:
198,54,50812,6,0,L|207:118,1,65,6|10,0:3|0:0,0:0:0:0:
170,163,51292,1,4,0:3:0:0:
116,155,51532,1,6,0:3:0:0:
116,155,51772,2,0,L|99:67,1,65,0|8,0:0|0:0,0:0:0:0:
52,63,52252,2,0,B|25:86|25:86|17:130,1,65,4|4,0:3|0:1,0:0:0:0:
12,231,52972,5,8,0:0:0:0:
36,345,53452,1,0,0:0:0:0:
125,272,53932,2,0,L|200:291,2,65,8|4|8,0:0|0:3|0:3,0:0:0:0:
209,191,54892,1,4,0:3:0:0:
260,218,55132,1,4,0:3:0:0:
284,271,55372,1,8,0:0:0:0:
395,235,55852,1,0,0:0:0:0:
456,332,56332,6,0,B|396:179|480:234|417:80,1,260,4|12,0:1|0:0,0:0:0:0:
319,16,57772,2,0,L|237:29,2,65,4|2|4,0:3|0:3|0:0,0:0:0:0:
250,142,58732,6,0,P|217:138|184:123,1,65,6|4,0:3|0:3,0:0:0:0:
151,79,59212,1,12,0:0:0:0:
151,79,59452,2,0,L|120:219,1,130,2|6,0:3|0:3,0:0:0:0:
77,243,60172,6,0,B|224:220|162:322|344:299,1,260,4|12,0:1|0:0,0:0:0:0:
382,201,61612,2,0,L|370:136,2,65,6|6|4,0:3|0:3|0:0,0:0:0:0:
488,262,62572,1,4,0:3:0:0:
488,262,62812,2,0,P|505:291|513:331,1,65,4|0,0:3|0:0,0:0:0:0:
512,321,64012,5,4,0:1:0:0:
393,359,64492,1,8,0:0:0:0:
393,359,64732,1,4,0:3:0:0:
393,359,64972,2,0,B|357:343|357:343|335:300,1,65
327,264,65452,2,0,B|336:229|336:229|362:210,1,65,8|0,0:0|0:0,0:0:0:0:
411,186,65932,1,0,0:0:0:0:
367,77,66412,2,0,L|295:66,1,65,10|6,0:0|0:3,0:0:0:0:
245,53,66892,1,6,0:3:0:0:
156,129,67372,1,8,0:0:0:0:
39,125,67852,6,0,B|35:160|35:160|59:209,1,65,4|0,0:1|0:0,0:0:0:0:
126,274,68572,2,0,L|195:258,2,65,4|0|0,0:3|0:0|0:0,0:0:0:0:
69,289,69292,1,8,0:0:0:0:
322,341,70252,2,0,B|350:360|350:360|401:365,2,65,10|10|0,0:0|0:3|0:0,0:0:0:0:
322,341,71692,5,4,0:0:0:0:
7,291,72652,1,8,0:0:0:0:
7,291,73612,2,0,P|22:250|25:203,1,86.6580012191571,6|4,0:3|0:3,0:0:0:0:
65,130,74572,2,0,P|142:112|159:115,1,86.6580012191571,8|4,0:0|0:3,0:0:0:0:
187,131,75292,1,4,0:3:0:0:
210,167,75532,5,4,0:3:0:0:
154,233,76012,1,4,0:3:0:0:
185,313,76492,1,8,0:0:0:0:
185,313,77452,2,0,P|219:291|277:290,1,86.6580012191571,6|4,0:3|0:3,0:0:0:0:
300,309,78172,1,2,0:3:0:0:
331,338,78412,2,0,L|324:396,2,43.3290006095785,8|2|4,0:0|0:3|0:3,0:0:0:0:
375,326,79132,1,4,0:3:0:0:
375,326,79372,6,0,P|402:287|407:236,1,86.6580012191571,4|4,0:3|0:3,0:0:0:0:
375,168,80332,1,8,0:0:0:0:
375,168,81292,2,0,L|362:73,1,86.6580012191571,6|4,0:3|0:3,0:0:0:0:
277,91,82252,2,0,L|289:194,1,86.6580012191571,8|4,0:0|0:3,0:0:0:0:
257,209,82972,1,4,0:3:0:0:
257,209,83212,5,4,0:3:0:0:
174,235,83692,1,4,0:3:0:0:
112,174,84172,2,0,P|100:108|82:78,1,86.6580012191571,10|6,0:0|0:3,0:0:0:0:
156,34,85132,2,0,P|225:63|250:61,1,86.6580012191571,6|4,0:3|0:3,0:0:0:0:
273,43,85852,2,0,L|324:37,1,43.3290006095785,2|8,0:3|0:0,0:0:0:0:
351,63,86332,2,0,L|342:121,2,43.3290006095785,8|8|8,0:3|0:3|0:3,0:0:0:0:
392,49,87052,5,4,0:2:0:0:
493,367,88012,1,8,0:0:0:0:
493,367,88972,2,0,P|479:326|447:297,1,86.6580012191571,6|4,0:3|0:3,0:0:0:0:
391,232,89932,2,0,P|347:230|309:250,1,86.6580012191571,8|4,0:0|0:3,0:0:0:0:
292,290,90652,1,4,0:3:0:0:
292,290,90892,6,0,L|306:349,2,43.3290006095785,4|2|6,0:3|0:3|0:3,0:0:0:0:
337,216,91852,1,8,0:0:0:0:
275,155,92332,1,6,0:3:0:0:
226,226,92812,2,0,P|161:201|145:179,1,86.6580012191571,6|4,0:3|0:3,0:0:0:0:
120,158,93532,2,0,L|125:107,2,43.3290006095785,2|8|2,0:3|0:0|0:3,0:0:0:0:
77,166,94252,2,0,P|46:188|34:210,1,43.3290006095785,4|4,0:3|0:3,0:0:0:0:
23,230,94732,5,4,0:3:0:0:
46,315,95212,1,4,0:3:0:0:
125,348,95692,1,8,0:0:0:0:
125,348,96652,2,0,L|227:327,1,86.6580012191571,6|4,0:3|0:3,0:0:0:0:
272,271,97612,2,0,L|359:251,1,86.6580012191571,8|6,0:0|0:3,0:0:0:0:
403,247,98332,1,6,0:3:0:0:
403,247,98572,5,6,0:3:0:0:
455,178,99052,1,6,0:3:0:0:
471,92,99532,1,8,0:0:0:0:
455,6,100012,2,0,L|402:-2,2,43.3290006095785,6|4|2,0:3|0:3|0:3,0:0:0:0:
241,19,101442,6,0,L|234:72,1,43.3290006095785,8|8,0:3|0:3,0:0:0:0:
262,95,101910,2,0,L|315:110,1,43.3290006095785,8|8,0:3|0:3,0:0:0:0:
339,83,102379,5,4,0:0:0:0:
19,241,103372,1,8,0:0:0:0:
19,241,104332,2,0,P|60:250|93:278,1,86.6580012191571,6|4,0:3|0:3,0:0:0:0:
157,337,105292,1,8,0:0:0:0:
230,291,105772,1,4,0:3:0:0:
230,291,106012,1,4,0:3:0:0:
230,291,106252,6,0,L|242:233,2,43.3290006095785,4|2|6,0:3|0:3|0:3,0:0:0:0:
289,353,107212,1,8,0:0:0:0:
374,341,107692,1,6,0:3:0:0:
458,321,108172,2,0,P|481:280|487:222,1,86.6580012191571,6|4,0:3|0:3,0:0:0:0:
462,207,108892,2,0,L|402:222,1,43.3290006095785,2|8,0:3|0:0,0:0:0:0:
384,203,109372,1,2,0:3:0:0:
384,203,109612,2,0,L|324:193,1,43.3290006095785,4|4,0:3|0:3,0:0:0:0:
300,179,110092,5,4,0:3:0:0:
215,197,110572,1,4,0:3:0:0:
151,138,111052,1,8,0:0:0:0:
151,138,112012,2,0,P|155:86|178:43,1,86.6580012191571,6|6,0:3|0:3,0:0:0:0:
247,17,112972,1,8,0:0:0:0:
323,57,113452,2,0,L|377:47,1,43.3290006095785,6|0,0:3|0:0,0:0:0:0:
398,20,113932,6,0,P|411:72|440:103,1,86.6580012191571,4|6,0:3|0:3,0:0:0:0:
510,132,114892,1,8,0:0:0:0:
510,132,115852,2,0,B|493:227,3,86.6580012191571,2|8|8|4,0:3|0:0|0:3|0:3,0:0:0:0:
487,259,117532,1,4,0:3:0:0:
478,301,117772,5,4,0:0:0:0:
185,186,118732,1,8,0:0:0:0:
185,186,119692,2,0,P|244:162|279:163,1,86.6580012191571,10|4,0:3|0:3,0:0:0:0:
350,182,120652,2,0,P|380:114|380:83,1,86.6580012191571,8|4,0:0|0:3,0:0:0:0:
352,70,121372,1,4,0:3:0:0:
352,70,121612,6,0,L|251:60,1,86.6580012191571,4|6,0:3|0:3,0:0:0:0:
183,88,122572,1,8,0:0:0:0:
158,171,123052,1,4,0:3:0:0:
200,246,123532,2,0,P|240:248|289:281,1,86.6580012191571,2|4,0:3|0:3,0:0:0:0:
302,307,124252,2,0,L|293:359,1,43.3290006095785,2|8,0:3|0:0,0:0:0:0:
256,365,124732,1,2,0:3:0:0:
256,365,124972,2,0,L|198:373,1,43.3290006095785,4|4,0:3|0:3,0:0:0:0:
169,375,125452,5,4,0:3:0:0:
84,357,125932,1,4,0:3:0:0:
0,341,126412,1,8,0:0:0:0:
0,341,127372,2,0,L|11:240,1,86.6580012191571,6|4,0:3|0:3,0:0:0:0:
69,189,128332,2,0,L|59:102,1,86.6580012191571,8|4,0:0|0:3,0:0:0:0:
65,63,129052,1,4,0:3:0:0:
65,63,129292,6,0,P|125:79|166:74,1,86.6580012191571,4|4,0:3|0:3,0:0:0:0:
222,31,130252,1,8,0:0:0:0:
307,19,130732,1,6,0:3:0:0:
389,45,131212,1,4,0:3:0:0:
421,74,131452,1,8,0:0:0:0:
440,112,131692,1,8,0:0:0:0:
456,197,132172,1,8,0:3:0:0:
432,280,132652,5,8,0:3:0:0:
472,294,132892,1,4,0:3:0:0:
512,307,133132,1,4,0:1:0:0:
