osu file format v14

[General]
AudioFilename: audio.mp3
AudioLeadIn: 0
PreviewTime: 12418
Countdown: 0
SampleSet: Soft
StackLeniency: 0.2
Mode: 0
LetterboxInBreaks: 0
WidescreenStoryboard: 0

[Editor]
Bookmarks: 8418,16098,23778,31458,41058,48738,56418,64098,71778,87138,102498,117858,133218
DistanceSpacing: 1.9
BeatDivisor: 4
GridSize: 4
TimelineZoom: 2.3

[Metadata]
Title:$5 Subtweet
TitleUnicode:$5 Subtweet
Artist:Pool Kids
ArtistUnicode:Pool Kids
Creator:pishifat
Version:expert
Source:
Tags:flake music to practice safe sex to five dollar twitter english rock punk emo indie alternative
BeatmapID:3229409
BeatmapSetID:1581519

[Difficulty]
HPDrainRate:6
CircleSize:3.2
OverallDifficulty:8.5
ApproachRate:9
SliderMultiplier:2
SliderTickRate:1

[Events]
//Background and Video events
0,0,"71MrgeQo4rL._SL1200_.jpg",0,0
//Break Periods
//Storyboard Layer 0 (Background)
//Storyboard Layer 1 (Fail)
//Storyboard Layer 2 (Pass)
//Storyboard Layer 3 (Foreground)
//Storyboard Layer 4 (Overlay)
//Storyboard Sound Samples

[TimingPoints]
652,480,4,2,1,70,1,0
1012,-33.3333333333333,4,2,1,70,0,0
1072,-33.3333333333333,4,2,1,5,0,0
2572,-33.3333333333333,4,2,1,70,0,0
2932,-33.3333333333333,4,2,1,70,0,0
2992,-33.3333333333333,4,2,1,5,0,0
3172,-33.3333333333333,4,2,1,70,0,0
3232,-33.3333333333333,4,2,1,5,0,0
3412,-33.3333333333333,4,2,1,70,0,0
3472,-33.3333333333333,4,2,1,5,0,0
3532,-66.6666666666667,4,2,1,70,0,0
3612,-66.6666666666667,4,2,1,50,0,0
3772,-66.6666666666667,4,2,1,70,0,0
3852,-66.6666666666667,4,2,1,50,0,0
4012,-66.6666666666667,4,2,1,70,0,0
4092,-66.6666666666667,4,2,1,60,0,0
4492,-66.6666666666667,4,2,1,70,0,0
4852,-33.3333333333333,4,2,1,70,0,0
4912,-33.3333333333333,4,2,1,5,0,0
4972,-33.3333333333333,4,2,1,70,0,0
6772,-33.3333333333333,4,2,1,70,0,0
6832,-33.3333333333333,4,2,1,5,0,0
6892,-33.3333333333333,4,2,1,70,0,0
8452,-80,4,2,1,65,0,0
8812,-57.1428571428571,4,2,1,62,0,0
9292,-80,4,2,1,62,0,0
9772,-57.1428571428571,4,2,1,62,0,0
10252,-66.6666666666667,4,2,1,62,0,0
10732,-57.1428571428571,4,2,1,62,0,0
10972,-80,4,2,1,62,0,0
11212,-66.6666666666667,4,2,1,62,0,0
12172,-80,4,2,1,62,0,0
12652,-57.1428571428571,4,2,1,62,0,0
12892,-80,4,2,1,62,0,0
13132,-66.6666666666667,4,2,1,62,0,0
13852,-80,4,2,1,62,0,0
14092,-66.6666666666667,4,2,1,62,0,0
14572,-57.1428571428571,4,2,1,62,0,0
14812,-80,4,2,1,62,0,0
16012,-80,4,2,1,70,0,0
16372,-33.3333333333333,4,2,1,70,0,0
16432,-33.3333333333333,4,2,1,5,0,0
16492,-33.3333333333333,4,2,1,70,0,0
18292,-33.3333333333333,4,2,1,70,0,0
18352,-33.3333333333333,4,2,1,5,0,0
18532,-33.3333333333333,4,2,1,70,0,0
18592,-33.3333333333333,4,2,1,5,0,0
18772,-33.3333333333333,4,2,1,70,0,0
18832,-33.3333333333333,4,2,1,5,0,0
18892,-33.3333333333333,4,2,1,70,0,0
18972,-33.3333333333333,4,2,1,60,0,0
19372,-33.3333333333333,4,2,1,70,0,0
19452,-33.3333333333333,4,2,1,60,0,0
19852,-33.3333333333333,4,2,1,70,0,0
20212,-33.3333333333333,4,2,1,70,0,0
20272,-33.3333333333333,4,2,1,5,0,0
20332,-33.3333333333333,4,2,1,70,0,0
22132,-33.3333333333333,4,2,1,70,0,0
22192,-33.3333333333333,4,2,1,5,0,0
22252,-33.3333333333333,4,2,1,60,0,0
23692,-57.1428571428571,4,2,1,65,0,0
24172,-80,4,2,1,65,0,0
24652,-57.1428571428571,4,2,1,65,0,0
25132,-100,4,2,1,65,0,0
25612,-57.1428571428571,4,2,1,65,0,0
29092,-100,4,2,1,65,0,0
29452,-57.1428571428571,4,2,1,65,0,0
30412,-66.6666666666667,4,2,1,65,0,0
30652,-80,4,2,1,65,0,0
31372,-80,4,2,1,61,0,0
31492,-100,4,2,1,61,0,0
32812,-100,4,2,1,71,0,0
33292,-100,4,2,1,61,0,0
34732,-100,4,2,1,71,0,0
35212,-100,4,2,1,61,0,0
35692,-75.0187546886722,4,2,1,61,0,0
35932,-100,4,2,1,61,0,0
36652,-100,4,2,1,71,0,0
37132,-100,4,2,1,61,0,0
37612,-75.187969924812,4,2,1,61,0,0
37852,-100,4,2,1,61,0,0
38572,-100,4,2,1,71,0,0
39052,-166.666666666667,4,2,1,60,0,0
39852,-166.666666666667,4,2,1,40,0,0
40252,-166.666666666667,4,2,1,45,0,0
40972,-66.6666666666667,4,2,1,61,0,1
41452,-66.6666666666667,4,2,1,61,0,1
41692,-100,4,2,1,61,0,1
42412,-66.6666666666667,4,2,1,61,0,1
42772,-100,4,2,1,61,0,1
43132,-80,4,2,1,61,0,1
43372,-66.6666666666667,4,2,1,61,0,1
43612,-80,4,2,1,61,0,1
43852,-66.6666666666667,4,2,1,61,0,1
44572,-100,4,2,1,61,0,1
44812,-66.6666666666667,4,2,1,61,0,1
45532,-100,4,2,1,61,0,1
46252,-66.6666666666667,4,2,1,61,0,1
46612,-100,4,2,1,61,0,1
46972,-80,4,2,1,61,0,1
47212,-66.6666666666667,4,2,1,61,0,1
47692,-100,4,2,1,55,0,0
48652,-66.6666666666667,4,2,1,61,0,1
49372,-100,4,2,1,61,0,1
50092,-66.6666666666667,4,2,1,61,0,1
50452,-100,4,2,1,61,0,1
50812,-80,4,2,1,61,0,1
51052,-66.6666666666667,4,2,1,61,0,1
51292,-80,4,2,1,61,0,1
51532,-66.6666666666667,4,2,1,61,0,1
52252,-100,4,2,1,61,0,1
52492,-66.6666666666667,4,2,1,61,0,1
53212,-100,4,2,1,61,0,1
53932,-66.6666666666667,4,2,1,61,0,1
54172,-80,4,2,1,61,0,1
54412,-80,4,2,1,61,0,1
54492,-80,4,2,1,55,0,1
54652,-100,4,2,1,61,0,1
54732,-100,4,2,1,55,0,1
54892,-100,4,2,1,61,0,1
54972,-100,4,2,1,55,0,1
55372,-100,4,2,1,61,0,0
56332,-80,4,2,1,61,0,1
56572,-100,4,2,1,61,0,1
57052,-80,4,2,1,61,0,1
57412,-100,4,2,1,61,0,1
57772,-80,4,2,1,61,0,1
58012,-100,4,2,1,61,0,1
58492,-80,4,2,1,61,0,1
58732,-100,4,2,1,61,0,1
58972,-133.333333333333,4,2,1,61,0,1
59692,-100,4,2,1,61,0,1
59932,-80,4,2,1,61,0,1
60172,-80,4,2,1,61,0,1
60412,-100,4,2,1,61,0,1
60892,-80,4,2,1,61,0,1
61252,-100,4,2,1,61,0,1
61612,-80,4,2,1,61,0,1
61852,-100,4,2,1,61,0,1
62332,-100,4,2,1,61,0,1
62572,-80,4,2,1,61,0,1
62812,-66.6666666666667,4,2,1,61,0,1
63052,-66.6666666666667,4,2,1,30,0,0
64012,-66.6666666666667,4,2,1,61,0,1
64492,-66.6666666666667,4,2,1,61,0,1
64732,-100,4,2,1,61,0,1
65452,-66.6666666666667,4,2,1,61,0,1
65812,-100,4,2,1,61,0,1
66172,-80,4,2,1,61,0,1
66412,-66.6666666666667,4,2,1,61,0,1
66652,-80,4,2,1,61,0,1
66892,-66.6666666666667,4,2,1,61,0,1
67612,-100,4,2,1,61,0,1
67852,-66.6666666666667,4,2,1,61,0,1
68572,-100,4,2,1,61,0,1
69292,-66.6666666666667,4,2,1,61,0,1
69652,-100,4,2,1,61,0,1
70012,-80,4,2,1,61,0,1
70252,-66.6666666666667,4,2,1,61,0,1
70492,-57.1428571428571,4,2,1,61,0,1
70732,-57.1428571428571,4,2,1,31,0,0
71692,-57.1428571428571,4,2,1,55,0,1
71932,-57.1428571428571,4,2,1,50,0,0
72652,-150.01500150015,4,2,1,44,0,0
73072,-133.333333333333,4,2,1,5,0,0
73132,-150,4,2,1,44,0,0
76912,-133.333333333333,4,2,1,5,0,0
76972,-150.00000000015,4,2,1,44,0,0
80752,-150.00000000015,4,2,1,5,0,0
80812,-150.00000000015,4,2,1,44,0,0
84592,-150.00000000015,4,2,1,5,0,0
84652,-150.00000000015,4,2,1,45,0,0
88432,-150.00000000015,4,2,1,5,0,0
88492,-150.00000000015,4,2,1,45,0,0
92272,-150.00000000015,4,2,1,5,0,0
92332,-150.00000000015,4,2,1,45,0,0
96112,-150.00000000015,4,2,1,5,0,0
96172,-150.00000000015,4,2,1,45,0,0
99952,-150.00000000015,4,2,1,5,0,0
100012,-150.00000000015,4,2,1,45,0,0
101442,468.75,4,2,1,45,1,0
102892,480,4,2,1,45,1,0
103372,-150.0000015,4,2,1,45,0,0
103792,-150.00000000015,4,2,1,5,0,0
103852,-150.00000000015,4,2,1,45,0,0
104332,480,4,2,1,45,1,0
104332,-150.00015000015,4,2,1,45,0,0
107632,-150.00000000015,4,2,1,5,0,0
107692,-150.00000000015,4,2,1,45,0,0
111472,-150.00000000015,4,2,1,5,0,0
111532,-150.00000000015,4,2,1,45,0,0
115312,-150.00000000015,4,2,1,5,0,0
115372,-150.00000000015,4,2,1,45,0,0
119152,-150.00000000015,4,2,1,5,0,0
119212,-150.00000000015,4,2,1,45,0,0
122992,-150.00000000015,4,2,1,5,0,0
123052,-150.00000000015,4,2,1,45,0,0
126832,-150.00000000015,4,2,1,5,0,0
126892,-150.00000000015,4,2,1,45,0,0
130672,-150.00000000015,4,2,1,5,0,0
130732,-150.00000000015,4,2,1,45,0,0

[Colours]
Combo1 : 255,128,128
Combo2 : 0,128,255
Combo3 : 128,128,192
Combo4 : 0,128,192
Combo5 : 114,82,131
Combo6 : 255,128,64

[HitObjects]
417,249,652,69,8,0:0:0:0:
376,320,772,1,4,0:3:0:0:
417,332,892,1,8,0:3:0:0:
256,255,1012,6,0,P|261:292|277:344,1,75.0000028610231,8|0,0:0|0:0,0:0:0:0:
95,249,2572,69,8,0:0:0:0:
136,320,2692,1,4,0:3:0:0:
95,332,2812,1,8,0:3:0:0:
255,255,2932,6,0,P|250:293|240:329,1,75.0000028610231,8|0,0:0|0:0,0:0:0:0:
80,51,3172,70,0,P|106:77|135:100,1,75.0000028610231,8|0,0:0|0:0,0:0:0:0:
409,48,3412,6,0,P|372:57|337:71,1,75.0000028610231,8|0,0:0|0:0,0:0:0:0:
249,155,3532,70,8,L|239:89,2,50.0000019073487,8|8|8,0:3|0:3|0:3,0:3:0:0:
255,255,3772,2,8,L|247:205,2,50.0000019073487,8|8|8,0:3|0:3|0:3,0:3:0:0:
311,356,4012,5,4,0:3:0:0:
348,359,4092,1,4,0:3:0:0:
385,353,4172,1,4,0:3:0:0:
419,337,4252,1,4,0:3:0:0:
447,313,4332,1,4,0:3:0:0:
469,283,4412,1,4,0:3:0:0:
395,241,4492,69,8,0:0:0:0:
441,169,4612,1,4,0:3:0:0:
469,199,4732,1,8,0:3:0:0:
332,106,4852,6,0,P|337:68|347:32,1,75.0000028610231,8|0,0:0|0:0,0:0:0:0:
117,241,6412,69,8,0:0:0:0:
71,169,6532,1,4,0:3:0:0:
43,199,6652,1,8,0:3:0:0:
180,106,6772,6,0,P|175:68|165:32,1,75.0000028610231,8|0,0:0|0:0,0:0:0:0:
296,313,7852,69,8,0:0:0:0:
219,286,7972,5,8,0:0:0:0:
299,301,8092,69,8,0:0:0:0:
216,299,8212,5,8,0:0:0:0:
258,302,8332,5,4,0:3:0:0:
162,376,8452,2,0,L|121:324,1,62.5,2|0,0:3|0:0,0:0:0:0:
10,369,8692,5,2,0:3:0:0:
122,222,8812,2,0,B|104:180|104:180|34:145|40:70,1,175.00000166893,8|0,0:0|0:0,0:0:0:0:
311,14,9172,5,2,0:3:0:0:
185,47,9292,2,0,P|216:64|249:72,1,62.5,4|0,0:3|0:0,0:0:0:0:
377,171,9532,5,2,0:3:0:0:
351,181,9652,1,2,0:3:0:0:
506,132,9772,2,0,P|485:177|443:216,1,87.500000834465,8|0,0:0|0:0,0:0:0:0:
299,277,10012,37,2,0:3:0:0:
272,283,10132,1,2,0:3:0:0:
379,330,10252,2,0,P|313:365|239:373,1,150.000005722046,6|0,0:3|0:0,0:0:0:0:
133,209,10612,5,2,0:3:0:0:
96,357,10732,2,0,L|52:281,1,87.500000834465,8|0,0:0|0:0,0:0:0:0:
133,209,10972,2,0,L|157:284,1,62.5,2|0,0:3|0:0,0:0:0:0:
160,43,11212,6,0,P|85:51|20:86,1,150.000005722046,6|0,0:3|0:0,0:0:0:0:
52,281,11572,5,2,0:3:0:0:
133,209,11692,2,0,L|155:280,1,75.0000028610231,8|0,0:0|0:0,0:0:0:0:
232,146,11932,37,2,0:3:0:0:
218,121,12052,1,2,0:3:0:0:
291,249,12172,2,0,P|308:218|316:178,1,62.5,6|0,0:3|0:0,0:0:0:0:
371,47,12412,5,2,0:3:0:0:
345,31,12532,1,2,0:3:0:0:
484,125,12652,2,0,P|462:41|436:13,1,87.500000834465,8|0,0:0|0:0,0:0:0:0:
411,180,12892,6,0,L|453:226,1,62.5,2|0,0:3|0:0,0:0:0:0:
361,361,13132,2,0,B|322:334|322:334|269:347|225:313,1,150.000005722046,6|0,0:3|0:0,0:0:0:0:
156,116,13492,5,2,0:3:0:0:
47,248,13612,1,8,0:0:0:0:
32,214,13732,1,2,0:3:0:0:
122,198,13852,2,0,L|163:248,1,62.5,2|0,0:3|0:0,0:0:0:0:
399,164,14092,38,0,P|342:115|271:95,1,150.000005722046,6|0,0:3|0:0,0:0:0:0:
484,125,14452,5,2,0:3:0:0:
404,7,14572,2,0,L|354:92,1,87.500000834465,8|0,0:0|0:0,0:0:0:0:
243,200,14812,5,2,0:3:0:0:
215,211,14932,1,2,0:3:0:0:
354,238,15052,2,0,L|283:280,1,62.5,6|0,0:3|0:0,0:0:0:0:
189,384,15292,2,0,L|250:370,1,62.5,2|0,0:3|0:0,0:0:0:0:
15,260,15532,5,10,0:0:0:0:
72,277,15652,1,2,0:2:0:0:
29,318,15772,1,2,0:0:0:0:
198,7,16012,5,8,0:0:0:0:
215,114,16132,1,4,0:3:0:0:
184,91,16252,1,8,0:3:0:0:
341,41,16372,6,0,P|400:56|425:68,1,75.0000028610231,8|0,0:0|0:0,0:0:0:0:
347,223,17932,69,8,0:0:0:0:
330,330,18052,1,4,0:3:0:0:
361,307,18172,1,8,0:3:0:0:
204,257,18292,6,0,P|145:272|120:284,1,75.0000028610231,8|0,0:0|0:0,0:0:0:0:
505,383,18532,70,0,P|476:360|452:332,1,75.0000028610231,8|0,0:0|0:0,0:0:0:0:
409,6,18772,6,0,P|404:43|392:79,1,75.0000028610231,8|0,0:0|0:0,0:0:0:0:
344,197,18892,69,8,0:0:0:0:
314,200,18972,1,4,0:3:0:0:
284,191,19052,1,4,0:3:0:0:
258,173,19132,1,4,0:3:0:0:
240,147,19212,1,4,0:3:0:0:
229,118,19292,1,4,0:3:0:0:
220,88,19372,1,4,0:3:0:0:
208,59,19452,1,4,0:3:0:0:
190,34,19532,1,4,0:3:0:0:
164,17,19612,1,4,0:3:0:0:
134,9,19692,1,4,0:3:0:0:
103,11,19772,1,4,0:3:0:0:
73,20,19852,5,8,0:0:0:0:
96,104,19972,1,8,0:3:0:0:
126,90,20092,1,4,0:3:0:0:
9,194,20212,70,0,P|19:225|52:281,1,75.0000028610231,8|0,0:0|0:0,0:0:0:0:
404,149,21772,5,8,0:0:0:0:
381,233,21892,1,4,0:3:0:0:
351,219,22012,1,8,0:3:0:0:
460,301,22132,70,0,P|450:332|417:388,1,75.0000028610231,8|0,0:0|0:0,0:0:0:0:
65,29,23212,5,8,0:0:0:0:
65,29,23692,6,0,B|72:56|72:56|112:102,1,87.500000834465,4|0,0:1|0:0,0:0:0:0:
250,218,23932,6,0,P|207:229|172:254,1,87.500000834465,8|0,0:0|0:0,0:0:0:0:
27,145,24172,2,0,L|55:232,1,62.5,2|0,0:3|0:0,0:0:0:0:
21,337,24412,5,10,0:0:0:0:
13,305,24532,1,2,0:3:0:0:
155,229,24652,2,0,P|102:323|105:356,1,87.500000834465,8|0,0:0|0:0,0:0:0:0:
329,354,24892,2,0,P|319:273|333:225,1,87.500000834465,8|0,0:0|0:0,0:0:0:0:
391,131,25132,5,8,0:0:0:0:
414,216,25252,2,0,B|446:253,1,50,4|0,0:3|0:0,0:0:0:0:
450,66,25492,37,8,0:0:0:0:
308,105,25612,2,0,B|301:132|301:132|261:178,1,87.500000834465,4|0,0:1|0:0,0:0:0:0:
466,340,25852,6,0,P|404:279|319:268,1,175.00000166893,8|0,0:0|0:0,0:0:0:0:
80,362,26212,5,2,0:2:0:0:
254,339,26332,2,0,P|211:345|172:366,1,87.500000834465,8|0,0:0|0:0,0:0:0:0:
15,298,26572,2,0,P|32:258|60:224,1,87.500000834465,8|0,0:0|0:0,0:0:0:0:
108,49,26812,5,8,0:0:0:0:
99,93,26932,1,2,0:0:0:0:
126,126,27052,1,6,0:3:0:0:
87,204,27172,1,2,0:0:0:0:
152,261,27292,1,2,0:0:0:0:
411,92,27532,38,0,B|404:65|404:65|364:19,1,87.500000834465,4|0,0:1|0:0,0:0:0:0:
332,289,27772,6,0,P|417:277|478:216,1,175.00000166893,8|0,0:0|0:0,0:0:0:0:
182,227,28132,5,10,0:3:0:0:
295,371,28252,2,0,P|221:329|196:292,1,87.500000834465,8|0,0:0|0:0,0:0:0:0:
34,103,28492,6,0,L|74:201,1,87.500000834465,10|0,0:0|0:0,0:0:0:0:
177,69,28732,2,0,L|122:0,1,87.500000834465,8|0,0:0|0:0,0:0:0:0:
182,227,28972,37,8,0:0:0:0:
96,198,29092,2,0,L|66:130,1,50,4|0,0:3|0:0,0:0:0:0:
243,160,29332,5,8,0:0:0:0:
149,384,29452,2,0,B|156:357|156:357|196:311,1,87.500000834465,4|0,0:1|0:0,0:0:0:0:
96,198,29692,5,8,0:0:0:0:
380,289,29812,2,0,P|306:332|220:327,1,175.00000166893,6|0,0:3|0:0,0:0:0:0:
505,160,30172,6,0,L|447:226,1,87.500000834465,8|0,0:0|0:0,0:0:0:0:
333,137,30412,2,0,L|366:59,1,75.0000028610231,6|0,0:3|0:0,0:0:0:0:
202,18,30652,2,0,L|183:100,1,62.5,8|0,0:0|0:0,0:0:0:0:
29,5,30892,37,2,0:0:0:0:
42,62,31012,1,2,0:0:0:0:
86,21,31132,1,2,0:0:0:0:
104,289,31372,5,6,0:3:0:0:
113,255,31492,2,0,P|122:278|135:299,1,50,2|0,0:0|0:0,0:0:0:0:
51,357,31732,5,2,0:0:0:0:
95,171,31852,1,8,0:0:0:0:
380,306,32092,5,6,0:3:0:0:
370,272,32212,2,0,P|360:295|347:316,1,50,2|0,0:0|0:0,0:0:0:0:
420,153,32452,2,0,P|433:174|443:198,1,50,2|0,0:0|0:0,0:0:0:0:
325,93,32692,1,2,0:0:0:0:
276,197,32812,37,8,0:0:0:0:
329,180,32932,1,2,0:0:0:0:
259,144,33052,1,2,0:0:0:0:
312,127,33172,1,2,0:0:0:0:
216,66,33292,5,6,0:3:0:0:
182,75,33412,2,0,P|205:84|226:97,1,50,2|0,0:0|0:0,0:0:0:0:
283,11,33652,5,2,0:0:0:0:
97,55,33772,1,8,0:0:0:0:
234,277,34012,5,6,0:3:0:0:
268,286,34132,2,0,P|245:295|224:308,1,50,2|0,0:0|0:0,0:0:0:0:
103,342,34372,2,0,P|114:319|130:300,1,50,2|0,0:0|0:0,0:0:0:0:
12,360,34612,1,2,0:0:0:0:
52,168,34732,37,10,0:0:0:0:
67,221,34852,1,2,0:0:0:0:
11,208,34972,1,2,0:0:0:0:
309,130,35212,5,6,0:3:0:0:
318,96,35332,2,0,P|327:119|340:140,1,50,2|0,0:0|0:0,0:0:0:0:
220,144,35572,5,2,0:0:0:0:
407,81,35692,2,2,P|432:102|501:118,1,66.6500014543076,10|2,0:0|0:0,0:0:0:0:
362,259,35932,2,0,P|386:255|409:244,1,50,2|0,0:0|0:0,0:0:0:0:
475,383,36172,2,0,P|483:359|486:335,1,50,6|0,0:3|0:0,0:0:0:0:
399,218,36412,2,0,P|374:221|352:232,1,50,2|0,0:0|0:0,0:0:0:0:
221,363,36652,5,10,0:0:0:0:
168,346,36772,1,2,0:0:0:0:
238,310,36892,1,2,0:0:0:0:
185,293,37012,1,2,0:0:0:0:
86,315,37132,37,6,0:3:0:0:
77,349,37252,2,0,P|68:326|55:305,1,50,2|0,0:0|0:0,0:0:0:0:
204,187,37492,5,2,0:0:0:0:
81,219,37612,2,0,P|41:174|19:162,1,66.4999972602845,10|0,0:0|0:0,0:0:0:0:
194,48,37852,2,0,P|182:106|166:125,1,50,2|0,0:0|0:0,0:0:0:0:
320,173,38092,2,0,P|344:169|367:158,1,50,6|0,0:3|0:0,0:0:0:0:
167,43,38332,2,0,P|159:67|160:92,1,50,2|0,0:0|0:0,0:0:0:0:
482,59,38572,5,10,0:0:0:0:
468,113,38692,1,2,0:0:0:0:
427,73,38812,1,2,0:0:0:0:
427,73,39052,6,0,B|365:-1|240:88,1,199.999993896485,4|2,0:1|0:0,0:0:0:0:
43,375,40252,37,8,0:3:0:0:
30,378,40332,1,8,0:3:0:0:
17,381,40412,1,8,0:3:0:0:
4,384,40492,1,4,0:3:0:0:
127,353,40732,1,4,0:3:0:0:
127,353,40972,54,0,B|88:339|88:339|1:258,1,150.000005722046,4|0,0:1|0:0,0:0:0:0:
274,163,41332,21,2,0:3:0:0:
137,127,41452,2,0,P|164:120|215:88,1,75.0000028610231,8|0,0:0|0:0,0:0:0:0:
250,342,41692,6,0,L|175:274,1,100,4|0,0:3|0:0,0:0:0:0:
127,353,42052,2,0,L|80:334,1,50,4|0,0:3|0:0,0:0:0:0:
372,55,42412,6,0,P|333:118|273:162,1,150.000005722046,8|0,0:0|0:0,0:0:0:0:
402,176,42772,6,0,L|365:142,1,50,4|0,0:3|0:0,0:0:0:0:
494,353,43132,38,0,B|418:305,1,62.5,6|0,0:3|0:0,0:0:0:0:
237,368,43372,2,0,P|272:357|304:337,1,75.0000028610231,10|0,0:0|0:0,0:0:0:0:
488,357,43612,6,0,L|443:313,1,62.5,4|0,0:3|0:0,0:0:0:0:
280,184,43852,2,0,P|240:248|180:292,1,150.000005722046,6|0,0:3|0:0,0:0:0:0:
184,29,44212,5,2,0:3:0:0:
50,117,44332,2,0,P|77:110|128:78,1,75.0000028610231,8|0,0:0|0:0,0:0:0:0:
184,29,44572,6,0,L|219:64,1,50,4|0,0:3|0:0,0:0:0:0:
2,291,44812,6,0,B|41:277|41:277|128:196,1,150.000005722046,4|0,0:1|0:0,0:0:0:0:
311,380,45172,21,2,0:3:0:0:
226,262,45292,2,0,P|259:281|295:292,1,75.0000028610231,8|0,0:0|0:0,0:0:0:0:
47,271,45532,6,0,L|120:204,1,100,4|0,0:3|0:0,0:0:0:0:
54,130,45892,2,0,L|101:111,1,50,4|0,0:3|0:0,0:0:0:0:
492,332,46252,6,0,P|434:285|397:221,1,150.000005722046,8|0,0:0|0:0,0:0:0:0:
365,341,46612,6,0,L|417:296,1,50,4|0,0:3|0:0,0:0:0:0:
129,330,46972,38,0,L|72:355,1,62.5,6|0,0:3|0:0,0:0:0:0:
182,237,47212,2,0,P|219:301|277:348,1,150.000005722046,10|0,0:0|0:0,0:0:0:0:
242,140,47692,5,8,0:3:0:0:
239,153,47772,1,8,0:3:0:0:
232,164,47852,1,8,0:3:0:0:
189,148,47932,5,8,0:3:0:0:
192,135,48012,1,8,0:3:0:0:
199,124,48092,1,8,0:3:0:0:
216,143,48172,5,8,0:0:0:0:
364,13,48412,1,4,0:3:0:0:
364,13,48652,6,0,B|403:27|403:27|490:108,1,150.000005722046,4|0,0:1|0:0,0:0:0:0:
232,164,49012,21,4,0:3:0:0:
350,207,49132,2,0,P|318:226|282:238,1,75.0000028610231,8|0,0:0|0:0,0:0:0:0:
457,360,49372,6,0,B|384:291,1,100,4|0,0:3|0:0,0:0:0:0:
487,244,49732,2,0,L|442:224,1,50,4|0,0:3|0:0,0:0:0:0:
63,357,50092,6,0,P|124:312|164:250,1,150.000005722046,8|0,0:0|0:0,0:0:0:0:
58,250,50452,6,0,L|21:216,1,50,4|0,0:3|0:0,0:0:0:0:
193,40,50812,38,0,B|140:6,1,62.5,6|0,0:3|0:0,0:0:0:0:
315,132,51052,2,0,P|350:121|382:101,1,75.0000028610231,10|0,0:0|0:0,0:0:0:0:
144,0,51292,6,0,L|189:44,1,62.5,6|0,0:3|0:0,0:0:0:0:
351,265,51532,2,0,P|411:220|451:158,1,150.000005722046,6|0,0:3|0:0,0:0:0:0:
142,118,51892,5,2,0:3:0:0:
272,210,52012,2,0,P|235:203|201:187,1,75.0000028610231,8|0,0:0|0:0,0:0:0:0:
142,254,52252,6,0,L|179:288,1,50,4|0,0:3|0:0,0:0:0:0:
506,281,52492,6,0,B|467:295|467:295|380:376,1,150.000005722046,4|0,0:1|0:0,0:0:0:0:
141,379,52852,21,2,0:3:0:0:
262,324,52972,2,0,P|225:317|191:301,1,75.0000028610231,8|0,0:0|0:0,0:0:0:0:
190,67,53212,6,0,L|117:134,1,100,4|0,0:3|0:0,0:0:0:0:
172,211,53572,2,0,L|125:230,1,50,4|0,0:3|0:0,0:0:0:0:
446,149,53932,6,0,P|415:129|389:103,1,75.0000028610231,8|0,0:0|0:0,0:0:0:0:
260,206,54172,2,0,P|294:222|328:230,1,62.5,4|0,0:3|0:0,0:0:0:0:
285,77,54412,5,8,0:3:0:0:
274,87,54492,1,8,0:3:0:0:
267,100,54572,1,8,0:3:0:0:
264,114,54652,2,8,L|313:125,2,33.3333333333333,8|8|8,0:3|0:3|0:3,0:3:0:0:
234,0,54892,37,4,0:3:0:0:
204,31,54972,1,4,0:3:0:0:
184,69,55052,1,4,0:3:0:0:
174,111,55132,1,4,0:3:0:0:
172,154,55212,1,4,0:3:0:0:
180,196,55292,1,4,0:3:0:0:
109,248,55372,53,8,0:0:0:0:
110,249,56332,38,0,L|148:331,1,62.5,4|0,0:1|0:0,0:0:0:0:
206,163,56572,21,2,0:3:0:0:
192,188,56692,2,0,L|209:255,1,50,2|0,0:3|0:0,0:0:0:0:
463,311,57052,54,0,L|425:393,1,62.5,4|0,0:3|0:0,0:0:0:0:
325,174,57292,53,12,0:0:0:0:
367,294,57412,2,0,L|379:245,1,50,2|0,0:3|0:0,0:0:0:0:
44,320,57772,54,0,L|82:402,1,62.5,4|0,0:3|0:0,0:0:0:0:
123,257,58012,54,0,L|140:324,1,50,2|0,0:3|0:0,0:0:0:0:
214,256,58252,1,4,0:0:0:0:
105,65,58492,22,0,L|67:147,1,62.5,4|0,0:3|0:0,0:0:0:0:
188,103,58732,54,0,L|200:54,1,50,6|0,0:3|0:0,0:0:0:0:
293,38,58972,2,0,L|290:75,1,37.5000014305115,4|0,0:3|0:0,0:0:0:0:
470,190,59212,53,12,0:0:0:0:
286,37,59452,54,0,L|296:74,1,37.5000014305115,2|0,0:3|0:0,0:0:0:0:
269,161,59692,54,0,L|290:207,1,50,2|0,0:3|0:0,0:0:0:0:
316,350,59932,2,0,L|280:298,1,62.5,6|0,0:3|0:0,0:0:0:0:
98,132,60172,22,0,L|16:170,1,62.5,4|0,0:1|0:0,0:0:0:0:
182,233,60412,53,2,0:3:0:0:
161,211,60532,2,0,L|94:228,1,50,2|0,0:3|0:0,0:0:0:0:
389,33,60892,22,0,L|471:71,1,62.5,6|0,0:3|0:0,0:0:0:0:
230,26,61132,21,12,0:0:0:0:
374,124,61252,2,0,L|325:111,1,50,2|0,0:3|0:0,0:0:0:0:
443,263,61612,22,0,L|361:301,1,62.5,6|0,0:3|0:0,0:0:0:0:
506,342,61852,22,0,L|439:359,1,50,6|0,0:3|0:0,0:0:0:0:
304,326,62092,1,4,0:0:0:0:
304,326,62332,54,0,L|258:305,1,50,4|0,0:3|0:0,0:0:0:0:
115,343,62572,2,0,L|176:359,1,62.5,4|0,0:3|0:0,0:0:0:0:
86,236,62812,2,0,L|3:229,2,75.0000028610231,4|0|0,0:3|0:0|0:0,0:0:0:0:
457,133,64012,38,0,B|429:112|429:112|361:7,1,150.000005722046,4|0,0:1|0:0,0:0:0:0:
205,199,64372,21,2,0:3:0:0:
322,113,64492,2,0,P|312:146|284:195,1,75.0000028610231,8|0,0:0|0:0,0:0:0:0:
453,305,64732,6,0,L|394:222,1,100,4|0,0:3|0:0,0:0:0:0:
376,366,65092,2,0,L|352:321,1,50,4|0,0:3|0:0,0:0:0:0:
99,206,65452,2,0,P|123:276|173:331,1,150,8|0,0:0|0:0,0:0:0:0:
30,302,65812,6,0,L|58:342,1,50,4|0,0:3|0:0,0:0:0:0:
230,10,66172,6,0,B|278:86,1,62.5,6|0,0:3|0:0,0:0:0:0:
44,129,66412,2,0,P|63:97|75:62,1,75.0000028610231,10|0,0:0|0:0,0:0:0:0:
226,16,66652,38,0,L|270:61,1,62.5,6|0,0:3|0:0,0:0:0:0:
213,239,66892,2,0,P|275:199|318:138,1,150.000005722046,6|0,0:3|0:0,0:0:0:0:
320,376,67252,5,2,0:3:0:0:
441,273,67372,2,0,P|409:293|373:302,1,75.0000028610231,8|0,0:0|0:0,0:0:0:0:
320,376,67612,6,0,B|286:338,1,50,4|0,0:3|0:0,0:0:0:0:
21,341,67852,22,0,B|56:310|56:310|114:217,1,150.000005722046,4|0,0:1|0:0,0:0:0:0:
93,18,68212,21,2,0:3:0:0:
208,114,68332,2,0,P|138:98|107:72,1,75.0000028610231,8|0,0:0|0:0,0:0:0:0:
58,306,68572,6,0,L|111:222,1,100,4|0,0:3|0:0,0:0:0:0:
138,368,68932,2,0,L|157:322,1,50,4|0,0:3|0:0,0:0:0:0:
403,97,69292,6,0,P|333:66|282:12,1,150.000005722046,8|0,0:0|0:0,0:0:0:0:
287,137,69652,6,0,L|316:91,1,50,4|0,0:3|0:0,0:0:0:0:
319,308,70012,38,0,B|348:222,1,62.5,6|0,0:3|0:0,0:0:0:0:
146,115,70252,2,0,P|169:142|200:164,1,75.0000028610231,10|0,0:0|0:0,0:0:0:0:
441,290,70492,2,0,L|395:364,2,87.500000834465,10|0|0,0:3|0:0|0:0,0:0:0:0:
495,370,71692,21,4,0:0:0:0:
476,359,72172,1,0,0:0:0:0:
39,183,72652,54,0,P|49:267|65:303,1,116.655001641173,8|0,0:0|0:0,0:0:0:0:
74,281,73132,1,4,0:3:0:0:
23,197,73372,1,4,0:3:0:0:
182,263,73612,21,6,0:3:0:0:
206,167,73852,1,2,0:3:0:0:
283,186,74092,1,4,0:3:0:0:
360,207,74332,1,2,0:3:0:0:
155,23,74572,53,8,0:0:0:0:
211,154,74812,1,2,0:3:0:0:
283,186,75052,1,4,0:3:0:0:
355,220,75292,1,4,0:3:0:0:
394,112,75532,21,4,0:3:0:0:
379,94,76012,1,4,0:3:0:0:
460,314,76492,54,0,P|375:324|339:340,1,116.655001641173,8|0,0:0|0:0,0:0:0:0:
362,349,76972,1,4,0:3:0:0:
446,298,77212,1,4,0:3:0:0:
297,174,77452,21,6,0:3:0:0:
238,291,77692,1,2,0:3:0:0:
165,334,77932,1,4,0:3:0:0:
80,334,78172,1,2,0:3:0:0:
258,47,78412,53,8,0:0:0:0:
230,279,78652,1,2,0:3:0:0:
165,334,78892,1,4,0:3:0:0:
81,347,79132,1,4,0:3:0:0:
27,244,79372,21,4,0:3:0:0:
12,253,79852,1,4,0:3:0:0:
97,34,80332,54,0,B|157:61|198:104,1,116.666666666667,8|0,0:0|0:0,0:0:0:0:
187,81,80812,1,4,0:3:0:0:
100,56,81052,1,4,0:3:0:0:
188,210,81292,21,6,0:3:0:0:
309,117,81532,1,2,0:3:0:0:
399,132,81772,1,4,0:3:0:0:
454,204,82012,1,2,0:3:0:0:
184,356,82252,53,8,0:0:0:0:
313,102,82492,1,2,0:3:0:0:
399,132,82732,1,4,0:3:0:0:
441,213,82972,1,4,0:3:0:0:
372,317,83212,21,4,0:3:0:0:
354,305,83692,1,4,0:3:0:0:
116,158,84172,54,0,P|93:216|99:271,1,116.666666666667,10|0,0:0|0:0,0:0:0:0:
105,250,84652,2,0,P|120:213|116:179,1,66.6666666666667,6|0,0:3|0:0,0:0:0:0:
49,19,85132,21,6,0:3:0:0:
233,75,85372,1,2,0:3:0:0:
282,173,85612,1,4,0:3:0:0:
385,135,85852,1,2,0:3:0:0:
104,147,86092,53,8,0:0:0:0:
390,153,86332,5,8,0:3:0:0:
282,173,86572,1,8,0:3:0:0:
250,67,86812,1,8,0:3:0:0:
295,154,87052,5,4,0:2:0:0:
282,173,87532,1,4,0:3:0:0:
449,298,88012,54,0,P|411:334|344:363,1,116.666666666667,8|0,0:0|0:0,0:0:0:0:
358,340,88492,1,4,0:3:0:0:
447,320,88732,1,4,0:3:0:0:
224,374,88972,21,6,0:3:0:0:
157,270,89212,1,2,0:3:0:0:
177,192,89452,1,4,0:3:0:0:
198,115,89692,1,2,0:3:0:0:
7,329,89932,53,8,0:0:0:0:
145,265,90172,1,2,0:3:0:0:
177,192,90412,1,4,0:3:0:0:
211,120,90652,1,4,0:3:0:0:
150,33,90892,21,4,0:3:0:0:
22,157,91132,53,2,0:3:0:0:
58,73,91372,2,0,P|60:108|69:141,1,66.6666666666667,6|0,0:3|0:0,0:0:0:0:
257,242,91852,22,0,P|214:205|149:191,1,116.666666666667,8|0,0:0|0:0,0:0:0:0:
165,205,92332,2,0,P|226:186|237:177,1,66.6666666666667,6|0,0:3|0:0,0:0:0:0:
323,66,92812,53,6,0:3:0:0:
385,199,93052,1,2,0:3:0:0:
412,282,93292,1,4,0:3:0:0:
378,362,93532,1,2,0:3:0:0:
485,17,93772,21,8,0:0:0:0:
400,196,94012,1,2,0:3:0:0:
412,282,94252,1,4,0:3:0:0:
365,353,94492,1,4,0:3:0:0:
237,273,94732,53,4,0:3:0:0:
222,282,95212,1,4,0:3:0:0:
282,132,95692,22,0,P|300:77|335:30,1,116.666666666667,8|0,0:0|0:0,0:0:0:0:
316,35,96172,1,4,0:3:0:0:
298,125,96412,1,4,0:3:0:0:
177,34,96652,53,6,0:3:0:0:
115,169,96892,1,2,0:3:0:0:
187,232,97132,1,4,0:3:0:0:
170,324,97372,1,2,0:3:0:0:
25,19,97612,21,8,0:0:0:0:
128,158,97852,1,2,0:3:0:0:
63,252,98092,1,6,0:3:0:0:
155,320,98332,1,6,0:3:0:0:
269,217,98572,54,0,P|317:224|335:234,1,66.6666666666667,6|0,0:3|0:0,0:0:0:0:
439,145,99052,2,0,P|435:112|421:83,1,66.6666666666667,6|0,0:3|0:0,0:0:0:0:
219,290,99532,22,0,P|278:318|339:318,1,116.666666666667,8|0,0:0|0:0,0:0:0:0:
315,332,100012,2,0,P|274:352|256:376,1,66.6666666666667,6|4,0:3|0:3,0:0:0:0:
471,362,100492,5,2,0:3:0:0:
471,362,101442,1,8,0:3:0:0:
475,327,101559,1,8,0:3:0:0:
477,292,101676,1,8,0:3:0:0:
473,260,101793,1,8,0:3:0:0:
464,227,101910,1,8,0:3:0:0:
454,194,102027,1,8,0:3:0:0:
438,164,102145,1,8,0:3:0:0:
420,135,102262,1,8,0:3:0:0:
397,111,102379,1,4,0:0:0:0:
435,239,102892,37,6,0:3:0:0:
370,286,103132,1,2,0:3:0:0:
273,355,103372,22,0,P|232:318|165:295,1,116.666666666667,8|0,0:0|0:0,0:0:0:0:
189,286,103852,1,4,0:3:0:0:
256,363,104092,1,4,0:3:0:0:
267,73,104332,53,6,0:3:0:0:
245,218,104572,1,2,0:3:0:0:
178,172,104812,2,0,P|142:184|119:201,1,66.6666666666667,4|2,0:3|0:3,0:0:0:0:
344,19,105292,21,8,0:0:0:0:
245,218,105532,1,2,0:3:0:0:
171,184,105772,2,0,P|137:202|117:222,1,66.6666666666667,4|4,0:3|0:3,0:0:0:0:
153,340,106252,53,4,0:3:0:0:
26,252,106492,1,2,0:3:0:0:
2,164,106732,2,0,P|10:117|26:89,1,66.6666666666667,6|0,0:3|0:0,0:0:0:0:
251,19,107212,22,0,P|219:30|158:96,1,116.666666666667,8|0,0:0|0:0,0:0:0:0:
176,97,107692,2,0,P|214:76|249:71,1,66.6666666666667,6|4,0:3|0:3,0:0:0:0:
483,154,108172,53,6,0:3:0:0:
369,266,108412,1,2,0:3:0:0:
272,226,108652,1,4,0:3:0:0:
319,134,108892,1,2,0:3:0:0:
146,244,109132,21,8,0:0:0:0:
361,283,109372,1,2,0:3:0:0:
334,144,109612,1,4,0:3:0:0:
272,226,109852,1,4,0:3:0:0:
402,206,110092,53,4,0:3:0:0:
416,196,110572,1,4,0:3:0:0:
143,55,111052,22,0,P|106:111|95:165,1,116.666666666667,8|0,0:0|0:0,0:0:0:0:
83,145,111532,1,4,0:3:0:0:
148,73,111772,1,4,0:3:0:0:
151,243,112012,53,6,0:3:0:0:
267,185,112252,1,2,0:3:0:0:
320,304,112492,2,0,P|381:325|395:325,1,66.6666666666667,6|0,0:3|0:0,0:0:0:0:
267,185,112972,2,0,P|288:123|288:110,1,66.6666666666667,8|0,0:0|0:0,0:0:0:0:
151,243,113452,2,0,P|89:222|76:222,1,66.6666666666667,6|0,0:3|0:0,0:0:0:0:
0,323,113932,21,4,0:3:0:0:
16,338,114412,2,0,P|61:307|81:303,1,66.6666666666667,6|0,0:3|0:0,0:0:0:0:
283,319,114892,54,0,P|360:343|397:341,1,116.666666666667,8|0,0:0|0:0,0:0:0:0:
381,355,115372,1,4,0:3:0:0:
298,304,115612,1,4,0:3:0:0:
464,262,115852,1,2,0:3:0:0:
342,203,116092,5,8,0:0:0:0:
304,175,116212,1,8,0:0:0:0:
400,143,116332,1,8,0:0:0:0:
273,75,116572,21,8,0:3:0:0:
256,62,116692,1,8,0:3:0:0:
296,50,116812,1,8,0:3:0:0:
155,77,117052,53,8,0:3:0:0:
172,90,117172,1,8,0:3:0:0:
132,102,117292,1,4,0:3:0:0:
101,130,117412,1,4,0:3:0:0:
87,169,117532,1,4,0:3:0:0:
89,210,117652,1,4,0:3:0:0:
108,246,117772,1,4,0:0:0:0:
23,5,118252,6,0,P|57:11|91:31,1,66.6666666666667,6|0,0:3|0:0,0:0:0:0:
200,273,118732,54,0,P|172:330|135:371,1,116.666666666667,8|0,0:0|0:0,0:0:0:0:
156,365,119212,1,4,0:3:0:0:
181,284,119452,1,4,0:3:0:0:
358,315,119692,21,10,0:3:0:0:
305,219,119932,1,2,0:3:0:0:
372,175,120172,1,4,0:3:0:0:
441,137,120412,1,2,0:3:0:0:
229,76,120652,53,8,0:0:0:0:
433,125,120892,1,2,0:3:0:0:
372,175,121132,1,4,0:3:0:0:
314,230,121372,1,4,0:3:0:0:
198,193,121612,21,4,0:3:0:0:
179,202,122092,2,0,P|165:248|166:277,1,66.6666666666667,6|0,0:3|0:0,0:0:0:0:
451,347,122572,54,0,P|421:283|379:244,1,116.666666666667,8|0,0:0|0:0,0:0:0:0:
406,243,123052,1,4,0:3:0:0:
432,340,123292,1,4,0:3:0:0:
282,216,123532,21,2,0:3:0:0:
202,330,123772,1,2,0:3:0:0:
114,312,124012,1,4,0:3:0:0:
41,365,124252,1,2,0:3:0:0:
56,148,124492,53,8,0:0:0:0:
51,377,124732,1,2,0:3:0:0:
114,312,124972,1,4,0:3:0:0:
204,315,125212,1,4,0:3:0:0:
317,364,125452,21,4,0:3:0:0:
337,358,125932,1,4,0:3:0:0:
316,63,126412,54,0,P|255:72|194:98,1,116.666666666667,8|0,0:0|0:0,0:0:0:0:
216,76,126892,1,4,0:3:0:0:
305,84,127132,1,4,0:3:0:0:
410,182,127372,21,6,0:3:0:0:
289,277,127612,1,2,0:3:0:0:
206,216,127852,1,4,0:3:0:0:
114,245,128092,1,2,0:3:0:0:
55,65,128332,53,8,0:0:0:0:
206,216,128572,1,2,0:3:0:0:
97,229,128812,1,4,0:3:0:0:
287,288,129052,1,4,0:3:0:0:
150,351,129292,21,4,0:3:0:0:
133,358,129772,1,4,0:3:0:0:
39,146,130252,54,0,P|50:224|67:257,1,116.666666666667,8|0,0:0|0:0,0:0:0:0:
49,255,130732,2,0,P|89:229|112:224,1,66.6666666666667,6|0,0:3|0:0,0:0:0:0:
298,249,131212,21,4,0:3:0:0:
335,129,131452,5,8,0:0:0:0:
259,384,131692,1,8,0:0:0:0:
206,289,131932,53,8,0:3:0:0:
352,337,132172,1,8,0:3:0:0:
426,258,132412,21,4,0:3:0:0:
338,317,132652,1,8,0:3:0:0:
438,365,132892,1,4,0:3:0:0:
414,286,133132,53,4,0:1:0:0:
