osu file format v14

[General]
AudioFilename: audio.mp3
AudioLeadIn: 0
PreviewTime: 63300
Countdown: 0
SampleSet: Normal
StackLeniency: 0.7
Mode: 1
LetterboxInBreaks: 0
WidescreenStoryboard: 1

[Editor]
DistanceSpacing: 0.5
BeatDivisor: 4
GridSize: 32
TimelineZoom: 3.399999

[Metadata]
Title:YOZAKURA Bladerz
TitleUnicode:夜櫻ブレヰダアズ
Artist:Ponkichi
ArtistUnicode:ぽんきち
Creator:TKS
Version:Muzukashii
Source:太鼓の達人 ソライロVer.
Tags:electronic instrumental video game namco original ナムコオリジナル taiko no tatsujin tnt sorairo bladers 緋月りん Rin Hizuki 増渕裕二 Yuji Masubuchi オリジナルサウンドトラック やきとうもろこし CLRC-10002 ブレイダアズ
BeatmapID:3545788
BeatmapSetID:1707779

[Difficulty]
HPDrainRate:5
CircleSize:5
OverallDifficulty:5
ApproachRate:5
SliderMultiplier:1.4
SliderTickRate:1

[Events]
//Background and Video events
0,0,"61112005_p0.jpg",0,-100
//Break Periods
//Storyboard Layer 0 (Background)
//Storyboard Layer 1 (Fail)
//Storyboard Layer 2 (Pass)
//Storyboard Layer 3 (Foreground)
//Storyboard Layer 4 (Overlay)
//Storyboard Sound Samples

[TimingPoints]
247,359.281437125748,4,1,0,60,1,8
247,-117.647058823529,4,1,0,60,0,8
427,359.281437125748,4,1,0,60,1,0
427,-117.647058823529,4,1,0,60,0,0
6175,-109.89010989011,4,1,0,75,0,0
8959,-100,4,1,0,90,0,0
23331,-117.647058823529,4,1,0,60,0,0
33450,-117.647058823529,4,1,0,40,0,0
34438,-117.647058823529,4,1,0,60,0,0
34888,-100,4,1,0,90,0,0
46265,-117.647058823529,4,1,0,75,0,0
55007,-117.647058823529,4,1,0,40,0,0
60037,-117.647058823529,4,1,0,75,0,0
62133,359.281437125748,4,1,0,90,1,0
63570,359.281437125748,4,1,0,90,1,1
86564,-100,4,1,0,90,0,0
98061,-100,4,1,0,90,0,1
109348,-100,4,1,0,60,0,1
109558,379.746835443038,4,1,0,60,1,0
109558,-111.111111111111,4,1,0,60,0,0
112595,408.163265306122,4,1,0,60,1,0
112595,-104.166666666667,4,1,0,60,0,0
112867,-111.111111111111,4,1,0,60,0,0
113003,434.782608695652,4,1,0,60,1,8
113003,-111.111111111111,4,1,0,60,0,8
113437,500,4,1,0,60,1,8
113562,-111.111111111111,4,1,0,60,0,8
113937,494.845360824742,4,1,0,60,1,8
113937,-123.456790123457,4,1,0,60,0,8
114926,502.302218501465,4,1,0,30,1,8

[HitObjects]
256,192,427,5,0,0:0:0:0:
256,192,696,1,0,0:0:0:0:
256,200,965,1,8,0:0:0:0:
248,200,1325,1,8,0:0:0:0:
248,200,1684,1,0,0:0:0:0:
248,200,2043,1,8,0:0:0:0:
248,200,2223,1,0,0:0:0:0:
248,192,2403,1,8,0:0:0:0:
240,192,2492,1,8,0:0:0:0:
248,192,3301,1,0,0:0:0:0:
248,192,3570,1,0,0:0:0:0:
248,192,3840,1,8,0:0:0:0:
248,192,4199,1,8,0:0:0:0:
248,192,4379,1,0,0:0:0:0:
248,192,4558,1,8,0:0:0:0:
240,200,4918,1,8,0:0:0:0:
240,200,5097,1,0,0:0:0:0:
240,200,5277,1,0,0:0:0:0:
240,200,5456,1,8,0:0:0:0:
256,192,6175,1,0,0:0:0:0:
256,192,6534,1,0,0:0:0:0:
256,192,6714,1,8,0:0:0:0:
256,184,6894,1,0,0:0:0:0:
256,184,7073,1,8,0:0:0:0:
256,184,7253,1,0,0:0:0:0:
256,184,7432,1,8,0:0:0:0:
256,192,7612,1,0,0:0:0:0:
256,184,7971,1,0,0:0:0:0:
256,184,8151,1,8,0:0:0:0:
256,192,8331,1,0,0:0:0:0:
264,184,8510,1,8,0:0:0:0:
248,192,8690,1,0,0:0:0:0:
248,184,8870,1,8,0:0:0:0:
256,192,9049,1,4,0:0:0:0:
256,192,9319,1,4,0:0:0:0:
256,192,9588,1,12,0:0:0:0:
256,192,9858,1,12,0:0:0:0:
256,192,10127,1,0,0:0:0:0:
256,192,10217,1,0,0:0:0:0:
208,176,10397,2,0,L|184:208,9,35
256,192,11924,1,0,0:0:0:0:
256,192,12103,1,0,0:0:0:0:
256,192,12283,1,8,0:0:0:0:
256,192,12462,1,0,0:0:0:0:
256,192,12642,1,0,0:0:0:0:
256,192,12732,1,0,0:0:0:0:
256,192,12822,1,0,0:0:0:0:
256,192,13001,1,8,0:0:0:0:
256,192,13181,1,0,0:0:0:0:
256,192,13540,1,0,0:0:0:0:
256,192,13720,1,8,0:0:0:0:
256,192,13900,1,0,0:0:0:0:
256,192,13989,1,0,0:0:0:0:
256,192,14798,1,0,0:0:0:0:
256,192,14977,1,0,0:0:0:0:
256,192,15157,1,8,0:0:0:0:
256,192,15337,1,0,0:0:0:0:
256,192,15426,1,0,0:0:0:0:
256,192,15606,1,8,0:0:0:0:
256,192,15696,1,8,0:0:0:0:
256,192,15876,1,0,0:0:0:0:
256,192,16055,1,8,0:0:0:0:
256,192,16235,1,0,0:0:0:0:
256,192,16325,1,0,0:0:0:0:
256,192,16415,1,0,0:0:0:0:
256,192,16594,1,8,0:0:0:0:
256,192,16774,1,8,0:0:0:0:
256,192,16864,1,8,0:0:0:0:
256,192,17672,1,0,0:0:0:0:
256,192,17852,1,0,0:0:0:0:
256,192,18031,1,8,0:0:0:0:
256,192,18211,1,0,0:0:0:0:
256,192,18391,1,0,0:0:0:0:
256,192,18570,1,8,0:0:0:0:
256,192,18660,1,8,0:0:0:0:
256,192,18750,1,8,0:0:0:0:
256,192,18929,1,0,0:0:0:0:
256,192,19289,1,4,0:0:0:0:
256,192,19558,1,4,0:0:0:0:
256,192,19828,1,12,0:0:0:0:
256,192,20097,1,12,0:0:0:0:
256,192,20367,1,12,0:0:0:0:
256,192,20546,1,0,0:0:0:0:
256,192,20726,1,0,0:0:0:0:
256,192,20906,1,8,0:0:0:0:
256,192,20995,1,8,0:0:0:0:
256,192,21085,1,8,0:0:0:0:
256,192,21444,1,0,0:0:0:0:
192,160,21804,2,8,L|160:192,14,35
256,192,23421,1,0,0:0:0:0:
256,192,23690,1,0,0:0:0:0:
256,192,23959,1,8,0:0:0:0:
256,192,24319,1,8,0:0:0:0:
256,192,24678,1,0,0:0:0:0:
256,192,25037,1,8,0:0:0:0:
256,192,25217,1,8,0:0:0:0:
256,192,25486,1,0,0:0:0:0:
256,192,25935,1,8,0:0:0:0:
256,192,26115,1,8,0:0:0:0:
256,192,26295,1,0,0:0:0:0:
256,192,26654,1,8,0:0:0:0:
256,192,26924,1,0,0:0:0:0:
256,192,27193,1,0,0:0:0:0:
256,192,27373,1,8,0:0:0:0:
256,192,27732,1,0,0:0:0:0:
256,192,28091,1,8,0:0:0:0:
256,192,28271,1,8,0:0:0:0:
256,192,28450,1,0,0:0:0:0:
256,192,29169,1,0,0:0:0:0:
256,192,29438,1,0,0:0:0:0:
256,192,29708,1,8,0:0:0:0:
256,192,30067,1,8,0:0:0:0:
256,192,30426,1,0,0:0:0:0:
256,192,30786,1,8,0:0:0:0:
256,192,30965,1,8,0:0:0:0:
256,192,31235,1,0,0:0:0:0:
256,192,31684,1,8,0:0:0:0:
256,192,31953,1,0,0:0:0:0:
256,192,32403,1,8,0:0:0:0:
256,192,32672,1,0,0:0:0:0:
256,192,33121,1,8,0:0:0:0:
256,192,33391,1,0,0:0:0:0:
256,192,34918,1,4,0:0:0:0:
256,192,35277,1,8,0:0:0:0:
256,192,35456,1,0,0:0:0:0:
256,192,35816,1,0,0:0:0:0:
256,192,35995,1,8,0:0:0:0:
256,192,36175,1,0,0:0:0:0:
256,192,36534,1,0,0:0:0:0:
256,192,36714,1,8,0:0:0:0:
256,192,36894,1,0,0:0:0:0:
256,192,36983,1,0,0:0:0:0:
256,192,37432,1,8,0:0:0:0:
256,192,37612,1,0,0:0:0:0:
256,192,37702,1,0,0:0:0:0:
256,192,38151,1,8,0:0:0:0:
256,192,38331,1,0,0:0:0:0:
256,192,38421,1,0,0:0:0:0:
256,192,38690,1,0,0:0:0:0:
256,192,38870,1,8,0:0:0:0:
256,192,39229,1,0,0:0:0:0:
256,192,39409,1,0,0:0:0:0:
256,192,39588,1,8,0:0:0:0:
256,192,39768,1,0,0:0:0:0:
256,192,39858,1,0,0:0:0:0:
256,192,40666,1,0,0:0:0:0:
256,192,41025,1,8,0:0:0:0:
256,192,41205,1,0,0:0:0:0:
256,192,41564,1,0,0:0:0:0:
256,192,41744,1,8,0:0:0:0:
256,192,41924,1,0,0:0:0:0:
256,192,42283,1,0,0:0:0:0:
256,192,42462,1,8,0:0:0:0:
256,192,42642,1,0,0:0:0:0:
256,192,42732,1,0,0:0:0:0:
256,192,43181,1,0,0:0:0:0:
256,192,43361,1,8,0:0:0:0:
256,192,43450,1,8,0:0:0:0:
256,192,43900,1,8,0:0:0:0:
256,192,44079,1,8,0:0:0:0:
256,192,44169,1,8,0:0:0:0:
256,192,44618,1,0,0:0:0:0:
256,192,44798,1,8,0:0:0:0:
256,192,44888,1,8,0:0:0:0:
256,192,46415,1,0,0:0:0:0:
256,192,46774,1,0,0:0:0:0:
256,192,47133,1,8,0:0:0:0:
256,192,47852,1,0,0:0:0:0:
256,192,48211,1,8,0:0:0:0:
256,192,48570,1,0,0:0:0:0:
256,192,49289,1,0,0:0:0:0:
256,192,49648,1,0,0:0:0:0:
256,192,50007,1,8,0:0:0:0:
256,192,50367,1,8,0:0:0:0:
256,192,50726,1,0,0:0:0:0:
256,192,51085,1,0,0:0:0:0:
256,192,51444,1,8,0:0:0:0:
256,192,52163,1,8,0:0:0:0:
256,192,52522,1,0,0:0:0:0:
256,192,52882,1,8,0:0:0:0:
256,192,53241,1,8,0:0:0:0:
256,192,53600,1,0,0:0:0:0:
256,192,53959,1,8,0:0:0:0:
256,192,54319,1,0,0:0:0:0:
256,192,54678,1,8,0:0:0:0:
256,192,55037,12,0,59708,0:0:0:0:
256,192,60067,5,0,0:0:0:0:
256,192,60247,1,0,0:0:0:0:
256,192,60426,1,8,0:0:0:0:
256,192,60516,1,8,0:0:0:0:
256,192,60606,1,8,0:0:0:0:
256,192,60696,1,8,0:0:0:0:
256,192,62312,1,4,0:0:0:0:
256,192,62582,1,4,0:0:0:0:
256,192,62851,1,4,0:0:0:0:
256,192,63121,1,4,0:0:0:0:
256,192,63570,1,0,0:0:0:0:
256,192,63839,1,0,0:0:0:0:
256,192,64108,1,8,0:0:0:0:
256,192,64288,1,0,0:0:0:0:
256,192,64378,1,0,0:0:0:0:
256,192,64468,1,0,0:0:0:0:
256,192,64647,1,8,0:0:0:0:
256,192,64827,1,0,0:0:0:0:
256,192,65186,1,0,0:0:0:0:
256,192,65366,1,8,0:0:0:0:
256,192,65546,1,0,0:0:0:0:
256,192,65635,1,0,0:0:0:0:
256,192,65905,1,0,0:0:0:0:
256,192,66084,1,8,0:0:0:0:
256,192,66444,1,0,0:0:0:0:
256,192,66713,1,0,0:0:0:0:
256,186,66983,1,8,0:0:0:0:
256,192,67162,1,0,0:0:0:0:
257,186,67252,1,0,0:0:0:0:
257,186,67342,1,0,0:0:0:0:
259,186,67522,1,8,0:0:0:0:
256,186,67701,1,0,0:0:0:0:
257,186,68061,1,8,0:0:0:0:
256,192,68240,1,0,0:0:0:0:
256,186,68420,1,0,0:0:0:0:
256,192,68599,1,12,0:0:0:0:
256,192,69318,1,0,0:0:0:0:
256,192,69587,1,0,0:0:0:0:
256,192,69857,1,8,0:0:0:0:
256,192,70037,1,0,0:0:0:0:
256,192,70126,1,0,0:0:0:0:
256,192,70216,1,0,0:0:0:0:
256,192,70396,1,8,0:0:0:0:
256,192,70575,1,0,0:0:0:0:
256,192,70935,1,0,0:0:0:0:
256,192,71114,1,8,0:0:0:0:
256,192,71294,1,0,0:0:0:0:
256,192,71384,1,0,0:0:0:0:
256,192,71564,1,8,0:0:0:0:
256,192,71653,1,8,0:0:0:0:
256,192,71833,1,0,0:0:0:0:
256,192,72013,1,8,0:0:0:0:
256,192,72192,1,4,0:0:0:0:
256,192,72462,1,4,0:0:0:0:
256,186,72731,1,12,0:0:0:0:
257,186,73001,1,12,0:0:0:0:
259,186,73270,1,0,0:0:0:0:
256,186,73360,1,0,0:0:0:0:
256,192,73540,1,12,0:0:0:0:
256,192,73809,1,0,0:0:0:0:
259,186,73989,1,8,0:0:0:0:
256,192,74078,1,8,0:0:0:0:
256,192,74168,1,8,0:0:0:0:
256,192,75067,1,0,0:0:0:0:
256,192,75336,1,8,0:0:0:0:
256,192,75605,1,8,0:0:0:0:
256,192,75785,1,0,0:0:0:0:
256,192,75875,1,0,0:0:0:0:
256,192,75965,1,0,0:0:0:0:
256,192,76144,1,8,0:0:0:0:
256,192,76324,1,0,0:0:0:0:
256,192,76683,1,0,0:0:0:0:
256,192,76863,1,8,0:0:0:0:
256,192,77043,1,0,0:0:0:0:
256,192,77132,1,0,0:0:0:0:
256,192,77402,1,0,0:0:0:0:
256,192,77581,1,8,0:0:0:0:
256,192,77761,1,8,0:0:0:0:
256,192,77941,1,0,0:0:0:0:
256,192,78210,1,0,0:0:0:0:
256,186,78480,1,8,0:0:0:0:
256,192,78659,1,0,0:0:0:0:
256,192,78749,1,0,0:0:0:0:
257,186,78839,1,0,0:0:0:0:
259,186,79019,1,8,0:0:0:0:
256,186,79198,1,0,0:0:0:0:
257,186,79558,1,8,0:0:0:0:
256,192,79737,1,0,0:0:0:0:
256,186,79917,1,0,0:0:0:0:
256,192,80096,1,12,0:0:0:0:
256,192,80815,1,0,0:0:0:0:
256,192,81084,1,8,0:0:0:0:
256,192,81354,1,8,0:0:0:0:
256,192,81534,1,0,0:0:0:0:
256,192,81623,1,0,0:0:0:0:
256,192,81713,1,0,0:0:0:0:
256,192,81893,1,8,0:0:0:0:
256,192,82072,1,0,0:0:0:0:
256,192,82432,1,0,0:0:0:0:
256,192,82611,1,8,0:0:0:0:
256,192,82791,1,0,0:0:0:0:
256,192,82881,1,0,0:0:0:0:
256,192,83061,1,8,0:0:0:0:
256,192,83150,1,8,0:0:0:0:
256,192,83330,1,8,0:0:0:0:
256,192,83420,1,8,0:0:0:0:
256,192,83510,1,8,0:0:0:0:
256,192,83689,1,4,0:0:0:0:
256,192,83959,1,4,0:0:0:0:
256,186,84228,1,12,0:0:0:0:
257,186,84498,1,12,0:0:0:0:
259,186,84767,1,0,0:0:0:0:
256,186,84857,1,0,0:0:0:0:
256,192,85037,12,0,86204,0:0:0:0:
256,192,86564,5,0,0:0:0:0:
256,192,86833,1,0,0:0:0:0:
256,192,87102,1,8,0:0:0:0:
256,192,87372,1,0,0:0:0:0:
256,192,87462,1,0,0:0:0:0:
256,192,87641,1,8,0:0:0:0:
256,192,87821,1,8,0:0:0:0:
256,192,88180,1,0,0:0:0:0:
256,192,88360,1,8,0:0:0:0:
256,192,88450,1,8,0:0:0:0:
256,192,88540,1,8,0:0:0:0:
256,192,88899,1,8,0:0:0:0:
256,192,89438,1,0,0:0:0:0:
256,192,89617,1,0,0:0:0:0:
256,192,89707,1,0,0:0:0:0:
256,192,89797,1,0,0:0:0:0:
256,192,89977,1,8,0:0:0:0:
256,192,90336,1,0,0:0:0:0:
256,192,90516,1,8,0:0:0:0:
256,192,90695,1,8,0:0:0:0:
256,192,91055,1,8,0:0:0:0:
256,192,91324,1,8,0:0:0:0:
256,192,91593,1,8,0:0:0:0:
256,192,92312,1,0,0:0:0:0:
256,192,92492,1,0,0:0:0:0:
256,192,92671,1,8,0:0:0:0:
256,192,92851,1,0,0:0:0:0:
256,192,92941,1,0,0:0:0:0:
256,192,93210,1,0,0:0:0:0:
256,192,93390,1,8,0:0:0:0:
256,192,93569,1,8,0:0:0:0:
256,192,93929,1,0,0:0:0:0:
256,192,94198,1,0,0:0:0:0:
256,192,94468,1,8,0:0:0:0:
256,192,94737,1,8,0:0:0:0:
256,192,95007,1,8,0:0:0:0:
256,192,95186,1,4,0:0:0:0:
256,192,95456,1,4,0:0:0:0:
256,192,95725,1,4,0:0:0:0:
256,192,95995,1,4,0:0:0:0:
256,192,96264,1,8,0:0:0:0:
256,192,96354,1,8,0:0:0:0:
256,192,96534,1,4,0:0:0:0:
256,192,98061,1,0,0:0:0:0:
256,192,98240,1,0,0:0:0:0:
256,192,98330,1,0,0:0:0:0:
256,192,98420,1,0,0:0:0:0:
256,192,98599,1,8,0:0:0:0:
256,192,98959,1,0,0:0:0:0:
256,192,99138,1,8,0:0:0:0:
256,192,99498,1,0,0:0:0:0:
256,192,99677,1,0,0:0:0:0:
256,192,99857,1,8,0:0:0:0:
256,192,99947,1,8,0:0:0:0:
256,192,100126,1,8,0:0:0:0:
256,192,100216,1,8,0:0:0:0:
256,192,100396,1,0,0:0:0:0:
256,192,100575,1,8,0:0:0:0:
256,192,100935,1,0,0:0:0:0:
256,192,101114,1,8,0:0:0:0:
256,192,101204,1,8,0:0:0:0:
256,192,101294,1,8,0:0:0:0:
256,192,101474,1,0,0:0:0:0:
256,192,101564,1,0,0:0:0:0:
256,192,101833,1,0,0:0:0:0:
256,192,102013,1,8,0:0:0:0:
256,192,102192,1,8,0:0:0:0:
256,192,102462,1,0,0:0:0:0:
256,192,102552,1,0,0:0:0:0:
256,192,102731,1,8,0:0:0:0:
256,192,102911,1,8,0:0:0:0:
256,192,103090,1,0,0:0:0:0:
256,192,103270,1,8,0:0:0:0:
256,192,103360,1,8,0:0:0:0:
256,192,103809,1,0,0:0:0:0:
256,192,103989,1,0,0:0:0:0:
256,192,104168,1,8,0:0:0:0:
256,192,104348,1,0,0:0:0:0:
256,192,104438,1,0,0:0:0:0:
256,192,104528,1,0,0:0:0:0:
256,192,104707,1,0,0:0:0:0:
256,192,104887,1,8,0:0:0:0:
256,192,105246,1,0,0:0:0:0:
256,192,105426,1,0,0:0:0:0:
256,192,105605,1,8,0:0:0:0:
256,192,105785,1,8,0:0:0:0:
256,192,105965,1,0,0:0:0:0:
256,192,106055,1,0,0:0:0:0:
256,192,106144,1,0,0:0:0:0:
256,192,106324,1,8,0:0:0:0:
256,192,106414,1,8,0:0:0:0:
256,192,106504,1,8,0:0:0:0:
256,192,106683,1,12,0:0:0:0:
256,192,106953,1,4,0:0:0:0:
256,192,107222,1,12,0:0:0:0:
256,192,107492,1,12,0:0:0:0:
256,192,107761,1,0,0:0:0:0:
256,192,107851,1,0,0:0:0:0:
256,192,108031,12,0,109019,0:0:0:0:
256,192,109558,5,0,0:0:0:0:
256,192,109842,1,0,0:0:0:0:
256,192,110127,1,8,0:0:0:0:
256,192,110507,1,8,0:0:0:0:
256,192,110887,1,0,0:0:0:0:
256,192,111266,1,0,0:0:0:0:
256,192,111456,1,0,0:0:0:0:
256,192,111646,1,8,0:0:0:0:
256,192,111741,1,8,0:0:0:0:
256,192,112026,1,8,0:0:0:0:
256,192,112216,1,0,0:0:0:0:
256,192,112595,1,8,0:0:0:0:
256,192,112901,1,0,0:0:0:0:
256,192,113220,1,8,0:0:0:0:
256,192,113562,1,8,0:0:0:0:
256,192,113937,1,0,0:0:0:0:
256,192,114926,12,0,117939,0:0:0:0:
