osu file format v14

[General]
AudioFilename: audio.mp3
AudioLeadIn: 0
PreviewTime: 63300
Countdown: 0
SampleSet: Normal
StackLeniency: 0.7
Mode: 1
LetterboxInBreaks: 0
WidescreenStoryboard: 1

[Editor]
DistanceSpacing: 0.5
BeatDivisor: 2
GridSize: 32
TimelineZoom: 1.9

[Metadata]
Title:YOZAKURA Bladerz
TitleUnicode:夜櫻ブレヰダアズ
Artist:Ponkichi
ArtistUnicode:ぽんきち
Creator:TKS
Version:Kantan
Source:太鼓の達人 ソライロVer.
Tags:electronic instrumental video game namco original ナムコオリジナル taiko no tatsujin tnt sorairo bladers 緋月りん Rin Hizuki 増渕裕二 Yuji Masubuchi オリジナルサウンドトラック やきとうもろこし CLRC-10002 ブレイダアズ
BeatmapID:3545787
BeatmapSetID:1707779

[Difficulty]
HPDrainRate:8
CircleSize:5
OverallDifficulty:4
ApproachRate:5
SliderMultiplier:1.4
SliderTickRate:1

[Events]
//Background and Video events
0,0,"61112005_p0.jpg",0,-100
//Break Periods
//Storyboard Layer 0 (Background)
//Storyboard Layer 1 (Fail)
//Storyboard Layer 2 (Pass)
//Storyboard Layer 3 (Foreground)
//Storyboard Layer 4 (Overlay)
//Storyboard Sound Samples

[TimingPoints]
247,359.281437125748,4,1,0,60,1,8
247,-117.647058823529,4,1,0,60,0,8
427,359.281437125748,4,1,0,60,1,0
427,-117.647058823529,4,1,0,60,0,0
6175,-109.89010989011,4,1,0,75,0,0
8959,-100,4,1,0,90,0,0
23331,-117.647058823529,4,1,0,60,0,0
33450,-117.647058823529,4,1,0,40,0,0
34438,-117.647058823529,4,1,0,60,0,0
34888,-100,4,1,0,90,0,0
46265,-117.647058823529,4,1,0,75,0,0
55007,-117.647058823529,4,1,0,40,0,0
60037,-117.647058823529,4,1,0,75,0,0
62133,359.281437125748,4,1,0,90,1,0
63570,359.281437125748,4,1,0,90,1,1
86564,-100,4,1,0,90,0,0
98061,-100,4,1,0,90,0,1
109348,-100,4,1,0,60,0,1
109558,379.746835443038,4,1,0,60,1,0
109558,-111.111111111111,4,1,0,60,0,0
112595,408.163265306122,4,1,0,60,1,0
112595,-104.166666666667,4,1,0,60,0,0
112867,-111.111111111111,4,1,0,60,0,0
113003,434.782608695652,4,1,0,60,1,8
113003,-111.111111111111,4,1,0,60,0,8
113437,500,4,1,0,60,1,8
113562,-111.111111111111,4,1,0,60,0,8
113937,494.845360824742,4,1,0,60,1,8
113937,-123.456790123457,4,1,0,60,0,8
114926,502.302218501465,4,1,0,30,1,8

[HitObjects]
256,192,427,5,0,0:0:0:0:
248,200,1684,1,0,0:0:0:0:
240,192,2403,1,8,0:0:0:0:
248,192,3301,1,0,0:0:0:0:
248,192,4558,1,8,0:0:0:0:
240,200,5456,1,8,0:0:0:0:
256,192,6175,1,0,0:0:0:0:
256,184,6894,1,0,0:0:0:0:
256,192,7612,1,0,0:0:0:0:
256,184,7971,1,0,0:0:0:0:
256,192,8331,1,0,0:0:0:0:
256,192,9049,1,12,0:0:0:0:
256,192,9588,1,12,0:0:0:0:
256,192,10397,1,12,0:0:0:0:
256,192,11924,1,0,0:0:0:0:
256,192,12642,1,0,0:0:0:0:
256,192,13361,1,0,0:0:0:0:
256,192,13720,1,0,0:0:0:0:
256,192,14798,1,0,0:0:0:0:
256,192,15516,1,0,0:0:0:0:
256,192,16235,1,8,0:0:0:0:
256,192,17672,1,0,0:0:0:0:
256,192,18391,1,0,0:0:0:0:
256,192,19289,1,0,0:0:0:0:
256,192,19828,1,12,0:0:0:0:
256,192,20097,1,12,0:0:0:0:
256,192,20546,1,0,0:0:0:0:
256,192,21085,1,0,0:0:0:0:
256,192,21444,1,0,0:0:0:0:
256,192,21804,12,0,23061,0:0:0:0:
256,192,23421,5,0,0:0:0:0:
256,192,24858,1,0,0:0:0:0:
256,192,25576,1,0,0:0:0:0:
256,192,26295,1,0,0:0:0:0:
256,192,27732,1,8,0:0:0:0:
256,192,28450,1,8,0:0:0:0:
256,192,29169,1,0,0:0:0:0:
256,192,30606,1,0,0:0:0:0:
256,192,31953,1,8,0:0:0:0:
256,192,32672,1,8,0:0:0:0:
256,192,33391,1,0,0:0:0:0:
256,192,34918,1,4,0:0:0:0:
256,192,35995,1,0,0:0:0:0:
256,192,36355,1,0,0:0:0:0:
256,192,36983,1,8,0:0:0:0:
256,192,37702,1,0,0:0:0:0:
256,192,38421,1,8,0:0:0:0:
256,192,39229,1,0,0:0:0:0:
256,192,39588,1,0,0:0:0:0:
256,192,39947,1,8,0:0:0:0:
256,192,40666,1,0,0:0:0:0:
256,192,41744,1,0,0:0:0:0:
256,192,42103,1,0,0:0:0:0:
256,192,42732,1,8,0:0:0:0:
256,192,43450,1,0,0:0:0:0:
256,192,44169,1,0,0:0:0:0:
256,192,44888,1,12,0:0:0:0:
256,192,46415,1,0,0:0:0:0:
256,192,47852,1,0,0:0:0:0:
256,192,48570,1,8,0:0:0:0:
256,192,49289,1,0,0:0:0:0:
256,192,50726,1,8,0:0:0:0:
256,192,51444,1,0,0:0:0:0:
256,192,52163,1,8,0:0:0:0:
256,192,53600,1,0,0:0:0:0:
256,192,54319,1,0,0:0:0:0:
256,192,54678,1,0,0:0:0:0:
256,192,55037,12,0,62312,0:0:0:0:
256,192,63570,5,0,0:0:0:0:
256,192,64108,1,8,0:0:0:0:
256,192,64828,1,0,0:0:0:0:
256,192,65187,1,8,0:0:0:0:
256,192,65546,1,0,0:0:0:0:
256,192,66444,1,0,0:0:0:0:
256,186,66983,1,8,0:0:0:0:
256,186,67701,1,0,0:0:0:0:
256,192,68240,1,0,0:0:0:0:
256,192,68599,1,12,0:0:0:0:
256,192,69318,1,0,0:0:0:0:
256,192,69857,1,8,0:0:0:0:
256,192,70575,1,0,0:0:0:0:
256,192,70935,1,0,0:0:0:0:
256,192,71294,1,8,0:0:0:0:
256,192,71833,1,8,0:0:0:0:
256,192,72192,1,0,0:0:0:0:
264,191,73540,1,8,0:0:0:0:
259,186,73989,1,8,0:0:0:0:
256,192,75067,1,0,0:0:0:0:
256,192,75605,1,8,0:0:0:0:
256,192,75965,1,8,0:0:0:0:
256,192,76324,1,0,0:0:0:0:
256,192,77043,1,8,0:0:0:0:
256,192,77941,1,0,0:0:0:0:
256,186,78480,1,8,0:0:0:0:
256,192,78839,1,0,0:0:0:0:
256,186,79198,1,8,0:0:0:0:
256,192,80096,1,12,0:0:0:0:
256,192,80815,1,0,0:0:0:0:
256,192,81354,1,8,0:0:0:0:
256,192,81713,1,8,0:0:0:0:
256,192,82072,1,0,0:0:0:0:
256,192,82432,1,0,0:0:0:0:
256,192,82791,1,8,0:0:0:0:
256,192,83689,1,0,0:0:0:0:
256,192,85037,12,8,86204,0:0:0:0:
256,192,86564,5,0,0:0:0:0:
256,192,87102,1,0,0:0:0:0:
256,192,88001,1,0,0:0:0:0:
256,192,88360,1,8,0:0:0:0:
256,192,89438,1,0,0:0:0:0:
256,192,89977,1,8,0:0:0:0:
256,192,90875,1,0,0:0:0:0:
256,192,92312,1,0,0:0:0:0:
256,192,92851,1,0,0:0:0:0:
256,192,93749,1,0,0:0:0:0:
256,192,94468,1,8,0:0:0:0:
256,192,95186,1,4,0:0:0:0:
256,192,95725,1,4,0:0:0:0:
256,192,96534,1,4,0:0:0:0:
256,192,98061,1,0,0:0:0:0:
256,192,98599,1,8,0:0:0:0:
256,192,99498,1,0,0:0:0:0:
256,192,100216,1,8,0:0:0:0:
256,192,100575,1,8,0:0:0:0:
256,192,100935,1,0,0:0:0:0:
256,192,101474,1,0,0:0:0:0:
256,192,102372,1,8,0:0:0:0:
256,192,103809,1,0,0:0:0:0:
256,192,104348,1,8,0:0:0:0:
256,192,105246,1,0,0:0:0:0:
256,192,105965,1,8,0:0:0:0:
256,192,106324,1,8,0:0:0:0:
256,192,106683,1,4,0:0:0:0:
256,192,107222,1,12,0:0:0:0:
256,192,108031,12,0,109019,0:0:0:0:
256,192,109558,5,0,0:0:0:0:
256,192,110317,1,8,0:0:0:0:
256,192,111076,1,0,0:0:0:0:
256,192,112595,1,8,0:0:0:0:
256,192,113220,1,0,0:0:0:0:
256,192,113937,1,8,0:0:0:0:
256,192,114926,12,0,117939,0:0:0:0:
