osu file format v14

[General]
AudioFilename: audio.mp3
AudioLeadIn: 0
PreviewTime: 90873
Countdown: 0
SampleSet: Soft
StackLeniency: 0.7
Mode: 0
LetterboxInBreaks: 0
WidescreenStoryboard: 1

[Editor]
Bookmarks: 57993,58788,113622,115211,116801,128721,129516,139052
DistanceSpacing: 0.6
BeatDivisor: 4
GridSize: 32
TimelineZoom: 2.3

[Metadata]
Title:Hyakukakai to Shirotokkuri
TitleUnicode:百花魁と白徳利
Artist:Ponkichi
ArtistUnicode:ぽんきち
Creator:_lai
Version:123
Source:
Tags:
BeatmapID:1936356
BeatmapSetID:927111

[Difficulty]
HPDrainRate:6
CircleSize:4
OverallDifficulty:8
ApproachRate:9
SliderMultiplier:1.4
SliderTickRate:1

[Events]
//Background and Video events
//Break Periods
//Storyboard Layer 0 (Background)
//Storyboard Layer 1 (Fail)
//Storyboard Layer 2 (Pass)
//Storyboard Layer 3 (Foreground)
//Storyboard Sound Samples

[TimingPoints]
1770,375,4,2,0,100,1,0
7770,405.405405405405,4,2,0,100,1,0
8580,375,4,2,0,100,1,0
9330,375,4,2,0,100,1,0
12330,400,4,2,0,100,1,0
13130,400,4,2,0,100,1,0
14730,384.615384615385,4,2,0,100,1,0
15499,375,4,2,0,100,1,0
16999,384.615384615385,4,2,0,100,1,0
17383,394.736842105263,4,2,0,100,1,0
17777,400,4,2,0,100,1,0
18177,405.405405405405,4,2,0,100,1,0
18582,428.571428571429,4,2,0,100,1,0
18582,-133.333333333333,4,2,0,100,0,0
19439,-200,4,2,0,100,0,0
20296,454.545454545455,4,2,0,100,1,0
21205,441.176470588235,4,2,0,100,1,0
22087,504.201680672269,4,2,0,100,1,0
23095,500,4,2,0,100,1,0
24095,571.428571428571,4,2,0,100,1,0
25237,923.076923076923,4,2,0,100,1,0
25929,1071.42857142857,4,2,0,100,1,0
27000,397.350993377483,4,2,0,100,1,0
27000,-66.6666666666667,4,2,0,100,0,0
42894,-50,4,2,0,100,0,0
44086,-100,4,2,0,100,0,0
44483,-66.6666666666667,4,2,0,100,0,0
69913,-50,4,2,0,100,0,0
71304,-66.6666666666667,4,2,0,100,0,0
71503,-100,4,2,0,100,0,0
77860,-66.6666666666667,4,2,0,100,0,0
82629,397.350993377483,3,2,0,100,1,0
85013,397.350993377483,4,2,0,100,1,0
88589,-66.6666666666667,4,2,0,100,0,0
111039,-50,4,2,0,100,0,0
111238,-66.6666666666667,4,2,0,100,0,0
113622,-50,4,2,0,100,0,0
113820,-66.6666666666667,4,2,0,100,0,0
114416,-50,4,2,0,100,0,0
116205,-66.6666666666667,4,2,0,100,0,0
116403,-100,4,2,0,100,0,0
116801,-66.6666666666667,4,2,0,100,0,0
136469,-50,4,2,0,100,0,0
136569,-100,4,2,0,100,0,0
137860,-66.6666666666667,4,2,0,100,0,0
138258,-100,4,2,0,100,0,0
138854,-66.6666666666667,4,2,0,100,0,0
140642,-133.333333333333,4,2,0,100,0,0
141039,-66.6666666666667,4,2,0,100,0,0
142231,-133.333333333333,4,2,0,100,0,0
142628,-66.6666666666667,4,2,0,100,0,0
144615,-100,4,2,0,100,0,0
145435,397.350993377483,4,2,0,100,1,0
147024,405.405405405405,4,2,0,100,1,0
147834,428.571428571429,4,2,0,100,1,0
148262,416.666666666667,4,2,0,100,1,0
148678,428.571428571429,4,2,0,100,1,0
149106,434.782608695652,4,2,0,100,1,0
149540,422.535211267606,4,2,0,100,1,0
149962,480,4,2,0,100,1,0
150442,540.540540540541,4,2,0,100,1,0
151523,468.75,4,2,0,100,1,0
152460,428.571428571429,4,2,0,100,1,0
152602,750,4,2,0,100,1,0
153352,1111.11111111111,4,2,0,100,1,0
153722,1333.33333333333,4,2,0,100,1,0
154166,1061.94690265487,4,2,0,100,1,0
156289,666.666666666667,4,2,0,100,1,0
156955,705.882352941176,4,2,0,100,1,0
157660,750,4,2,0,100,1,0
158410,800,4,2,0,100,1,0
159210,857.142857142857,4,2,0,100,1,0
160067,923.076923076923,4,2,0,100,1,0
160990,1000,4,2,0,100,1,0
161990,1090.90909090909,4,2,0,100,1,0
163080,1071.42857142857,4,2,0,100,1,0

[HitObjects]
181,251,2520,5,0,0:0:0:0:
216,175,2707,1,0,0:0:0:0:
177,100,2895,1,0,0:0:0:0:
139,174,3082,1,0,0:0:0:0:
265,101,3270,2,0,L|303:98,2,35
265,101,4020,5,0,0:0:0:0:
328,155,4207,1,0,0:0:0:0:
407,127,4395,1,0,0:0:0:0:
485,96,4582,1,0,0:0:0:0:
396,214,4770,2,0,P|394:267|401:325,1,105
476,331,5145,1,0,0:0:0:0:
476,331,5270,2,0,L|471:266,1,46.6666666666667
328,352,5520,2,0,P|247:363|174:353,1,140
189,356,6270,5,0,0:0:0:0:
123,282,6645,1,0,0:0:0:0:
231,144,7020,1,0,0:0:0:0:
214,126,7145,2,0,P|190:153|177:182,1,46.6666666666667
192,241,7395,1,0,0:0:0:0:
382,205,7770,5,0,0:0:0:0:
382,205,8580,5,0,0:0:0:0:
344,131,8767,1,0,0:0:0:0:
305,206,8955,1,0,0:0:0:0:
340,282,9142,1,0,0:0:0:0:
425,135,9330,2,0,P|400:72|329:50,1,140
189,85,10080,5,0,0:0:0:0:
253,31,10267,1,0,0:0:0:0:
335,49,10455,1,0,0:0:0:0:
274,105,10642,1,0,0:0:0:0:
178,6,10830,2,0,P|136:26|111:99,1,105
37,107,11205,1,0,0:0:0:0:
37,107,11330,2,0,P|31:76|39:48,1,46.6666666666667
102,161,11580,2,0,L|100:310,1,140
296,319,12330,5,0,0:0:0:0:
300,305,12730,1,0,0:0:0:0:
245,207,13130,6,0,L|280:205,3,35
307,211,13530,1,0,0:0:0:0:
334,207,13630,1,0,0:0:0:0:
359,188,13730,1,0,0:0:0:0:
376,153,13830,1,0,0:0:0:0:
379,78,13930,1,0,0:0:0:0:
379,78,14730,5,0,0:0:0:0:
469,184,15114,1,0,0:0:0:0:
291,123,15499,1,0,0:0:0:0:
271,151,15874,1,0,0:0:0:0:
359,188,16249,1,0,0:0:0:0:
275,68,16624,1,0,0:0:0:0:
254,174,16999,5,0,0:0:0:0:
379,78,17383,1,0,0:0:0:0:
326,139,17580,1,0,0:0:0:0:
170,48,17777,2,0,P|159:98|162:191,1,140
164,375,18582,6,0,P|182:320|183:258,1,105.000004005432
42,284,19439,2,0,P|93:257|112:240,1,70
254,174,20296,5,0,0:0:0:0:
252,174,21205,6,0,L|256:250,2,46.6666666666667
299,91,21646,2,0,L|303:15,2,46.6666666666667
346,178,22087,6,0,L|359:323,1,140
454,308,23095,6,0,L|441:163,1,140
434,70,24095,5,0,0:0:0:0:
256,190,25237,5,0,0:0:0:0:
256,192,25467,12,0,26732,0:0:0:0:
86,109,27000,6,0,P|146:117|204:109,1,105.000004005432
240,96,27298,1,0,0:0:0:0:
267,51,27397,1,0,0:0:0:0:
279,101,27496,1,0,0:0:0:0:
317,136,27596,1,0,0:0:0:0:
402,66,27794,5,0,0:0:0:0:
402,66,27894,2,0,L|339:60,1,52.5000020027161
240,179,28092,1,0,0:0:0:0:
230,206,28192,1,0,0:0:0:0:
222,231,28291,1,0,0:0:0:0:
262,263,28390,1,0,0:0:0:0:
253,287,28490,1,0,0:0:0:0:
280,331,28589,6,0,B|223:343|223:343|133:325,1,105.000004005432
152,323,28887,2,0,L|138:376,1,52.5000020027161
55,261,29086,1,0,0:0:0:0:
67,254,29185,2,0,L|81:201,1,52.5000020027161
258,43,29384,6,0,P|220:47|193:63,1,52.5000020027161
326,91,29582,2,0,P|341:56|341:24,1,52.5000020027161
249,157,29781,1,0,0:0:0:0:
274,161,29880,1,0,0:0:0:0:
300,166,29979,1,0,0:0:0:0:
426,287,30178,6,0,L|434:151,1,105.000004005432
435,155,30476,1,0,0:0:0:0:
438,128,30576,1,0,0:0:0:0:
441,102,30675,1,0,0:0:0:0:
444,76,30774,1,0,0:0:0:0:
349,221,30973,1,0,0:0:0:0:
322,219,31072,1,0,0:0:0:0:
297,224,31171,1,0,0:0:0:0:
273,234,31271,1,0,0:0:0:0:
250,247,31370,5,0,0:0:0:0:
198,253,31469,1,0,0:0:0:0:
152,230,31568,1,0,0:0:0:0:
128,184,31668,1,0,0:0:0:0:
135,133,31768,6,0,L|150:61,1,52.5000020027161
322,312,31966,1,0,0:0:0:0:
335,330,32165,2,0,L|349:402,1,52.5000020027161
412,245,32364,1,0,0:0:0:0:
214,168,32562,1,0,0:0:0:0:
214,168,32960,5,0,0:0:0:0:
309,104,33158,2,0,L|316:70,2,35.0000013351441
237,19,33357,6,0,P|171:16|100:30,1,105.000004005432
83,185,33754,1,0,0:0:0:0:
83,185,33821,1,0,0:0:0:0:
83,185,33887,2,0,L|44:181,1,35.0000013351441
218,339,34152,2,0,P|230:285|212:203,1,105.000004005432
216,211,34450,1,0,0:0:0:0:
216,211,34549,2,0,L|271:212,1,52.5000020027161
387,301,34748,2,0,P|351:248|350:227,1,52.5000020027161
335,97,34947,6,0,B|351:80|351:80|350:197,1,105.000004005432
221,76,35344,1,0,0:0:0:0:
221,76,35411,1,0,0:0:0:0:
221,76,35477,2,0,L|182:72,1,35.0000013351441
435,211,35741,2,0,L|436:83,1,105.000004005432
437,79,36039,1,0,0:0:0:0:
437,79,36139,2,0,L|438:4,1,52.5000020027161
335,97,36337,2,0,L|336:22,1,52.5000020027161
72,120,36536,6,0,L|78:211,1,52.5000020027161
153,143,36735,2,0,L|159:234,1,52.5000020027161
339,203,36933,2,0,L|333:294,1,52.5000020027161
287,253,37132,2,0,L|281:344,1,52.5000020027161
77,348,37331,6,0,L|83:257,1,52.5000020027161
158,325,37530,2,0,L|164:234,1,52.5000020027161
339,203,37728,6,0,L|333:112,1,52.5000020027161
233,144,37927,2,0,L|227:53,1,52.5000020027161
420,69,38125,6,0,P|442:94|449:121,1,52.5000020027161
242,218,38324,2,0,L|236:127,1,52.5000020027161
85,61,38523,2,0,L|94:27,2,35.0000013351441
83,95,38721,2,0,L|79:147,1,52.5000020027161
176,347,38920,2,0,P|176:274|100:261,1,157.500006008148
41,293,39317,2,0,P|81:283|100:263,1,52.5000020027161
242,218,39516,2,0,P|282:227|301:248,1,52.5000020027161
462,354,39715,6,0,P|407:300|407:266,1,105.000004005432
439,51,40112,2,0,L|427:9,2,35.0000013351441
450,84,40311,1,0,0:0:0:0:
288,182,40509,2,0,B|257:155|290:102|340:99|379:152,1,157.500006008148
397,221,40907,2,0,L|387:157,1,52.5000020027161
225,48,41105,2,0,L|215:112,1,52.5000020027161
136,293,41304,6,0,B|116:320|116:320|110:224,1,105.000004005432
66,85,41701,2,0,L|59:50,2,35.0000013351441
75,120,41900,1,0,0:0:0:0:
195,238,42099,2,0,B|173:199|173:199|324:237,1,157.500006008148
334,288,42496,2,0,P|356:260|361:219,1,52.5000020027161
281,107,42695,2,0,B|270:102|270:102|277:157,1,52.5000020027161
473,302,42894,6,0,B|445:324|445:324|445:286|445:286|442:269|442:269|446:254|446:254|445:220,1,140
416,45,43192,2,0,P|401:33|364:75,1,70
191,103,43390,1,0,0:0:0:0:
191,103,43490,2,0,L|202:192,1,70
356,178,43688,2,0,P|324:154|282:157,1,70
106,160,43887,2,0,P|66:165|38:197,1,70
213,317,44086,6,0,L|212:341,2,23.3333333333333
216,302,44284,2,0,L|222:238,1,35
276,72,44483,6,0,B|239:67|239:67|280:34|331:39|363:95,1,157.500006008148
363,91,44880,1,0,0:0:0:0:
460,58,45013,1,0,0:0:0:0:
444,156,45145,1,0,0:0:0:0:
393,108,45278,1,0,0:0:0:0:
407,98,45344,1,0,0:0:0:0:
421,88,45410,1,0,0:0:0:0:
451,118,45476,2,0,L|448:155,2,35.0000013351441
453,100,45675,2,0,L|462:27,1,52.5000020027161
274,197,45874,2,0,P|242:186|211:186,1,52.5000020027161
77,287,46072,6,0,B|120:309|153:298|153:298|196:253|265:273,1,157.500006008148
220,353,46470,2,0,L|341:348,1,105.000004005432
428,202,46867,2,0,B|452:184|452:184|488:251|461:318,1,140.000005340576
371,261,47264,1,0,0:0:0:0:
392,126,47463,1,0,0:0:0:0:
237,186,47662,6,0,P|171:174|145:127,1,105.000004005432
143,129,47927,2,0,L|139:77,2,35.0000013351441
108,223,48258,1,0,0:0:0:0:
268,108,48456,2,0,L|271:267,1,157.500006008148
273,291,48854,5,0,0:0:0:0:
351,152,49052,1,0,0:0:0:0:
150,236,49251,2,0,B|91:268|46:215|46:215|114:195,1,157.500006008148
85,203,49649,2,0,L|81:322,1,105.000004005432
235,343,50046,2,0,P|292:306|337:303,1,105.000004005432
341,313,50311,2,0,L|353:359,2,35.0000013351441
449,187,50642,1,0,0:0:0:0:
286,107,50841,6,0,L|396:123,1,105.000004005432
449,187,51139,2,0,P|477:122|464:75,1,105.000004005432
456,68,51437,1,0,0:0:0:0:
334,38,51635,2,0,B|272:29|272:29|236:48|236:48|144:39,1,157.500006008148
124,97,52033,2,0,P|104:44|130:-17,1,105.000004005432
204,124,52430,6,0,B|203:157|220:182|220:182|274:203|281:249,1,157.500006008148
200,268,52827,2,0,L|172:390,1,105.000004005432
423,261,53225,2,0,P|354:227|255:278,1,157.500006008148
200,268,53622,2,0,L|78:240,1,105.000004005432
204,124,54019,6,0,L|306:100,1,105.000004005432
323,95,54284,2,0,L|341:139,2,35.0000013351441
243,19,54615,1,0,0:0:0:0:
177,259,54814,2,0,P|223:192|202:122,1,157.500006008148
130,82,55211,2,0,P|119:120|140:180,1,105.000004005432
274,268,55609,6,0,P|312:279|372:258,1,105.000004005432
356,104,56006,2,0,P|318:93|258:114,1,105.000004005432
177,259,56403,1,0,0:0:0:0:
314,185,56602,2,0,L|374:182,3,35.0000013351441
166,122,56999,1,0,0:0:0:0:
371,258,57198,5,0,0:0:0:0:
385,272,57397,2,0,L|411:167,1,105.000004005432
316,34,57695,2,0,L|342:139,1,105.000004005432
411,347,57993,5,0,0:0:0:0:
426,360,58390,5,0,0:0:0:0:
375,352,58489,1,0,0:0:0:0:
336,316,58588,1,0,0:0:0:0:
293,288,58688,1,0,0:0:0:0:
242,292,58788,6,0,P|188:333|128:339,1,105.000004005432
39,239,59086,1,0,0:0:0:0:
39,239,59185,2,0,P|54:272|75:294,1,52.5000020027161
48,333,59384,2,0,P|52:308|63:284,1,52.5000020027161
153,81,59582,2,0,B|176:54|176:54|190:90|180:164|135:181,1,157.500006008148
133,184,59980,1,0,0:0:0:0:
60,108,60178,1,0,0:0:0:0:
224,210,60377,6,0,B|242:189|250:166|250:166|290:221|355:215,1,157.500006008148
365,214,60774,2,0,P|417:196|473:208,1,105.000004005432
424,301,61172,1,0,0:0:0:0:
433,352,61569,2,0,L|421:285,1,52.5000020027161
342,79,61768,2,0,L|330:146,1,52.5000020027161
332,298,61966,6,0,P|253:277|189:220,1,157.500006008148
148,165,62364,2,0,P|116:232|143:288,1,105.000004005432
247,346,62761,2,0,P|317:321|337:262,1,105.000004005432
341,273,63059,1,0,0:0:0:0:
346,247,63158,1,0,0:0:0:0:
172,325,63357,1,0,0:0:0:0:
22,292,63556,6,0,L|134:254,1,105.000004005432
242,211,63854,2,0,L|147:164,1,105.000004005432
121,258,64152,1,0,0:0:0:0:
45,94,64350,2,0,L|53:155,1,52.5000020027161
129,324,64549,2,0,L|137:263,1,52.5000020027161
154,79,64748,2,0,L|249:126,1,105.000004005432
365,353,65145,6,0,P|422:319|380:242,1,157.500006008148
316,234,65543,2,0,P|280:282|304:339,1,105.000004005432
455,326,65940,2,0,B|491:267|491:267|482:151,1,157.500006008148
465,86,66337,2,0,L|434:152,1,52.5000020027161
316,234,66536,2,0,L|382:203,1,52.5000020027161
375,47,66735,6,0,L|337:117,1,52.5000020027161
316,234,66933,2,0,L|290:187,1,52.5000020027161
281,46,67132,2,0,L|204:68,1,52.5000020027161
202,168,67331,2,0,L|149:152,2,35.0000013351441
85,56,67529,1,0,0:0:0:0:
51,229,67927,2,0,L|61:139,1,52.5000020027161
85,56,68125,2,0,L|95:-34,1,52.5000020027161
29,220,68324,6,0,B|10:250|10:250|25:383,1,157.500006008148
182,319,68721,2,0,P|155:258|111:308,1,157.500006008148
136,379,69119,1,0,0:0:0:0:
261,217,69317,1,0,0:0:0:0:
313,343,69516,2,0,L|331:385,2,35.0000013351441
296,311,69715,1,0,0:0:0:0:
79,134,69913,6,0,B|133:118|133:118|248:147,1,140
307,138,70211,1,0,0:0:0:0:
307,138,70311,2,0,B|388:117|388:117|442:133,1,140
386,207,70609,1,0,0:0:0:0:
386,207,70708,2,0,L|369:283,1,70
256,70,70907,2,0,L|257:1,1,70
136,205,71105,2,0,L|153:281,1,70
177,299,71304,6,0,L|164:241,1,52.5000020027161
49,123,71503,5,0,0:0:0:0:
75,100,71602,1,0,0:0:0:0:
107,87,71701,1,0,0:0:0:0:
142,87,71801,1,0,0:0:0:0:
175,98,71900,1,0,0:0:0:0:
327,29,72099,6,0,L|365:27,2,23.3333333333333
303,33,72298,1,0,0:0:0:0:
259,104,72496,1,0,0:0:0:0:
291,181,72695,1,0,0:0:0:0:
487,279,72894,5,0,0:0:0:0:
487,279,72993,1,0,0:0:0:0:
487,279,73092,1,0,0:0:0:0:
460,256,73192,1,0,0:0:0:0:
428,243,73291,1,0,0:0:0:0:
393,243,73391,1,0,0:0:0:0:
360,254,73490,1,0,0:0:0:0:
223,323,73688,6,0,L|185:325,2,23.3333333333333
286,371,73887,2,0,B|303:324|303:324|279:250,2,105
14,248,74682,5,0,0:0:0:0:
40,225,74781,1,0,0:0:0:0:
72,212,74880,1,0,0:0:0:0:
107,212,74980,1,0,0:0:0:0:
140,223,75079,1,0,0:0:0:0:
223,323,75278,6,0,L|185:325,2,23.3333333333333
246,323,75476,1,0,0:0:0:0:
319,247,75675,1,0,0:0:0:0:
381,331,75874,1,0,0:0:0:0:
429,224,76072,1,0,0:0:0:0:
429,224,76172,1,0,0:0:0:0:
429,224,76271,6,0,L|439:140,1,70
368,23,76668,2,0,L|359:-2,2,23.3333333333333
378,44,76867,1,0,0:0:0:0:
343,64,76966,1,0,0:0:0:0:
307,46,77065,1,0,0:0:0:0:
277,81,77165,1,0,0:0:0:0:
238,37,77264,1,0,0:0:0:0:
209,74,77364,1,0,0:0:0:0:
180,58,77463,2,0,B|144:51|144:51|116:63|116:63|48:55,1,105
35,141,77860,5,0,0:0:0:0:
83,160,77959,1,0,0:0:0:0:
119,197,78058,1,0,0:0:0:0:
137,246,78158,1,0,0:0:0:0:
133,298,78257,1,0,0:0:0:0:
209,354,78456,1,0,0:0:0:0:
209,354,78523,1,0,0:0:0:0:
209,354,78589,2,0,L|219:317,1,35.0000013351441
299,168,78854,2,0,L|309:253,1,52.5000020027161
337,178,79052,2,0,L|283:245,1,52.5000020027161
133,298,79251,2,0,L|120:359,1,52.5000020027161
133,298,79450,5,0,0:0:0:0:
137,246,79549,1,0,0:0:0:0:
119,197,79649,1,0,0:0:0:0:
83,160,79748,1,0,0:0:0:0:
35,141,79847,1,0,0:0:0:0:
175,40,80046,2,0,L|160:1,2,35.0000013351441
186,73,80245,1,0,0:0:0:0:
260,177,80344,1,0,0:0:0:0:
260,177,80443,2,0,L|264:110,1,52.5000020027161
333,24,80642,2,0,L|337:91,1,52.5000020027161
394,174,80841,5,0,0:0:0:0:
394,174,80940,1,0,0:0:0:0:
394,174,81039,1,0,0:0:0:0:
429,211,81138,1,0,0:0:0:0:
448,260,81237,1,0,0:0:0:0:
445,312,81337,1,0,0:0:0:0:
423,360,81436,1,0,0:0:0:0:
303,354,81635,5,0,0:0:0:0:
303,354,81702,1,0,0:0:0:0:
303,354,81768,2,0,L|293:317,1,35.0000013351441
223,240,82033,2,0,L|208:310,1,52.5000020027161
143,363,82231,2,0,L|128:293,1,52.5000020027161
125,286,82430,1,0,0:0:0:0:
118,260,82529,1,0,0:0:0:0:
83,251,82629,5,0,0:0:0:0:
50,239,82728,1,0,0:0:0:0:
24,217,82827,1,0,0:0:0:0:
57,206,82927,1,0,0:0:0:0:
89,194,83026,1,0,0:0:0:0:
122,185,83125,1,0,0:0:0:0:
98,158,83225,5,0,0:0:0:0:
72,136,83324,1,0,0:0:0:0:
39,124,83423,1,0,0:0:0:0:
72,113,83523,1,0,0:0:0:0:
105,102,83623,1,0,0:0:0:0:
137,90,83722,1,0,0:0:0:0:
151,121,83821,5,0,0:0:0:0:
165,89,83920,1,0,0:0:0:0:
179,57,84019,1,0,0:0:0:0:
193,25,84119,5,0,0:0:0:0:
202,58,84218,1,0,0:0:0:0:
211,92,84317,1,0,0:0:0:0:
220,126,84416,5,0,0:0:0:0:
233,93,84516,1,0,0:0:0:0:
246,61,84615,1,0,0:0:0:0:
260,28,84715,5,0,0:0:0:0:
269,61,84814,1,0,0:0:0:0:
279,95,84913,1,0,0:0:0:0:
288,129,85013,6,0,P|334:135|350:129,1,35
407,133,85211,2,0,P|443:104|450:89,1,35
368,210,85410,2,0,L|371:293,1,70
372,315,85708,1,0,0:0:0:0:
289,318,85807,6,0,L|277:361,5,23.3333333333333
196,342,86205,2,0,L|191:304,3,35
94,294,86602,6,0,L|87:238,1,35
171,233,86801,1,0,0:0:0:0:
171,233,86900,1,0,0:0:0:0:
176,198,86999,2,0,L|183:142,1,35
94,120,87198,2,0,L|87:64,1,35
197,81,87397,1,0,0:0:0:0:
197,81,87496,1,0,0:0:0:0:
202,46,87595,2,0,L|209:-10,1,35
310,57,87794,6,0,L|314:79,2,23.3333333333333
401,83,87993,2,0,L|406:61,2,23.3333333333333
355,157,88191,5,0,0:0:0:0:
349,191,88290,1,0,0:0:0:0:
344,226,88389,1,0,0:0:0:0:
339,260,88489,1,0,0:0:0:0:
334,313,88589,1,0,0:0:0:0:
293,279,88688,1,0,0:0:0:0:
245,260,88787,1,0,0:0:0:0:
193,255,88887,1,0,0:0:0:0:
142,267,88986,6,0,L|99:283,2,35.0000013351441
214,159,89185,2,0,L|257:143,2,35.0000013351441
45,225,89383,1,0,0:0:0:0:
24,272,89482,1,0,0:0:0:0:
35,322,89581,1,0,0:0:0:0:
73,357,89681,1,0,0:0:0:0:
124,362,89780,5,0,0:0:0:0:
334,313,90079,1,0,0:0:0:0:
161,213,90377,1,0,0:0:0:0:
256,101,90575,1,0,0:0:0:0:
255,105,90973,5,0,0:0:0:0:
293,139,91072,1,0,0:0:0:0:
344,150,91171,1,0,0:0:0:0:
394,134,91271,1,0,0:0:0:0:
426,93,91370,6,0,L|425:204,1,105.000004005432
362,283,91668,1,0,0:0:0:0:
362,283,91767,1,0,0:0:0:0:
362,283,91867,1,0,0:0:0:0:
310,275,91966,1,0,0:0:0:0:
262,295,92065,1,0,0:0:0:0:
231,336,92165,2,0,P|286:367|334:342,1,105.000004005432
364,284,92430,2,0,L|406:301,1,35.0000013351441
364,284,92562,2,0,L|333:217,1,52.5000020027161
261,85,92761,2,0,L|238:132,1,52.5000020027161
63,239,92960,6,0,L|68:172,1,52.5000020027161
97,130,93158,2,0,L|92:197,1,52.5000020027161
161,291,93357,2,0,L|167:331,2,35.0000013351441
70,103,93556,2,0,L|75:36,1,52.5000020027161
93,182,93754,2,0,B|100:212|100:212|162:167|238:220,1,157.500006008148
300,195,94152,5,0,0:0:0:0:
369,172,94251,1,0,0:0:0:0:
369,98,94350,1,0,0:0:0:0:
300,75,94450,1,0,0:0:0:0:
256,135,94549,6,0,P|309:112|286:66,1,105.000004005432
213,55,94847,1,0,0:0:0:0:
202,65,94946,1,0,0:0:0:0:
170,130,95045,1,0,0:0:0:0:
195,198,95144,1,0,0:0:0:0:
263,225,95244,1,0,0:0:0:0:
335,208,95344,2,0,P|408:180|445:199,1,105.000004005432
436,203,95609,1,0,0:0:0:0:
443,218,95675,1,0,0:0:0:0:
451,233,95741,2,0,L|448:307,1,52.5000020027161
256,135,95940,2,0,P|253:97|259:61,1,52.5000020027161
335,208,96138,6,0,L|331:301,1,70.0000026702882
312,307,96337,2,0,L|316:241,1,52.5000020027161
258,30,96536,2,0,L|254:96,1,52.5000020027161
429,187,96734,2,0,P|360:114|261:146,1,210.000008010865
174,150,97231,1,0,0:0:0:0:
185,126,97330,1,0,0:0:0:0:
331,260,97529,2,0,L|335:208,1,52.5000020027161
388,118,97728,6,0,B|400:17|400:17|341:104,1,157.500006008148
313,119,98125,2,0,P|291:78|305:16,1,105.000004005432
440,177,98522,2,0,P|462:218|448:280,1,105.000004005432
368,308,98820,1,0,0:0:0:0:
368,308,98920,2,0,L|347:338,2,35.0000013351441
272,331,99118,2,0,L|177:323,1,52.5000020027161
44,288,99317,6,0,L|115:260,1,52.5000020027161
167,242,99516,2,0,L|215:222,1,52.5000020027161
331,181,99714,2,0,L|260:153,1,52.5000020027161
159,115,99913,2,0,L|208:135,1,52.5000020027161
294,261,100112,2,0,B|301:285|301:285|346:275|346:275|385:314|444:294,1,157.500006008148
406,217,100509,2,0,L|421:99,1,105.000004005432
229,328,100907,6,0,B|211:341|187:338|187:338|170:349|170:349|163:333|163:333|141:309|146:254|195:227,1,157.500006008148
236,252,101304,1,0,0:0:0:0:
309,344,101503,1,0,0:0:0:0:
403,216,101701,2,0,B|409:175|409:175|415:166|415:166|412:155|412:155|420:100,1,105.000004005432
356,27,101999,1,0,0:0:0:0:
355,26,102099,2,0,L|343:77,1,52.5000020027161
500,121,102297,2,0,L|512:70,1,52.5000020027161
203,125,102496,6,0,L|136:127,1,52.5000020027161
201,153,102695,1,0,0:0:0:0:
212,176,102794,1,0,0:0:0:0:
202,200,102893,1,0,0:0:0:0:
211,224,102993,1,0,0:0:0:0:
205,249,103092,1,0,0:0:0:0:
268,294,103191,1,0,0:0:0:0:
332,247,103291,1,0,0:0:0:0:
377,311,103688,5,0,0:0:0:0:
410,245,103787,1,0,0:0:0:0:
393,171,103887,1,0,0:0:0:0:
331,127,103986,1,0,0:0:0:0:
263,160,104085,6,0,P|315:201|402:157,1,157.500006008148
413,100,104483,5,0,0:0:0:0:
371,38,104582,1,0,0:0:0:0:
299,15,104682,1,0,0:0:0:0:
230,47,104781,1,0,0:0:0:0:
195,111,104880,2,0,P|124:146|85:147,1,105.000004005432
102,165,105145,1,0,0:0:0:0:
93,182,105211,1,0,0:0:0:0:
102,196,105277,2,0,L|96:266,1,52.5000020027161
205,361,105476,2,0,L|211:291,1,52.5000020027161
37,336,105675,6,0,L|107:342,1,52.5000020027161
218,224,105873,2,0,L|288:230,1,52.5000020027161
358,351,106072,2,0,L|397:353,2,35.0000013351441
466,266,106271,1,0,0:0:0:0:
342,361,106469,5,0,0:0:0:0:
204,212,106668,1,0,0:0:0:0:
82,359,106867,2,0,L|43:361,2,35.0000013351441
116,354,107065,1,0,0:0:0:0:
142,350,107165,1,0,0:0:0:0:
167,346,107264,5,0,0:0:0:0:
218,224,107463,2,0,L|288:230,1,52.5000020027161
339,358,107662,1,0,0:0:0:0:
348,306,107761,1,0,0:0:0:0:
358,254,107860,5,0,0:0:0:0:
367,203,107960,1,0,0:0:0:0:
377,151,108059,1,0,0:0:0:0:
223,89,108258,5,0,0:0:0:0:
262,123,108358,1,0,0:0:0:0:
302,157,108457,1,0,0:0:0:0:
436,50,108655,2,0,L|373:72,1,52.5000020027161
337,84,108854,5,0,0:0:0:0:
458,196,109052,2,0,L|470:130,1,52.5000020027161
223,89,109251,2,0,L|308:163,1,105.000004005432
337,83,109516,1,0,0:0:0:0:
337,83,109582,1,0,0:0:0:0:
337,83,109648,2,0,L|359:43,5,35.0000013351441
224,252,110046,2,0,L|220:200,1,52.5000020027161
137,210,110244,2,0,L|142:263,1,52.5000020027161
257,325,110443,6,0,P|295:288|301:238,1,105.000004005432
298,213,110741,1,0,0:0:0:0:
287,188,110840,1,0,0:0:0:0:
121,114,111039,6,0,P|95:92|80:60,1,70
156,44,111238,1,0,0:0:0:0:
44,207,111436,1,0,0:0:0:0:
35,232,111536,1,0,0:0:0:0:
86,223,111635,1,0,0:0:0:0:
138,223,111734,1,0,0:0:0:0:
185,245,111834,1,0,0:0:0:0:
200,258,112032,6,0,L|207:186,1,52.5000020027161
276,158,112231,2,0,L|283:86,1,52.5000020027161
291,296,112430,6,0,L|284:224,1,52.5000020027161
192,68,112629,2,0,L|198:121,1,52.5000020027161
223,342,112827,2,0,P|278:298|400:320,1,157.500006008148
385,309,113224,1,0,0:0:0:0:
439,219,113423,1,0,0:0:0:0:
281,105,113622,6,0,L|212:110,1,70
320,174,113820,6,0,L|389:168,1,52.5000020027161
359,85,114019,1,0,0:0:0:0:
66,167,114218,2,0,L|61:105,1,52.5000020027161
211,110,114416,6,0,L|218:179,1,70
320,174,114615,1,0,0:0:0:0:
135,62,114814,1,0,0:0:0:0:
245,28,115012,1,0,0:0:0:0:
111,206,115211,5,0,0:0:0:0:
108,227,115311,1,0,0:0:0:0:
105,247,115410,1,0,0:0:0:0:
102,267,115509,1,0,0:0:0:0:
201,219,115609,5,0,0:0:0:0:
195,253,115708,1,0,0:0:0:0:
190,288,115807,1,0,0:0:0:0:
185,322,115907,1,0,0:0:0:0:
179,357,116006,6,0,L|285:349,1,70
318,382,116205,6,0,L|379:311,1,52.5000020027161
431,347,116403,6,0,L|426:279,1,35
322,98,116602,1,0,0:0:0:0:
389,152,116701,1,0,0:0:0:0:
470,137,116801,6,0,P|434:83|356:75,1,105.000004005432
322,98,117099,1,0,0:0:0:0:
322,98,117198,2,0,L|265:108,1,52.5000020027161
141,145,117397,2,0,L|198:155,1,52.5000020027161
336,192,117595,1,0,0:0:0:0:
336,192,117694,2,0,B|285:199|285:199|243:255,1,105.000004005432
326,323,117993,2,0,L|327:266,1,52.5000020027161
270,107,118191,1,0,0:0:0:0:
100,298,118390,5,0,0:0:0:0:
77,285,118489,1,0,0:0:0:0:
61,234,118589,5,0,0:0:0:0:
53,208,118688,1,0,0:0:0:0:
80,163,118787,5,0,0:0:0:0:
93,139,118886,1,0,0:0:0:0:
141,118,118986,5,0,0:0:0:0:
167,110,119085,1,0,0:0:0:0:
219,118,119185,6,0,L|306:126,1,52.5000020027161
376,191,119383,2,0,L|289:199,1,52.5000020027161
229,230,119582,2,0,L|192:252,2,35.0000013351441
327,290,119781,2,0,L|369:313,2,35.0000013351441
85,326,119979,6,0,L|67:272,2,35.0000013351441
112,276,120178,6,0,L|130:222,2,35.0000013351441
70,175,120377,6,0,L|52:121,2,35.0000013351441
150,108,120575,6,0,L|168:54,2,35.0000013351441
59,21,120774,5,0,0:0:0:0:
111,24,120873,1,0,0:0:0:0:
163,28,120972,1,0,0:0:0:0:
216,32,121072,1,0,0:0:0:0:
268,37,121171,2,0,L|277:0,2,35.0000013351441
265,73,121370,2,0,L|259:143,1,52.5000020027161
370,274,121569,5,0,0:0:0:0:
381,297,121668,1,0,0:0:0:0:
393,319,121767,2,0,P|418:278|416:250,1,52.5000020027161
259,272,121966,2,0,P|282:314|307:326,1,52.5000020027161
360,176,122165,2,0,P|311:174|288:190,1,52.5000020027161
259,272,122363,2,0,P|210:273|187:257,1,52.5000020027161
78,180,122562,2,0,P|126:178|149:194,1,52.5000020027161
336,251,122761,2,0,L|332:151,1,52.5000020027161
209,35,122960,2,0,L|213:135,1,52.5000020027161
354,267,123158,5,0,0:0:0:0:
217,178,123357,1,0,0:0:0:0:
199,197,123456,1,0,0:0:0:0:
209,248,123556,1,0,0:0:0:0:
191,267,123655,1,0,0:0:0:0:
139,276,123754,1,0,0:0:0:0:
67,112,123953,6,0,L|46:73,2,35.0000013351441
157,56,124152,6,0,L|169:13,2,35.0000013351441
236,119,124350,6,0,L|253:150,2,35.0000013351441
343,94,124549,6,0,L|355:51,2,35.0000013351441
364,241,124748,6,0,P|416:226|388:194,1,105.000004005432
278,270,125046,1,0,0:0:0:0:
278,270,125145,2,0,L|285:329,1,52.5000020027161
193,208,125344,2,0,L|186:149,1,52.5000020027161
360,284,125542,1,0,0:0:0:0:
360,284,125642,1,0,0:0:0:0:
360,284,125741,2,0,L|367:343,1,52.5000020027161
163,200,125940,2,0,L|156:141,1,52.5000020027161
285,105,126138,2,0,L|292:164,1,52.5000020027161
65,340,126337,6,0,L|84:273,1,52.5000020027161
157,285,126536,2,0,L|138:352,1,52.5000020027161
33,315,126734,6,0,L|93:281,1,52.5000020027161
188,309,126933,2,0,L|127:342,1,52.5000020027161
44,217,127132,5,0,0:0:0:0:
163,200,127330,1,0,0:0:0:0:
163,200,127430,1,0,0:0:0:0:
163,200,127529,1,0,0:0:0:0:
64,121,127728,1,0,0:0:0:0:
260,85,127926,6,0,L|287:93,1,26.2500010013581
271,133,128026,2,0,L|295:119,1,26.2500010013581
309,159,128125,2,0,L|317:132,1,26.2500010013581
350,158,128224,2,0,L|336:133,1,26.2500010013581
376,152,128324,5,0,0:0:0:0:
417,183,128423,1,0,0:0:0:0:
438,231,128522,1,0,0:0:0:0:
434,282,128622,1,0,0:0:0:0:
342,252,128721,1,0,0:0:0:0:
330,265,128920,6,0,L|335:318,2,35.0000013351441
234,183,129118,6,0,L|265:197,2,35.0000013351441
377,159,129317,6,0,L|348:179,2,35.0000013351441
231,299,129516,6,0,P|188:315|168:317,1,52.5000020027161
62,215,129714,1,0,0:0:0:0:
79,194,129814,1,0,0:0:0:0:
71,169,129913,1,0,0:0:0:0:
99,131,130012,1,0,0:0:0:0:
126,79,130112,1,0,0:0:0:0:
120,21,130211,1,0,0:0:0:0:
125,104,130311,5,0,0:0:0:0:
171,126,130410,1,0,0:0:0:0:
223,127,130509,1,0,0:0:0:0:
240,106,130609,5,0,0:0:0:0:
290,123,130708,1,0,0:0:0:0:
327,160,130807,1,0,0:0:0:0:
370,189,130907,5,0,0:0:0:0:
448,158,131006,1,0,0:0:0:0:
455,75,131105,2,0,B|415:48|387:50|387:50|373:132|461:164,1,210.000008010865
475,238,131602,1,0,0:0:0:0:
475,238,131701,2,0,L|459:293,1,52.5000020027161
351,288,131900,5,0,0:0:0:0:
340,312,131999,1,0,0:0:0:0:
273,282,132099,5,0,0:0:0:0:
262,306,132198,1,0,0:0:0:0:
195,275,132297,5,0,0:0:0:0:
184,299,132396,1,0,0:0:0:0:
117,269,132496,5,0,0:0:0:0:
106,293,132595,1,0,0:0:0:0:
97,317,132695,6,0,L|119:264,1,52.5000020027161
223,191,132893,2,0,L|166:198,1,52.5000020027161
50,143,133092,2,0,L|84:188,1,52.5000020027161
214,285,133291,1,0,0:0:0:0:
294,166,133390,2,0,P|213:196|301:239,1,210.000008010865
305,246,133887,6,0,L|316:170,1,52.5000020027161
413,103,134085,2,0,L|424:27,1,52.5000020027161
241,20,134284,6,0,P|216:71|218:86,1,52.5000020027161
49,87,134483,2,0,P|74:138|72:153,1,52.5000020027161
196,163,134681,2,0,P|171:214|173:229,1,52.5000020027161
88,251,134880,2,0,P|113:302|111:317,1,52.5000020027161
300,312,135079,6,0,P|317:254|299:227,1,52.5000020027161
246,156,135277,2,0,P|187:170|172:199,1,52.5000020027161
210,293,135476,1,0,0:0:0:0:
202,318,135575,1,0,0:0:0:0:
318,265,135675,1,0,0:0:0:0:
326,240,135774,1,0,0:0:0:0:
371,265,135873,5,0,0:0:0:0:
440,227,135973,1,0,0:0:0:0:
491,286,136072,2,0,L|487:346,1,52.5000020027161
379,177,136271,2,0,L|383:117,1,52.5000020027161
490,82,136469,6,0,P|440:52|425:20,1,70
503,4,136668,1,0,0:0:0:0:
303,66,136867,1,0,0:0:0:0:
293,99,136966,1,0,0:0:0:0:
263,116,137065,2,0,L|201:104,1,35
104,29,137264,2,0,L|166:41,1,35
302,272,137463,6,0,P|279:258|266:227,1,35
210,112,137662,2,0,P|232:125|246:157,1,35
175,318,137860,6,0,P|174:285|199:252,1,52.5000020027161
333,60,138059,2,0,P|333:92|310:127,1,52.5000020027161
90,216,138258,5,0,0:0:0:0:
66,200,138357,1,0,0:0:0:0:
110,199,138456,1,0,0:0:0:0:
90,238,138556,1,0,0:0:0:0:
90,217,138655,2,0,L|81:151,1,35
138,35,138854,6,0,L|146:100,1,52.5000020027161
175,318,139052,5,0,0:0:0:0:
90,216,139450,5,0,0:0:0:0:
138,35,139648,2,0,L|146:100,1,52.5000020027161
175,318,139847,1,0,0:0:0:0:
274,284,140046,1,0,0:0:0:0:
274,284,140112,1,0,0:0:0:0:
274,284,140178,1,0,0:0:0:0:
274,284,140244,2,0,L|266:226,1,52.5000020027161
315,42,140443,2,0,L|323:95,1,52.5000020027161
221,55,140642,6,0,L|233:135,1,78.7500030040742
239,184,141039,6,0,L|231:125,1,52.5000020027161
412,104,141238,2,0,L|404:45,1,52.5000020027161
151,173,141436,1,0,0:0:0:0:
329,147,141635,1,0,0:0:0:0:
329,147,141701,1,0,0:0:0:0:
329,147,141767,1,0,0:0:0:0:
329,147,141834,2,0,L|321:88,1,52.5000020027161
507,35,142032,2,0,L|499:94,1,52.5000020027161
243,209,142231,6,0,L|231:131,1,78.7500030040742
224,79,142628,6,0,L|231:131,1,52.5000020027161
358,301,142827,2,0,L|350:248,1,52.5000020027161
137,114,143026,6,0,L|69:85,1,52.5000020027161
321,94,143224,2,0,L|389:65,1,52.5000020027161
243,209,143423,2,0,L|252:286,1,52.5000020027161
224,79,143622,2,0,L|217:26,1,52.5000020027161
59,247,143820,5,0,0:0:0:0:
110,243,143919,1,0,0:0:0:0:
154,214,144018,1,0,0:0:0:0:
177,168,144118,1,0,0:0:0:0:
254,181,144218,1,0,0:0:0:0:
313,134,144317,1,0,0:0:0:0:
315,57,144416,1,0,0:0:0:0:
257,8,144516,1,0,0:0:0:0:
176,55,144615,6,0,P|219:75|256:13,1,105
261,23,145012,2,0,L|315:13,1,35
319,168,145211,2,0,L|309:114,1,35
59,141,145435,6,0,P|123:126|150:243,1,210
74,280,146229,2,0,L|58:133,1,140
231,279,147024,5,0,0:0:0:0:
268,220,147429,1,0,0:0:0:0:
299,236,147632,1,0,0:0:0:0:
331,232,147834,5,0,0:0:0:0:
426,343,148262,5,0,0:0:0:0:
486,289,148678,5,0,0:0:0:0:
407,209,149106,5,0,0:0:0:0:
501,125,149540,5,0,0:0:0:0:
256,24,149962,5,0,0:0:0:0:
11,125,150442,5,0,0:0:0:0:
256,192,150577,12,0,154166,0:0:0:0:
121,94,156289,5,0,0:0:0:0:
127,119,156955,5,0,0:0:0:0:
134,144,157660,5,0,0:0:0:0:
179,207,158410,5,0,0:0:0:0:
244,250,159210,5,0,0:0:0:0:
321,239,160067,5,0,0:0:0:0:
390,272,160990,5,0,0:0:0:0:
461,243,161990,5,0,0:0:0:0:
478,344,163080,6,0,B|432:355|378:306|391:248|391:248|432:196|432:196|400:133|400:133|328:154|328:154|325:218|325:218|289:260|227:260|201:215,1,560
