osu file format v14

[General]
AudioFilename: audio.mp3
AudioLeadIn: 0
PreviewTime: -1
Countdown: 1
SampleSet: None
StackLeniency: 0.2
Mode: 0
LetterboxInBreaks: 0
WidescreenStoryboard: 1

[Editor]
Bookmarks: 27000,33357,46072,58788,71503,82629,85013,91370,104085,116801,129516
DistanceSpacing: 1
BeatDivisor: 4
GridSize: 32
TimelineZoom: 3.199999

[Metadata]
Title:Hyakukakai to Shirotokkuri
TitleUnicode:百花魁と白徳利
Artist:Ponkichi
ArtistUnicode:ぽんきち
Creator:-Nanako-
Version:Extra
Source:
Tags:
BeatmapID:1989031
BeatmapSetID:952560

[Difficulty]
HPDrainRate:4
CircleSize:6.5
OverallDifficulty:6
ApproachRate:9.3
SliderMultiplier:1.8
SliderTickRate:1

[Events]
//Background and Video events
//Break Periods
2,71305,77260
//Storyboard Layer 0 (Background)
//Storyboard Layer 1 (Fail)
//Storyboard Layer 2 (Pass)
//Storyboard Layer 3 (Foreground)
//Storyboard Sound Samples

[TimingPoints]
1770,375,4,2,1,30,1,0
2520,-250,4,2,1,30,0,0
7770,405.405405405405,4,2,1,30,1,0
7770,-250,4,2,1,30,0,0
8378,-250,4,2,1,5,0,0
8580,375,4,2,1,30,1,0
8580,-250,4,2,1,30,0,0
9330,375,4,2,1,30,1,0
9330,-250,4,2,1,30,0,0
12330,400,4,2,1,30,1,0
12330,-250,4,2,1,30,0,0
13130,400,4,2,1,30,1,0
13130,-250,4,2,1,30,0,0
13230,-250,4,2,1,35,0,0
13330,-250,4,2,1,40,0,0
13430,-250,4,2,1,45,0,0
13530,-250,4,2,1,50,0,0
13630,-250,4,2,1,55,0,0
13730,-250,4,2,1,60,0,0
13830,-250,4,2,1,65,0,0
13930,-250,4,2,1,70,0,0
14730,384.615384615385,4,2,1,30,1,0
15499,375,4,2,1,30,1,0
15499,-250,4,2,1,30,0,0
16999,384.615384615385,4,2,1,30,1,0
16999,-250,4,2,1,30,0,0
17383,394.736842105263,4,2,1,30,1,0
17777,400,4,2,1,30,1,0
17777,-250,4,2,1,30,0,0
18177,405.405405405405,4,2,1,30,1,0
18582,428.571428571429,4,2,1,30,1,0
20296,454.545454545455,4,2,1,30,1,0
21205,441.176470588235,4,2,1,30,1,0
21205,-250,4,2,1,30,0,0
22087,504.201680672269,4,2,1,30,1,0
22087,-500,4,2,1,30,0,0
23095,500,4,2,1,30,1,0
23095,-500,4,2,1,30,0,0
24095,571.428571428571,4,2,1,30,1,0
24095,-1000,4,2,1,30,0,0
25237,923.076923076923,4,2,1,30,1,0
25237,-1000,4,2,1,30,0,0
25929,1071.42857142857,4,2,1,30,1,0
27000,397.350993377483,4,2,2,40,1,0
27000,-125,4,2,2,40,0,0
31768,-125,4,2,2,60,0,0
31867,-125,4,2,2,5,0,0
31966,-125,4,2,2,60,0,0
32066,-125,4,2,2,5,0,0
32165,-125,4,2,2,60,0,0
32264,-125,4,2,2,5,0,0
32364,-125,4,2,2,60,0,0
32463,-125,4,2,2,5,0,0
32562,-125,4,2,2,70,0,0
32960,-125,4,2,3,60,0,0
33357,-100,4,2,3,60,0,0
42894,-55.5555555555556,4,2,3,60,0,0
43092,-55.5555555555556,4,2,3,5,0,0
43192,-250,4,2,3,60,0,0
43390,-250,4,2,3,5,0,0
43490,-66.6666666666667,4,2,3,60,0,0
43788,-66.6666666666667,4,2,3,5,0,0
43887,-66.6666666666667,4,2,3,60,0,0
44185,-66.6666666666667,4,2,3,5,0,0
44284,-66.6666666666667,4,2,3,60,0,0
46072,-66.6666666666667,4,2,3,5,0,0
46271,-200,4,3,1,30,0,0
58390,-200,4,2,3,60,0,0
58788,-125,4,2,3,60,0,0
69913,-83.3333333333333,4,2,3,60,0,0
70112,-83.3333333333333,4,2,3,5,0,0
70211,-83.3333333333333,4,2,3,60,0,0
70807,-83.3333333333333,4,2,3,5,0,0
70907,-83.3333333333333,4,2,3,60,0,0
71006,-83.3333333333333,4,2,3,5,0,0
71105,-83.3333333333333,4,2,3,60,0,0
71503,-166.666666666667,4,2,3,60,0,0
77860,-166.666666666667,4,2,2,60,0,0
82629,397.350993377483,3,2,2,60,1,0
82629,-83.3333333333333,3,2,3,80,0,0
83225,-100,3,2,3,70,0,0
83821,-125,3,2,3,60,0,0
84417,-166.666666666667,3,2,3,50,0,0
85013,397.350993377483,4,2,3,50,1,0
85013,-125,4,2,3,50,0,0
88191,-125,4,2,3,50,0,0
88589,-125,4,2,3,55,0,0
88986,-125,4,2,3,60,0,0
89383,-125,4,2,3,65,0,0
89781,-83.3333333333333,4,2,3,70,0,0
91370,-83.3333333333333,4,2,3,70,0,0
104085,-100,4,2,3,70,0,0
108655,-400,4,2,3,70,0,0
108854,-100,4,2,3,70,0,0
113622,-55.5555555555556,4,2,3,70,0,0
115211,-100,4,2,3,50,0,0
115609,-76.9230769230769,4,2,3,60,0,0
116006,-62.5,4,2,3,70,0,0
116801,-100,4,2,3,60,0,0
139052,-76.9230769230769,4,2,3,60,0,0
139450,-100,4,2,3,60,0,0
140642,-76.9230769230769,4,2,3,60,0,0
141039,-100,4,2,3,60,0,0
142231,-76.9230769230769,4,2,3,60,0,0
142628,-100,4,2,3,60,0,0
143820,-100,4,2,3,40,0,0
143920,-100,4,2,3,45,0,0
144019,-100,4,2,3,50,0,0
144118,-100,4,2,3,55,0,0
144218,-100,4,2,3,60,0,0
144317,-100,4,2,3,65,0,0
144416,-100,4,2,3,70,0,0
144516,-100,4,2,3,70,0,0
144615,-400,4,2,3,70,0,0
145012,-400,4,2,3,5,0,0
145435,397.350993377483,4,2,1,30,1,0
146229,-250,4,2,1,30,0,0
147024,405.405405405405,4,2,1,30,1,0
147429,-250,4,2,1,30,0,0
147834,428.571428571429,4,2,1,30,1,0
148262,416.666666666667,4,2,1,30,1,0
148678,428.571428571429,4,2,1,30,1,0
148678,-500,4,2,1,30,0,0
149106,434.782608695652,4,2,1,30,1,0
149540,422.535211267606,4,2,1,30,1,0
149540,-500,4,2,1,30,0,0
149962,480,4,2,1,30,1,0
150442,540.540540540541,4,2,1,30,1,0
151523,468.75,4,2,1,30,1,0
152460,428.571428571429,4,2,1,30,1,0
152602,750,4,2,1,30,1,0
153352,1111.11111111111,4,2,1,30,1,0
153722,1333.33333333333,4,2,1,30,1,0
154166,1061.94690265487,4,2,1,30,1,0
155227,-100,4,2,1,5,0,0
156289,666.666666666667,4,2,1,20,1,0
156955,705.882352941176,4,2,1,20,1,0
157660,750,4,2,1,20,1,0
158410,800,4,2,1,20,1,0
159210,857.142857142857,4,2,1,20,1,0
160067,923.076923076923,4,2,1,20,1,0
160990,1000,4,2,1,20,1,0
161990,1090.90909090909,4,2,1,20,1,0
163080,1071.42857142857,4,2,1,20,1,0
171651,-100,4,2,1,5,0,0

[HitObjects]
117,198,2520,5,0,0:0:0:0:
124,261,2707,1,0,0:0:0:0:
73,302,2895,1,0,0:0:0:0:
65,237,3082,1,0,0:0:0:0:
117,198,3270,5,2,0:0:0:0:
117,198,4020,5,0,0:0:0:0:
124,261,4207,1,0,0:0:0:0:
73,302,4395,1,0,0:0:0:0:
65,237,4582,1,0,0:0:0:0:
117,198,4770,6,0,P|140:163|139:122,1,72,2|0,0:0|0:0,0:0:0:0:
33,87,5520,2,0,P|51:124|87:144,1,72
170,70,6270,2,0,P|128:66|93:88,2,72,2|0|0,0:0|0:0|0:0,0:0:0:0:
212,127,7395,1,0,0:0:0:0:
254,70,7770,2,0,P|311:62|355:98,1,108,2|0,0:0|0:0,0:0:0:0:
406,137,8580,5,0,0:0:0:0:
466,114,8767,1,0,0:0:0:0:
478,50,8955,1,0,0:0:0:0:
417,73,9142,1,0,0:0:0:0:
406,137,9330,5,2,0:0:0:0:
406,137,10080,5,0,0:0:0:0:
466,114,10267,1,0,0:0:0:0:
478,50,10455,1,0,0:0:0:0:
417,73,10642,1,0,0:0:0:0:
406,137,10830,6,0,P|375:158|334:161,2,72,2|0|0,0:0|0:0|0:0,0:0:0:0:
417,73,11955,1,0,0:0:0:0:
467,114,12330,2,0,P|470:151|452:188,1,72,2|0,0:0|0:0,0:0:0:0:
399,219,13130,2,0,L|371:217,8,18
399,219,14730,5,0,0:0:0:0:
413,283,15114,1,0,0:0:0:0:
367,328,15499,2,0,P|330:338|291:324,1,72,2|0,0:0|0:0,0:0:0:0:
249,287,16249,1,0,0:0:0:0:
237,351,16624,1,0,0:0:0:0:
187,308,16999,2,0,P|150:298|111:312,1,72,2|0,0:0|0:0,0:0:0:0:
82,365,17777,2,0,P|119:375|158:361,1,72
64,235,18582,5,2,0:0:0:0:
64,243,19439,5,2,0:0:0:0:
63,251,20296,5,2,0:0:0:0:
63,259,21205,6,0,L|66:222,2,24
135,225,21646,6,0,L|132:188,2,24
62,173,22087,6,0,L|65:128,1,36,2|0,0:0|0:0,0:0:0:0:
133,139,23095,6,0,L|130:94,1,36
65,74,24095,6,0,L|66:53,1,18,2|0,0:0|0:0,0:0:0:0:
132,40,25237,6,0,L|131:19,1,24.0065217
133,139,27000,6,0,P|175:142|212:102,1,72,12|0,3:2|0:0,0:0:0:0:
227,58,27298,1,0,0:0:0:0:
227,58,27397,2,0,L|269:62,1,36,8|0,3:2|0:0,0:0:0:0:
338,112,27596,1,0,0:0:0:0:
400,21,27794,5,0,3:2:0:0:
400,21,27894,2,0,B|397:56,1,36
338,112,28092,1,0,0:0:0:0:
338,112,28192,2,0,L|341:157,1,36,8|0,3:2|0:0,0:0:0:0:
382,214,28390,1,0,0:0:0:0:
491,145,28589,6,0,P|457:140|422:154,1,72,4|0,3:2|0:0,0:0:0:0:
382,214,28887,1,0,0:0:0:0:
382,214,28986,2,0,L|384:258,1,36,8|0,3:2|0:0,0:0:0:0:
439,348,29185,1,0,0:0:0:0:
326,327,29384,5,0,3:2:0:0:
326,327,29483,2,0,P|347:317|382:317,1,36
480,294,29682,1,0,0:0:0:0:
480,294,29782,2,0,P|459:284|424:284,1,36,8|0,3:2|0:0,0:0:0:0:
364,379,29980,1,0,0:0:0:0:
257,317,30178,6,0,L|180:311,1,72,4|0,3:2|0:0,0:0:0:0:
91,369,30476,1,0,0:0:0:0:
91,369,30576,2,0,P|107:353|113:317,1,36,8|0,3:2|0:0,0:0:0:0:
61,217,30774,1,0,0:0:0:0:
11,323,30973,5,0,3:2:0:0:
10,322,31072,2,0,L|46:317,1,36
142,274,31271,1,0,0:0:0:0:
142,273,31370,2,0,L|106:267,1,36,8|0,3:2|0:0,0:0:0:0:
0,245,31569,1,0,0:0:0:0:
142,189,31768,6,0,P|149:169|150:143,1,36,4|0,3:2|0:0,0:0:0:0:
94,51,31966,2,0,P|87:71|86:97,1,36,0|0,3:2|0:0,0:0:0:0:
187,96,32165,2,0,P|167:89|141:88,1,36,8|0,3:2|0:0,0:0:0:0:
49,144,32364,2,0,P|69:151|95:152,1,36,0|0,3:2|0:0,0:0:0:0:
256,64,32562,5,8,3:2:0:0:
256,64,32960,1,8,3:2:0:0:
307,121,33158,1,0,0:0:0:0:
187,96,33357,5,6,3:2:0:0:
376,89,33556,1,0,0:0:0:0:
245,188,33754,1,8,3:2:0:0:
245,188,33821,1,8,0:0:0:0:
245,188,33887,1,8,0:0:0:0:
245,188,33953,2,0,L|237:122,1,45,8|0,0:0|0:0,0:0:0:0:
376,89,34152,6,0,L|368:182,1,90,2|0,3:2|0:0,0:0:0:0:
368,178,34450,1,0,0:0:0:0:
368,178,34549,1,8,3:2:0:0:
423,268,34748,1,0,0:0:0:0:
309,251,34947,5,2,3:2:0:0:
482,195,35145,1,0,0:0:0:0:
436,352,35344,1,8,3:2:0:0:
436,352,35410,1,8,0:0:0:0:
436,352,35476,1,8,0:0:0:0:
436,352,35543,2,0,P|406:351|376:339,1,45,8|0,0:0|0:0,0:0:0:0:
309,251,35741,6,0,P|266:248|215:270,1,90,2|0,3:2|0:0,0:0:0:0:
222,264,36039,1,0,0:0:0:0:
222,264,36139,1,8,3:2:0:0:
187,349,36337,1,0,0:0:0:0:
131,276,36536,5,2,3:2:0:0:
278,337,36735,1,0,0:0:0:0:
166,191,36933,1,8,3:2:0:0:
96,361,37132,1,0,0:0:0:0:
75,203,37331,5,2,3:2:0:0:
222,264,37529,1,0,0:0:0:0:
40,288,37728,1,8,3:2:0:0:
110,118,37927,1,0,0:0:0:0:
131,276,38125,5,2,3:2:0:0:
19,130,38324,1,0,0:0:0:0:
201,106,38523,1,8,3:2:0:0:
201,106,38589,1,8,0:0:0:0:
201,106,38655,1,8,0:0:0:0:
201,106,38721,2,0,L|255:99,1,45,8|0,0:0|0:0,0:0:0:0:
329,198,38920,6,0,B|304:210|304:210|230:201,1,90,2|0,3:2|0:0,0:0:0:0:
379,120,39317,1,8,3:2:0:0:
408,216,39516,1,0,0:0:0:0:
290,147,39715,5,6,3:2:0:0:
497,189,39913,1,0,0:0:0:0:
338,281,40112,1,8,3:2:0:0:
338,281,40178,1,8,0:0:0:0:
338,281,40245,1,8,0:0:0:0:
338,281,40311,2,0,L|279:276,1,45,8|0,0:0|0:0,0:0:0:0:
167,196,40509,6,0,B|150:228|150:228|160:304,1,90,2|0,3:2|0:0,0:0:0:0:
157,281,40807,1,0,0:0:0:0:
157,281,40907,1,8,3:2:0:0:
220,339,41105,1,0,0:0:0:0:
145,381,41304,5,2,3:2:0:0:
232,239,41503,1,0,0:0:0:0:
82,187,41701,1,8,3:2:0:0:
82,187,41768,1,8,0:0:0:0:
82,187,41834,1,8,0:0:0:0:
82,187,41900,2,0,L|90:253,1,45,8|0,0:0|0:0,0:0:0:0:
221,131,42099,6,0,P|216:77|178:45,1,90,2|0,3:2|0:0,0:0:0:0:
192,52,42397,1,0,0:0:0:0:
192,52,42496,1,8,3:2:0:0:
167,196,42695,1,0,0:0:0:0:
307,125,42894,6,0,B|376:88|371:144|437:110|437:110|419:100|397:106,1,161.999995056153,6|0,3:2|0:0,0:0:0:0:
350,180,43192,2,0,L|352:227,1,36,4|0,3:2|0:0,0:0:0:0:
429,318,43490,1,4,3:2:0:0:
294,309,43688,6,0,P|327:291|365:289,1,67.5000025749208,6|0,3:2|0:0,0:0:0:0:
429,318,43887,1,0,0:0:0:0:
294,308,44086,6,0,P|322:330|363:338,1,67.5000025749208,4|4,3:2|0:0,0:0:0:0:
429,318,44284,1,0,0:0:0:0:
294,309,44483,5,6,3:2:0:0:
256,192,44582,12,0,46072,0:0:0:0:
180,248,46271,6,0,P|178:281|162:311,1,67.5
130,184,46867,1,0,0:0:0:0:
180,248,47165,6,0,P|178:281|162:311,1,67.5
130,184,47860,6,0,P|159:168|193:167,1,67.5
99,259,48456,1,0,0:0:0:0:
130,184,48754,6,0,P|159:168|193:167,1,67.5,0|0,0:0|0:0,0:0:0:0:
99,259,49450,6,0,P|71:240|52:212,1,67.5,0|0,0:0|0:0,0:0:0:0:
180,248,50046,1,0,0:0:0:0:
99,259,50344,6,0,P|71:240|52:212,1,67.5,0|0,0:0|0:0,0:0:0:0:
180,248,51039,6,0,P|178:281|162:311,1,67.5,0|0,0:0|0:0,0:0:0:0:
130,184,51635,1,4,0:0:0:0:
130,184,52033,1,4,0:0:0:0:
130,184,52629,6,0,P|116:157|114:119,1,67.5,0|0,0:0|0:0,0:0:0:0:
240,87,53225,1,0,0:0:0:0:
130,184,53523,6,0,P|116:157|114:119,1,67.5,0|0,0:0|0:0,0:0:0:0:
240,87,54218,6,0,P|223:112|191:133,1,67.5,0|0,0:0|0:0,0:0:0:0:
100,40,54814,1,0,0:0:0:0:
240,87,55112,6,0,P|223:112|191:133,1,67.5,0|0,0:0|0:0,0:0:0:0:
100,40,55808,6,0,P|130:41|164:58,1,67.5,0|0,0:0|0:0,0:0:0:0:
129,184,56404,1,0,0:0:0:0:
100,40,56702,6,0,P|130:41|164:58,1,67.5,0|0,0:0|0:0,0:0:0:0:
130,184,57397,6,0,P|116:157|114:119,1,67.5,0|0,0:0|0:0,0:0:0:0:
240,87,57993,1,8,0:0:0:0:
240,87,58390,1,8,3:2:0:0:
299,141,58589,1,0,0:0:0:0:
357,87,58788,6,0,P|360:51|342:13,1,72,6|0,3:2|0:0,0:0:0:0:
299,141,59185,1,8,3:2:0:0:
358,87,59384,1,0,0:0:0:0:
416,141,59582,2,0,P|419:177|401:215,1,72,2|0,3:2|0:0,0:0:0:0:
358,87,59980,1,8,3:2:0:0:
416,141,60178,1,0,0:0:0:0:
475,87,60377,5,2,3:2:0:0:
299,141,60576,1,8,0:0:0:0:
299,141,60642,1,8,0:0:0:0:
299,141,60708,1,8,0:0:0:0:
299,141,60774,1,8,3:2:0:0:
475,87,60973,1,0,0:0:0:0:
405,209,61172,2,0,P|401:245|419:282,1,72,2|0,3:2|0:0,0:0:0:0:
489,327,61569,1,8,3:2:0:0:
349,305,61768,1,0,0:0:0:0:
255,381,61966,6,0,P|213:378|178:338,1,72,2|0,3:2|0:0,0:0:0:0:
237,239,62364,2,0,B|249:264|249:264|242:307,1,72,8|0,3:2|0:0,0:0:0:0:
87,334,62761,1,2,3:2:0:0:
127,209,62960,1,8,0:0:0:0:
127,209,63059,1,8,0:0:0:0:
127,209,63158,1,8,3:2:0:0:
178,284,63357,1,0,0:0:0:0:
63,256,63556,6,0,B|43:221|43:221|58:140,2,108,2|0|0,3:2|0:0|0:0,0:0:0:0:
194,179,64350,1,2,3:2:0:0:
248,238,64748,1,8,3:2:0:0:
194,179,64947,1,0,0:0:0:0:
248,121,65145,6,0,P|284:118|322:136,1,72,6|0,3:2|0:0,0:0:0:0:
194,179,65543,1,8,3:2:0:0:
248,120,65742,1,0,0:0:0:0:
194,62,65941,2,0,P|158:59|120:77,1,72,2|0,3:2|0:0,0:0:0:0:
248,120,66338,1,8,3:2:0:0:
194,62,66536,1,0,0:0:0:0:
248,3,66735,5,2,3:2:0:0:
194,179,66934,1,8,0:0:0:0:
194,179,67000,1,8,0:0:0:0:
194,179,67066,1,8,0:0:0:0:
194,179,67132,1,8,3:2:0:0:
386,151,67331,1,0,0:0:0:0:
386,151,67397,1,0,0:0:0:0:
386,151,67463,1,0,0:0:0:0:
386,151,67529,2,0,P|386:113|367:80,1,72,2|0,3:2|0:0,0:0:0:0:
287,60,67927,1,8,3:2:0:0:
428,32,68125,1,0,0:0:0:0:
316,131,68324,6,0,P|315:168|334:201,1,72,2|0,3:2|0:0,0:0:0:0:
452,160,68721,2,0,B|437:148|437:148|385:150,1,72,8|0,3:2|0:0,0:0:0:0:
294,333,69119,1,2,3:2:0:0:
405,219,69317,1,8,0:0:0:0:
405,219,69417,1,8,0:0:0:0:
405,219,69516,1,8,3:2:0:0:
448,377,69715,1,0,0:0:0:0:
348,275,69913,6,0,P|301:253|239:278,1,107.999996704102,6|0,3:2|0:0,0:0:0:0:
197,344,70211,1,0,0:0:0:0:
196,343,70311,6,0,P|145:358|97:336,1,107.999996704102,12|0,3:2|0:0,0:0:0:0:
29,227,70609,1,0,0:0:0:0:
29,227,70708,2,0,L|25:294,1,53.9999983520508,6|0,3:2|0:0,0:0:0:0:
150,280,70907,2,0,L|146:213,1,53.9999983520508,12|0,0:0|0:0,0:0:0:0:
84,99,71105,1,12,3:2:0:0:
256,192,77860,5,4,3:2:0:0:
256,192,79251,5,0,3:2:0:0:
256,192,79450,1,4,3:2:0:0:
256,192,80841,5,0,3:2:0:0:
256,192,80940,1,0,3:2:0:0:
256,192,81039,1,4,3:2:0:0:
256,192,82430,5,0,3:2:0:0:
41,250,82629,6,0,B|77:270|77:270|158:256,1,107.999996704102,4|0,3:2|0:0,0:0:0:0:
213,98,82927,2,0,P|170:68|112:82,1,107.999996704102,4|0,3:2|0:0,0:0:0:0:
358,201,83225,6,0,P|402:184|422:131,1,90,4|0,3:2|0:0,0:0:0:0:
196,276,83523,2,0,P|189:322|225:366,1,90,4|0,3:2|0:0,0:0:0:0:
325,290,83821,6,0,P|309:257|272:238,1,72,4|0,3:2|0:0,0:0:0:0:
136,202,84119,2,0,P|173:205|208:182,1,72,4|0,3:2|0:0,0:0:0:0:
299,89,84417,6,0,P|285:113|287:155,1,53.9999983520508,4|0,3:2|0:0,0:0:0:0:
358,201,84715,2,0,P|394:190|414:165,1,53.9999983520508,4|0,3:2|0:0,0:0:0:0:
352,134,85013,5,4,3:2:0:0:
256,192,85211,1,0,0:0:0:0:
256,192,85311,1,0,0:0:0:0:
256,192,85410,2,0,L|264:242,1,36,8|0,0:0|0:0,0:0:0:0:
339,308,85609,1,0,0:0:0:0:
339,308,85708,1,0,0:0:0:0:
335,305,85807,5,8,0:0:0:0:
333,297,85906,1,0,0:0:0:0:
332,290,86005,1,0,0:0:0:0:
331,283,86105,1,0,0:0:0:0:
330,275,86205,1,8,0:0:0:0:
304,300,86304,1,0,0:0:0:0:
271,311,86403,1,0,0:0:0:0:
235,307,86503,1,0,0:0:0:0:
208,284,86602,6,0,P|178:262|135:267,1,72,0|0,3:2|0:0,0:0:0:0:
154,358,86900,1,0,0:0:0:0:
154,358,86999,2,0,L|160:323,1,36,10|0,0:0|0:0,0:0:0:0:
72,214,87198,2,0,L|77:249,1,36,2|0,0:0|0:0,0:0:0:0:
87,312,87397,5,8,0:0:0:0:
178,199,87595,2,0,L|183:163,1,36,2|0,0:0|0:0,0:0:0:0:
56,112,87794,2,0,L|61:147,1,36,10|0,0:0|0:0,0:0:0:0:
169,260,87993,1,0,0:0:0:0:
123,93,88191,5,0,3:2:0:0:
123,100,88290,1,0,0:0:0:0:
124,107,88389,1,0,0:0:0:0:
126,114,88489,1,0,0:0:0:0:
126,121,88589,1,8,0:0:0:0:
140,105,88688,1,0,0:0:0:0:
159,94,88787,1,0,0:0:0:0:
180,90,88887,1,0,0:0:0:0:
202,92,88986,5,8,0:0:0:0:
228,115,89085,1,0,0:0:0:0:
255,137,89184,1,0,0:0:0:0:
283,159,89284,1,0,0:0:0:0:
313,178,89383,1,8,0:0:0:0:
355,174,89482,1,0,0:0:0:0:
388,146,89581,1,0,0:0:0:0:
396,103,89681,1,0,0:0:0:0:
391,61,89781,6,0,P|330:36|346:111,2,161.999995056153,4|4|4,3:2|0:0|0:0,0:0:0:0:
182,163,90575,1,6,3:2:0:0:
403,346,90973,1,8,3:2:0:0:
445,311,91072,1,0,0:0:0:0:
426,261,91171,1,0,3:2:0:0:
371,263,91271,1,0,0:0:0:0:
358,316,91370,6,0,P|312:347|252:340,1,107.999996704102,6|0,3:2|0:0,0:0:0:0:
134,271,91668,1,0,0:0:0:0:
134,271,91767,1,8,3:2:0:0:
108,319,91866,1,0,0:0:0:0:
144,358,91965,1,0,3:2:0:0:
194,335,92065,1,0,0:0:0:0:
186,281,92165,6,0,P|167:230|191:181,1,107.999996704102,2|8,3:2|0:0,0:0:0:0:
288,235,92430,1,8,0:0:0:0:
288,235,92496,1,8,0:0:0:0:
288,235,92562,2,0,L|235:233,1,53.9999983520508,8|0,3:2|0:0,0:0:0:0:
63,190,92761,2,0,L|116:187,1,53.9999983520508
257,168,92960,6,0,P|252:134|229:110,1,53.9999983520508,2|0,3:2|0:0,0:0:0:0:
129,80,93158,2,0,P|133:113|156:137,1,53.9999983520508
235,55,93357,2,0,P|242:38|243:20,2,35.9999989013672,8|0|0,3:2|0:0|0:0,0:0:0:0:
235,55,93556,2,0,P|210:65|191:84,1,53.9999983520508
188,183,93754,6,0,B|222:191|222:191|301:175,1,107.999996704102,2|0,3:2|0:0,0:0:0:0:
389,60,94152,1,8,3:2:0:0:
354,18,94251,1,0,0:0:0:0:
304,37,94350,1,0,3:2:0:0:
306,92,94450,1,0,0:0:0:0:
359,105,94549,6,0,P|390:151|383:211,1,107.999996704102,2|0,3:2|0:0,0:0:0:0:
322,323,94847,1,0,0:0:0:0:
322,323,94946,1,8,3:2:0:0:
361,361,95045,1,0,0:0:0:0:
408,336,95144,1,0,3:2:0:0:
401,282,95244,1,0,0:0:0:0:
347,275,95344,6,0,P|304:300|245:289,1,107.999996704102,2|8,3:2|0:0,0:0:0:0:
172,244,95609,1,8,0:0:0:0:
172,244,95675,1,8,0:0:0:0:
172,244,95741,2,0,L|164:329,1,53.9999983520508,8|0,3:2|0:0,0:0:0:0:
286,210,95940,2,0,L|278:125,1,53.9999983520508
113,256,96138,6,0,L|105:341,1,53.9999983520508,2|0,3:2|0:0,0:0:0:0:
227,222,96337,2,0,L|219:137,1,53.9999983520508
124,90,96536,2,0,L|120:59,14,26.9999991760254,8|0|0|0|0|0|0|0|2|0|0|0|0|0|0,3:2|0:0|0:0|0:0|0:0|0:0|0:0|0:0|3:2|0:0|0:0|0:0|0:0|0:0|0:0,0:0:0:0:
98,152,97330,2,0,P|129:156|168:142,1,53.9999983520508,8|0,3:2|0:0,0:0:0:0:
251,92,97529,2,0,P|282:88|321:102,1,53.9999983520508,0|0,3:2|0:0,0:0:0:0:
447,149,97728,6,0,P|439:117|421:89,1,53.9999983520508,2|0,3:2|0:0,0:0:0:0:
409,216,97926,1,0,0:0:0:0:
409,216,98026,1,0,0:0:0:0:
409,216,98125,2,0,P|440:225|473:223,1,53.9999983520508,8|0,3:2|0:0,0:0:0:0:
369,149,98324,2,0,P|345:171|330:201,1,53.9999983520508,0|0,3:2|0:0,0:0:0:0:
427,266,98522,6,0,P|419:234|401:206,1,53.9999983520508,2|0,3:2|0:0,0:0:0:0:
296,256,98721,1,0,0:0:0:0:
296,256,98821,1,0,0:0:0:0:
296,256,98920,2,0,P|327:265|360:263,1,53.9999983520508,8|0,3:2|0:0,0:0:0:0:
369,149,99118,2,0,P|345:171|330:201,1,53.9999983520508
398,332,99317,6,0,L|337:319,1,53.9999983520508,2|0,3:2|0:0,0:0:0:0:
229,293,99516,1,0,0:0:0:0:
305,384,99714,2,0,L|268:336,1,53.9999983520508,8|0,3:2|0:0,0:0:0:0:
188,238,99913,1,0,0:0:0:0:
83,352,100112,6,0,B|60:327|60:327|68:230,1,107.999996704102,2|0,3:2|0:0,0:0:0:0:
188,238,100509,1,8,3:2:0:0:
124,305,100708,1,0,3:2:0:0:
229,293,100907,6,2,P|257:231|234:186,1,107.999996704102,0|0,3:2|0:0,0:0:0:0:
103,184,101304,1,8,3:2:0:0:
188,238,101503,1,0,3:2:0:0:
66,253,101701,5,2,3:2:0:0:
140,115,101900,1,0,3:2:0:0:
140,115,101999,1,0,3:2:0:0:
140,115,102099,1,8,3:2:0:0:
18,130,102297,1,0,0:0:0:0:
169,183,102496,6,0,P|196:163|212:138,1,53.9999983520508,2|0,3:2|0:0,0:0:0:0:
179,23,102695,2,0,P|182:56|196:82,1,53.9999983520508
312,111,102893,2,0,P|281:97|251:96,1,53.9999983520508,8|0,3:2|0:0,0:0:0:0:
95,173,103092,2,0,L|72:201,2,35.9999989013672
140,115,103291,5,10,3:2:0:0:
109,346,103688,1,8,3:2:0:0:
67,311,103787,1,0,0:0:0:0:
86,261,103886,1,0,3:2:0:0:
141,263,103986,1,0,0:0:0:0:
154,316,104085,6,0,P|200:347|249:339,1,90,6|0,3:2|0:0,0:0:0:0:
336,248,104483,1,8,3:2:0:0:
362,296,104582,1,0,0:0:0:0:
326,335,104681,1,0,3:2:0:0:
276,312,104781,1,0,0:0:0:0:
284,258,104880,5,2,3:2:0:0:
391,361,105079,1,8,0:0:0:0:
391,361,105145,1,8,0:0:0:0:
391,361,105211,1,8,0:0:0:0:
391,361,105277,1,8,3:2:0:0:
217,278,105476,1,0,0:0:0:0:
408,241,105675,5,2,3:2:0:0:
270,383,105873,1,0,0:0:0:0:
300,200,106072,1,8,3:2:0:0:
300,200,106138,1,8,0:0:0:0:
300,200,106205,1,8,0:0:0:0:
300,200,106271,1,8,0:0:0:0:
391,361,106469,5,2,3:2:0:0:
354,71,106867,1,8,3:2:0:0:
389,29,106966,1,0,0:0:0:0:
437,51,107065,1,0,3:2:0:0:
432,106,107165,1,0,0:0:0:0:
379,114,107264,6,0,P|332:99|284:115,1,90,2|0,3:2|0:0,0:0:0:0:
209,181,107662,1,8,3:2:0:0:
166,152,107761,1,0,0:0:0:0:
180,100,107860,1,0,3:2:0:0:
233,98,107960,1,0,0:0:0:0:
252,150,108059,5,2,3:2:0:0:
98,105,108258,1,0,0:0:0:0:
252,150,108456,1,8,3:2:0:0:
137,235,108655,2,0,L|136:259,1,22.5
117,170,109052,5,0,0:0:0:0:
137,235,109251,2,0,L|136:258,14,22.5,8|0|0|0|0|0|0|0|0|0|0|0|0|0|0,3:2|0:0|0:0|0:0|0:0|0:0|0:0|0:0|0:0|0:0|0:0|0:0|0:0|0:0|0:0,0:0:0:0:
117,170,110046,1,8,3:2:0:0:
77,295,110244,1,0,3:2:0:0:
199,222,110443,6,0,P|250:226|283:262,1,90,2|0,3:2|0:0,0:0:0:0:
234,369,110840,2,0,P|211:322|226:276,1,90,8|0,3:2|0:0,0:0:0:0:
344,266,111238,5,2,3:2:0:0:
279,319,111436,1,0,0:0:0:0:
279,319,111536,1,0,0:0:0:0:
279,319,111635,1,8,3:2:0:0:
409,213,111834,1,0,0:0:0:0:
357,348,112032,5,2,3:2:0:0:
330,183,112231,1,0,0:0:0:0:
422,295,112430,1,8,3:2:0:0:
265,236,112629,1,0,0:0:0:0:
396,130,112827,6,0,L|497:131,1,90,2|0,3:2|0:0,0:0:0:0:
344,266,113224,1,8,3:2:0:0:
316,100,113423,1,0,3:2:0:0:
186,206,113622,6,0,B|122:241|27:204|37:71|131:104|174:147|130:175,1,242.999992584229,6|0,3:2|0:0,0:0:0:0:
184,311,114019,1,8,3:2:0:0:
212,145,114217,1,0,3:2:0:0:
349,249,114416,6,0,B|412:284|507:247|497:114|403:147|360:190|404:218,1,242.999992584229,6|0,3:2|0:0,0:0:0:0:
344,356,114814,1,8,3:2:0:0:
316,190,115013,1,0,3:2:0:0:
184,311,115211,6,0,P|157:320|124:313,1,45,2|0,3:2|0:0,0:0:0:0:
129,259,115410,2,0,P|156:250|189:257,1,45,0|0,3:2|0:0,0:0:0:0:
281,217,115609,6,0,P|313:230|349:228,1,58.4999973220826,8|0,0:0|0:0,0:0:0:0:
352,165,115807,2,0,P|320:152|284:154,1,58.4999973220826
171,144,116006,6,0,P|136:160|92:153,1,72,2|0,3:2|0:0,0:0:0:0:
93,88,116205,2,0,P|127:71|171:78,1,72,0|0,3:2|0:0,0:0:0:0:
321,70,116403,6,0,B|367:107|422:79|435:28|435:28|395:12|356:26,1,216,8|0,0:0|0:0,0:0:0:0:
227,104,116801,5,2,3:2:0:0:
227,104,116900,2,0,P|219:73|230:35,1,45
298,152,117099,1,0,0:0:0:0:
298,152,117198,2,0,P|275:175|242:190,1,45,8|0,3:2|0:0,0:0:0:0:
190,196,117397,2,0,P|161:194|136:183,1,45
55,121,117595,5,2,3:2:0:0:
55,121,117695,2,0,L|63:182,1,45
53,292,117893,1,0,0:0:0:0:
53,292,117993,2,0,P|69:274|95:262,1,45,8|0,3:2|0:0,0:0:0:0:
175,249,118191,2,0,P|202:253|235:274,1,45
300,329,118390,5,2,3:2:0:0:
333,340,118489,1,0,0:0:0:0:
368,333,118588,1,0,0:0:0:0:
396,311,118688,1,0,0:0:0:0:
410,278,118787,2,0,P|417:308|416:335,1,45,8|0,3:2|0:0,0:0:0:0:
339,266,118986,2,0,P|337:237|344:208,1,45
395,137,119185,6,0,P|403:108|399:75,1,45,2|0,3:2|0:0,0:0:0:0:
308,71,119383,1,0,0:0:0:0:
308,71,119483,1,0,0:0:0:0:
308,71,119582,2,0,P|328:91|359:105,1,45,8|0,3:2|0:0,0:0:0:0:
406,28,119781,1,0,0:0:0:0:
406,28,119881,1,0,0:0:0:0:
406,28,119979,6,0,P|375:34|349:54,1,45,2|0,3:2|0:0,0:0:0:0:
329,164,120178,2,0,L|312:183,3,22.5
270,150,120377,2,0,L|245:144,3,22.5,8|0|0|0,3:2|0:0|0:0|0:0,0:0:0:0:
252,91,120575,2,0,L|244:66,3,22.5
200,114,120774,6,0,P|174:116|147:104,1,45,2|0,3:2|0:0,0:0:0:0:
82,32,120973,1,0,0:0:0:0:
82,32,121072,1,0,0:0:0:0:
82,32,121171,2,0,P|96:53|99:82,1,45,8|0,3:2|0:0,0:0:0:0:
70,176,121370,2,0,P|81:152|105:135,1,45
168,193,121569,6,0,P|156:216|132:233,1,45,2|0,3:2|0:0,0:0:0:0:
49,261,121767,1,0,0:0:0:0:
49,261,121867,1,0,0:0:0:0:
49,261,121966,2,0,P|72:272|89:296,1,45,8|0,3:2|0:0,0:0:0:0:
117,380,122165,1,0,0:0:0:0:
117,380,122264,1,0,0:0:0:0:
117,380,122363,6,0,P|128:356|152:339,1,45,2|0,3:2|0:0,0:0:0:0:
236,312,122562,1,0,0:0:0:0:
236,312,122661,1,0,0:0:0:0:
236,312,122760,2,0,P|212:300|195:276,1,45,8|0,3:2|0:0,0:0:0:0:
336,229,122960,1,0,0:0:0:0:
311,344,123158,6,0,L|308:286,1,45,2|0,3:2|0:0,0:0:0:0:
407,247,123357,1,0,0:0:0:0:
407,247,123456,1,0,0:0:0:0:
407,247,123556,2,0,P|393:275|371:291,1,45,8|0,3:2|0:0,0:0:0:0:
259,251,123754,2,0,L|256:193,1,45
393,134,123953,6,0,L|390:192,1,45,2|0,3:2|0:0,0:0:0:0:
237,142,124152,1,0,0:0:0:0:
237,142,124251,1,0,0:0:0:0:
237,142,124350,2,0,P|268:140|295:153,1,45,8|0,3:2|0:0,0:0:0:0:
336,229,124549,2,0,L|333:171,1,45
365,45,124748,6,2,P|344:63|314:72,1,45,0|0,3:2|0:0,0:0:0:0:
238,82,124946,2,0,P|209:83|178:69,1,45
127,1,125145,1,8,3:2:0:0:
68,107,125344,2,0,L|61:43,1,45
164,146,125542,6,0,L|157:210,1,45,2|0,3:2|0:0,0:0:0:0:
41,206,125741,1,0,0:0:0:0:
41,206,125840,1,0,0:0:0:0:
41,206,125940,2,0,P|67:190|100:186,1,45,8|0,3:2|0:0,0:0:0:0:
207,238,126138,2,0,P|181:254|148:258,1,45
82,250,126337,5,2,3:2:0:0:
84,276,126436,1,0,0:0:0:0:
86,303,126535,1,0,0:0:0:0:
89,330,126635,1,0,0:0:0:0:
91,357,126734,2,0,P|119:338|146:330,1,45,8|0,3:2|0:0,0:0:0:0:
219,313,126933,2,0,P|248:310|279:313,1,45
345,380,127132,5,2,3:2:0:0:
443,271,127330,1,0,0:0:0:0:
440,306,127429,1,0,0:0:0:0:
437,342,127528,1,8,3:2:0:0:
336,230,127728,1,0,0:0:0:0:
457,142,127926,6,0,L|493:116,2,30,10|8|8,3:2|0:0|0:0,0:0:0:0:
436,89,128125,2,0,L|422:46,2,30,8|8|8,0:0|0:0|0:0,0:0:0:0:
379,92,128324,2,0,L|334:91,2,30,8|8|8,3:2|0:0|0:0,0:0:0:0:
364,147,128522,2,0,L|350:189,2,30,8|8|8,0:0|0:0|0:0,0:0:0:0:
412,178,128721,5,10,3:2:0:0:
379,92,128920,2,0,L|349:91,2,30
304,133,129118,2,0,L|274:132,2,30,8|0|0,3:2|0:0|0:0,0:0:0:0:
290,71,129317,2,0,L|260:71,2,30
216,114,129516,5,2,3:2:0:0:
181,121,129615,1,0,0:0:0:0:
146,114,129714,1,0,0:0:0:0:
118,91,129814,1,0,0:0:0:0:
103,59,129913,2,0,P|135:52|178:58,1,45,8|0,3:2|0:0,0:0:0:0:
76,159,130112,2,0,P|53:157|32:151,1,45
181,121,130311,5,2,3:2:0:0:
181,121,130410,1,0,0:0:0:0:
181,121,130509,2,0,L|176:168,1,45
89,240,130708,1,8,3:2:0:0:
89,240,130807,1,0,0:0:0:0:
89,240,130906,2,0,L|94:290,1,45
223,279,131105,6,0,P|198:268|160:271,1,45,2|0,3:2|0:0,0:0:0:0:
160,347,131304,2,0,P|184:357|222:354,1,45
298,280,131503,1,8,3:2:0:0:
298,280,131602,1,0,0:0:0:0:
298,280,131701,2,0,P|326:274|360:280,1,45
389,382,131900,5,2,3:2:0:0:
389,382,131999,1,0,0:0:0:0:
389,382,132099,2,0,P|369:360|358:327,1,45
432,252,132297,1,8,3:2:0:0:
432,252,132397,1,0,0:0:0:0:
432,252,132496,2,0,P|422:279|399:305,1,45
318,142,132695,5,2,3:2:0:0:
329,117,132794,1,0,0:0:0:0:
353,103,132893,1,0,0:0:0:0:
380,102,132993,1,0,0:0:0:0:
405,110,133092,1,8,3:2:0:0:
428,152,133191,1,0,0:0:0:0:
411,197,133290,1,0,0:0:0:0:
366,214,133390,2,0,B|292:240|306:181|230:205,1,135
258,289,133787,5,0,0:0:0:0:
258,289,133887,2,0,L|261:267,2,22.5,8|0|0,3:2|0:0|0:0,0:0:0:0:
272,352,134085,2,0,P|245:353|213:338,1,45
101,279,134284,6,0,L|107:340,1,45,2|0,3:2|0:0,0:0:0:0:
181,219,134483,2,0,L|187:158,1,45
57,111,134681,1,8,3:2:0:0:
71,128,134780,1,0,0:0:0:0:
92,136,134879,1,0,0:0:0:0:
114,132,134979,1,0,0:0:0:0:
137,117,135079,5,2,3:2:0:0:
177,99,135178,1,0,0:0:0:0:
220,108,135277,1,0,0:0:0:0:
249,142,135377,1,0,0:0:0:0:
256,186,135476,2,0,L|250:249,1,45,8|0,3:2|0:0,0:0:0:0:
169,348,135675,2,0,L|175:285,1,45
306,254,135873,6,0,P|274:285|225:286,1,90,2|0,3:2|0:0,0:0:0:0:
137,211,136171,1,0,0:0:0:0:
137,211,136271,2,0,L|75:206,1,45,8|0,3:2|0:0,0:0:0:0:
43,312,136469,2,0,L|105:307,1,45
191,243,136668,5,2,3:2:0:0:
199,212,136767,1,0,0:0:0:0:
192,182,136866,1,0,0:0:0:0:
171,159,136966,1,0,0:0:0:0:
142,148,137065,2,0,L|80:143,1,45,8|0,3:2|0:0,0:0:0:0:
21,258,137264,2,0,L|83:253,1,45
137,211,137463,6,0,L|75:206,1,45,2|0,3:2|0:0,0:0:0:0:
43,312,137662,2,0,L|105:307,1,45
179,260,137860,2,0,L|241:265,1,45,8|0,3:2|0:0,0:0:0:0:
294,323,138059,2,0,L|338:319,1,45
439,260,138258,6,0,B|455:286|455:286|448:362,1,90,2|0,3:2|0:0,0:0:0:0:
359,246,138556,1,0,0:0:0:0:
359,246,138655,2,0,B|351:232|351:232|356:202,1,45,8|0,3:2|0:0,0:0:0:0:
475,142,138854,2,0,B|466:157|466:157|423:179,1,45
322,88,139052,6,0,P|331:20|368:90,1,175.499991966248,6|0,3:2|0:0,0:0:0:0:
337,150,139450,2,0,P|309:149|273:131,1,45,8|0,3:2|0:0,0:0:0:0:
216,66,139648,2,0,P|188:67|152:85,1,45
106,181,139847,5,6,3:2:0:0:
70,43,140046,1,8,0:0:0:0:
70,43,140112,1,8,0:0:0:0:
70,43,140178,1,8,0:0:0:0:
70,43,140244,1,8,3:2:0:0:
204,137,140443,1,0,0:0:0:0:
46,195,140642,6,0,P|-7:152|68:136,1,175.499991966248,6|0,3:2|0:0,0:0:0:0:
87,262,141039,2,0,P|61:272|29:269,1,45,8|0,3:2|0:0,0:0:0:0:
164,183,141238,2,0,P|186:184|206:193,1,45
236,325,141436,5,6,3:2:0:0:
328,200,141635,1,8,0:0:0:0:
328,200,141701,1,8,0:0:0:0:
328,200,141767,1,8,0:0:0:0:
328,200,141833,1,8,3:2:0:0:
168,258,142032,1,0,0:0:0:0:
298,348,142231,6,0,P|298:282|237:330,1,175.499991966248,6|0,3:2|0:0,0:0:0:0:
365,372,142628,2,0,P|378:349|384:312,1,45,8|0,3:2|0:0,0:0:0:0:
362,232,142827,2,0,P|347:215|325:202,1,45
206,193,143026,5,6,3:2:0:0:
317,90,143224,1,8,0:0:0:0:
317,90,143290,1,8,0:0:0:0:
317,90,143356,1,8,0:0:0:0:
317,90,143422,1,8,3:2:0:0:
262,224,143622,1,0,0:0:0:0:
105,143,143820,5,10,3:2:0:0:
115,117,143919,1,8,0:0:0:0:
135,101,144018,1,8,0:0:0:0:
161,95,144118,1,8,0:0:0:0:
186,100,144218,1,8,3:2:0:0:
229,109,144317,1,8,0:0:0:0:
259,75,144416,1,8,0:0:0:0:
250,33,144516,1,8,0:0:0:0:
209,17,144615,6,0,L|214:68,1,45,8|0,3:2|0:0,0:0:0:0:
256,192,145435,5,2,0:0:0:0:
256,192,146229,2,0,P|227:212|185:207,1,72,2|0,0:0|0:0,0:0:0:0:
129,167,147024,1,2,0:0:0:0:
135,235,147429,2,0,L|137:284,2,36,0|0|2,0:0|0:0|0:0,0:0:0:0:
129,167,148262,1,2,0:0:0:0:
211,111,148678,6,0,L|209:147,1,36,2|0,0:0|0:0,0:0:0:0:
126,105,149540,2,0,L|123:63,1,36,2|0,0:0|0:0,0:0:0:0:
129,167,150442,1,2,0:0:0:0:
256,192,150577,12,0,155227,0:0:0:0:
129,167,156289,5,2,0:0:0:0:
256,192,156955,1,2,0:0:0:0:
138,246,157660,1,2,0:0:0:0:
202,135,158410,1,2,0:0:0:0:
217,263,159210,5,2,0:0:0:0:
138,246,160067,1,2,0:0:0:0:
129,167,160990,1,2,0:0:0:0:
202,135,161990,1,2,0:0:0:0:
256,192,163080,5,2,0:0:0:0:
256,192,163347,12,0,171651,0:0:0:0:
