osu file format v14

[General]
AudioFilename: audio.mp3
AudioLeadIn: 0
PreviewTime: 40697
Countdown: 0
SampleSet: Soft
StackLeniency: 0.3
Mode: 0
LetterboxInBreaks: 0
WidescreenStoryboard: 1

[Editor]
Bookmarks: 9059,14731,73597,77882
DistanceSpacing: 1.2
BeatDivisor: 3
GridSize: 32
TimelineZoom: 2.3

[Metadata]
Title:Mousou <3 Chuu!!
TitleUnicode:妄想♡ちゅー!!
Artist:Ponchi feat. haxchi
ArtistUnicode:Ponchi♪ feat. はぁち
Creator:nantokanaru
Version:StaroaX's Excess
Source:
Tags:j-pop jpop pop japanese denpa moe akiba apop a-pop electronic ココロダイアリー kokoro diary haachi hachi staroax natsume shizuku natsume_shizuku __ag that_blazord that blazord racblazord featured artist fa Muse Dash dynamix
BeatmapID:4147666
BeatmapSetID:1951939

[Difficulty]
HPDrainRate:4.6
CircleSize:3
OverallDifficulty:9.2
ApproachRate:9.6
SliderMultiplier:1.38
SliderTickRate:1

[Events]
//Background and Video events
0,0,"bg.jpg",0,0
//Break Periods
2,9259,14222
2,73797,77373
//Storyboard Layer 0 (Background)
//Storyboard Layer 1 (Fail)
//Storyboard Layer 2 (Pass)
//Storyboard Layer 3 (Foreground)
//Storyboard Layer 4 (Overlay)
//Storyboard Sound Samples

[TimingPoints]
992,252.100840336134,4,2,2,70,1,0
992,-62.5,4,2,2,70,0,0
1181,-62.5,4,2,2,5,0,0
1244,-62.5,4,2,2,70,0,0
1370,-62.5,4,2,3,70,0,0
1496,-62.5,4,2,1,70,0,0
1622,-62.5,4,2,3,70,0,0
1748,-62.5,4,2,1,70,0,0
1874,-62.5,4,2,3,70,0,0
2126,-62.5,4,2,4,70,0,0
2252,-62.5,4,2,1,70,0,0
2378,-62.5,4,2,4,70,0,0
2504,-62.5,4,2,1,70,0,0
2630,-62.5,4,2,4,70,0,0
2756,-62.5,4,2,1,70,0,0
2882,-62.5,4,2,4,70,0,0
3008,-62.5,4,2,1,70,0,0
3134,-62.5,4,2,4,70,0,0
3260,-62.5,4,2,1,70,0,0
3386,-62.5,4,2,4,70,0,0
3513,-62.5,4,2,1,70,0,0
3639,-62.5,4,2,3,70,0,0
3765,-62.5,4,2,1,70,0,0
3891,-62.5,4,2,3,70,0,0
4206,-62.5,4,2,1,70,0,0
4395,-62.5,4,2,3,70,0,0
4458,-62.5,4,2,1,70,0,0
4647,-62.5,4,2,3,70,0,0
4773,-62.5,4,2,1,70,0,0
5214,-62.5,4,2,1,5,0,0
5277,-62.5,4,2,1,70,0,0
5403,-62.5,4,2,3,70,0,0
5529,-62.5,4,2,1,70,0,0
5655,-62.5,4,2,3,70,0,0
5781,-62.5,4,2,1,70,0,0
5907,-62.5,4,2,3,70,0,0
6160,-62.5,4,2,4,70,0,0
6286,-62.5,4,2,1,70,0,0
6412,-62.5,4,2,4,70,0,0
6538,-62.5,4,2,1,70,0,0
6664,-62.5,4,2,4,70,0,0
6790,-62.5,4,2,1,70,0,0
7924,-62.5,4,2,5,70,0,0
8807,-62.5,4,2,5,70,0,0
9059,-62.5,4,2,5,40,0,0
14731,-100,4,2,5,40,0,0
14857,-100,4,2,5,40,0,0
14983,-100,4,2,5,30,0,0
15109,-83.3333333333333,4,2,5,40,0,0
15361,-71.4285714285714,4,2,5,45,0,0
15613,-62.5,4,2,5,50,0,0
15865,-55.5555555555556,4,2,5,55,0,0
16118,-55.5555555555556,4,2,2,70,0,0
17126,-71.4285714285714,4,2,2,60,0,0
17315,-71.4285714285714,4,2,2,5,0,0
17378,-71.4285714285714,4,2,2,60,0,0
17504,-71.4285714285714,4,2,6,60,0,0
17567,-71.4285714285714,4,2,6,5,0,0
17630,-71.4285714285714,4,2,1,60,0,0
17756,-71.4285714285714,4,2,7,60,0,0
17882,-71.4285714285714,4,2,1,60,0,0
18008,-71.4285714285714,4,2,7,60,0,0
18134,-71.4285714285714,4,2,1,60,0,0
18260,-71.4285714285714,4,2,6,60,0,0
18386,-71.4285714285714,4,2,1,60,0,0
18513,-71.4285714285714,4,2,6,60,0,0
18639,-71.4285714285714,4,2,1,60,0,0
18765,-71.4285714285714,4,2,7,60,0,0
18891,-71.4285714285714,4,2,1,60,0,0
19017,-71.4285714285714,4,2,7,60,0,0
19143,-71.4285714285714,4,2,1,60,0,0
19269,-71.4285714285714,4,2,6,60,0,0
19395,-71.4285714285714,4,2,1,60,0,0
19521,-71.4285714285714,4,2,6,60,0,0
19647,-71.4285714285714,4,2,1,60,0,0
19773,-71.4285714285714,4,2,6,60,0,0
19899,-71.4285714285714,4,2,1,60,0,0
20025,-71.4285714285714,4,2,6,60,0,0
20151,-71.4285714285714,4,2,1,60,0,0
20277,-71.4285714285714,4,2,6,60,0,0
20403,-71.4285714285714,4,2,1,60,0,0
20529,-71.4285714285714,4,2,6,60,0,0
20655,-71.4285714285714,4,2,1,60,0,0
20781,-71.4285714285714,4,2,6,60,0,0
20907,-71.4285714285714,4,2,1,60,0,0
21160,-55.5555555555556,4,2,1,60,0,0
21601,-55.5555555555556,4,2,2,60,0,0
22042,-62.5,4,2,1,60,0,0
24311,-62.5,4,2,8,60,0,0
24563,-62.5,4,2,1,60,0,0
24815,-62.5,4,2,9,60,0,0
24941,-62.5,4,2,2,60,0,0
25004,-62.5,4,2,1,60,0,0
25130,-62.5,4,2,2,60,0,0
25193,-83.3333333333333,4,2,1,50,0,0
25445,-83.3333333333333,4,2,10,50,0,0
25697,-83.3333333333333,4,2,2,50,0,0
25949,-83.3333333333333,4,2,11,50,0,0
26076,-83.3333333333333,4,2,1,50,0,0
26202,-83.3333333333333,4,2,10,50,0,0
26958,-83.3333333333333,4,2,11,50,0,0
28092,-83.3333333333333,4,2,1,50,0,0
28218,-83.3333333333333,4,2,10,50,0,0
28470,-83.3333333333333,4,2,11,50,0,0
29101,-83.3333333333333,4,2,1,50,0,0
29479,-83.3333333333333,4,2,10,50,0,0
29731,-83.3333333333333,4,2,2,50,0,0
29983,-83.3333333333333,4,2,11,50,0,0
30109,-83.3333333333333,4,2,1,50,0,0
30235,-83.3333333333333,4,2,10,50,0,0
30487,-83.3333333333333,4,2,11,50,0,0
31244,-83.3333333333333,4,2,1,50,0,0
31496,-83.3333333333333,4,2,10,50,0,0
32000,-71.4285714285714,4,2,1,50,0,0
32567,-71.4285714285714,4,2,1,50,0,0
33260,-71.4285714285714,4,2,1,60,0,0
33513,-71.4285714285714,4,2,12,60,0,0
33639,-71.4285714285714,4,2,2,60,0,0
33891,-71.4285714285714,4,2,13,60,0,0
34017,-62.5,4,2,1,60,0,0
34269,-62.5,4,2,12,60,0,0
34395,-62.5,4,2,2,60,0,0
34773,-62.5,4,2,13,60,0,0
35151,-62.5,4,2,2,60,0,0
35277,-71.4285714285714,4,2,1,60,0,0
35529,-71.4285714285714,4,2,12,60,0,0
35655,-71.4285714285714,4,2,2,60,0,0
35907,-71.4285714285714,4,2,12,60,0,0
36034,-50,4,2,1,60,0,0
36286,-50,4,2,12,60,0,0
36412,-50,4,2,2,60,0,0
37042,-71.4285714285714,4,2,2,60,0,0
37105,-71.4285714285714,4,2,1,60,0,0
37168,-71.4285714285714,4,2,8,60,0,0
37231,-71.4285714285714,4,2,2,60,0,0
37294,-71.4285714285714,4,2,1,70,0,0
37672,-71.4285714285714,4,2,2,70,0,0
38050,-71.4285714285714,4,2,1,70,0,0
38428,-71.4285714285714,4,2,2,70,0,0
38807,-71.4285714285714,4,2,1,70,0,0
39059,-71.4285714285714,4,2,2,70,0,0
39311,-250,4,2,1,70,0,0
39500,-250,4,2,1,70,0,0
40256,-250,4,2,1,5,0,0
40319,-250,4,2,1,70,0,0
40571,-250,4,2,2,70,0,0
40823,-250,4,2,2,70,0,0
41328,-55.5555555555556,4,2,1,80,0,1
41706,-55.5555555555556,4,2,3,80,0,1
42084,-55.5555555555556,4,2,1,80,0,1
42210,-55.5555555555556,4,2,3,80,0,1
42336,-55.5555555555556,4,2,1,80,0,1
42462,-55.5555555555556,4,2,4,80,0,1
42588,-55.5555555555556,4,2,1,80,0,1
42714,-55.5555555555556,4,2,3,80,0,1
42840,-55.5555555555556,4,2,1,80,0,1
42966,-55.5555555555556,4,2,3,80,0,1
43092,-55.5555555555556,4,2,1,80,0,1
43218,-55.5555555555556,4,2,3,80,0,1
43344,-38.4615384615385,4,2,3,80,0,1
43470,-38.4615384615385,4,2,4,80,0,1
43534,-38.4615384615385,4,2,4,5,0,1
43597,-38.4615384615385,4,2,1,80,0,1
43723,-38.4615384615385,4,2,3,80,0,1
43849,-38.4615384615385,4,2,1,80,0,1
43975,-55.5555555555556,4,2,3,80,0,1
44101,-55.5555555555556,4,2,1,80,0,1
44227,-50,4,2,3,80,0,1
44416,-50,4,2,3,5,0,1
44479,-45.4545454545455,4,2,3,80,0,1
44605,-45.4545454545455,4,2,1,80,0,1
44731,-45.4545454545455,4,2,4,80,0,1
44794,-45.4545454545455,4,2,4,5,0,1
44857,-55.5555555555556,4,2,1,80,0,1
44983,-55.5555555555556,4,2,4,80,0,1
45109,-55.5555555555556,4,2,1,80,0,1
45361,-50,4,2,1,80,0,1
45739,-50,4,2,3,80,0,1
45865,-50,4,2,1,80,0,1
45991,-50,4,2,3,80,0,1
46118,-50,4,2,1,80,0,1
46244,-50,4,2,3,80,0,1
46370,-50,4,2,2,80,0,1
46496,-50,4,2,4,80,0,1
46622,-50,4,2,1,80,0,1
46748,-50,4,2,4,80,0,1
46874,-50,4,2,3,80,0,1
47126,-50,4,2,1,80,0,1
47252,-50,4,2,3,80,0,1
47378,-41.6666666666667,4,2,1,80,0,1
47630,-41.6666666666667,4,2,5,80,0,1
47693,-41.6666666666667,4,2,1,80,0,1
47756,-41.6666666666667,4,2,8,80,0,1
47819,-41.6666666666667,4,2,2,80,0,1
47945,-41.6666666666667,4,2,1,80,0,1
48008,-41.6666666666667,4,2,8,80,0,1
48071,-41.6666666666667,4,2,2,80,0,1
48134,-41.6666666666667,4,2,1,80,0,1
48260,-41.6666666666667,4,2,8,80,0,1
48386,-55.5555555555556,4,2,1,80,0,0
49143,-166.666666666667,4,2,1,80,0,0
49332,-166.666666666667,4,2,1,5,0,0
49395,-55.5555555555556,4,2,1,80,0,1
49773,-55.5555555555556,4,2,11,80,0,1
49899,-55.5555555555556,4,2,1,80,0,1
50025,-55.5555555555556,4,2,11,80,0,1
50151,-55.5555555555556,4,2,1,80,0,1
50277,-55.5555555555556,4,2,11,80,0,1
50403,-55.5555555555556,4,2,1,80,0,1
50529,-55.5555555555556,4,2,11,80,0,1
50655,-55.5555555555556,4,2,1,80,0,1
50781,-55.5555555555556,4,2,10,80,0,1
51034,-55.5555555555556,4,2,11,80,0,1
51160,-55.5555555555556,4,2,1,80,0,1
51286,-55.5555555555556,4,2,11,80,0,1
51412,-55.5555555555556,4,2,1,80,0,1
51538,-55.5555555555556,4,2,10,80,0,1
51664,-55.5555555555556,4,2,1,80,0,1
51790,-71.4285714285714,4,2,11,80,0,1
52420,-55.5555555555556,4,2,1,80,0,1
52546,-55.5555555555556,4,2,10,80,0,1
52609,-55.5555555555556,4,2,10,5,0,1
52672,-62.5,4,2,1,80,0,1
52798,-62.5,4,2,10,80,0,1
52924,-62.5,4,2,1,80,0,1
53050,-62.5,4,2,10,80,0,1
53176,-62.5,4,2,1,80,0,1
53618,-62.5,4,2,1,5,0,1
53681,-62.5,4,2,1,80,0,1
53807,-62.5,4,2,4,80,0,1
53933,-62.5,4,2,1,80,0,1
54059,-62.5,4,2,4,80,0,1
54122,-62.5,4,2,4,5,0,1
54185,-62.5,4,2,1,80,0,1
54311,-62.5,4,2,4,80,0,1
54437,-35.7142857142857,4,2,1,80,0,1
54563,-35.7142857142857,4,2,4,80,0,1
54626,-35.7142857142857,4,2,4,5,0,1
54689,-41.6666666666667,4,2,1,80,0,1
54815,-41.6666666666667,4,2,4,80,0,1
54941,-41.6666666666667,4,2,3,80,0,1
55193,-41.6666666666667,4,2,1,80,0,1
55319,-41.6666666666667,4,2,5,80,0,1
55382,-41.6666666666667,4,2,8,80,0,1
55445,-55.5555555555556,4,2,2,80,0,1
55823,-55.5555555555556,4,2,8,80,0,1
55886,-55.5555555555556,4,2,1,80,0,1
56328,-55.5555555555556,4,2,8,80,0,1
56391,-55.5555555555556,4,2,2,80,0,1
56454,-500,4,2,5,80,0,0
56706,-500,4,2,5,80,0,0
57462,-50,4,2,1,70,0,1
57840,-62.5,4,2,7,70,0,1
57966,-62.5,4,2,1,70,0,1
58092,-62.5,4,2,7,70,0,1
58218,-62.5,4,2,1,70,0,1
58344,-62.5,4,2,7,70,0,1
58470,-55.5555555555556,4,2,1,70,0,1
58597,-55.5555555555556,4,2,6,70,0,1
58723,-55.5555555555556,4,2,1,70,0,1
58849,-62.5,4,2,7,70,0,1
58975,-62.5,4,2,1,70,0,1
59101,-62.5,4,2,7,70,0,1
59227,-62.5,4,2,1,70,0,1
59353,-62.5,4,2,7,70,0,1
59479,-62.5,4,2,1,70,0,1
59605,-62.5,4,2,6,70,0,1
59731,-62.5,4,2,1,70,0,1
59857,-62.5,4,2,7,70,0,1
59983,-62.5,4,2,1,70,0,1
60109,-62.5,4,2,7,70,0,1
60235,-62.5,4,2,1,70,0,1
60361,-62.5,4,2,7,70,0,1
60487,-62.5,4,2,1,70,0,1
60613,-62.5,4,2,6,70,0,1
60739,-62.5,4,2,1,70,0,1
60865,-62.5,4,2,6,70,0,1
60991,-62.5,4,2,1,70,0,1
61118,-62.5,4,2,6,70,0,1
61244,-62.5,4,2,1,70,0,1
61496,-50,4,2,1,70,0,1
61874,-62.5,4,2,7,70,0,1
62000,-62.5,4,2,1,70,0,1
62126,-62.5,4,2,7,70,0,1
62252,-62.5,4,2,1,70,0,1
62378,-62.5,4,2,7,70,0,1
62504,-55.5555555555556,4,2,1,70,0,1
62630,-55.5555555555556,4,2,6,70,0,1
62756,-55.5555555555556,4,2,1,70,0,1
62882,-55.5555555555556,4,2,7,70,0,1
63008,-55.5555555555556,4,2,1,70,0,1
63134,-62.5,4,2,7,70,0,1
63260,-62.5,4,2,1,70,0,1
63386,-62.5,4,2,7,70,0,1
63513,-62.5,4,2,1,70,0,1
63639,-62.5,4,2,6,70,0,1
63765,-62.5,4,2,1,70,0,1
63891,-62.5,4,2,7,70,0,1
64017,-62.5,4,2,1,70,0,1
64143,-62.5,4,2,7,70,0,1
64269,-62.5,4,2,1,70,0,1
64395,-62.5,4,2,9,70,0,1
64521,-45.4545454545455,4,2,1,70,0,1
65025,-45.4545454545455,4,2,8,70,0,1
65151,-45.4545454545455,4,2,1,70,0,1
65529,-45.4545454545455,4,2,1,60,0,0
65781,-45.4545454545455,4,2,1,80,0,1
66160,-45.4545454545455,4,2,4,80,0,1
66286,-45.4545454545455,4,2,1,80,0,1
66412,-45.4545454545455,4,2,3,80,0,1
66538,-62.5,4,2,1,80,0,0
66601,-62.5,4,2,8,80,0,0
66727,-62.5,4,2,9,80,0,0
66790,-62.5,4,2,1,80,0,0
67042,-62.5,4,2,11,80,0,0
67105,-62.5,4,2,10,80,0,0
67126,-62.5,4,2,1,80,0,0
67168,-62.5,4,2,10,80,0,0
67210,-62.5,4,2,1,80,0,0
67231,-62.5,4,2,10,80,0,0
67294,-83.3333333333333,4,2,11,80,0,0
67378,-83.3333333333333,4,2,1,80,0,0
67546,-50,4,2,1,80,0,1
67672,-50,4,2,12,80,0,1
67798,-50,4,2,1,80,0,1
67924,-50,4,2,13,80,0,1
68302,-50,4,2,2,80,0,1
68365,-50,4,2,1,80,0,1
68428,-50,4,2,8,80,0,1
68491,-50,4,2,2,80,0,1
68807,-55.5555555555556,4,2,2,80,0,1
68996,-55.5555555555556,4,2,2,5,0,1
69059,-55.5555555555556,4,2,2,80,0,1
69311,-55.5555555555556,4,2,3,80,0,0
69563,-55.5555555555556,4,2,1,80,0,1
70067,-55.5555555555556,4,2,2,80,0,1
70571,-55.5555555555556,4,2,1,80,0,1
71076,-55.5555555555556,4,2,2,80,0,1
71580,-55.5555555555556,4,2,1,80,0,1
73597,-55.5555555555556,4,2,1,40,0,0
77630,-55.5555555555556,4,2,1,40,0,0
77882,-55.5555555555556,4,2,1,30,0,0
78134,-55.5555555555556,4,2,1,35,0,0
78386,-55.5555555555556,4,2,1,40,0,0
78639,-55.5555555555556,4,2,1,45,0,0
78891,-55.5555555555556,4,2,1,50,0,0
79143,-55.5555555555556,4,2,1,55,0,0
79395,-55.5555555555556,4,2,1,60,0,0
80655,-55.5555555555556,4,2,1,70,0,0
81160,-55.5555555555556,4,2,1,70,0,0
81412,-100,4,2,1,70,0,0
81664,-55.5555555555556,4,2,1,80,0,1
81853,-55.5555555555556,4,2,1,5,0,1
81916,-55.5555555555556,4,2,1,80,0,1
82042,-55.5555555555556,4,2,11,80,0,1
82168,-55.5555555555556,4,2,1,80,0,1
82294,-55.5555555555556,4,2,11,80,0,1
82420,-55.5555555555556,4,2,1,80,0,1
82546,-55.5555555555556,4,2,11,80,0,1
82672,-55.5555555555556,4,2,1,80,0,1
82798,-55.5555555555556,4,2,11,80,0,1
82924,-55.5555555555556,4,2,1,80,0,1
83050,-55.5555555555556,4,2,10,80,0,1
83302,-55.5555555555556,4,2,11,80,0,1
83428,-55.5555555555556,4,2,1,80,0,1
83555,-55.5555555555556,4,2,11,80,0,1
83681,-55.5555555555556,4,2,1,80,0,1
83807,-55.5555555555556,4,2,10,80,0,1
83933,-55.5555555555556,4,2,1,80,0,1
84059,-71.4285714285714,4,2,11,80,0,1
84689,-55.5555555555556,4,2,1,80,0,1
84815,-55.5555555555556,4,2,10,80,0,1
84878,-55.5555555555556,4,2,10,5,0,1
84941,-55.5555555555556,4,2,1,80,0,1
85067,-55.5555555555556,4,2,10,80,0,1
85193,-55.5555555555556,4,2,1,80,0,1
85319,-55.5555555555556,4,2,10,80,0,1
85445,-55.5555555555556,4,2,1,80,0,1
85886,-55.5555555555556,4,2,1,5,0,1
85949,-55.5555555555556,4,2,1,80,0,1
86076,-55.5555555555556,4,2,4,80,0,1
86202,-55.5555555555556,4,2,1,80,0,1
86328,-55.5555555555556,4,2,4,80,0,1
86391,-55.5555555555556,4,2,4,5,0,1
86454,-55.5555555555556,4,2,1,80,0,1
86580,-55.5555555555556,4,2,4,80,0,1
86706,-35.7142857142857,4,2,1,80,0,1
86832,-35.7142857142857,4,2,4,80,0,1
86895,-35.7142857142857,4,2,4,5,0,1
86958,-41.6666666666667,4,2,1,80,0,1
87084,-41.6666666666667,4,2,4,80,0,1
87210,-41.6666666666667,4,2,3,80,0,1
87462,-41.6666666666667,4,2,1,80,0,1
87588,-41.6666666666667,4,2,5,80,0,1
87651,-41.6666666666667,4,2,8,80,0,1
87714,-55.5555555555556,4,2,2,80,0,1
88092,-55.5555555555556,4,2,8,80,0,1
88155,-55.5555555555556,4,2,1,80,0,1
88597,-55.5555555555556,4,2,8,80,0,1
88660,-55.5555555555556,4,2,2,80,0,1
89731,-500,4,2,2,80,0,0
89747,-500,4,2,2,80,0,0
89983,-500,4,2,2,80,0,0
90235,-500,4,2,2,80,0,0
90361,-500,4,2,2,80,0,0
90487,-500,4,2,2,80,0,0
90613,-500,4,2,2,80,0,0
90739,-100,4,2,2,80,0,1
91244,-125,4,2,2,80,0,0
91748,-62.5,4,2,1,80,0,0
91937,-62.5,4,2,1,5,0,0
92000,-62.5,4,2,13,80,0,0
92126,-62.5,4,2,1,80,0,0
92252,-62.5,4,2,13,80,0,0
92378,-62.5,4,2,1,80,0,0
92504,-62.5,4,2,13,80,0,0
92630,-62.5,4,2,1,80,0,0
93008,-62.5,4,2,13,80,0,0
93765,-62.5,4,2,2,80,0,0
94017,-62.5,4,2,13,80,0,0
94395,-62.5,4,2,1,80,0,0
94521,-62.5,4,2,13,80,0,0
94647,-62.5,4,2,1,80,0,0
95025,-62.5,4,2,13,80,0,0
95088,-62.5,4,2,1,80,0,0
95277,-62.5,4,2,13,80,0,0
95403,-62.5,4,2,1,80,0,0
95529,-62.5,4,2,13,80,0,0
95781,-62.5,4,2,1,80,0,0
95970,-62.5,4,2,1,5,0,0
96034,-62.5,4,2,13,80,0,0
96160,-62.5,4,2,1,80,0,0
96286,-62.5,4,2,13,80,0,0
96412,-62.5,4,2,1,80,0,0
96538,-62.5,4,2,13,80,0,0
96664,-62.5,4,2,2,80,0,0
97042,-62.5,4,2,13,80,0,0
97798,-62.5,4,2,1,80,0,0
98050,-62.5,4,2,13,80,0,0
98428,-62.5,4,2,1,80,0,0
98555,-62.5,4,2,13,80,0,0
98681,-62.5,4,2,2,80,0,0
99059,-62.5,4,2,13,80,0,0
99122,-62.5,4,2,1,80,0,0
99815,-62.5,4,2,1,60,0,0
100067,-50,4,2,1,70,0,0
100445,-50,4,2,11,70,0,0
100571,-50,4,2,1,70,0,0
100697,-55.5555555555556,4,2,11,70,0,0
100949,-55.5555555555556,4,2,10,70,0,0
101076,-55.5555555555556,4,2,1,70,0,0
101202,-55.5555555555556,4,2,10,70,0,0
101328,-55.5555555555556,4,2,1,70,0,0
101454,-55.5555555555556,4,2,10,70,0,0
101580,-55.5555555555556,4,2,1,70,0,0
101706,-55.5555555555556,4,2,10,70,0,0
102084,-55.5555555555556,4,2,1,70,0,0
102210,-55.5555555555556,4,2,10,70,0,0
102336,-55.5555555555556,4,2,1,70,0,0
102462,-55.5555555555556,4,2,11,70,0,0
102588,-55.5555555555556,4,2,1,70,0,0
102714,-55.5555555555556,4,2,11,70,0,0
103029,-55.5555555555556,4,2,1,70,0,0
103218,-55.5555555555556,4,2,11,70,0,0
103281,-55.5555555555556,4,2,1,70,0,0
103470,-55.5555555555556,4,2,10,70,0,0
103597,-55.5555555555556,4,2,1,70,0,0
104038,-55.5555555555556,4,2,1,5,0,0
104101,-55.5555555555556,4,2,1,70,0,0
104227,-55.5555555555556,4,2,3,70,0,0
104353,-55.5555555555556,4,2,1,70,0,0
104479,-55.5555555555556,4,2,3,70,0,0
104605,-55.5555555555556,4,2,1,70,0,0
104731,-55.5555555555556,4,2,3,70,0,0
104983,-55.5555555555556,4,2,4,70,0,0
105109,-55.5555555555556,4,2,1,70,0,0
105235,-55.5555555555556,4,2,4,70,0,0
105361,-55.5555555555556,4,2,1,70,0,0
105487,-55.5555555555556,4,2,4,70,0,0
105613,-55.5555555555556,4,2,2,70,0,0
105802,-55.5555555555556,4,2,1,70,0,0
105865,-55.5555555555556,4,2,1,80,0,0
106118,-55.5555555555556,4,2,8,80,0,0
106244,-55.5555555555556,4,2,1,80,0,0
106370,-55.5555555555556,4,2,9,80,0,0
106748,-250,4,2,9,80,0,0
107063,-250,4,2,9,5,0,0
107126,-52.6315789473684,4,2,5,80,0,0

[Colours]
Combo1 : 206,215,238
Combo2 : 255,172,172
Combo3 : 253,172,219
Combo4 : 254,242,163

[HitObjects]
0,40,613,5,0,1:1:0:0:
256,0,739,1,12,2:2:0:0:
256,0,992,6,0,P|224:75|156:119,1,165.6,6|0,1:2|0:0,0:0:0:0:
137,115,1244,2,0,B|121:92|114:64|114:64|98:88|76:104,1,110.4,10|2,2:2|2:2,0:0:0:0:
41,291,1496,2,0,B|57:314|64:342|64:342|80:318|102:302,1,110.4,2|2,1:2|2:2,0:0:0:0:
89,203,1748,37,10,2:2:0:0:
190,350,1874,2,0,P|294:367|364:288,1,220.8,2|2,2:2|2:2,0:0:0:0:
511,67,2252,2,0,P|504:121|491:175,1,110.4,10|2,2:2|2:2,0:0:0:0:
382,25,2504,2,0,P|394:78|401:133,1,110.4,2|2,1:2|2:2,0:0:0:0:
210,8,2756,2,0,P|271:99|320:198,1,220.8,10|0,2:2|1:1,0:0:0:0:
320,198,3260,6,0,L|99:236,1,220.8,10|2,2:2|1:2,0:0:0:0:
24,174,3639,1,2,2:2:0:0:
117,36,3765,1,10,2:2:0:0:
202,256,3891,38,0,B|261:262|305:308|268:326|312:373|371:379,1,220.8,2|2,2:2|2:2,0:0:0:0:
508,273,4206,1,2,2:2:0:0:
508,273,4269,2,0,P|504:245|498:218,1,55.2,10|2,2:2|2:2,0:0:0:0:
400,232,4395,2,0,P|403:259|409:286,1,55.2,2|2,2:2|2:2,0:0:0:0:
472,366,4521,1,2,1:2:0:0:
438,139,4773,1,10,2:2:0:0:
437,114,4836,1,8,2:2:0:0:
446,94,4899,1,8,2:2:0:0:
464,81,4962,1,8,2:2:0:0:
484,78,5025,6,0,P|411:42|330:52,1,165.6,6|0,1:2|0:0,0:0:0:0:
314,63,5277,2,0,B|291:46|274:22|274:22|268:50|252:73,1,110.4,10|2,2:2|2:2,0:0:0:0:
11,166,5529,2,0,B|33:149|50:125|50:125|56:153|72:176,1,110.4,2|2,1:2|2:2,0:0:0:0:
193,238,5781,37,10,2:2:0:0:
147,2,5907,2,0,P|159:111|185:218,1,220.8,2|2,2:2|2:2,0:0:0:0:
432,379,6286,2,0,P|378:367|323:360,1,110.4,10|2,2:2|2:2,0:0:0:0:
470,246,6538,2,0,P|415:252|361:265,1,110.4,2|2,1:2|2:2,0:0:0:0:
403,134,6790,1,10,2:2:0:0:
383,144,6853,1,8,2:2:0:0:
363,154,6916,1,8,2:3:0:0:
343,163,6979,1,4,2:3:0:0:
323,172,7042,6,0,P|296:164|271:153,3,55.2,8|0|0|0,2:2|0:0|1:1|1:1,0:0:0:0:
192,92,7294,1,2,1:2:0:0:
0,232,7420,2,0,P|22:215|42:196,3,55.2,8|8|2|0,2:2|2:3|1:2|1:1,0:0:0:0:
95,112,7672,1,2,1:2:0:0:
177,263,7798,37,10,2:2:0:0:
126,17,7924,1,6,1:2:0:0:
256,192,7987,12,2,8807,2:2:0:0:
256,192,9059,5,2,2:2:0:0:
423,351,14731,5,2,2:2:0:0:
423,351,14857,2,0,P|426:367|428:384,3,34.5,2|0|2|0,1:2|1:0|1:2|1:1,0:0:0:0:
472,274,15109,2,0,P|492:275|511:279,3,41.3999987365723,2|0|0|0,1:2|1:1|1:1|1:1,0:0:0:0:
414,204,15361,2,0,P|423:181|435:160,3,48.299998526001,2|0|2|0,1:2|1:1|1:2|1:1,0:0:0:0:
328,238,15613,2,0,P|307:219|288:199,3,55.2,0|0|2|0,1:1|1:1|1:2|1:1,0:0:0:0:
334,328,15865,2,0,P|307:343|279:356,3,62.0999981048585,2|0|2|0,1:2|1:1|1:2|1:1,0:0:0:0:
224,274,16118,5,10,1:2:0:0:
345,116,16244,1,10,1:2:0:0:
326,108,16622,37,8,1:2:0:0:
158,0,16748,1,10,1:2:0:0:
0,384,17126,6,0,P|54:339|66:269,1,144.899995578003,6|0,1:2|0:0,0:0:0:0:
51,256,17378,2,0,P|86:317|153:341,1,144.899995578003,10|0,2:2|0:0,0:0:0:0:
173,339,17630,1,2,1:2:0:0:
231,258,17756,2,0,P|225:210|214:163,1,96.599997052002,2|8,2:2|2:2,0:0:0:0:
326,290,18008,2,0,P|331:337|342:384,1,96.599997052002,2|0,2:2|1:1,0:0:0:0:
512,87,18386,38,0,L|416:70,1,96.599997052002,10|2,2:2|2:2,0:0:0:0:
344,192,18639,1,2,1:2:0:0:
321,94,18765,2,0,P|411:111|444:197,1,193.199994104004,2|2,2:2|2:2,0:0:0:0:
400,326,19143,1,0,1:1:0:0:
118,249,19395,6,0,P|79:219|32:217,1,96.599997052002,10|2,2:2|2:2,0:0:0:0:
225,65,19647,2,0,P|218:112|240:155,1,96.599997052002,2|2,1:2|2:2,0:0:0:0:
12,64,19899,2,0,P|56:45|82:5,1,96.599997052002,10|2,2:2|2:2,0:0:0:0:
118,126,20151,37,2,1:2:0:0:
44,327,20277,2,0,P|132:288|225:261,1,193.199994104004,2|2,2:2|2:2,0:0:0:0:
401,377,20655,2,0,P|377:374|353:368,3,48.299998526001,2|0|2|2,1:2|1:0|2:2|2:0,0:0:0:0:
315,284,20907,1,10,2:2:0:0:
319,259,20970,1,8,2:2:0:0:
323,235,21033,1,8,2:2:0:0:
327,212,21096,1,8,2:2:0:0:
331,189,21160,6,0,B|343:142|380:124|410:152|455:136|465:67|437:15|360:16|342:65,1,248.399992419434,6|8,1:2|2:2,0:0:0:0:
241,77,21538,1,4,2:3:0:0:
260,81,21601,1,4,2:3:0:0:
282,83,21664,1,4,1:2:0:0:
512,5,21916,1,10,2:2:0:0:
488,246,22042,38,0,P|387:201|281:170,1,220.8,6|0,1:2|1:1,0:0:0:0:
385,61,22357,1,0,1:1:0:0:
385,61,22420,2,0,P|437:85|492:101,1,110.4,8|0,2:2|1:1,0:0:0:0:
339,251,22672,1,8,2:2:0:0:
147,46,22798,1,10,2:2:0:0:
0,375,23050,6,0,B|59:368|103:322|66:304|110:257|169:251,1,220.8,6|10,1:2|2:2,0:0:0:0:
192,256,23365,1,8,2:2:0:0:
206,268,23428,1,10,1:2:0:0:
213,288,23491,1,8,2:2:0:0:
210,308,23554,1,10,2:2:0:0:
196,325,23617,1,8,2:2:0:0:
176,332,23680,1,10,1:2:0:0:
59,279,23807,37,10,2:2:0:0:
55,257,23870,1,8,2:2:0:0:
51,235,23933,1,8,1:2:0:0:
47,213,23996,1,8,2:2:0:0:
43,192,24059,1,8,2:2:0:0:
39,170,24122,1,8,2:2:0:0:
35,148,24185,1,10,2:2:0:0:
170,0,24311,1,6,1:2:0:0:
102,73,24563,5,10,2:2:0:0:
19,50,24815,37,6,1:2:0:0:
102,73,24941,1,8,2:3:0:0:
172,172,25067,1,4,2:3:0:0:
256,384,25193,6,0,P|284:308|363:293,1,165.599994946289,6|2,1:2|2:2,0:0:0:0:
447,361,25571,1,0,1:1:0:0:
447,361,25634,1,0,1:1:0:0:
447,361,25697,1,14,2:2:0:0:
447,361,25949,1,2,2:2:0:0:
419,210,26076,2,0,P|428:127|447:47,2,165.599994946289,2|0|0,1:2|1:1|1:1,0:0:0:0:
499,272,26706,1,10,2:2:0:0:
268,183,26958,2,0,P|258:142|253:101,1,82.7999974731446,2|0,2:2|0:0,0:0:0:0:
256,0,27210,38,0,P|228:76|149:91,1,165.599994946289,2|2,1:2|2:2,0:0:0:0:
65,23,27588,1,0,1:1:0:0:
65,23,27651,1,0,1:0:0:0:
65,23,27714,1,10,2:2:0:0:
65,23,27966,1,2,1:2:0:0:
93,174,28093,2,0,P|84:257|65:337,2,165.599994946289,2|0|0,1:2|1:1|1:1,0:0:0:0:
13,112,28723,1,10,2:2:0:0:
154,384,28975,1,2,2:2:0:0:
233,323,29101,1,2,1:2:0:0:
311,196,29227,6,0,P|392:215|473:225,1,165.599994946289,6|2,1:2|2:2,0:0:0:0:
512,137,29605,1,0,1:1:0:0:
512,137,29668,1,0,1:0:0:0:
512,137,29731,1,14,2:2:0:0:
512,137,29983,1,2,1:2:0:0:
383,265,30109,2,0,P|410:339|489:355,2,165.599994946289,2|0|0,1:2|1:1|1:1,0:0:0:0:
311,196,30739,1,10,2:2:0:0:
92,59,30991,2,0,L|77:140,1,82.7999974731446,2|0,1:2|1:1,0:0:0:0:
73,161,31181,1,8,2:2:0:0:
67,179,31244,38,0,P|39:209|-1:218,1,82.7999974731446,4|0,1:2|0:0,0:0:0:0:
32,325,31496,2,0,P|68:306|108:310,1,82.7999974731446,2|0,1:2|0:0,0:0:0:0:
217,384,31748,1,10,2:2:0:0:
217,384,32000,6,0,B|223:332|263:293|279:326|320:287|325:236,1,193.199994104004,6|0,1:2|1:1,0:0:0:0:
236,173,32315,1,0,1:1:0:0:
236,173,32378,2,0,P|230:196|227:220,1,48.299998526001,8|0,2:2|0:0,0:0:0:0:
305,334,32504,2,0,P|329:340|352:343,1,48.299998526001,8|0,2:2|0:0,0:0:0:0:
412,1,32756,37,10,2:2:0:0:
405,21,32819,1,8,2:2:0:0:
408,41,32882,1,8,2:2:0:0:
422,58,32945,1,8,2:2:0:0:
442,65,33008,2,0,P|448:88|451:112,1,48.299998526001,2|0,1:2|1:1,0:0:0:0:
372,226,33134,2,0,P|348:231|324:235,1,48.299998526001,2|0,1:2|1:1,0:0:0:0:
170,77,33260,6,0,P|241:135|328:105,1,193.199994104004,6|10,1:2|2:2,0:0:0:0:
491,262,33639,2,0,P|398:263|351:342,1,193.199994104004,6|10,1:2|2:2,0:0:0:0:
484,157,34017,38,0,B|465:103|419:85|387:121|333:107|314:27|342:-35|432:-42|458:12,1,331.2,6|0,1:2|1:1,0:0:0:0:
453,5,34521,1,14,2:2:0:0:
371,229,34773,5,10,2:2:0:0:
457,9,34899,1,8,2:2:0:0:
339,96,35025,37,10,2:2:0:0:
484,157,35151,1,4,2:3:0:0:
366,360,35277,6,0,P|290:302|195:297,1,193.199994104004,4|10,1:2|2:2,0:0:0:0:
117,135,35655,2,0,P|204:97|255:17,1,193.199994104004,4|10,1:2|2:2,0:0:0:0:
0,178,36034,38,0,B|20:112|115:101|179:180|137:279|69:291|22:257|-4:307|18:347|18:347|24:318|48:298,1,414,6|0,1:2|1:1,0:0:0:0:
37,306,36538,1,10,2:2:0:0:
122,36,36790,1,10,2:2:0:0:
145,32,36853,1,8,2:2:0:0:
169,37,36916,1,10,2:2:0:0:
190,49,36979,1,8,2:2:0:0:
207,65,37042,2,0,P|203:90|199:114,1,48.299998526001,8|8,2:3|2:3,0:0:0:0:
302,134,37168,2,0,P|305:109|309:85,1,48.299998526001,6|4,2:2|2:3,0:0:0:0:
233,207,37294,5,12,2:2:0:0:
267,300,37420,1,2,1:2:0:0:
354,350,37546,1,2,1:2:0:0:
349,215,37672,37,12,2:2:0:0:
285,290,37798,1,0,1:1:0:0:
186,307,37924,1,0,1:1:0:0:
251,197,38050,5,12,2:2:0:0:
285,290,38176,1,0,1:1:0:0:
372,340,38302,1,0,1:1:0:0:
367,205,38428,37,12,2:2:0:0:
303,280,38554,1,0,1:1:0:0:
204,297,38680,1,0,1:1:0:0:
441,271,38807,5,14,2:2:0:0:
232,99,38933,1,0,1:1:0:0:
477,160,39059,37,14,2:2:0:0:
408,42,39185,1,0,1:1:0:0:
190,314,39311,6,0,B|162:314|138:298|138:298|85:310|85:310|61:353|6:359,1,207,6|0,1:2|0:0,0:0:0:0:
21,361,40319,1,8,2:2:0:0:
39,364,40382,1,8,2:2:0:0:
56,368,40445,1,8,2:2:0:0:
73,370,40508,1,8,2:2:0:0:
91,374,40571,1,4,1:3:0:0:
256,192,40823,5,2,2:2:0:0:
256,192,41076,1,2,2:2:0:0:
338,133,41328,6,0,B|302:82|287:20|287:20|251:73|202:108,1,248.399992419434,6|10,1:1|2:2,0:0:0:0:
306,279,41706,2,0,P|366:264|427:257,1,124.199996209717,2|0,2:2|1:1,0:0:0:0:
496,71,41958,1,2,2:2:0:0:
388,9,42084,1,10,2:2:0:0:
512,80,42210,1,2,2:2:0:0:
338,133,42336,38,0,B|302:82|287:20|287:20|251:73|202:108,1,248.399992419434,2|10,1:2|2:2,0:0:0:0:
31,165,42714,1,2,2:2:0:0:
111,69,42840,1,2,1:2:0:0:
20,178,42966,1,2,2:2:0:0:
0,83,43092,1,10,2:2:0:0:
103,234,43218,1,2,2:2:0:0:
0,384,43344,6,0,P|62:276|178:316,1,269.09998768158,0|0,1:1|0:0,0:0:0:0:
187,334,43597,1,10,2:2:0:0:
353,270,43723,1,2,2:2:0:0:
283,365,43849,1,2,1:2:0:0:
256,249,43975,2,0,P|241:188|235:127,1,124.199996209717,2|8,2:2|2:2,0:0:0:0:
384,380,44227,38,0,P|395:277|419:176,1,207,2|0,2:2|0:0,0:0:0:0:
427,157,44479,1,2,2:2:0:0:
299,32,44605,2,0,B|238:38|192:86|230:104|184:152|123:159,1,227.700006948853,10|0,2:2|0:0,0:0:0:0:
103,162,44857,2,0,P|85:102|60:45,1,124.199996209717,2|2,1:2|2:2,0:0:0:0:
0,357,45109,1,10,2:2:0:0:
20,361,45172,1,8,2:2:0:0:
40,368,45235,1,8,2:2:0:0:
59,375,45298,1,8,2:2:0:0:
79,384,45361,6,0,B|118:327|135:258|135:258|175:317|230:356,1,276,6|10,1:2|2:2,0:0:0:0:
391,238,45739,1,2,2:2:0:0:
268,216,45865,1,2,1:2:0:0:
409,240,45991,1,2,2:2:0:0:
316,304,46118,1,10,2:2:0:0:
369,140,46244,1,2,2:2:0:0:
230,356,46370,38,0,B|175:317|135:258|135:258|118:327|79:384,1,276,6|10,1:2|2:2,0:0:0:0:
0,285,46748,1,2,2:2:0:0:
115,160,46874,1,0,1:1:0:0:
43,91,47000,1,2,2:2:0:0:
39,71,47126,1,10,2:2:0:0:
36,51,47252,1,2,2:2:0:0:
213,133,47378,6,0,B|370:215|447:28|315:-14|282:51,1,331.199989892578,6|10,1:2|1:2,0:0:0:0:
281,52,47693,1,8,2:3:0:0:
281,52,47756,1,6,2:2:0:0:
377,149,47882,1,8,1:3:0:0:
377,149,47945,1,8,2:3:0:0:
377,149,48008,1,6,2:2:0:0:
335,259,48134,1,4,1:3:0:0:
335,259,48197,1,0,0:0:0:0:
335,259,48260,1,6,1:2:0:0:
427,352,48386,37,8,1:2:0:0:
194,267,48513,1,8,1:2:0:0:
178,277,48891,5,8,1:2:0:0:
392,152,49018,1,8,1:2:0:0:
307,101,49143,22,0,L|296:39,1,62.0999981048585,2|0,2:2|0:0,0:0:0:0:
293,19,49395,5,6,1:2:0:0:
242,178,49521,1,2,2:2:0:0:
126,121,49647,2,0,P|132:59|147:0,1,124.199996209717,10|2,2:2|2:2,0:0:0:0:
253,199,49899,2,0,P|268:259|274:320,1,124.199996209717,2|2,1:2|2:2,0:0:0:0:
31,302,50151,1,10,2:2:0:0:
169,276,50277,1,2,2:2:0:0:
112,358,50403,1,2,1:2:0:0:
87,219,50529,1,2,2:2:0:0:
288,338,50655,6,0,P|354:235|466:188,1,248.399992419434,10|0,2:2|1:1,0:0:0:0:
512,0,51034,1,2,2:2:0:0:
316,34,51160,1,10,2:2:0:0:
414,17,51286,1,2,2:2:0:0:
297,141,51412,2,0,L|52:97,1,248.399992419434,2|10,1:2|2:2,0:0:0:0:
196,0,51790,2,0,L|178:95,1,96.599997052002,2|0,2:2|1:1,0:0:0:0:
44,287,52042,2,0,L|27:192,1,96.599997052002,2|8,2:2|2:2,0:0:0:0:
60,78,52294,1,2,2:2:0:0:
0,375,52420,38,0,P|72:319|164:314,1,186.299994314575,2|0,1:2|0:0,0:0:0:0:
188,327,52672,1,10,2:2:0:0:
188,327,52798,1,2,2:2:0:0:
297,215,52924,1,2,1:2:0:0:
297,215,53050,1,2,2:2:0:0:
390,384,53176,1,10,2:2:0:0:
393,366,53239,1,8,2:2:0:0:
397,349,53302,1,8,2:2:0:0:
399,332,53365,1,8,2:2:0:0:
403,314,53428,6,0,P|426:234|459:158,1,165.6,6|0,1:2|0:0,0:0:0:0:
477,146,53681,2,0,P|509:189|512:243,1,110.4,10|2,2:2|2:2,0:0:0:0:
297,354,53933,2,0,P|240:294|161:276,1,165.6,2|0,1:2|0:0,0:0:0:0:
144,287,54185,2,0,P|90:273|35:267,1,110.4,10|2,2:2|2:2,0:0:0:0:
298,45,54437,38,1,B|316:4|394:10|419:64|402:133|355:145|328:114|288:129|271:176,1,289.799991156006,2|0,1:2|0:0,0:0:0:0:
268,198,54689,2,1,B|240:148|192:139|167:179|112:175|80:100|96:35|183:13|212:55,1,331.199989892578,10|0,2:2|1:1,0:0:0:0:
287,373,55067,5,2,2:2:0:0:
161,275,55193,1,10,2:2:0:0:
415,107,55319,37,10,2:2:0:0:
415,107,55382,1,10,2:2:0:0:
415,107,55445,2,0,P|489:204|495:326,1,248.399992419434,6|10,1:2|2:2,0:0:0:0:
16,219,55823,5,10,2:2:0:0:
16,219,55886,1,4,2:3:0:0:
16,219,55949,2,0,P|22:96|96:0,1,248.399992419434,4|10,1:2|2:2,0:0:0:0:
256,301,56328,21,6,2:2:0:0:
256,301,56391,1,4,2:3:0:0:
256,301,56454,2,0,L|256:383,1,82.8,6|2,1:2|2:2,0:0:0:0:
256,383,57462,6,1,B|294:308|275:233|238:270|219:195|256:120,1,276,6|8,1:1|2:2,0:0:0:0:
494,37,57840,2,0,P|481:90|474:145,1,110.4,2|0,2:2|1:1,0:0:0:0:
273,108,58092,2,0,P|285:54|292:0,1,110.4,2|8,2:2|2:2,0:0:0:0:
382,73,58344,1,2,2:2:0:0:
310,301,58470,6,0,P|201:244|80:259,1,248.399992419434,2|8,1:2|2:2,0:0:0:0:
0,78,58849,2,0,P|54:71|108:58,1,110.4,2|0,2:2|1:1,0:0:0:0:
194,264,59101,2,0,P|140:251|85:244,1,110.4,2|8,2:2|2:2,0:0:0:0:
143,151,59353,1,2,2:2:0:0:
329,307,59479,38,0,L|367:89,1,220.8,2|8,1:2|2:2,0:0:0:0:
434,280,59857,2,0,P|463:326|513:347,1,110.4,2|0,2:2|1:1,0:0:0:0:
357,72,60109,2,0,P|302:74|259:108,1,110.4,2|8,2:2|2:2,0:0:0:0:
471,152,60361,1,2,2:2:0:0:
304,205,60487,2,0,P|223:277|201:384,2,220.8,2|10|2,1:2|2:2|1:2,0:0:0:0:
304,205,61244,1,10,2:2:0:0:
282,205,61307,1,8,2:2:0:0:
261,202,61370,1,8,2:2:0:0:
241,198,61433,1,8,2:2:0:0:
220,192,61496,5,6,1:2:0:0:
156,43,61622,2,0,P|152:110|111:164,1,138,0|8,0:0|2:2,0:0:0:0:
0,298,61874,2,0,L|19:189,1,110.4,2|0,2:2|1:1,0:0:0:0:
147,254,62126,2,0,L|167:363,1,110.4,2|8,2:2|2:2,0:0:0:0:
63,384,62378,1,2,2:2:0:0:
237,190,62504,37,2,1:2:0:0:
309,338,62630,2,0,P|369:323|430:315,1,124.199996209717,2|8,2:2|2:2,0:0:0:0:
467,227,62882,1,2,2:2:0:0:
512,369,63008,1,0,1:1:0:0:
352,229,63134,2,0,P|353:123|443:69,1,220.8,2|2,2:2|2:2,0:0:0:0:
318,0,63513,5,2,1:2:0:0:
155,122,63639,2,0,P|142:175|135:229,1,110.4,2|8,2:2|2:2,0:0:0:0:
303,151,63891,2,0,P|285:100|238:73,1,110.4,2|0,2:2|1:1,0:0:0:0:
93,47,64143,2,0,P|40:56|6:98,1,110.4,2|8,2:2|2:2,0:0:0:0:
177,0,64395,1,6,2:2:0:0:
134,230,64521,38,0,B|83:385|264:424|283:298|219:279,1,303.600009265137,6|10,1:2|2:2,0:0:0:0:
217,278,65151,1,8,1:2:0:0:
56,375,65277,1,10,1:2:0:0:
0,195,65403,1,8,1:2:0:0:
160,364,65529,1,0,1:1:0:0:
178,367,65592,1,0,1:1:0:0:
197,370,65655,1,0,1:1:0:0:
216,373,65718,1,0,1:1:0:0:
234,377,65781,22,0,B|315:369|376:305|325:281|386:217|467:208,1,303.600009265137,14|0,2:2|1:1,0:0:0:0:
500,384,66160,1,10,2:2:0:0:
342,241,66286,1,2,1:2:0:0:
440,115,66412,1,2,1:2:0:0:
370,49,66538,38,0,L|315:39,2,55.2,14|10|6,2:2|2:2|2:2,0:0:0:0:
152,92,66790,1,10,2:2:0:0:
136,15,66874,2,0,L|63:-1,1,73.6,0|0,1:1|1:1,0:0:0:0:
233,0,67042,1,2,2:2:0:0:
229,14,67105,1,2,2:2:0:0:
226,28,67168,1,2,2:2:0:0:
223,43,67231,1,2,2:2:0:0:
222,57,67294,2,0,L|207:138,1,82.7999974731446,2|0,2:2|0:0,0:0:0:0:
67,373,67546,6,0,L|0:384,1,69,6|0,1:2|0:0,0:0:0:0:
189,239,67672,2,0,L|256:227,1,69,10|0,2:2|0:0,0:0:0:0:
128,306,67798,1,2,1:2:0:0:
37,109,67924,2,0,L|61:245,1,138,10|0,2:2|1:1,0:0:0:0:
219,339,68176,1,10,2:2:0:0:
215,361,68239,1,8,2:2:0:0:
212,383,68302,1,8,2:3:0:0:
206,138,68428,37,6,2:2:0:0:
206,138,68555,2,0,P|174:124|141:114,2,69,0|0|2,1:1|1:1|1:2,0:0:0:0:
310,307,68807,2,0,P|400:296|482:337,1,186.299994314575,10|0,2:2|1:1,0:0:0:0:
496,352,69059,1,2,1:2:0:0:
286,213,69185,1,8,2:2:0:0:
256,384,69311,1,4,1:2:0:0:
46,74,69563,6,0,B|70:55|79:26|79:26|184:8,1,165.599994946289,14|0,1:2|1:1,0:0:0:0:
285,58,69815,1,2,1:2:0:0:
323,124,69899,1,0,1:1:0:0:
396,149,69983,1,0,1:1:0:0:
467,122,70067,2,0,P|471:80|481:40,2,82.7999974731446,14|0|0,1:2|1:1|1:1,0:0:0:0:
499,214,70319,1,0,1:1:0:0:
429,250,70403,1,0,1:1:0:0:
402,321,70487,1,2,1:2:0:0:
330,384,70571,38,0,L|248:369,1,82.7999974731446,12|0,1:2|1:1,0:0:0:0:
202,286,70739,1,2,1:2:0:0:
140,241,70823,2,0,L|58:255,1,82.7999974731446,2|0,1:2|1:1,0:0:0:0:
0,179,70991,1,2,1:2:0:0:
70,148,71076,2,0,P|129:92|147:13,1,165.599994946289,14|2,1:2|1:2,0:0:0:0:
242,0,71328,1,2,1:2:0:0:
282,64,71412,1,0,1:1:0:0:
352,94,71496,1,0,1:1:0:0:
447,53,71580,6,0,P|460:175|489:296,1,248.399992419434,14|0,1:2|1:1,0:0:0:0:
180,283,71958,37,10,1:2:0:0:
332,101,72084,1,8,1:2:0:0:
139,171,72210,5,8,1:2:0:0:
372,212,72336,1,10,1:2:0:0:
215,80,72462,37,8,1:2:0:0:
296,303,72588,1,8,1:2:0:0:
208,63,72714,1,8,1:2:0:0:
302,320,72840,1,8,1:2:0:0:
201,45,72966,1,8,1:2:0:0:
194,264,73092,5,10,1:2:0:0:
317,119,73218,1,8,1:2:0:0:
162,175,73344,37,10,1:2:0:0:
349,208,73470,1,8,1:2:0:0:
256,192,73597,5,2,2:2:0:0:
256,384,77882,5,2,1:2:0:0:
241,371,78134,1,2,1:2:0:0:
271,346,78386,1,2,1:2:0:0:
226,306,78639,1,2,1:2:0:0:
286,246,78891,1,2,1:2:0:0:
211,174,79143,1,0,1:1:0:0:
301,88,79395,1,2,1:2:0:0:
156,80,80655,21,8,1:2:0:0:
354,180,80781,1,8,1:2:0:0:
366,165,81160,37,8,1:2:0:0:
167,264,81286,1,8,1:2:0:0:
250,317,81412,38,0,L|261:384,1,69,2|0,2:2|0:0,0:0:0:0:
499,188,81664,22,0,P|484:98|413:40,1,186.299994314575,6|0,1:1|0:0,0:0:0:0:
394,36,81916,2,0,L|271:14,1,124.199996209717,10|2,2:2|2:2,0:0:0:0:
0,136,82168,2,0,L|122:157,1,124.199996209717,2|2,1:2|2:2,0:0:0:0:
283,139,82420,1,10,2:2:0:0:
144,161,82546,1,2,2:2:0:0:
226,219,82672,1,2,1:2:0:0:
201,80,82798,1,2,2:2:0:0:
14,239,82924,38,0,P|55:350|172:372,1,248.399992419434,10|0,2:2|1:1,0:0:0:0:
361,327,83302,1,2,2:2:0:0:
325,130,83428,1,10,2:2:0:0:
343,228,83554,1,2,2:2:0:0:
450,53,83681,2,0,B|292:24|292:24|265:60|221:75,1,248.399992419434,2|10,1:2|2:2,0:0:0:0:
60,31,84059,2,0,P|97:2|145:0,1,96.599997052002,2|0,2:2|1:1,0:0:0:0:
210,214,84311,2,0,P|184:173|140:155,1,96.599997052002,2|8,2:2|2:2,0:0:0:0:
36,135,84563,1,2,2:2:0:0:
228,320,84689,6,0,P|318:298|411:287,1,186.299994314575,2|0,1:2|0:0,0:0:0:0:
439,293,84941,1,10,2:2:0:0:
439,293,85067,1,2,2:2:0:0:
300,154,85193,1,2,1:2:0:0:
300,154,85319,1,2,2:2:0:0:
138,373,85445,1,10,2:2:0:0:
133,355,85508,1,8,2:2:0:0:
129,337,85571,1,8,2:2:0:0:
126,319,85634,1,8,2:2:0:0:
125,301,85697,38,0,P|104:211|37:149,1,186.299994314575,6|0,1:2|0:0,0:0:0:0:
21,159,85949,2,0,P|6:219|0:280,1,124.199996209717,10|2,2:2|2:2,0:0:0:0:
241,355,86202,2,0,P|326:317|415:291,1,186.299994314575,2|0,1:2|0:0,0:0:0:0:
438,288,86454,2,0,P|489:320|512:377,1,124.199996209717,10|2,2:2|2:2,0:0:0:0:
214,58,86706,6,1,B|196:17|118:23|93:77|110:146|157:158|184:127|224:142|241:189,1,289.799991156006,2|0,1:2|0:0,0:0:0:0:
244,211,86958,2,1,B|272:161|320:152|345:192|400:188|432:113|416:48|329:26|300:68,1,331.199989892578,10|0,2:2|1:1,0:0:0:0:
223,369,87336,37,2,2:2:0:0:
348,261,87462,1,10,2:2:0:0:
42,61,87588,5,10,2:2:0:0:
42,61,87651,1,10,2:2:0:0:
42,61,87714,2,0,P|-14:169|0:290,1,248.399992419434,6|10,1:2|2:2,0:0:0:0:
470,358,88092,37,10,2:2:0:0:
470,358,88155,1,4,2:3:0:0:
470,358,88218,2,0,P|485:236|430:127,1,248.399992419434,4|10,1:2|2:2,0:0:0:0:
256,0,88597,1,6,2:2:0:0:
256,259,88723,2,0,L|256:384,1,124.199996209717,2|0,1:2|1:1,0:0:0:0:
159,72,88975,5,8,2:2:0:0:
352,277,89101,1,10,2:2:0:0:
353,72,89227,37,8,2:2:0:0:
160,277,89353,1,8,2:2:0:0:
256,116,89479,5,10,2:2:0:0:
256,363,89605,1,8,2:2:0:0:
256,96,89731,22,0,L|256:0,1,96.6,2|0,2:2|0:0,0:0:0:0:
347,104,90739,5,8,1:2:0:0:
339,137,90802,1,8,1:2:0:0:
319,165,90865,1,8,1:2:0:0:
290,183,90928,1,8,1:2:0:0:
256,191,90991,1,8,1:2:0:0:
223,200,91054,1,8,1:2:0:0:
194,218,91117,1,8,1:2:0:0:
174,246,91180,1,8,1:2:0:0:
166,275,91244,2,0,P|179:328|185:383,1,110.4,8|2,1:2|2:2,0:0:0:0:
185,383,91748,6,0,P|251:333|332:329,1,165.6,6|0,1:1|0:0,0:0:0:0:
351,334,92000,2,0,B|367:357|374:385|374:385|390:360|412:345,1,110.4,10|2,2:2|2:2,0:0:0:0:
447,158,92252,2,0,B|431:134|424:106|424:106|408:131|386:147,1,110.4,2|2,1:2|1:2,0:0:0:0:
399,246,92504,37,10,2:2:0:0:
325,52,92630,2,0,L|108:13,1,220.8,6|0,1:2|1:1,0:0:0:0:
29,272,93008,2,0,P|36:218|49:164,1,110.4,10|0,2:2|0:0,0:0:0:0:
160,310,93260,2,0,P|149:257|141:202,1,110.4,2|0,1:2|1:1,0:0:0:0:
332,328,93512,2,0,P|271:237|223:138,1,220.8,10|4,2:2|1:2,0:0:0:0:
223,137,94017,6,0,P|329:113|403:33,1,220.8,10|2,2:2|1:2,0:0:0:0:
308,0,94395,1,2,1:2:0:0:
462,121,94521,1,10,2:2:0:0:
316,340,94647,38,0,B|257:334|213:288|250:270|206:223|147:217,1,220.8,6|2,1:2|1:2,0:0:0:0:
10,321,94962,1,2,2:2:0:0:
10,321,95025,2,0,P|14:349|20:376,1,55.2,10|2,2:2|2:2,0:0:0:0:
118,362,95151,2,0,P|115:335|109:308,1,55.2,2|2,1:2|2:2,0:0:0:0:
48,230,95277,2,0,P|55:175|68:121,1,110.4,10|2,2:2|1:2,0:0:0:0:
294,0,95529,2,0,P|307:52|314:107,1,110.4,10|0,2:2|1:1,0:0:0:0:
0,11,95781,6,0,P|83:15|148:64,1,165.6,6|0,1:2|0:0,0:0:0:0:
157,82,96033,2,0,B|173:105|180:133|180:133|196:108|218:93,1,110.4,10|2,2:2|2:2,0:0:0:0:
424,202,96286,2,0,B|409:225|401:253|401:253|386:228|363:213,1,110.4,2|2,1:2|1:2,0:0:0:0:
247,229,96538,37,10,2:2:0:0:
445,40,96664,2,0,P|354:93|352:199,1,220.8,6|0,1:2|1:1,0:0:0:0:
184,384,97042,2,0,P|130:371|75:365,1,110.4,10|0,2:2|0:0,0:0:0:0:
227,231,97294,2,0,P|173:238|119:251,1,110.4,2|0,1:2|1:1,0:0:0:0:
234,41,97546,2,0,P|137:91|45:152,1,220.8,10|4,2:2|1:2,0:0:0:0:
44,153,98050,6,0,P|153:158|240:224,1,220.8,10|2,2:2|1:2,0:0:0:0:
281,313,98428,1,2,1:2:0:0:
397,159,98555,1,10,2:2:0:0:
456,384,98681,38,0,L|418:166,1,220.8,6|2,1:2|1:2,0:0:0:0:
265,54,98996,1,2,2:2:0:0:
265,54,99059,2,0,P|269:25|275:-1,1,55.2,10|2,2:2|2:2,0:0:0:0:
372,13,99185,2,0,P|369:40|363:67,1,55.2,2|2,1:2|2:2,0:0:0:0:
301,144,99311,1,10,1:2:0:0:
466,60,99437,5,10,1:2:0:0:
170,6,99563,1,10,1:2:0:0:
370,81,99689,1,8,1:2:0:0:
248,227,99815,37,2,1:2:0:0:
248,227,99878,1,0,1:1:0:0:
248,227,99941,1,0,1:1:0:0:
248,227,100004,1,0,1:1:0:0:
248,227,100067,6,0,B|322:234|378:293|331:316|386:373|460:381,1,276,14|2,2:1|1:2,0:0:0:0:
512,265,100445,1,2,2:2:0:0:
285,384,100571,1,10,2:2:0:0:
392,179,100697,2,0,P|345:66|242:0,1,248.399992419434,2|2,2:2|2:2,0:0:0:0:
0,198,101076,2,0,P|58:187|79:131,1,124.199996209717,10|2,2:2|2:2,0:0:0:0:
147,302,101328,2,0,P|184:256|165:199,1,124.199996209717,2|2,1:2|2:2,0:0:0:0:
371,338,101580,2,0,P|369:219|267:158,1,248.399992419434,10|0,2:2|1:1,0:0:0:0:
267,158,102084,38,0,L|511:114,1,248.399992419434,10|2,2:2|1:2,0:0:0:0:
429,29,102462,1,2,2:2:0:0:
349,243,102588,1,10,2:2:0:0:
228,14,102714,6,0,B|161:20|111:72|153:93|103:146|37:152,1,248.399992419434,2|2,2:2|2:2,0:0:0:0:
2,61,103029,1,2,2:2:0:0:
2,61,103092,2,0,P|6:30|13:0,1,62.0999981048585,10|2,2:2|2:2,0:0:0:0:
110,15,103218,2,0,P|105:45|98:75,1,62.0999981048585,2|2,2:2|2:2,0:0:0:0:
33,172,103344,1,2,1:2:0:0:
206,380,103597,1,10,2:2:0:0:
213,355,103660,1,8,2:2:0:0:
228,340,103723,1,8,2:2:0:0:
249,333,103786,1,8,2:2:0:0:
270,340,103849,38,0,P|325:267|330:175,1,186.299994314575,6|0,1:2|0:0,0:0:0:0:
321,157,104101,2,0,B|303:131|295:100|295:100|277:128|253:144,1,124.199996209717,10|2,2:2|2:2,0:0:0:0:
444,325,104353,2,0,B|461:350|469:381|469:381|487:353|511:337,1,124.199996209717,2|2,1:2|2:2,0:0:0:0:
367,252,104605,5,10,2:2:0:0:
117,342,104731,2,0,P|14:281|13:162,1,248.399992419434,2|2,2:2|2:2,0:0:0:0:
231,0,105109,2,0,P|179:33|156:89,1,124.199996209717,10|2,2:2|2:2,0:0:0:0:
350,64,105361,2,0,P|290:77|249:122,1,124.199996209717,2|2,1:2|2:2,0:0:0:0:
352,234,105613,1,10,2:2:0:0:
333,220,105676,1,8,2:2:0:0:
311,213,105739,1,8,2:3:0:0:
288,212,105802,1,8,2:3:0:0:
265,218,105865,38,0,P|235:227|206:240,3,62.0999981048585,8|8|8|4,2:2|2:2|2:3|2:3,0:0:0:0:
139,310,106118,1,6,1:2:0:0:
10,126,106244,2,0,P|27:151|40:179,3,62.0999981048585,8|4|6|0,2:2|2:3|2:2|0:0,0:0:0:0:
47,276,106497,1,6,1:2:0:0:
146,150,106622,5,2,1:2:0:0:
63,373,106748,2,0,P|72:339|86:308,1,69,2|0,1:2|0:0,0:0:0:0:
206,240,107126,38,0,B|273:266|240:289|308:316,1,131.099996499252,6|0,1:2|0:0,0:0:0:0:
