osu file format v14

[General]
AudioFilename: audio.mp3
AudioLeadIn: 0
PreviewTime: 45968
Countdown: 0
SampleSet: Soft
StackLeniency: 0.7
Mode: 3
LetterboxInBreaks: 0
SpecialStyle: 0
WidescreenStoryboard: 1

[Editor]
Bookmarks: 14216,78681
DistanceSpacing: 0.8
BeatDivisor: 4
GridSize: 32
TimelineZoom: 1.9

[Metadata]
Title:Love Chance!!
TitleUnicode:ラヴ♡チャンス!!
Artist:Ponchi feat. Haxchi
ArtistUnicode:Ponchi♪ feat. はぁち
Creator:[Seo-a]
Version:BASIC
Source:SOUND VOLTEX EXCEED GEAR
Tags:Mirsaaa Artzone aircraft Arcade Rhythm Game SDVX VI Japanese Video Game Electronic Production Confirmation Commemorative Character Theme Song Contest 制作決定記念 キャラクターテーマ楽曲コンテスト Wonderful Love-chan♥
BeatmapID:3184257
BeatmapSetID:1544508

[Difficulty]
HPDrainRate:7
CircleSize:4
OverallDifficulty:7
ApproachRate:5
SliderMultiplier:1.4
SliderTickRate:1

[Events]
//Background and Video events
0,0,"bg1.jpg",0,0
//Break Periods
//Storyboard Layer 0 (Background)
//Storyboard Layer 1 (Fail)
//Storyboard Layer 2 (Pass)
//Storyboard Layer 3 (Foreground)
//Storyboard Layer 4 (Overlay)
//Storyboard Sound Samples
Sample,17014,0,"Finish.wav",70
Sample,17433,0,"Finish.wav",70
Sample,17852,0,"Finish.wav",70
Sample,32224,0,"Finish.wav",70
Sample,32642,0,"Finish.wav",60
Sample,35433,0,"Finish.wav",60
Sample,37386,0,"Clap.wav",60
Sample,37945,0,"Clap.wav",60
Sample,38503,0,"Clap.wav",60
Sample,39061,0,"Clap.wav",60
Sample,39619,0,"Clap.wav",60
Sample,40177,0,"Clap.wav",60
Sample,40735,0,"Clap.wav",60
Sample,50921,0,"Finish.wav",60
Sample,68084,0,"Finish.wav",70
Sample,86224,0,"Finish.wav",70
Sample,88177,0,"Finish.wav",70
Sample,92084,0,"Finish.wav",60
Sample,92363,0,"Finish.wav",60
Sample,95433,0,"Clap.wav",60
Sample,95991,0,"Clap.wav",60
Sample,96549,0,"Clap.wav",60
Sample,97107,0,"Clap.wav",60
Sample,97666,0,"Clap.wav",60
Sample,98224,0,"Clap.wav",60
Sample,98782,0,"tom01.wav",70
Sample,99340,0,"Clap.wav",60

[TimingPoints]
1387,279.06976744186,4,2,1,60,1,0
46038,-100,4,2,1,60,0,1
69480,-100,4,2,1,60,0,0
79526,-100,4,2,1,60,0,1
94038,-100,4,2,1,60,0,0

[HitObjects]
320,192,1107,5,0,0:0:0:60:bass.wav
64,192,1387,1,0,0:0:0:60:bass.wav
448,192,1387,1,0,0:0:0:60:Finish.wav
320,192,1666,1,0,0:0:0:0:
192,192,1945,1,0,0:0:0:0:
64,192,2224,1,0,0:0:0:0:
320,192,2503,1,0,0:0:0:0:
192,192,2782,1,0,0:0:0:70:tom01.wav
448,192,3061,1,0,0:0:0:70:tom04.wav
192,192,3340,1,0,0:0:0:60:bass.wav
320,192,3340,1,0,0:0:0:60:Finish.wav
64,192,3619,1,0,0:0:0:60:bass.wav
448,192,3619,1,0,0:0:0:100:Splash.wav
192,192,3898,1,0,0:0:0:0:
320,192,4177,1,0,0:0:0:0:
448,192,4456,1,0,0:0:0:0:
192,192,4875,1,0,0:0:0:60:Snare.wav
320,192,5014,1,0,0:0:0:60:tom01.wav
448,192,5293,1,0,0:0:0:50:bass.wav
192,192,5573,1,0,0:0:0:60:bass.wav
64,192,5852,1,0,0:0:0:60:bass.wav
448,192,5852,1,0,0:0:0:60:Finish.wav
192,192,6131,1,0,0:0:0:0:
320,192,6410,1,0,0:0:0:0:
448,192,6828,1,0,0:0:0:60:bass.wav
64,192,6968,1,0,0:0:0:60:bass.wav
192,192,6968,1,0,0:0:0:60:Finish.wav
448,192,7247,1,0,0:0:0:0:
320,192,7526,1,0,0:0:0:60:Snare.wav
320,192,7805,1,0,0:0:0:60:Snare.wav
64,192,8084,1,0,0:0:0:60:bass.wav
448,192,8084,1,0,0:0:0:60:Finish.wav
192,192,8363,1,0,0:0:0:60:Snare.wav
320,192,8642,1,0,0:0:0:60:Snare.wav
448,192,8921,1,0,0:0:0:60:Snare.wav
64,192,9200,128,0,9759:0:0:0:0:
320,192,9898,1,0,0:0:0:70:tom01.wav
192,192,10038,1,0,0:0:0:70:tom01.wav
64,192,10317,1,0,0:0:0:60:bass.wav
448,192,10317,1,0,0:0:0:100:Splash.wav
320,192,10596,1,0,0:0:0:60:Snare.wav
64,192,10875,1,0,0:0:0:60:bass.wav
192,192,11154,1,0,0:0:0:60:Snare.wav
320,192,11154,1,0,0:0:0:0:
64,192,11433,1,0,0:0:0:60:bass.wav
192,192,11712,1,0,0:0:0:60:Snare.wav
448,192,11991,1,0,0:0:0:60:bass.wav
192,192,12270,1,0,0:0:0:60:Snare.wav
320,192,12270,1,0,0:0:0:0:
448,192,12549,1,0,0:0:0:60:bass.wav
192,192,12828,1,0,0:0:0:60:Snare.wav
64,192,13107,1,0,0:0:0:60:bass.wav
320,192,13386,1,0,0:0:0:60:Snare.wav
448,192,13666,1,0,0:0:0:70:tom01.wav
64,192,13945,1,0,0:0:0:60:bass.wav
320,192,14224,1,0,0:0:0:70:tom03.wav
192,192,14503,1,0,0:0:0:50:tom03.wav
64,192,14782,1,0,0:0:0:60:bass.wav
448,192,14782,1,0,0:0:0:100:Splash.wav
192,192,15061,1,0,0:0:0:60:Snare.wav
448,192,15340,1,0,0:0:0:60:bass.wav
192,192,15619,1,0,0:0:0:60:Snare.wav
320,192,15619,1,0,0:0:0:0:
448,192,15898,1,0,0:0:0:60:bass.wav
320,192,16177,1,0,0:0:0:60:Snare.wav
64,192,16456,1,0,0:0:0:60:bass.wav
192,192,16735,1,0,0:0:0:60:Snare.wav
320,192,16735,1,0,0:0:0:0:
448,192,17014,1,0,0:0:0:70:bass.wav
64,192,17293,1,0,0:0:0:70:bass.wav
192,192,17433,1,0,0:0:0:60:Snare.wav
448,192,17712,1,0,0:0:0:50:bass.wav
320,192,17852,1,0,0:0:0:60:Snare.wav
192,192,17991,1,0,0:0:0:70:bass.wav
64,192,18410,128,0,19247:0:0:0:60:bass.wav
448,192,18410,128,0,19247:0:0:0:60:Finish.wav
192,192,19247,1,0,0:0:0:60:bass.wav
320,192,19247,1,0,0:0:0:0:
320,192,19526,1,0,0:0:0:60:Snare.wav
192,192,19666,1,0,0:0:0:60:bass.wav
192,192,19945,1,0,0:0:0:60:bass.wav
320,192,20084,1,0,0:0:0:60:Snare.wav
448,192,20503,1,0,0:0:0:60:bass.wav
64,192,20642,1,0,0:0:0:60:Snare.wav
192,192,20921,1,0,0:0:0:60:bass.wav
320,192,21061,1,0,0:0:0:60:bass.wav
192,192,21200,1,0,0:0:0:60:Snare.wav
64,192,21480,1,0,0:0:0:60:bass.wav
448,192,21480,1,0,0:0:0:0:
320,192,21759,1,0,0:0:0:60:Snare.wav
192,192,21898,1,0,0:0:0:60:bass.wav
192,192,22177,1,0,0:0:0:60:bass.wav
320,192,22317,1,0,0:0:0:60:Snare.wav
64,192,22596,1,0,0:0:0:70:bass.wav
192,192,22735,1,0,0:0:0:60:bass.wav
320,192,22875,1,0,0:0:0:60:Snare.wav
448,192,23014,1,0,0:0:0:70:bass.wav
320,192,23293,1,0,0:0:0:60:bass.wav
192,192,23433,1,0,0:0:0:60:Snare.wav
64,192,23712,1,0,0:0:0:60:bass.wav
448,192,23712,1,0,0:0:0:60:Finish.wav
192,192,23991,1,0,0:0:0:60:Snare.wav
64,192,24131,1,0,0:0:0:60:bass.wav
320,192,24410,1,0,0:0:0:60:bass.wav
448,192,24549,1,0,0:0:0:60:Snare.wav
320,192,24968,1,0,0:0:0:60:bass.wav
64,192,25107,1,0,0:0:0:60:Snare.wav
192,192,25386,1,0,0:0:0:60:bass.wav
320,192,25526,1,0,0:0:0:60:bass.wav
192,192,25666,1,0,0:0:0:60:Snare.wav
64,192,25945,1,0,0:0:0:60:bass.wav
448,192,25945,1,0,0:0:0:0:
320,192,26224,1,0,0:0:0:60:Snare.wav
448,192,26363,1,0,0:0:0:60:bass.wav
192,192,26642,1,0,0:0:0:60:bass.wav
64,192,26782,1,0,0:0:0:60:Snare.wav
448,192,27061,128,0,27619:0:0:0:60:Snare.wav
192,192,27898,1,0,0:0:0:60:Pong.wav
64,192,28177,1,0,0:0:0:60:bass.wav
320,192,28177,1,0,0:0:0:60:Finish.wav
192,192,28317,1,0,0:0:0:60:Snare.wav
448,192,28456,1,0,0:0:0:60:bass.wav
192,192,28735,1,0,0:0:0:60:bass.wav
320,192,28875,1,0,0:0:0:60:Snare.wav
64,192,29014,1,0,0:0:0:60:bass.wav
192,192,29293,1,0,0:0:0:60:bass.wav
448,192,29433,1,0,0:0:0:60:Snare.wav
320,192,29573,1,0,0:0:0:60:bass.wav
192,192,29852,1,0,0:0:0:60:bass.wav
64,192,29991,1,0,0:0:0:60:Snare.wav
320,192,30131,1,0,0:0:0:60:bass.wav
448,192,30410,1,0,0:0:0:60:bass.wav
320,192,30549,1,0,0:0:0:60:Snare.wav
64,192,30689,1,0,0:0:0:60:bass.wav
192,192,30968,1,0,0:0:0:60:bass.wav
320,192,31107,1,0,0:0:0:60:Snare.wav
64,192,31247,1,0,0:0:0:60:bass.wav
320,192,31526,1,0,0:0:0:60:bass.wav
192,192,31666,1,0,0:0:0:60:Snare.wav
448,192,31805,1,0,0:0:0:70:tom03.wav
192,192,32084,1,0,0:0:0:70:bass.wav
320,192,32224,1,0,0:0:0:60:Snare.wav
64,192,32363,1,0,0:0:0:60:bass.wav
192,192,32642,1,0,0:0:0:60:bass.wav
320,192,32782,1,0,0:0:0:60:Snare.wav
448,192,32921,1,0,0:0:0:60:bass.wav
64,192,33200,1,0,0:0:0:60:bass.wav
192,192,33340,1,0,0:0:0:60:Snare.wav
320,192,33480,1,0,0:0:0:60:bass.wav
64,192,33619,1,0,0:0:0:60:bass.wav
448,192,33619,128,0,34596:0:0:0:60:Finish.wav
192,192,34596,1,0,0:0:0:60:Snare.wav
320,192,34596,1,0,0:0:0:60:Finish.wav
64,192,34875,128,0,35433:0:0:0:60:bass.wav
448,192,34875,1,0,0:0:0:100:Splash.wav
448,192,35433,128,0,35852:0:0:0:60:bass.wav
64,192,35852,1,0,0:0:0:60:bass.wav
192,192,35852,128,0,36549:0:0:0:60:Finish.wav
320,192,36549,128,0,36828:0:0:0:60:Snare.wav
64,192,37107,1,0,0:0:0:60:bass.wav
448,192,37107,1,0,0:0:0:60:Finish.wav
64,192,37386,1,0,0:0:0:60:bass.wav
320,192,37666,1,0,0:0:0:60:bass.wav
320,192,37945,1,0,0:0:0:60:bass.wav
192,192,38224,1,0,0:0:0:60:bass.wav
192,192,38503,1,0,0:0:0:60:bass.wav
448,192,38782,1,0,0:0:0:60:bass.wav
448,192,39061,1,0,0:0:0:60:bass.wav
64,192,39340,1,0,0:0:0:60:bass.wav
64,192,39619,1,0,0:0:0:60:bass.wav
320,192,39898,1,0,0:0:0:60:bass.wav
320,192,40177,1,0,0:0:0:60:bass.wav
192,192,40456,1,0,0:0:0:60:bass.wav
192,192,40735,1,0,0:0:0:60:bass.wav
64,192,41014,1,0,0:0:0:70:Snare.wav
448,192,41014,1,0,0:0:0:0:
192,192,41293,1,0,0:0:0:70:Snare.wav
320,192,41293,1,0,0:0:0:0:
64,192,41573,128,0,42689:0:0:0:60:bass.wav
448,192,41573,1,0,0:0:0:60:Finish.wav
320,192,41852,1,0,0:0:0:60:Snare.wav
320,192,42410,1,0,0:0:0:60:Snare.wav
192,192,42689,1,0,0:0:0:60:bass.wav
448,192,42689,128,0,43805:0:0:0:60:Finish.wav
64,192,42968,1,0,0:0:0:60:Snare.wav
64,192,43526,1,0,0:0:0:70:Snare.wav
320,192,43805,1,0,0:0:0:60:Snare.wav
192,192,44084,1,0,0:0:0:60:tom01.wav
448,192,44363,1,0,0:0:0:60:Snare.wav
320,192,44642,1,0,0:0:0:60:Snare.wav
64,192,44782,1,0,0:0:0:60:bass.wav
192,192,44782,1,0,0:0:0:60:Finish.wav
320,192,45061,1,0,0:0:0:50:bass.wav
192,192,45200,1,0,0:0:0:60:bass.wav
64,192,45480,1,0,0:0:0:60:bass.wav
448,192,45480,1,0,0:0:0:60:Finish.wav
64,192,46038,1,0,0:0:0:60:bass.wav
448,192,46038,1,0,0:0:0:100:Splash.wav
320,192,46317,1,0,0:0:0:60:Snare.wav
192,192,46596,1,0,0:0:0:60:bass.wav
64,192,46875,1,0,0:0:0:60:Snare.wav
448,192,46875,1,0,0:0:0:0:
192,192,47154,1,0,0:0:0:60:bass.wav
320,192,47433,1,0,0:0:0:60:Snare.wav
448,192,47712,1,0,0:0:0:60:bass.wav
64,192,47991,1,0,0:0:0:60:Snare.wav
320,192,47991,1,0,0:0:0:0:
192,192,48270,1,0,0:0:0:60:bass.wav
320,192,48549,1,0,0:0:0:60:Snare.wav
64,192,48828,1,0,0:0:0:60:bass.wav
192,192,49107,1,0,0:0:0:60:Snare.wav
448,192,49107,1,0,0:0:0:0:
320,192,49386,1,0,0:0:0:60:bass.wav
448,192,49666,1,0,0:0:0:60:Snare.wav
192,192,49945,1,0,0:0:0:70:tom04.wav
320,192,50224,1,0,0:0:0:60:Snare.wav
64,192,50503,1,0,0:0:0:60:bass.wav
448,192,50503,128,0,51480:0:0:0:60:Finish.wav
192,192,50921,1,0,0:0:0:60:Snare.wav
64,192,51480,128,0,52177:0:0:0:70:Snare.wav
320,192,51480,1,0,0:0:0:60:Finish.wav
192,192,52177,1,0,0:0:0:70:Snare.wav
448,192,52177,1,0,0:0:0:60:Finish.wav
64,192,52596,1,0,0:0:0:60:bass.wav
448,192,52596,1,0,0:0:0:60:Finish.wav
320,192,52875,1,0,0:0:0:60:bass.wav
192,192,53014,1,0,0:0:0:60:Snare.wav
320,192,53154,1,0,0:0:0:60:bass.wav
64,192,53293,1,0,0:0:0:60:Snare.wav
192,192,53573,1,0,0:0:0:60:Snare.wav
320,192,53712,1,0,0:0:0:60:bass.wav
448,192,53991,1,0,0:0:0:60:Snare.wav
320,192,54131,1,0,0:0:0:60:Snare.wav
192,192,54270,1,0,0:0:0:50:Snare.wav
64,192,54410,1,0,0:0:0:60:Snare.wav
192,192,54828,1,0,0:0:0:60:bass.wav
320,192,54828,1,0,0:0:0:70:Finish.wav
64,192,55247,1,0,0:0:0:60:bass.wav
448,192,55247,1,0,0:0:0:70:Splash.wav
320,192,55526,1,0,0:0:0:60:bass.wav
64,192,55805,1,0,0:0:0:60:bass.wav
192,192,56084,1,0,0:0:0:60:bass.wav
448,192,56363,1,0,0:0:0:60:bass.wav
320,192,56642,1,0,0:0:0:60:bass.wav
192,192,56921,1,0,0:0:0:60:bass.wav
64,192,57200,1,0,0:0:0:60:bass.wav
448,192,57480,1,0,0:0:0:60:bass.wav
192,192,57759,1,0,0:0:0:60:bass.wav
320,192,58038,1,0,0:0:0:60:bass.wav
64,192,58317,1,0,0:0:0:60:bass.wav
192,192,58596,1,0,0:0:0:60:bass.wav
448,192,58875,1,0,0:0:0:60:bass.wav
320,192,59154,1,0,0:0:0:60:bass.wav
64,192,59433,128,0,59852:0:0:0:60:bass.wav
448,192,59433,1,0,0:0:0:60:Finish.wav
192,192,59852,1,0,0:0:0:60:bass.wav
320,192,59852,1,0,0:0:0:60:Finish.wav
64,192,60270,1,0,0:0:0:70:bass.wav
320,192,60410,1,0,0:0:0:70:Snare.wav
448,192,60410,128,0,61107:0:0:0:60:Finish.wav
64,192,61107,1,0,0:0:0:60:Snare.wav
192,192,61107,1,0,0:0:0:70:Finish.wav
448,192,61386,1,0,0:0:0:60:bass.wav
64,192,61526,1,0,0:0:0:60:bass.wav
192,192,61526,128,0,62224:0:0:0:60:Finish.wav
320,192,62224,1,0,0:0:0:60:Snare.wav
448,192,62224,1,0,0:0:0:0:
64,192,62503,1,0,0:0:0:60:Snare.wav
320,192,62642,128,0,62921:0:0:0:60:bass.wav
448,192,62642,1,0,0:0:0:60:Finish.wav
64,192,62921,1,0,0:0:0:60:Snare.wav
192,192,63061,1,0,0:0:0:60:Snare.wav
320,192,63200,1,0,0:0:0:60:Snare.wav
192,192,63480,1,0,0:0:0:60:Snare.wav
320,192,63759,1,0,0:0:0:60:bass.wav
64,192,63898,1,0,0:0:0:60:bass.wav
448,192,63898,128,0,64317:0:0:0:70:Finish.wav
192,192,64317,1,0,0:0:0:60:Snare.wav
64,192,64735,1,0,0:0:0:60:Snare.wav
320,192,65014,128,0,65433:0:0:0:60:bass.wav
192,192,65433,1,0,0:0:0:60:Snare.wav
320,192,65852,1,0,0:0:0:60:Snare.wav
64,192,66131,128,0,66549:0:0:0:60:bass.wav
448,192,66131,1,0,0:0:0:60:Finish.wav
192,192,66549,128,0,66968:0:0:0:60:Snare.wav
320,192,66968,1,0,0:0:0:60:Snare.wav
448,192,66968,128,0,67805:0:0:0:0:
192,192,68084,1,0,0:0:0:60:Snare.wav
64,192,68363,1,0,0:0:0:60:Snare.wav
320,192,68363,1,0,0:0:0:0:
448,192,68642,1,0,0:0:0:60:Snare.wav
320,192,68921,1,0,0:0:0:60:Snare.wav
192,192,69200,1,0,0:0:0:60:Snare.wav
64,192,69480,1,0,0:0:0:60:bass.wav
448,192,69480,1,0,0:0:0:70:Finish.wav
64,192,70596,1,0,0:0:0:60:bass.wav
320,192,70596,1,0,0:0:0:60:Finish.wav
192,192,70875,1,0,0:0:0:60:bass.wav
448,192,71154,1,0,0:0:0:60:bass.wav
320,192,71433,1,0,0:0:0:60:bass.wav
192,192,71712,1,0,0:0:0:60:bass.wav
64,192,71991,1,0,0:0:0:60:bass.wav
320,192,72270,1,0,0:0:0:60:bass.wav
448,192,72549,1,0,0:0:0:60:bass.wav
64,192,72828,1,0,0:0:0:60:bass.wav
192,192,73107,1,0,0:0:0:60:bass.wav
448,192,73386,1,0,0:0:0:60:bass.wav
320,192,73666,1,0,0:0:0:60:bass.wav
192,192,73945,1,0,0:0:0:60:bass.wav
320,192,74224,1,0,0:0:0:60:bass.wav
64,192,74503,1,0,0:0:0:60:bass.wav
448,192,74503,1,0,0:0:0:0:
192,192,74782,1,0,0:0:0:60:bass.wav
320,192,74782,1,0,0:0:0:0:
64,192,75061,1,0,0:0:0:60:bass.wav
448,192,75061,1,0,0:0:0:60:Finish.wav
320,192,75340,1,0,0:0:0:60:Snare.wav
192,192,75619,1,0,0:0:0:60:bass.wav
320,192,75898,1,0,0:0:0:60:Snare.wav
64,192,76177,1,0,0:0:0:60:bass.wav
448,192,76177,1,0,0:0:0:0:
192,192,76456,1,0,0:0:0:60:Snare.wav
320,192,76735,1,0,0:0:0:60:bass.wav
192,192,77014,1,0,0:0:0:60:Snare.wav
64,192,77293,1,0,0:0:0:60:Snare.wav
320,192,77573,1,0,0:0:0:60:tom01.wav
192,192,77852,1,0,0:0:0:60:tom03.wav
448,192,78131,1,0,0:0:0:60:Snare.wav
192,192,78689,1,0,0:0:0:60:bass.wav
448,192,78689,128,0,79526:0:0:0:60:Finish.wav
64,192,79526,1,0,0:0:0:60:bass.wav
320,192,79526,1,0,0:0:0:60:Finish.wav
192,192,79805,1,0,0:0:0:60:Snare.wav
320,192,80084,1,0,0:0:0:60:bass.wav
64,192,80363,1,0,0:0:0:60:Snare.wav
448,192,80363,1,0,0:0:0:0:
320,192,80642,1,0,0:0:0:60:bass.wav
192,192,80921,1,0,0:0:0:60:Snare.wav
64,192,81200,1,0,0:0:0:60:bass.wav
192,192,81480,1,0,0:0:0:60:Snare.wav
448,192,81480,1,0,0:0:0:0:
320,192,81759,1,0,0:0:0:60:bass.wav
192,192,82038,1,0,0:0:0:60:Snare.wav
448,192,82317,1,0,0:0:0:60:bass.wav
64,192,82596,1,0,0:0:0:60:Snare.wav
320,192,82596,1,0,0:0:0:0:
192,192,82875,1,0,0:0:0:60:bass.wav
320,192,83154,1,0,0:0:0:60:Snare.wav
64,192,83433,1,0,0:0:0:60:bass.wav
192,192,83712,1,0,0:0:0:60:Snare.wav
64,192,83991,1,0,0:0:0:60:bass.wav
448,192,83991,1,0,0:0:0:70:Finish.wav
320,192,84270,1,0,0:0:0:60:Snare.wav
192,192,84549,1,0,0:0:0:60:bass.wav
64,192,84828,1,0,0:0:0:60:Snare.wav
448,192,84828,1,0,0:0:0:0:
192,192,85107,1,0,0:0:0:60:bass.wav
320,192,85386,1,0,0:0:0:60:Snare.wav
192,192,85666,1,0,0:0:0:60:bass.wav
64,192,85945,1,0,0:0:0:60:Snare.wav
320,192,85945,1,0,0:0:0:0:
448,192,86224,128,0,86503:0:0:0:70:bass.wav
192,192,86503,1,0,0:0:0:60:Snare.wav
320,192,86642,1,0,0:0:0:60:Snare.wav
320,192,86921,1,0,0:0:0:70:Snare.wav
192,192,87061,1,0,0:0:0:70:Snare.wav
64,192,87200,128,0,87480:0:0:0:60:bass.wav
448,192,87480,1,0,0:0:0:60:bass.wav
320,192,87619,1,0,0:0:0:60:tom01.wav
192,192,87759,1,0,0:0:0:60:bass.wav
64,192,87898,1,0,0:0:0:60:tom03.wav
320,192,88177,1,0,0:0:0:60:Snare.wav
64,192,88456,1,0,0:0:0:60:bass.wav
448,192,88456,1,0,0:0:0:0:
192,192,88735,1,0,0:0:0:60:Snare.wav
448,192,89014,1,0,0:0:0:60:bass.wav
64,192,89293,1,0,0:0:0:60:Snare.wav
320,192,89293,1,0,0:0:0:0:
192,192,89573,1,0,0:0:0:60:bass.wav
320,192,89852,1,0,0:0:0:60:Snare.wav
64,192,90131,1,0,0:0:0:60:bass.wav
192,192,90410,1,0,0:0:0:60:Snare.wav
448,192,90410,1,0,0:0:0:0:
64,192,90968,1,0,0:0:0:60:Snare.wav
192,192,90968,1,0,0:0:0:60:Finish.wav
320,192,91247,1,0,0:0:0:60:Snare.wav
448,192,91526,128,0,92084:0:0:0:60:Snare.wav
192,192,92084,1,0,0:0:0:60:Snare.wav
320,192,92363,1,0,0:0:0:60:Snare.wav
192,192,92642,1,0,0:0:0:60:bass.wav
64,192,92921,1,0,0:0:0:60:bass.wav
448,192,92921,128,0,93200:0:0:0:60:Finish.wav
320,192,93200,1,0,0:0:0:70:bass.wav
192,192,93340,1,0,0:0:0:70:bass.wav
64,192,93480,1,0,0:0:0:60:Snare.wav
192,192,93759,1,0,0:0:0:60:Snare.wav
320,192,94038,1,0,0:0:0:60:bass.wav
448,192,94038,1,0,0:0:0:0:
64,192,95154,1,0,0:0:0:60:bass.wav
448,192,95154,1,0,0:0:0:70:Finish.wav
320,192,95433,1,0,0:0:0:60:bass.wav
192,192,95712,1,0,0:0:0:60:bass.wav
64,192,95991,1,0,0:0:0:60:bass.wav
448,192,96270,1,0,0:0:0:60:bass.wav
64,192,96549,1,0,0:0:0:60:bass.wav
192,192,96828,1,0,0:0:0:60:bass.wav
320,192,97107,1,0,0:0:0:60:bass.wav
448,192,97386,1,0,0:0:0:60:bass.wav
320,192,97666,1,0,0:0:0:60:bass.wav
192,192,97945,1,0,0:0:0:60:bass.wav
64,192,98224,1,0,0:0:0:60:bass.wav
448,192,98503,1,0,0:0:0:60:bass.wav
64,192,98782,1,0,0:0:0:60:Clap.wav
320,192,99061,1,0,0:0:0:60:bass.wav
192,192,99340,1,0,0:0:0:60:bass.wav
64,192,99619,1,0,0:0:0:60:bass.wav
448,192,99619,1,0,0:0:0:60:Finish.wav
320,192,99898,128,0,100177:0:0:0:60:Snare.wav
448,192,100177,1,0,0:0:0:60:bass.wav
192,192,100456,128,0,100735:0:0:0:60:Snare.wav
64,192,100735,1,0,0:0:0:60:bass.wav
448,192,101014,128,0,101293:0:0:0:60:Snare.wav
320,192,101293,1,0,0:0:0:60:bass.wav
64,192,101573,128,0,101852:0:0:0:60:Snare.wav
192,192,101852,1,0,0:0:0:60:bass.wav
320,192,101991,1,0,0:0:0:60:Snare.wav
448,192,102131,128,0,102410:0:0:0:60:bass.wav
320,192,102410,1,0,0:0:0:60:bass.wav
192,192,102549,1,0,0:0:0:60:Snare.wav
64,192,102689,128,0,102968:0:0:0:60:bass.wav
192,192,102968,1,0,0:0:0:60:bass.wav
320,192,103107,1,0,0:0:0:60:Snare.wav
448,192,103247,128,0,103526:0:0:0:60:Snare.wav
320,192,103526,128,0,104084:0:0:0:60:Snare.wav
64,192,104084,1,0,0:0:0:60:bass.wav
192,192,104084,1,0,0:0:0:70:Splash.wav
