osu file format v14

[General]
AudioFilename: audio.mp3
AudioLeadIn: 0
PreviewTime: 45968
Countdown: 0
SampleSet: Soft
StackLeniency: 0.7
Mode: 3
LetterboxInBreaks: 0
SpecialStyle: 0
WidescreenStoryboard: 1

[Editor]
Bookmarks: 10397,19327,37187,46118,55239,63978,70676,75141,79606,95234
DistanceSpacing: 0.8
BeatDivisor: 4
GridSize: 32
TimelineZoom: 1.6

[Metadata]
Title:Love Chance!!
TitleUnicode:ラヴ♡チャンス!!
Artist:Ponchi feat. Haxchi
ArtistUnicode:Ponchi♪ feat. はぁち
Creator:[Seo-a]
Version:ArtZone's NOVICE
Source:SOUND VOLTEX EXCEED GEAR
Tags:Mirsaaa Artzone aircraft Arcade Rhythm Game SDVX VI Japanese Video Game Electronic Production Confirmation Commemorative Character Theme Song Contest 制作決定記念 キャラクターテーマ楽曲コンテスト Wonderful Love-chan♥
BeatmapID:3184256
BeatmapSetID:1544508

[Difficulty]
HPDrainRate:7.4
CircleSize:4
OverallDifficulty:7.4
ApproachRate:5
SliderMultiplier:1.4
SliderTickRate:1

[Events]
//Background and Video events
0,0,"bg2.jpg",0,0
//Break Periods
//Storyboard Layer 0 (Background)
//Storyboard Layer 1 (Fail)
//Storyboard Layer 2 (Pass)
//Storyboard Layer 3 (Foreground)
//Storyboard Layer 4 (Overlay)
//Storyboard Sound Samples
Sample,23712,0,"Finish.wav",60
Sample,34875,0,"Splash.wav",100
Sample,35433,0,"Finish.wav",60
Sample,35852,0,"Finish.wav",60
Sample,37386,0,"Clap.wav",60
Sample,38503,0,"Clap.wav",60
Sample,39619,0,"Clap.wav",60
Sample,40735,0,"Clap.wav",60
Sample,54828,0,"Finish.wav",70
Sample,83991,0,"Finish.wav",70
Sample,88875,0,"Ride.wav",60
Sample,89154,0,"Ride.wav",60
Sample,89991,0,"Ride.wav",60
Sample,95433,0,"Clap.wav",60
Sample,96549,0,"Clap.wav",60
Sample,97666,0,"Clap.wav",60
Sample,98782,0,"tom01.wav",70

[TimingPoints]
1387,279.06976744186,4,2,1,60,1,0
46038,-100,4,2,1,60,0,1
69480,-100,4,2,1,60,0,0
79526,-100,4,2,1,60,0,1
94038,-100,4,2,1,60,0,0

[HitObjects]
64,192,1107,5,0,0:0:0:60:bass.wav
192,192,1107,1,0,0:0:0:0:
192,192,1387,1,0,0:0:0:60:bass.wav
448,192,1387,1,0,0:0:0:60:Finish.wav
320,192,1666,1,0,0:0:0:0:
64,192,1945,1,0,0:0:0:0:
320,192,2224,1,0,0:0:0:0:
64,192,2503,1,0,0:0:0:0:
192,192,2642,1,0,0:0:0:60:bass.wav
448,192,2782,1,0,0:0:0:70:tom01.wav
320,192,2921,1,0,0:0:0:70:bass.wav
192,192,3061,1,0,0:0:0:70:tom04.wav
320,192,3200,1,0,0:0:0:60:bass.wav
64,192,3340,128,0,3619:0:0:0:60:bass.wav
448,192,3340,1,0,0:0:0:60:Finish.wav
320,192,3619,1,0,0:0:0:60:bass.wav
448,192,3619,1,0,0:0:0:100:Splash.wav
192,192,3898,1,0,0:0:0:0:
64,192,4177,1,0,0:0:0:0:
448,192,4456,1,0,0:0:0:0:
192,192,4735,1,0,0:0:0:0:
64,192,4875,1,0,0:0:0:60:Snare.wav
320,192,5014,1,0,0:0:0:60:tom01.wav
192,192,5154,1,0,0:0:0:70:tom03.wav
64,192,5293,1,0,0:0:0:50:bass.wav
448,192,5293,1,0,0:0:0:0:
192,192,5573,1,0,0:0:0:60:bass.wav
320,192,5573,1,0,0:0:0:0:
64,192,5852,1,0,0:0:0:60:bass.wav
448,192,5852,1,0,0:0:0:60:Finish.wav
192,192,6131,1,0,0:0:0:0:
320,192,6410,1,0,0:0:0:0:
320,192,6689,1,0,0:0:0:0:
64,192,6828,1,0,0:0:0:60:bass.wav
192,192,6828,1,0,0:0:0:0:
320,192,6968,1,0,0:0:0:60:bass.wav
448,192,6968,1,0,0:0:0:60:Finish.wav
64,192,7247,1,0,0:0:0:0:
192,192,7386,1,0,0:0:0:0:
320,192,7526,1,0,0:0:0:60:Snare.wav
448,192,7526,1,0,0:0:0:0:
192,192,7666,1,0,0:0:0:70:bass.wav
64,192,7805,1,0,0:0:0:60:Snare.wav
448,192,7805,128,0,8084:0:0:0:0:
64,192,8084,1,0,0:0:0:60:bass.wav
192,192,8084,1,0,0:0:0:60:Finish.wav
320,192,8224,1,0,0:0:0:70:bass.wav
448,192,8363,1,0,0:0:0:60:Snare.wav
320,192,8503,1,0,0:0:0:60:Snare.wav
64,192,8642,1,0,0:0:0:60:Snare.wav
192,192,8782,1,0,0:0:0:60:Snare.wav
320,192,8921,1,0,0:0:0:60:Snare.wav
192,192,9061,1,0,0:0:0:60:Snare.wav
448,192,9200,128,0,9759:0:0:0:0:
192,192,9898,1,0,0:0:0:70:tom01.wav
192,192,10038,1,0,0:0:0:70:tom01.wav
64,192,10317,1,0,0:0:0:60:bass.wav
448,192,10317,1,0,0:0:0:100:Splash.wav
320,192,10596,1,0,0:0:0:60:Snare.wav
448,192,10596,1,0,0:0:0:0:
192,192,10735,1,0,0:0:0:0:
64,192,10875,1,0,0:0:0:60:bass.wav
320,192,11014,1,0,0:0:0:0:
64,192,11154,1,0,0:0:0:60:Snare.wav
448,192,11154,1,0,0:0:0:0:
64,192,11433,1,0,0:0:0:60:bass.wav
192,192,11573,1,0,0:0:0:0:
320,192,11712,1,0,0:0:0:60:Snare.wav
448,192,11712,1,0,0:0:0:0:
192,192,11852,1,0,0:0:0:0:
64,192,11991,1,0,0:0:0:60:bass.wav
320,192,12131,1,0,0:0:0:0:
64,192,12270,1,0,0:0:0:60:Snare.wav
448,192,12270,1,0,0:0:0:0:
192,192,12549,1,0,0:0:0:60:bass.wav
320,192,12689,1,0,0:0:0:0:
192,192,12828,1,0,0:0:0:60:Snare.wav
448,192,12828,1,0,0:0:0:0:
64,192,12968,1,0,0:0:0:0:
320,192,13107,1,0,0:0:0:60:bass.wav
192,192,13247,128,0,13526:0:0:0:60:Snare.wav
64,192,13526,128,0,13805:0:0:0:60:Snare.wav
448,192,13805,128,0,13945:0:0:0:70:Snare.wav
320,192,13945,128,0,14224:0:0:0:60:bass.wav
64,192,14224,1,0,0:0:0:70:tom03.wav
192,192,14224,1,0,0:0:0:0:
192,192,14503,1,0,0:0:0:50:tom03.wav
320,192,14503,1,0,0:0:0:0:
64,192,14782,1,0,0:0:0:60:bass.wav
448,192,14782,1,0,0:0:0:100:Splash.wav
192,192,15061,1,0,0:0:0:60:Snare.wav
448,192,15061,1,0,0:0:0:0:
320,192,15200,1,0,0:0:0:0:
64,192,15340,1,0,0:0:0:60:bass.wav
192,192,15480,1,0,0:0:0:0:
320,192,15619,1,0,0:0:0:60:Snare.wav
448,192,15619,1,0,0:0:0:0:
448,192,15898,1,0,0:0:0:60:bass.wav
320,192,16038,1,0,0:0:0:0:
64,192,16177,1,0,0:0:0:60:Snare.wav
192,192,16177,1,0,0:0:0:0:
320,192,16317,1,0,0:0:0:0:
448,192,16456,1,0,0:0:0:60:bass.wav
192,192,16596,1,0,0:0:0:0:
64,192,16735,1,0,0:0:0:60:Snare.wav
448,192,16735,1,0,0:0:0:0:
320,192,16875,1,0,0:0:0:60:tom02.wav
64,192,17014,1,0,0:0:0:70:bass.wav
192,192,17014,128,0,17293:0:0:0:70:Finish.wav
448,192,17293,1,0,0:0:0:70:bass.wav
64,192,17433,1,0,0:0:0:60:Snare.wav
320,192,17433,128,0,17712:0:0:0:70:Finish.wav
448,192,17712,1,0,0:0:0:60:bass.wav
64,192,17852,1,0,0:0:0:60:Snare.wav
192,192,17852,1,0,0:0:0:70:Finish.wav
320,192,17991,1,0,0:0:0:70:bass.wav
448,192,17991,1,0,0:0:0:0:
64,192,18410,1,0,0:0:0:60:bass.wav
192,192,18410,1,0,0:0:0:60:Finish.wav
448,192,18410,128,0,19247:0:0:0:0:
192,192,19247,1,0,0:0:0:60:bass.wav
192,192,19526,1,0,0:0:0:60:Snare.wav
448,192,19526,1,0,0:0:0:0:
320,192,19666,1,0,0:0:0:60:bass.wav
320,192,19945,1,0,0:0:0:60:bass.wav
64,192,20084,1,0,0:0:0:60:Snare.wav
192,192,20084,1,0,0:0:0:0:
448,192,20224,128,0,20503:0:0:0:0:
192,192,20503,1,0,0:0:0:60:bass.wav
64,192,20642,1,0,0:0:0:60:Snare.wav
320,192,20642,1,0,0:0:0:0:
320,192,20921,1,0,0:0:0:60:bass.wav
64,192,21061,1,0,0:0:0:60:bass.wav
192,192,21200,1,0,0:0:0:60:Snare.wav
448,192,21200,1,0,0:0:0:0:
320,192,21340,1,0,0:0:0:60:bass.wav
192,192,21480,1,0,0:0:0:60:bass.wav
192,192,21759,1,0,0:0:0:60:Snare.wav
448,192,21759,1,0,0:0:0:0:
320,192,21898,1,0,0:0:0:60:bass.wav
320,192,22177,1,0,0:0:0:60:bass.wav
64,192,22317,1,0,0:0:0:60:Snare.wav
192,192,22317,1,0,0:0:0:0:
448,192,22596,1,0,0:0:0:70:bass.wav
320,192,22735,1,0,0:0:0:60:bass.wav
192,192,22875,1,0,0:0:0:60:Snare.wav
448,192,22875,1,0,0:0:0:0:
64,192,23014,1,0,0:0:0:70:bass.wav
448,192,23154,1,0,0:0:0:0:
320,192,23293,1,0,0:0:0:60:bass.wav
64,192,23433,1,0,0:0:0:60:Snare.wav
192,192,23433,128,0,23712:0:0:0:0:
448,192,23712,1,0,0:0:0:60:bass.wav
192,192,23991,1,0,0:0:0:60:Snare.wav
448,192,23991,1,0,0:0:0:0:
320,192,24131,1,0,0:0:0:60:bass.wav
320,192,24410,1,0,0:0:0:60:bass.wav
64,192,24549,1,0,0:0:0:60:Snare.wav
192,192,24549,1,0,0:0:0:0:
448,192,24689,128,0,24968:0:0:0:0:
64,192,24968,1,0,0:0:0:60:bass.wav
192,192,25107,1,0,0:0:0:60:Snare.wav
320,192,25107,1,0,0:0:0:0:
320,192,25386,1,0,0:0:0:60:bass.wav
192,192,25526,1,0,0:0:0:60:bass.wav
64,192,25666,1,0,0:0:0:60:Snare.wav
320,192,25666,1,0,0:0:0:0:
448,192,25805,1,0,0:0:0:60:bass.wav
192,192,25945,1,0,0:0:0:60:bass.wav
64,192,26224,1,0,0:0:0:60:Snare.wav
192,192,26224,1,0,0:0:0:0:
320,192,26363,1,0,0:0:0:60:bass.wav
320,192,26642,1,0,0:0:0:60:bass.wav
64,192,26782,1,0,0:0:0:60:Snare.wav
448,192,26782,1,0,0:0:0:0:
320,192,26921,1,0,0:0:0:70:bass.wav
64,192,27061,128,0,27619:0:0:0:60:Snare.wav
192,192,27061,1,0,0:0:0:0:
448,192,27619,1,0,0:0:0:60:bass.wav
320,192,27898,1,0,0:0:0:60:Pong.wav
64,192,28177,1,0,0:0:0:60:bass.wav
192,192,28177,1,0,0:0:0:60:Finish.wav
448,192,28317,1,0,0:0:0:60:Snare.wav
320,192,28456,1,0,0:0:0:60:bass.wav
192,192,28596,1,0,0:0:0:60:Snare.wav
64,192,28735,1,0,0:0:0:60:bass.wav
320,192,28875,1,0,0:0:0:60:Snare.wav
448,192,28875,1,0,0:0:0:0:
192,192,29014,1,0,0:0:0:60:bass.wav
320,192,29154,1,0,0:0:0:60:Snare.wav
64,192,29433,1,0,0:0:0:60:Snare.wav
448,192,29433,1,0,0:0:0:0:
192,192,29573,1,0,0:0:0:60:bass.wav
320,192,29712,1,0,0:0:0:60:Snare.wav
448,192,29852,1,0,0:0:0:60:bass.wav
64,192,30131,1,0,0:0:0:60:bass.wav
320,192,30270,1,0,0:0:0:60:Snare.wav
192,192,30410,1,0,0:0:0:60:bass.wav
64,192,30549,1,0,0:0:0:60:Snare.wav
448,192,30549,1,0,0:0:0:0:
320,192,30689,1,0,0:0:0:60:bass.wav
192,192,30828,1,0,0:0:0:60:Snare.wav
448,192,30968,1,0,0:0:0:60:bass.wav
64,192,31107,1,0,0:0:0:60:Snare.wav
320,192,31107,1,0,0:0:0:0:
192,192,31247,1,0,0:0:0:60:bass.wav
320,192,31386,1,0,0:0:0:60:Snare.wav
64,192,31666,1,0,0:0:0:60:Snare.wav
192,192,31666,1,0,0:0:0:0:
320,192,31805,1,0,0:0:0:70:tom03.wav
448,192,31945,1,0,0:0:0:60:Snare.wav
192,192,32084,1,0,0:0:0:70:bass.wav
320,192,32363,1,0,0:0:0:60:bass.wav
448,192,32363,1,0,0:0:0:0:
192,192,32503,1,0,0:0:0:60:Snare.wav
64,192,32642,1,0,0:0:0:60:bass.wav
448,192,32642,1,0,0:0:0:60:Finish.wav
320,192,32782,1,0,0:0:0:60:Snare.wav
192,192,32921,1,0,0:0:0:60:bass.wav
320,192,33061,1,0,0:0:0:60:Snare.wav
448,192,33061,1,0,0:0:0:0:
64,192,33200,1,0,0:0:0:60:bass.wav
192,192,33340,1,0,0:0:0:60:Snare.wav
320,192,33480,1,0,0:0:0:60:bass.wav
64,192,33619,128,0,33898:0:0:0:60:bass.wav
192,192,33619,1,0,0:0:0:60:Finish.wav
320,192,33898,1,0,0:0:0:60:bass.wav
448,192,34038,128,0,34317:0:0:0:60:Snare.wav
320,192,34317,128,0,34596:0:0:0:60:Snare.wav
64,192,34596,1,0,0:0:0:60:Snare.wav
192,192,34596,1,0,0:0:0:60:Finish.wav
192,192,34875,128,0,35154:0:0:0:60:bass.wav
320,192,35154,128,0,35433:0:0:0:60:tom01.wav
64,192,35433,1,0,0:0:0:60:bass.wav
192,192,35573,1,0,0:0:0:0:
320,192,35712,1,0,0:0:0:60:Snare.wav
448,192,35712,1,0,0:0:0:0:
192,192,35852,1,0,0:0:0:60:bass.wav
192,192,36131,1,0,0:0:0:60:bass.wav
448,192,36270,128,0,36549:0:0:0:70:bass.wav
320,192,36549,128,0,36828:0:0:0:60:Snare.wav
64,192,36828,1,0,0:0:0:60:bass.wav
192,192,36828,1,0,0:0:0:70:Finish.wav
64,192,37107,1,0,0:0:0:60:bass.wav
192,192,37107,1,0,0:0:0:60:Finish.wav
320,192,37386,1,0,0:0:0:60:bass.wav
320,192,37526,1,0,0:0:0:60:Clap.wav
64,192,37666,128,0,37945:0:0:0:60:bass.wav
448,192,37666,1,0,0:0:0:0:
320,192,37945,1,0,0:0:0:60:bass.wav
448,192,37945,1,0,0:0:0:60:Clap.wav
64,192,38224,1,0,0:0:0:60:bass.wav
192,192,38224,1,0,0:0:0:0:
320,192,38503,1,0,0:0:0:60:bass.wav
320,192,38642,1,0,0:0:0:60:Clap.wav
64,192,38782,1,0,0:0:0:60:bass.wav
448,192,38782,128,0,39061:0:0:0:0:
64,192,39061,1,0,0:0:0:60:bass.wav
192,192,39061,1,0,0:0:0:60:Clap.wav
320,192,39340,1,0,0:0:0:60:bass.wav
448,192,39340,1,0,0:0:0:0:
192,192,39619,1,0,0:0:0:60:bass.wav
192,192,39759,1,0,0:0:0:60:Clap.wav
64,192,39898,128,0,40177:0:0:0:60:bass.wav
448,192,39898,1,0,0:0:0:0:
320,192,40177,1,0,0:0:0:60:bass.wav
448,192,40177,1,0,0:0:0:60:Clap.wav
64,192,40456,1,0,0:0:0:60:bass.wav
192,192,40456,1,0,0:0:0:0:
320,192,40735,1,0,0:0:0:60:bass.wav
320,192,40875,1,0,0:0:0:60:Clap.wav
64,192,41014,1,0,0:0:0:70:Snare.wav
448,192,41014,1,0,0:0:0:0:
192,192,41293,1,0,0:0:0:70:Snare.wav
320,192,41293,1,0,0:0:0:0:
320,192,41573,1,0,0:0:0:60:bass.wav
448,192,41573,1,0,0:0:0:60:Finish.wav
64,192,41852,1,0,0:0:0:60:Snare.wav
192,192,41852,1,0,0:0:0:0:
320,192,42131,1,0,0:0:0:60:bass.wav
64,192,42410,1,0,0:0:0:60:Snare.wav
448,192,42410,1,0,0:0:0:0:
64,192,42689,1,0,0:0:0:60:bass.wav
192,192,42689,1,0,0:0:0:60:Finish.wav
320,192,42968,1,0,0:0:0:60:Snare.wav
448,192,42968,1,0,0:0:0:0:
192,192,43247,1,0,0:0:0:60:bass.wav
64,192,43526,1,0,0:0:0:70:Snare.wav
192,192,43666,1,0,0:0:0:70:tom01.wav
320,192,43805,1,0,0:0:0:60:Snare.wav
448,192,43805,1,0,0:0:0:0:
192,192,43945,1,0,0:0:0:60:bass.wav
64,192,44084,1,0,0:0:0:60:tom01.wav
448,192,44224,1,0,0:0:0:60:bass.wav
320,192,44363,1,0,0:0:0:60:Snare.wav
64,192,44503,1,0,0:0:0:60:Snare.wav
192,192,44642,1,0,0:0:0:60:Snare.wav
320,192,44782,1,0,0:0:0:60:bass.wav
448,192,44782,1,0,0:0:0:60:Finish.wav
320,192,45061,1,0,0:0:0:60:bass.wav
64,192,45200,1,0,0:0:0:60:bass.wav
192,192,45200,1,0,0:0:0:0:
64,192,45480,1,0,0:0:0:60:bass.wav
448,192,45480,1,0,0:0:0:60:Finish.wav
320,192,45759,128,0,45898:0:0:0:0:
64,192,46038,1,0,0:0:0:60:bass.wav
192,192,46038,1,0,0:0:0:100:Splash.wav
192,192,46317,1,0,0:0:0:60:Snare.wav
448,192,46317,1,0,0:0:0:0:
64,192,46596,1,0,0:0:0:60:bass.wav
192,192,46735,1,0,0:0:0:60:bass.wav
320,192,46875,1,0,0:0:0:60:Snare.wav
448,192,46875,1,0,0:0:0:0:
192,192,47014,1,0,0:0:0:60:bass.wav
64,192,47154,1,0,0:0:0:60:bass.wav
192,192,47433,1,0,0:0:0:60:Snare.wav
448,192,47433,1,0,0:0:0:0:
320,192,47712,1,0,0:0:0:60:bass.wav
192,192,47852,1,0,0:0:0:60:bass.wav
64,192,47991,1,0,0:0:0:60:Snare.wav
448,192,47991,1,0,0:0:0:0:
320,192,48131,1,0,0:0:0:70:bass.wav
192,192,48270,1,0,0:0:0:60:bass.wav
64,192,48549,1,0,0:0:0:60:Snare.wav
320,192,48549,1,0,0:0:0:0:
192,192,48828,1,0,0:0:0:60:bass.wav
320,192,48968,1,0,0:0:0:70:bass.wav
64,192,49107,1,0,0:0:0:60:Snare.wav
448,192,49107,1,0,0:0:0:0:
192,192,49247,1,0,0:0:0:70:bass.wav
320,192,49386,1,0,0:0:0:60:bass.wav
64,192,49666,1,0,0:0:0:60:Snare.wav
448,192,49666,1,0,0:0:0:0:
320,192,49805,1,0,0:0:0:70:tom02.wav
192,192,49945,1,0,0:0:0:70:tom04.wav
448,192,50084,1,0,0:0:0:70:bass.wav
320,192,50224,1,0,0:0:0:60:Snare.wav
192,192,50363,1,0,0:0:0:70:Snare.wav
64,192,50503,128,0,50782:0:0:0:60:bass.wav
448,192,50503,1,0,0:0:0:60:Finish.wav
192,192,50782,1,0,0:0:0:70:tom02.wav
320,192,50921,128,0,51200:0:0:0:70:Snare.wav
448,192,50921,1,0,0:0:0:60:Finish.wav
64,192,51200,1,0,0:0:0:70:tom02.wav
192,192,51340,1,0,0:0:0:70:tom04.wav
448,192,51340,1,0,0:0:0:0:
64,192,51480,1,0,0:0:0:70:Snare.wav
320,192,51480,128,0,51759:0:0:0:60:Finish.wav
192,192,51759,1,0,0:0:0:60:bass.wav
448,192,51898,1,0,0:0:0:60:tom01.wav
320,192,52038,1,0,0:0:0:70:bass.wav
64,192,52177,1,0,0:0:0:70:Snare.wav
192,192,52177,1,0,0:0:0:60:Finish.wav
320,192,52317,1,0,0:0:0:70:tom01.wav
448,192,52456,1,0,0:0:0:70:tom01.wav
64,192,52596,128,0,52875:0:0:0:60:bass.wav
192,192,52596,1,0,0:0:0:60:Finish.wav
448,192,52875,1,0,0:0:0:60:bass.wav
320,192,53014,1,0,0:0:0:60:Snare.wav
64,192,53154,1,0,0:0:0:60:bass.wav
320,192,53293,1,0,0:0:0:60:Snare.wav
192,192,53433,1,0,0:0:0:60:bass.wav
64,192,53573,1,0,0:0:0:60:Snare.wav
320,192,53712,1,0,0:0:0:60:bass.wav
448,192,53712,128,0,53991:0:0:0:0:
64,192,53991,1,0,0:0:0:60:Snare.wav
320,192,54131,1,0,0:0:0:60:Snare.wav
192,192,54270,1,0,0:0:0:60:Snare.wav
448,192,54410,1,0,0:0:0:60:Snare.wav
64,192,54549,1,0,0:0:0:60:bass.wav
192,192,54689,1,0,0:0:0:70:tom02.wav
320,192,54828,1,0,0:0:0:60:bass.wav
64,192,55247,1,0,0:0:0:60:bass.wav
192,192,55247,1,0,0:0:0:70:Splash.wav
448,192,55386,1,0,0:0:0:60:Snare.wav
64,192,55526,1,0,0:0:0:60:bass.wav
320,192,55666,1,0,0:0:0:60:Snare.wav
192,192,55805,1,0,0:0:0:60:bass.wav
448,192,55945,1,0,0:0:0:60:Snare.wav
64,192,56084,1,0,0:0:0:60:bass.wav
320,192,56224,1,0,0:0:0:60:Snare.wav
448,192,56363,1,0,0:0:0:60:bass.wav
64,192,56503,1,0,0:0:0:60:Snare.wav
320,192,56642,1,0,0:0:0:60:bass.wav
192,192,56782,1,0,0:0:0:60:Snare.wav
448,192,56921,1,0,0:0:0:60:bass.wav
192,192,57061,1,0,0:0:0:60:Snare.wav
64,192,57340,1,0,0:0:0:60:Snare.wav
320,192,57480,1,0,0:0:0:60:bass.wav
64,192,57619,1,0,0:0:0:60:Snare.wav
448,192,57759,1,0,0:0:0:60:bass.wav
320,192,57898,1,0,0:0:0:60:Snare.wav
64,192,58038,1,0,0:0:0:60:bass.wav
192,192,58177,1,0,0:0:0:60:Snare.wav
448,192,58317,1,0,0:0:0:60:bass.wav
64,192,58456,1,0,0:0:0:60:Snare.wav
320,192,58596,1,0,0:0:0:60:bass.wav
192,192,58735,1,0,0:0:0:60:Snare.wav
448,192,58875,1,0,0:0:0:60:bass.wav
64,192,59014,1,0,0:0:0:60:Snare.wav
448,192,59154,1,0,0:0:0:60:bass.wav
320,192,59293,1,0,0:0:0:60:Snare.wav
64,192,59433,1,0,0:0:0:60:bass.wav
192,192,59433,128,0,59712:0:0:0:60:Finish.wav
320,192,59712,1,0,0:0:0:70:tom04.wav
64,192,59852,1,0,0:0:0:60:bass.wav
448,192,59852,128,0,60131:0:0:0:60:Finish.wav
192,192,60131,1,0,0:0:0:60:tom02.wav
320,192,60270,1,0,0:0:0:70:bass.wav
64,192,60410,128,0,60689:0:0:0:70:Snare.wav
448,192,60410,1,0,0:0:0:60:Finish.wav
192,192,60689,1,0,0:0:0:60:bass.wav
448,192,60828,1,0,0:0:0:60:tom01.wav
320,192,60968,1,0,0:0:0:70:tom03.wav
192,192,61107,1,0,0:0:0:60:Snare.wav
448,192,61107,1,0,0:0:0:70:Finish.wav
64,192,61247,1,0,0:0:0:60:Snare.wav
320,192,61386,1,0,0:0:0:60:bass.wav
64,192,61526,1,0,0:0:0:60:bass.wav
192,192,61526,128,0,61805:0:0:0:60:Finish.wav
448,192,61805,1,0,0:0:0:60:bass.wav
320,192,61945,1,0,0:0:0:60:Snare.wav
64,192,62084,1,0,0:0:0:60:bass.wav
192,192,62224,1,0,0:0:0:60:Snare.wav
320,192,62363,1,0,0:0:0:60:bass.wav
192,192,62503,1,0,0:0:0:60:Snare.wav
320,192,62642,128,0,62921:0:0:0:60:bass.wav
448,192,62642,1,0,0:0:0:60:Finish.wav
192,192,62921,1,0,0:0:0:60:Snare.wav
64,192,63061,1,0,0:0:0:60:Snare.wav
320,192,63200,1,0,0:0:0:60:Snare.wav
448,192,63340,1,0,0:0:0:60:Snare.wav
64,192,63480,1,0,0:0:0:60:Snare.wav
320,192,63619,1,0,0:0:0:60:bass.wav
192,192,63759,1,0,0:0:0:60:bass.wav
64,192,63898,1,0,0:0:0:60:bass.wav
448,192,63898,128,0,64177:0:0:0:70:Finish.wav
64,192,64177,1,0,0:0:0:60:Snare.wav
192,192,64177,1,0,0:0:0:0:
320,192,64317,128,0,64596:0:0:0:60:Snare.wav
192,192,64596,1,0,0:0:0:60:bass.wav
64,192,64735,1,0,0:0:0:60:Snare.wav
448,192,64735,1,0,0:0:0:0:
64,192,65014,128,0,65293:0:0:0:60:bass.wav
320,192,65014,1,0,0:0:0:0:
320,192,65293,1,0,0:0:0:60:Snare.wav
448,192,65293,1,0,0:0:0:0:
192,192,65433,128,0,65712:0:0:0:60:Snare.wav
320,192,65712,1,0,0:0:0:60:bass.wav
64,192,65852,1,0,0:0:0:60:Snare.wav
448,192,65852,1,0,0:0:0:0:
320,192,65991,1,0,0:0:0:60:Snare.wav
64,192,66131,1,0,0:0:0:60:bass.wav
192,192,66131,128,0,66410:0:0:0:60:Finish.wav
320,192,66410,1,0,0:0:0:40:Snare.wav
448,192,66410,1,0,0:0:0:0:
64,192,66549,128,0,66828:0:0:0:60:Snare.wav
192,192,66828,1,0,0:0:0:60:bass.wav
320,192,66968,1,0,0:0:0:60:Snare.wav
448,192,66968,128,0,67247:0:0:0:0:
64,192,67247,128,0,67526:0:0:0:60:Snare.wav
192,192,67526,128,0,67805:0:0:0:60:tom01.wav
320,192,67805,128,0,68084:0:0:0:60:tom03.wav
64,192,68084,1,0,0:0:0:60:Snare.wav
448,192,68084,1,0,0:0:0:70:Finish.wav
64,192,68363,1,0,0:0:0:60:Snare.wav
192,192,68363,1,0,0:0:0:0:
320,192,68642,1,0,0:0:0:60:Snare.wav
448,192,68642,1,0,0:0:0:0:
64,192,68921,1,0,0:0:0:60:Snare.wav
192,192,69061,1,0,0:0:0:60:Snare.wav
448,192,69200,1,0,0:0:0:60:Snare.wav
320,192,69340,1,0,0:0:0:60:Snare.wav
64,192,69480,1,0,0:0:0:60:bass.wav
192,192,69480,1,0,0:0:0:70:Finish.wav
320,192,69759,128,0,69898:0:0:0:0:
448,192,70038,1,0,0:0:0:0:
192,192,70177,1,0,0:0:0:0:
320,192,70317,1,0,0:0:0:0:
64,192,70596,1,0,0:0:0:60:bass.wav
192,192,70596,1,0,0:0:0:60:Finish.wav
320,192,70875,1,0,0:0:0:60:bass.wav
448,192,71154,1,0,0:0:0:60:bass.wav
192,192,71433,1,0,0:0:0:60:bass.wav
64,192,71712,1,0,0:0:0:60:bass.wav
448,192,71712,1,0,0:0:0:0:
320,192,71991,1,0,0:0:0:60:bass.wav
192,192,72270,1,0,0:0:0:60:bass.wav
64,192,72549,1,0,0:0:0:60:bass.wav
192,192,72828,1,0,0:0:0:60:bass.wav
448,192,72828,1,0,0:0:0:0:
320,192,73107,1,0,0:0:0:60:bass.wav
192,192,73386,1,0,0:0:0:60:bass.wav
448,192,73666,1,0,0:0:0:60:bass.wav
64,192,73945,128,0,74224:0:0:0:60:bass.wav
320,192,73945,1,0,0:0:0:0:
192,192,74224,1,0,0:0:0:60:bass.wav
448,192,74224,128,0,74503:0:0:0:0:
64,192,74503,1,0,0:0:0:60:bass.wav
320,192,74503,1,0,0:0:0:0:
64,192,74782,1,0,0:0:0:60:bass.wav
192,192,74782,1,0,0:0:0:0:
320,192,75061,1,0,0:0:0:60:bass.wav
448,192,75061,1,0,0:0:0:60:Finish.wav
192,192,75340,1,0,0:0:0:60:Snare.wav
448,192,75340,1,0,0:0:0:0:
64,192,75619,1,0,0:0:0:60:bass.wav
320,192,75898,1,0,0:0:0:60:Snare.wav
448,192,75898,1,0,0:0:0:0:
64,192,76177,1,0,0:0:0:60:bass.wav
192,192,76456,1,0,0:0:0:60:Snare.wav
448,192,76456,1,0,0:0:0:0:
320,192,76735,1,0,0:0:0:60:bass.wav
64,192,77014,1,0,0:0:0:60:Snare.wav
192,192,77014,1,0,0:0:0:0:
448,192,77293,1,0,0:0:0:60:Snare.wav
320,192,77433,1,0,0:0:0:60:bass.wav
192,192,77573,1,0,0:0:0:60:tom01.wav
64,192,77712,1,0,0:0:0:60:bass.wav
320,192,77852,1,0,0:0:0:60:tom03.wav
448,192,77991,1,0,0:0:0:60:bass.wav
64,192,78131,1,0,0:0:0:60:Snare.wav
192,192,78131,1,0,0:0:0:0:
320,192,78270,1,0,0:0:0:60:Snare.wav
448,192,78270,1,0,0:0:0:0:
64,192,78689,128,0,78968:0:0:0:60:bass.wav
448,192,78689,128,0,78968:0:0:0:60:Finish.wav
192,192,78968,1,0,0:0:0:60:Snare.wav
64,192,79107,1,0,0:0:0:60:Snare.wav
448,192,79247,1,0,0:0:0:60:Snare.wav
320,192,79386,1,0,0:0:0:60:Snare.wav
64,192,79526,1,0,0:0:0:60:bass.wav
192,192,79526,1,0,0:0:0:60:Finish.wav
64,192,79805,1,0,0:0:0:60:Snare.wav
320,192,79805,1,0,0:0:0:0:
192,192,80084,1,0,0:0:0:60:bass.wav
320,192,80224,1,0,0:0:0:70:bass.wav
64,192,80363,1,0,0:0:0:60:Snare.wav
448,192,80363,1,0,0:0:0:0:
192,192,80503,1,0,0:0:0:60:bass.wav
320,192,80642,1,0,0:0:0:60:bass.wav
192,192,80921,1,0,0:0:0:60:Snare.wav
448,192,80921,1,0,0:0:0:0:
192,192,81200,1,0,0:0:0:60:bass.wav
320,192,81340,1,0,0:0:0:60:bass.wav
64,192,81480,1,0,0:0:0:60:Snare.wav
448,192,81480,1,0,0:0:0:0:
64,192,81759,1,0,0:0:0:60:bass.wav
320,192,81759,1,0,0:0:0:0:
192,192,82038,1,0,0:0:0:60:Snare.wav
448,192,82038,1,0,0:0:0:0:
64,192,82317,1,0,0:0:0:60:bass.wav
192,192,82456,1,0,0:0:0:60:bass.wav
320,192,82596,1,0,0:0:0:60:Snare.wav
448,192,82596,1,0,0:0:0:0:
192,192,82735,1,0,0:0:0:60:bass.wav
64,192,82875,1,0,0:0:0:60:bass.wav
448,192,83014,1,0,0:0:0:0:
64,192,83154,1,0,0:0:0:60:Snare.wav
320,192,83154,1,0,0:0:0:0:
192,192,83293,1,0,0:0:0:0:
320,192,83433,1,0,0:0:0:60:bass.wav
64,192,83712,1,0,0:0:0:60:Snare.wav
192,192,83712,1,0,0:0:0:0:
192,192,83991,1,0,0:0:0:60:bass.wav
320,192,84270,1,0,0:0:0:60:Snare.wav
448,192,84270,1,0,0:0:0:0:
448,192,84549,1,0,0:0:0:60:bass.wav
64,192,84828,1,0,0:0:0:60:Snare.wav
320,192,84828,1,0,0:0:0:0:
448,192,84968,1,0,0:0:0:70:bass.wav
192,192,85107,1,0,0:0:0:60:bass.wav
192,192,85386,1,0,0:0:0:60:Snare.wav
448,192,85386,1,0,0:0:0:0:
64,192,85526,1,0,0:0:0:0:
320,192,85666,1,0,0:0:0:60:bass.wav
64,192,85945,1,0,0:0:0:60:Snare.wav
448,192,85945,1,0,0:0:0:0:
320,192,86084,1,0,0:0:0:70:bass.wav
64,192,86224,128,0,86503:0:0:0:70:bass.wav
192,192,86224,1,0,0:0:0:70:Finish.wav
320,192,86503,128,0,86782:0:0:0:60:Snare.wav
64,192,86782,1,0,0:0:0:60:bass.wav
448,192,86782,128,0,87061:0:0:0:0:
192,192,87061,128,0,87340:0:0:0:70:Snare.wav
64,192,87340,128,0,87619:0:0:0:60:Snare.wav
320,192,87340,1,0,0:0:0:0:
448,192,87619,128,0,87898:0:0:0:60:tom01.wav
320,192,87898,128,0,88177:0:0:0:60:tom03.wav
64,192,88177,1,0,0:0:0:60:Snare.wav
192,192,88177,1,0,0:0:0:70:Finish.wav
320,192,88456,1,0,0:0:0:60:bass.wav
448,192,88456,1,0,0:0:0:0:
64,192,88735,1,0,0:0:0:60:Snare.wav
192,192,88735,1,0,0:0:0:0:
448,192,88875,1,0,0:0:0:60:bass.wav
320,192,89014,1,0,0:0:0:60:bass.wav
192,192,89154,1,0,0:0:0:60:bass.wav
64,192,89293,1,0,0:0:0:60:Snare.wav
448,192,89293,1,0,0:0:0:0:
320,192,89433,1,0,0:0:0:60:Ride.wav
64,192,89712,1,0,0:0:0:60:Ride.wav
192,192,89852,1,0,0:0:0:60:Snare.wav
448,192,89852,1,0,0:0:0:0:
320,192,89991,1,0,0:0:0:60:Snare.wav
64,192,90131,1,0,0:0:0:60:bass.wav
192,192,90270,1,0,0:0:0:60:bass.wav
64,192,90410,1,0,0:0:0:60:Snare.wav
320,192,90410,1,0,0:0:0:0:
448,192,90689,1,0,0:0:0:0:
64,192,90968,1,0,0:0:0:60:Snare.wav
192,192,90968,128,0,91247:0:0:0:60:Finish.wav
448,192,91247,128,0,91526:0:0:0:60:Snare.wav
320,192,91526,128,0,92084:0:0:0:60:Snare.wav
64,192,92084,1,0,0:0:0:60:Snare.wav
192,192,92084,1,0,0:0:0:60:Finish.wav
64,192,92363,1,0,0:0:0:60:Snare.wav
448,192,92363,1,0,0:0:0:60:Finish.wav
320,192,92503,1,0,0:0:0:60:bass.wav
64,192,92642,1,0,0:0:0:60:bass.wav
192,192,92642,1,0,0:0:0:0:
320,192,92782,1,0,0:0:0:60:bass.wav
64,192,92921,1,0,0:0:0:60:bass.wav
448,192,92921,128,0,93200:0:0:0:60:Finish.wav
320,192,93200,1,0,0:0:0:70:bass.wav
192,192,93340,1,0,0:0:0:70:bass.wav
64,192,93480,128,0,93759:0:0:0:60:Snare.wav
448,192,93480,1,0,0:0:0:0:
192,192,93759,1,0,0:0:0:60:Snare.wav
320,192,93898,1,0,0:0:0:60:bass.wav
64,192,94038,1,0,0:0:0:60:bass.wav
448,192,94038,1,0,0:0:0:0:
320,192,94247,128,0,94386:0:0:0:0:
448,192,94596,1,0,0:0:0:0:
64,192,94735,1,0,0:0:0:0:
192,192,94875,1,0,0:0:0:0:
320,192,95154,1,0,0:0:0:60:bass.wav
448,192,95154,1,0,0:0:0:70:Finish.wav
192,192,95433,1,0,0:0:0:60:bass.wav
192,192,95573,1,0,0:0:0:60:Clap.wav
64,192,95712,128,0,95991:0:0:0:60:bass.wav
448,192,95712,1,0,0:0:0:0:
320,192,95991,1,0,0:0:0:60:bass.wav
448,192,95991,1,0,0:0:0:60:Clap.wav
64,192,96270,1,0,0:0:0:60:bass.wav
192,192,96270,1,0,0:0:0:0:
320,192,96549,1,0,0:0:0:60:bass.wav
320,192,96689,1,0,0:0:0:60:Clap.wav
64,192,96828,1,0,0:0:0:60:bass.wav
448,192,96828,128,0,97107:0:0:0:0:
64,192,97107,1,0,0:0:0:60:bass.wav
192,192,97107,1,0,0:0:0:60:Clap.wav
320,192,97386,1,0,0:0:0:60:bass.wav
448,192,97386,1,0,0:0:0:0:
192,192,97666,1,0,0:0:0:60:bass.wav
192,192,97805,1,0,0:0:0:60:Clap.wav
64,192,97945,128,0,98224:0:0:0:60:bass.wav
448,192,97945,1,0,0:0:0:0:
320,192,98224,1,0,0:0:0:60:bass.wav
448,192,98224,1,0,0:0:0:60:Clap.wav
192,192,98503,1,0,0:0:0:60:bass.wav
64,192,98642,1,0,0:0:0:60:Snare.wav
448,192,98642,1,0,0:0:0:0:
320,192,98782,1,0,0:0:0:60:Clap.wav
64,192,98921,1,0,0:0:0:60:Clap.wav
192,192,99061,1,0,0:0:0:60:bass.wav
320,192,99061,1,0,0:0:0:0:
192,192,99340,1,0,0:0:0:60:bass.wav
448,192,99340,1,0,0:0:0:60:Clap.wav
320,192,99619,1,0,0:0:0:60:bass.wav
448,192,99619,1,0,0:0:0:60:Finish.wav
64,192,99898,1,0,0:0:0:60:Snare.wav
320,192,99898,1,0,0:0:0:0:
192,192,100177,1,0,0:0:0:60:bass.wav
320,192,100456,1,0,0:0:0:60:Snare.wav
448,192,100456,1,0,0:0:0:0:
64,192,100735,1,0,0:0:0:60:bass.wav
192,192,101014,1,0,0:0:0:60:Snare.wav
448,192,101014,1,0,0:0:0:0:
320,192,101293,1,0,0:0:0:60:bass.wav
64,192,101573,1,0,0:0:0:60:Snare.wav
192,192,101573,1,0,0:0:0:0:
320,192,101852,1,0,0:0:0:60:bass.wav
448,192,101991,1,0,0:0:0:60:Snare.wav
64,192,102131,1,0,0:0:0:60:bass.wav
320,192,102270,1,0,0:0:0:60:Snare.wav
192,192,102410,1,0,0:0:0:60:bass.wav
448,192,102549,1,0,0:0:0:60:Snare.wav
64,192,102689,1,0,0:0:0:60:bass.wav
192,192,102828,1,0,0:0:0:60:Snare.wav
320,192,102968,1,0,0:0:0:60:bass.wav
448,192,102968,1,0,0:0:0:0:
192,192,103107,1,0,0:0:0:60:Snare.wav
64,192,103247,1,0,0:0:0:60:Snare.wav
320,192,103386,1,0,0:0:0:60:bass.wav
64,192,103526,128,0,103666:0:0:0:60:Snare.wav
448,192,103526,1,0,0:0:0:0:
192,192,103666,128,0,103805:0:0:0:60:Snare.wav
448,192,103805,128,0,103945:0:0:0:60:bass.wav
320,192,103945,128,0,104084:0:0:0:60:Snare.wav
64,192,104084,128,0,104363:0:0:0:60:bass.wav
192,192,104084,128,0,104363:0:0:0:70:Splash.wav
