osu file format v14

[General]
AudioFilename: audio.mp3
AudioLeadIn: 0
PreviewTime: 3060
Countdown: 1
SampleSet: None
StackLeniency: 0.7
Mode: 0
LetterboxInBreaks: 0
WidescreenStoryboard: 0

[Editor]
Bookmarks: 16380,26969
DistanceSpacing: 0.9
BeatDivisor: 4
GridSize: 16
TimelineZoom: 1

[Metadata]
Title:Johny Johny Yes Papa
TitleUnicode:Johny Johny Yes Papa
Artist:PomPom
ArtistUnicode:PomPom
Creator:X4D
Version:Expert
Source:
Tags:nursery rhyme cut short version children
BeatmapID:2007925
BeatmapSetID:959068

[Difficulty]
HPDrainRate:5.5
CircleSize:4
OverallDifficulty:8.7
ApproachRate:9.3
SliderMultiplier:1.7
SliderTickRate:1

[Events]
//Background and Video events
0,0,"994317.jpg",0,0
//Break Periods
//Storyboard Layer 0 (Background)
//Storyboard Layer 1 (Fail)
//Storyboard Layer 2 (Pass)
//Storyboard Layer 3 (Foreground)
//Storyboard Sound Samples

[TimingPoints]
496,330.924935193867,4,2,1,90,1,0
496,-133.333333333333,4,2,1,90,0,0
5377,-100,4,2,1,90,0,0
5790,-90.9090909090909,4,2,1,90,0,0
10754,-133.333333333333,4,2,1,90,0,0
11002,-133.333333333333,4,2,1,5,0,0
11085,-90.9090909090909,4,2,1,90,0,0
15056,-133.333333333333,4,2,1,90,0,0
16380,-90.9090909090909,4,2,1,90,0,0
25894,-90.9090909090909,4,2,1,5,0,0
25977,-90.9090909090909,4,2,1,90,0,0
26225,-90.9090909090909,4,2,1,5,0,0
26308,-90.9090909090909,4,2,1,90,0,0
26969,-76.9230769230769,4,2,1,90,0,0
37559,-285.714285714286,4,2,1,90,0,0
39131,-285.714285714286,4,2,1,5,0,0

[Colours]
Combo1 : 180,245,245
Combo2 : 96,129,240
Combo3 : 186,145,232
Combo4 : 211,200,213

[HitObjects]
35,119,496,6,0,P|41:147|47:184,2,63.7500024318696
46,33,992,2,0,P|92:15|172:68,1,127.500004863739
173,127,1488,1,0,0:0:0:0:
173,127,1654,1,0,0:0:0:0:
258,216,1819,6,0,P|263:184|269:153,2,63.7500024318696
322,274,2316,2,0,P|376:243|435:261,1,127.500004863739
474,340,2812,1,0,0:0:0:0:
474,340,2977,1,0,0:0:0:0:
477,115,3143,6,0,P|470:178|466:242,1,127.500004863739
332,38,3805,2,0,P|338:101|342:165,1,127.500004863739
266,266,4467,6,0,P|206:283|152:253,2,127.500004863739
94,76,5377,5,0,0:0:0:0:
94,76,5459,2,0,L|101:138,1,42.5
34,252,5625,2,0,L|38:209,1,42.5
222,153,5790,6,0,P|285:146|349:142,1,93.5000028533936
464,333,6121,1,0,0:0:0:0:
315,228,6287,1,0,0:0:0:0:
432,45,6452,2,0,P|425:108|421:172,1,93.5000028533936
366,326,6783,1,0,0:0:0:0:
222,153,6949,6,0,P|176:147|133:165,1,93.5000028533936
196,324,7279,2,0,P|238:342|284:336,1,93.5000028533936
97,83,7610,2,0,P|108:197|115:311,1,187.000005706787
47,359,8107,2,0,P|19:356|2:342,1,46.7500014266968
37,203,8272,2,0,P|56:190|79:189,1,46.7500014266968
196,324,8438,6,0,P|238:342|284:336,1,93.5000028533936
383,148,8769,1,0,0:0:0:0:
253,257,8934,1,0,0:0:0:0:
391,365,9100,2,0,P|396:319|378:276,1,93.5000028533936
260,137,9430,1,0,0:0:0:0:
454,40,9596,6,0,P|390:33|326:29,1,93.5000028533936
154,173,9927,2,0,P|217:166|281:162,1,93.5000028533936
391,365,10258,2,0,P|397:271|407:178,1,187.000005706787
285,264,10754,2,0,P|237:285|185:278,1,95.6250036478044
169,304,11085,6,0,P|122:298|75:295,1,93.5000028533936
8,75,11416,1,0,0:0:0:0:
154,173,11581,1,0,0:0:0:0:
38,326,11747,2,0,P|34:279|29:232,1,93.5000028533936
114,64,12078,1,0,0:0:0:0:
194,268,12243,6,0,P|242:271|285:251,1,93.5000028533936
344,76,12574,2,0,P|301:55|253:58,1,93.5000028533936
419,257,12905,2,0,P|425:163|435:70,1,187.000005706787
501,324,13402,1,0,0:0:0:0:
328,179,13567,1,0,0:0:0:0:
226,363,13732,6,0,P|179:357|132:354,1,93.5000028533936
46,150,14063,5,0,0:0:0:0:
194,268,14229,1,0,0:0:0:0:
45,368,14394,6,0,P|41:321|36:274,1,93.5000028533936
304,73,14725,5,0,0:0:0:0:
115,222,14891,1,0,0:0:0:0:
81,6,15056,6,0,P|86:52|89:99,3,63.7500024318696
195,142,15718,2,0,P|198:110|202:78,1,63.7500024318696
179,46,15966,1,0,0:0:0:0:
179,46,16049,1,0,0:0:0:0:
217,248,16214,1,0,0:0:0:0:
308,118,16380,6,0,P|351:98|398:101,1,93.5000028533936
395,291,16711,1,0,0:0:0:0:
368,186,16876,1,0,0:0:0:0:
482,307,17042,1,0,0:0:0:0:
308,275,17207,1,0,0:0:0:0:
458,164,17373,1,0,0:0:0:0:
284,196,17538,1,0,0:0:0:0:
386,384,17704,6,0,P|389:337|394:290,1,93.5000028533936
201,190,18035,2,0,P|206:236|209:283,1,93.5000028533936
410,372,18365,2,0,P|413:325|418:278,1,93.5000028533936
267,351,18696,1,0,0:0:0:0:
267,351,19027,6,0,P|223:370|176:367,1,93.5000028533936
92,204,19358,1,0,0:0:0:0:
210,284,19524,1,0,0:0:0:0:
87,384,19689,2,0,P|83:337|78:290,1,93.5000028533936
276,66,20020,1,0,0:0:0:0:
177,207,20186,1,0,0:0:0:0:
71,43,20351,6,0,P|114:23|161:26,1,93.5000028533936
357,193,20682,2,0,P|309:196|266:176,1,93.5000028533936
50,29,21013,2,0,P|93:9|140:12,1,93.5000028533936
82,235,21344,1,0,0:0:0:0:
82,235,21675,6,0,P|78:188|73:141,1,93.5000028533936
286,229,22006,1,0,0:0:0:0:
172,169,22171,1,0,0:0:0:0:
330,103,22337,2,0,P|320:195|312:289,1,187.000005706787
379,368,22833,1,0,0:0:0:0:
212,305,22998,6,0,P|165:309|118:314,1,93.5000028533936
359,258,23329,2,0,P|406:262|453:267,1,93.5000028533936
202,324,23660,2,0,P|155:328|108:333,1,93.5000028533936
241,192,23991,1,0,0:0:0:0:
241,192,24322,6,0,P|261:149|258:102,1,93.5000028533936
65,30,24653,1,0,0:0:0:0:
179,136,24818,1,0,0:0:0:0:
91,307,24984,6,0,P|83:213|72:120,1,187.000005706787
2,218,25480,1,0,0:0:0:0:
121,335,25646,6,0,P|181:331|222:259,1,140.25000428009
221,268,25977,6,0,P|281:272|322:344,1,140.25000428009
321,334,26308,6,0,P|367:329|414:325,1,93.5000028533936
490,367,26556,1,0,0:0:0:0:
490,367,26639,2,0,L|494:321,1,46.7500014266968
405,213,26804,2,0,L|399:166,1,46.7500014266968
462,33,26969,6,0,P|400:26|338:21,1,110.499994941712
217,264,27300,1,0,0:0:0:0:
337,116,27466,1,0,0:0:0:0:
124,20,27631,2,0,P|130:81|135:143,1,110.499994941712
319,220,27962,1,0,0:0:0:0:
180,349,28128,6,0,P|118:352|62:327,1,110.499994941712
337,116,28459,2,0,P|282:110|230:129,1,110.499994941712
453,360,28790,2,0,P|462:249|474:140,1,220.999989883423
401,9,29286,1,0,0:0:0:0:
401,9,29369,1,0,0:0:0:0:
401,9,29451,2,0,P|403:36|406:64,1,55.2499974708558
319,220,29617,6,0,P|257:223|201:198,1,110.499994941712
111,8,29948,1,0,0:0:0:0:
250,128,30113,1,0,0:0:0:0:
116,265,30279,2,0,P|97:213|101:158,1,110.499994941712
216,29,30610,1,0,0:0:0:0:
343,246,30775,6,0,P|404:240|466:235,1,110.499994941712
125,148,31106,2,0,P|64:142|2:137,1,110.499994941712
270,347,31437,2,0,P|257:237|249:127,1,220.999989883423
122,293,31933,1,0,0:0:0:0:
109,298,32015,1,0,0:0:0:0:
95,301,32098,1,0,0:0:0:0:
82,303,32181,1,0,0:0:0:0:
42,285,32264,6,0,P|48:224|53:162,1,110.499994941712
253,44,32595,1,0,0:0:0:0:
171,231,32761,1,0,0:0:0:0:
24,52,32926,2,0,P|85:46|147:41,1,110.499994941712
273,235,33257,1,0,0:0:0:0:
442,33,33423,6,0,P|423:85|427:140,1,110.499994941712
379,350,33753,2,0,P|382:295|363:243,1,110.499994941712
206,160,34084,2,0,P|315:147|425:139,1,220.999989883423
508,226,34581,5,0,0:0:0:0:
508,226,34746,1,0,0:0:0:0:
332,67,34912,5,0,0:0:0:0:
363,243,35077,1,0,0:0:0:0:
426,104,35243,5,0,0:0:0:0:
187,69,35408,1,0,0:0:0:0:
347,285,35574,5,0,0:0:0:0:
405,3,35739,1,0,0:0:0:0:
160,210,35904,5,0,0:0:0:0:
440,285,36070,1,0,0:0:0:0:
223,42,36235,6,0,P|227:97|233:152,1,110.499994941712
363,362,36566,1,0,0:0:0:0:
400,173,36732,1,0,0:0:0:0:
273,323,36897,6,0,P|217:327|162:333,1,110.499994941712
131,354,37145,1,0,0:0:0:0:
131,354,37228,1,0,0:0:0:0:
212,227,37394,1,0,0:0:0:0:
83,47,37559,6,0,B|91:123|100:248|100:248|71:213|27:219,1,282.62499137497
