osu file format v14

[General]
AudioFilename: audio.mp3
AudioLeadIn: 0
PreviewTime: 124840
Countdown: 1
SampleSet: Normal
StackLeniency: 0.7
Mode: 0
LetterboxInBreaks: 0
WidescreenStoryboard: 0

[Editor]
DistanceSpacing: 0.5
BeatDivisor: 4
GridSize: 4
TimelineZoom: 1

[Metadata]
Title:Baby BIAS
TitleUnicode:Baby BIAS
Artist:Polysics
ArtistUnicode:Polysics
Creator:Morbon
Version:bs
Source:
Tags:
BeatmapID:1692104
BeatmapSetID:806159

[Difficulty]
HPDrainRate:5
CircleSize:4
OverallDifficulty:7
ApproachRate:8.5
SliderMultiplier:2.1
SliderTickRate:1

[Events]
//Background and Video events
0,0,"ni.jpg",0,0
//Break Periods
//Storyboard Layer 0 (Background)
//Storyboard Layer 1 (Fail)
//Storyboard Layer 2 (Pass)
//Storyboard Layer 3 (Foreground)
//Storyboard Sound Samples

[TimingPoints]
340,375,4,1,0,50,1,0
31465,-50,4,1,0,50,0,0
31652,-100,4,1,0,50,0,0

[HitObjects]
192,288,340,5,0,0:0:0:0:
96,96,527,2,0,L|88:200,1,105
200,284,1090,5,0,0:0:0:0:
104,92,1277,2,0,L|96:196,1,105
208,280,1840,5,0,0:0:0:0:
112,88,2027,2,0,L|104:192,1,105
216,276,2590,5,0,0:0:0:0:
120,84,2777,2,0,L|112:188,1,105
224,272,3340,5,0,0:0:0:0:
128,80,3527,2,0,L|120:184,1,105
232,268,4090,5,0,0:0:0:0:
136,76,4277,2,0,L|128:180,1,105
240,288,4840,5,0,0:0:0:0:
240,276,4934,1,0,0:0:0:0:
240,264,5027,1,0,0:0:0:0:
152,168,5215,1,0,0:0:0:0:
104,280,5402,1,0,0:0:0:0:
296,160,5590,1,0,0:0:0:0:
368,256,5777,1,0,0:0:0:0:
60,204,5965,2,0,L|52:36,1,157.5
104,28,6340,6,0,L|232:36,1,105
360,76,6715,2,0,L|488:84,1,105
0,116,7090,2,0,L|128:124,1,105
256,164,7465,2,0,L|384:172,1,105
64,216,7840,2,0,L|192:224,1,105
320,264,8215,2,0,L|448:272,1,105
48,308,8590,1,0,0:0:0:0:
72,316,8683,1,0,0:0:0:0:
100,316,8777,1,0,0:0:0:0:
124,308,8871,1,0,0:0:0:0:
148,296,8965,1,0,0:0:0:0:
172,288,9058,1,0,0:0:0:0:
196,284,9152,1,0,0:0:0:0:
224,284,9246,1,0,0:0:0:0:
248,296,9340,6,0,L|376:304,1,105
144,168,9715,2,0,L|16:160,1,105
328,220,10090,2,0,L|456:228,1,105
224,92,10465,2,0,L|96:84,1,105
408,136,10840,2,0,L|536:144,1,105
304,8,11215,2,0,L|176:0,1,105
480,36,11590,5,0,0:0:0:0:
460,52,11683,1,0,0:0:0:0:
448,76,11777,1,0,0:0:0:0:
440,100,11871,1,0,0:0:0:0:
436,128,11965,1,0,0:0:0:0:
436,152,12058,1,0,0:0:0:0:
440,180,12152,1,0,0:0:0:0:
448,204,12246,1,0,0:0:0:0:
464,224,12340,6,0,L|456:336,1,105
352,140,12715,2,0,L|360:28,1,105
324,248,13090,2,0,L|316:360,1,105
212,164,13465,2,0,L|220:52,1,105
180,280,13840,2,0,L|172:392,1,105
68,196,14215,2,0,L|76:84,1,105
36,308,14590,5,0,0:0:0:0:
60,304,14683,1,0,0:0:0:0:
85,296,14777,1,0,0:0:0:0:
108,285,14871,1,0,0:0:0:0:
131,268,14965,1,0,0:0:0:0:
148,251,15058,1,0,0:0:0:0:
165,228,15152,1,0,0:0:0:0:
176,205,15246,1,0,0:0:0:0:
179,180,15340,6,0,L|295:170,1,105
104,148,15715,2,0,L|-12:138,1,105
228,268,16090,2,0,L|344:258,1,105
104,48,16465,2,0,L|-12:38,1,105
228,56,16840,2,0,L|344:66,1,105
104,268,17215,2,0,L|-12:278,1,105
332,64,17590,1,0,0:0:0:0:
344,88,17683,1,0,0:0:0:0:
356,112,17777,1,0,0:0:0:0:
368,136,17871,1,0,0:0:0:0:
380,160,17965,1,0,0:0:0:0:
392,184,18058,1,0,0:0:0:0:
404,208,18152,1,0,0:0:0:0:
416,232,18246,1,0,0:0:0:0:
428,256,18340,5,0,0:0:0:0:
296,344,18527,1,0,0:0:0:0:
212,208,18715,1,0,0:0:0:0:
344,120,18902,1,0,0:0:0:0:
296,344,19090,2,0,P|217:352|139:347,1,157.5
24,304,19465,1,0,0:0:0:0:
296,344,19652,1,0,0:0:0:0:
92,107,19840,6,0,P|88:185|96:264,1,157.5
212,188,20215,1,0,0:0:0:0:
32,32,20402,1,0,0:0:0:0:
32,352,20590,1,0,0:0:0:0:
56,344,20683,1,0,0:0:0:0:
84,344,20777,1,0,0:0:0:0:
108,332,20871,1,0,0:0:0:0:
136,336,20965,1,0,0:0:0:0:
160,324,21058,1,0,0:0:0:0:
188,324,21152,1,0,0:0:0:0:
212,312,21246,1,0,0:0:0:0:
236,320,21340,5,0,0:0:0:0:
352,352,21527,1,0,0:0:0:0:
180,136,21715,1,0,0:0:0:0:
148,252,21902,1,0,0:0:0:0:
352,352,22090,1,0,0:0:0:0:
384,236,22277,2,0,P|272:264|232:356,1,210
232,342,22840,6,0,P|192:272|192:188,1,157.5
96,288,23215,1,0,0:0:0:0:
320,224,23402,1,0,0:0:0:0:
24,24,23590,1,0,0:0:0:0:
32,52,23683,1,0,0:0:0:0:
40,76,23777,1,0,0:0:0:0:
48,100,23871,1,0,0:0:0:0:
56,124,23965,1,0,0:0:0:0:
64,148,24058,1,0,0:0:0:0:
72,172,24152,1,0,0:0:0:0:
80,196,24246,1,0,0:0:0:0:
88,220,24340,5,0,0:0:0:0:
240,184,24527,1,0,0:0:0:0:
192,32,24715,1,0,0:0:0:0:
240,184,24902,1,0,0:0:0:0:
392,144,25090,2,0,L|436:128,1,26.25
240,184,25277,1,0,0:0:0:0:
276,340,25465,2,0,L|284:384,1,26.25
240,184,25652,1,0,0:0:0:0:
192,32,25840,5,0,0:0:0:0:
40,72,26027,1,0,0:0:0:0:
316,336,26215,1,0,0:0:0:0:
476,296,26402,1,0,0:0:0:0:
236,176,26590,1,0,0:0:0:0:
236,176,26683,1,0,0:0:0:0:
236,176,26777,1,0,0:0:0:0:
236,176,26871,1,0,0:0:0:0:
236,176,26965,1,0,0:0:0:0:
236,176,27058,1,0,0:0:0:0:
236,176,27152,1,0,0:0:0:0:
236,176,27246,1,0,0:0:0:0:
236,176,27340,6,0,L|356:188,2,105
128,288,27902,1,0,0:0:0:0:
160,88,28090,2,0,L|44:96,1,105
260,288,28465,2,0,L|376:280,1,105
90,187,28840,6,0,P|64:121|80:10,1,157.5
139,5,29215,1,0,0:0:0:0:
360,163,29402,1,0,0:0:0:0:
90,187,29590,1,0,0:0:0:0:
104,164,29683,1,0,0:0:0:0:
120,144,29777,1,0,0:0:0:0:
136,124,29871,1,0,0:0:0:0:
156,140,29965,1,0,0:0:0:0:
172,120,30058,1,0,0:0:0:0:
188,100,30152,1,0,0:0:0:0:
204,80,30246,1,0,0:0:0:0:
232,84,30340,6,0,P|280:80|348:88,2,105
96,256,30902,1,0,0:0:0:0:
12,116,31090,2,0,P|0:52|4:-8,1,105
407,271,31465,6,0,P|303:247|187:279,1,210
128,32,31840,5,0,0:0:0:0:
48,190,32027,1,0,0:0:0:0:
205,270,32214,1,0,0:0:0:0:
285,112,32402,1,0,0:0:0:0:
48,190,32590,1,0,0:0:0:0:
40,216,32683,1,0,0:0:0:0:
32,240,32777,1,0,0:0:0:0:
24,264,32871,1,0,0:0:0:0:
16,288,32965,1,0,0:0:0:0:
40,300,33058,1,0,0:0:0:0:
64,308,33152,1,0,0:0:0:0:
88,316,33246,1,0,0:0:0:0:
112,324,33340,6,0,L|244:364,1,105
272,308,33621,1,0,0:0:0:0:
332,352,33715,2,0,L|432:321,1,105
472,136,34090,1,0,0:0:0:0:
432,320,34277,1,0,0:0:0:0:
368,68,34465,1,0,0:0:0:0:
432,320,34652,1,0,0:0:0:0:
460,44,34840,6,0,P|364:28|280:56,1,157.5
240,100,35215,1,0,0:0:0:0:
480,224,35402,1,0,0:0:0:0:
306,42,35590,1,0,0:0:0:0:
296,68,35683,1,0,0:0:0:0:
284,92,35777,1,0,0:0:0:0:
272,116,35871,1,0,0:0:0:0:
260,140,35965,1,0,0:0:0:0:
248,164,36058,1,0,0:0:0:0:
236,188,36152,1,0,0:0:0:0:
224,212,36246,1,0,0:0:0:0:
212,236,36340,1,0,0:0:0:0:
