osu file format v14

[General]
AudioFilename: audio.mp3
AudioLeadIn: 0
PreviewTime: 174533
Countdown: 0
SampleSet: Normal
StackLeniency: 0.7
Mode: 0
LetterboxInBreaks: 0
WidescreenStoryboard: 0

[Editor]
Bookmarks: 77988
DistanceSpacing: 1.7
BeatDivisor: 4
GridSize: 8
TimelineZoom: 0.8

[Metadata]
Title:Adrift
TitleUnicode:Adrift
Artist:Polyphony
ArtistUnicode:Polyphony
Creator:Slum
Version:Insane
Source:
Tags:
BeatmapID:1626813
BeatmapSetID:773969

[Difficulty]
HPDrainRate:7
CircleSize:4.4
OverallDifficulty:8
ApproachRate:9
SliderMultiplier:1.6
SliderTickRate:1

[Events]
//Background and Video events
0,0,"1366x768-2944508-artwork-shipwreck-underwater___abstract-wallpapers.jpg",0,0
//Break Periods
2,148552,156479
//Storyboard Layer 0 (Background)
//Storyboard Layer 1 (Fail)
//Storyboard Layer 2 (Pass)
//Storyboard Layer 3 (Foreground)
//Storyboard Sound Samples

[TimingPoints]
17443,545.454545454546,4,1,0,50,1,0
17443,-142.857142857143,4,1,0,15,0,0
26170,-125,4,1,0,15,0,0
34897,-111.111111111111,4,1,0,15,0,0
43624,-100,4,1,0,30,0,0
51533,-100,4,1,0,10,0,0
52352,-83.3333333333333,4,1,0,30,0,0
61079,-55.5555555555556,4,1,0,30,0,0
61624,-83.3333333333333,4,1,0,30,0,0
69806,-55.5555555555556,4,1,0,30,0,0
70352,-83.3333333333333,4,1,0,30,0,0
78533,-55.5555555555556,4,1,0,30,0,0
79079,-83.3333333333333,4,1,0,30,0,0
87261,-55.5555555555556,4,1,0,30,0,0
104443,-55.5555555555556,4,1,0,10,0,0
104715,-55.5555555555556,4,1,0,30,0,0
110988,-66.6666666666667,4,1,0,30,0,0
113443,-71.4285714285714,4,1,0,30,0,0
115624,-76.9230769230769,4,1,0,30,0,0
117806,-83.3333333333333,4,1,0,30,0,0
119988,-90.9090909090909,4,1,0,30,0,0
122170,-142.857142857143,4,1,0,10,0,0
157079,-200,4,1,0,30,0,0
165806,-125,4,1,0,30,0,0
183261,-111.111111111111,4,1,0,30,0,0
189806,-105.263157894737,4,1,0,30,0,0
190897,-83.3333333333333,4,1,0,30,0,0
191170,-71.4285714285714,4,1,0,30,0,0
191443,-62.5,4,1,0,30,0,0
191715,-55.5555555555556,4,1,0,30,0,0
191988,-166.666666666667,4,2,2,100,0,0
194170,-166.666666666667,4,2,3,100,0,0
196352,-181.818181818182,4,1,0,10,0,0
200715,-166.666666666667,4,1,0,10,0,0
205079,-181.818181818182,4,1,0,10,0,0

[Colours]
Combo1 : 85,185,135
Combo2 : 51,209,227
Combo3 : 51,125,236
Combo4 : 173,208,68

[HitObjects]
192,240,17443,6,0,P|144:272|96:256,1,111.999996582031
176,88,18533,2,0,P|240:80|304:80,1,111.999996582031
320,240,19624,6,0,P|368:272|416:256,1,111.999996582031
312,80,20715,2,0,P|256:88|184:80,1,111.999996582031
128,272,21806,6,0,P|186:259|208:312,1,111.999996582031
321,158,22897,1,0,0:0:0:0:
145,116,23443,1,0,0:0:0:0:
378,78,23988,6,0,P|392:121|449:114,1,111.999996582031
441,267,25079,1,0,0:0:0:0:
214,299,25624,1,0,0:0:0:0:
318,80,26170,6,0,P|246:91|185:83,1,128
64,47,26988,1,0,0:0:0:0:
232,224,27261,2,0,P|240:269|227:305,1,64
110,261,27806,2,0,P|64:258|21:269,1,64
317,341,28352,6,0,B|349:331|349:331|365:290|369:229,1,128
386,93,29170,1,0,0:0:0:0:
223,286,29443,2,0,P|251:262|265:229,1,64
145,186,29988,2,0,P|123:160|95:145,1,64
441,81,30533,6,0,B|426:65|426:65|381:54|316:56,1,128
187,50,31352,1,0,0:0:0:0:
143,175,31624,1,0,0:0:0:0:
396,183,31897,2,0,L|391:214,2,32
253,328,32443,2,0,L|248:251,1,64
316,54,32988,6,0,L|306:94,2,32
146,124,33533,1,0,0:0:0:0:
374,206,33806,1,0,0:0:0:0:
134,209,34079,1,0,0:0:0:0:
398,71,34352,2,0,P|397:111|387:150,1,64
330,337,34897,6,0,B|319:322|319:322|256:331|192:310,1,143.999995605469
51,270,35715,1,0,0:0:0:0:
152,37,35988,2,0,P|168:85|168:110,1,71.9999978027344
294,313,36533,2,0,P|278:265|278:240,1,71.9999978027344
411,50,37079,6,0,B|388:68|388:68|373:118|378:187,1,143.999995605469
127,294,37897,2,0,L|130:332,2,35.9999989013672
191,82,38443,1,0,0:0:0:0:
260,220,38715,1,0,0:0:0:0:
360,39,38988,1,0,0:0:0:0:
458,313,39261,6,0,P|411:340|328:312,1,143.999995605469
258,138,40079,6,0,P|265:109|265:93,1,35.9999989013672
176,106,40352,2,0,P|178:88|176:70,1,35.9999989013672
94,204,40624,6,0,P|87:233|87:249,1,35.9999989013672
176,236,40897,2,0,P|174:254|176:272,1,35.9999989013672
387,168,41170,6,0,P|389:150|387:132,2,35.9999989013672
122,66,41715,6,0,P|144:70|161:79,1,35.9999989013672
217,147,41988,2,0,P|211:191|224:230,1,71.9999978027344
460,262,42533,2,0,L|466:226,1,35.9999989013672
405,138,42806,2,0,L|402:99,1,35.9999989013672
291,291,43079,6,0,L|300:249,1,35.9999989013672
222,149,43352,2,0,L|213:112,1,35.9999989013672
404,92,43624,6,0,B|404:135|404:135|359:66,1,120
362,71,44170,1,0,0:0:0:0:
297,292,44443,1,0,0:0:0:0:
141,62,44715,6,0,P|142:89|148:108,1,40
306,170,44988,2,0,L|303:217,1,40
172,285,45261,1,0,0:0:0:0:
418,297,45533,1,0,0:0:0:0:
253,87,45806,6,0,P|310:107|360:76,1,120
302,33,46352,1,0,0:0:0:0:
271,266,46624,1,0,0:0:0:0:
402,167,46897,5,0,0:0:0:0:
115,278,47170,1,0,0:0:0:0:
417,284,47443,5,0,0:0:0:0:
103,136,47715,1,0,0:0:0:0:
256,192,47988,12,0,51261,0:0:0:0:
240,88,51533,5,0,0:0:0:0:
216,168,51806,1,0,0:0:0:0:
296,152,52079,1,0,0:0:0:0:
395,295,52352,6,0,P|403:238|399:190,1,95.9999970703126
369,134,52761,1,0,0:0:0:0:
412,76,52897,1,0,0:0:0:0:
284,55,53033,1,0,0:0:0:0:
224,96,53170,1,0,0:0:0:0:
152,104,53306,1,0,0:0:0:0:
395,295,53443,6,0,B|351:305|313:305|313:305|289:283,1,95.9999970703126
259,238,53852,1,0,0:0:0:0:
276,37,53988,2,0,P|285:90|280:135,1,95.9999970703126
53,286,54533,6,0,P|108:289|159:274,1,95.9999970703126
218,293,54943,1,0,0:0:0:0:
259,238,55079,1,0,0:0:0:0:
398,203,55215,1,0,0:0:0:0:
367,137,55351,1,0,0:0:0:0:
375,65,55487,1,0,0:0:0:0:
156,58,55624,6,0,L|100:65,1,47.9999985351563
83,255,55897,2,0,L|140:248,1,47.9999985351563
468,133,56170,2,0,P|412:132|367:145,1,95.9999970703126
247,31,56715,6,0,B|237:102|237:102|253:158,1,95.9999970703126
264,194,57124,1,0,0:0:0:0:
284,263,57261,1,0,0:0:0:0:
392,168,57396,1,0,0:0:0:0:
396,95,57533,1,0,0:0:0:0:
98,45,57806,6,0,P|104:98|94:159,1,95.9999970703126
92,212,58215,1,0,0:0:0:0:
136,268,58352,1,0,0:0:0:0:
251,113,58624,5,0,0:0:0:0:
323,107,58761,1,0,0:0:0:0:
381,148,58897,1,0,0:0:0:0:
212,323,59170,6,0,L|221:270,1,47.9999985351563
128,88,59443,2,0,L|136:142,1,47.9999985351563
454,50,59715,2,0,P|401:48|354:54,1,95.9999970703126
291,127,60124,5,0,0:0:0:0:
245,68,60261,1,0,0:0:0:0:
229,246,60398,1,0,0:0:0:0:
190,329,60533,2,0,P|240:341|284:324,1,95.9999970703126
222,137,60943,1,0,0:0:0:0:
399,44,61079,6,0,B|404:111|462:156|462:156|426:241|297:201,1,287.999991210938
261,190,61761,1,0,0:0:0:0:
191,208,61897,1,0,0:0:0:0:
120,196,62033,1,0,0:0:0:0:
252,65,62170,6,0,L|245:17,1,47.9999985351563
347,245,62443,2,0,L|354:293,1,47.9999985351563
339,37,62715,2,0,P|333:90|338:137,1,95.9999970703126
146,301,63124,5,0,0:0:0:0:
146,301,63261,2,0,B|162:263|162:263|112:204|130:113,1,191.999994140625
265,165,63943,1,0,0:0:0:0:
336,165,64079,1,0,0:0:0:0:
399,130,64215,1,0,0:0:0:0:
174,48,64352,6,0,P|120:53|70:46,1,95.9999970703126
164,258,64761,1,0,0:0:0:0:
164,258,64897,2,0,P|169:312|162:362,1,95.9999970703126
453,68,65443,6,0,B|423:75|423:75|423:141|438:189,1,143.999995605469
443,258,65988,1,0,0:0:0:0:
375,283,66124,1,0,0:0:0:0:
252,207,66261,2,0,L|189:203,1,47.9999985351563
310,70,66533,2,0,L|360:66,1,47.9999985351563
128,39,66806,5,0,0:0:0:0:
86,98,66943,1,0,0:0:0:0:
157,100,67079,2,0,P|159:150|141:207,1,95.9999970703126
327,340,67488,1,0,0:0:0:0:
310,270,67624,6,0,P|360:268|417:286,1,95.9999970703126
451,183,68033,2,0,L|446:129,1,47.9999985351563
231,91,68306,2,0,L|227:146,2,47.9999985351563
231,18,68715,1,0,0:0:0:0:
152,265,68988,6,0,L|98:270,1,47.9999985351563
397,290,69261,2,0,L|401:346,1,47.9999985351563
297,81,69533,1,0,0:0:0:0:
297,81,69670,1,0,0:0:0:0:
402,102,69806,6,0,P|302:189|193:97,1,287.999991210938
91,42,70488,1,0,0:0:0:0:
108,111,70624,1,0,0:0:0:0:
84,179,70761,1,0,0:0:0:0:
223,336,70897,6,0,B|212:263|212:263|217:236,1,95.9999970703126
216,241,71306,1,0,0:0:0:0:
305,49,71443,2,0,L|302:150,1,95.9999970703126
416,296,71852,1,0,0:0:0:0:
417,224,71988,6,0,P|422:154|421:126,1,95.9999970703126
383,66,72397,1,0,0:0:0:0:
351,130,72533,1,0,0:0:0:0:
280,114,72670,1,0,0:0:0:0:
62,111,72806,1,0,0:0:0:0:
128,83,72943,1,0,0:0:0:0:
194,56,73079,6,0,P|201:117|191:179,1,95.9999970703126
318,328,73488,1,0,0:0:0:0:
318,328,73624,2,0,P|311:267|321:205,1,95.9999970703126
475,38,74170,6,0,B|470:53|470:53|428:64|385:59,1,95.9999970703126
318,51,74579,1,0,0:0:0:0:
247,37,74715,1,0,0:0:0:0:
132,125,74852,1,0,0:0:0:0:
202,112,74988,1,0,0:0:0:0:
444,273,75261,6,0,P|425:318|384:340,1,95.9999970703126
313,330,75670,1,0,0:0:0:0:
259,282,75806,1,0,0:0:0:0:
368,37,76079,1,0,0:0:0:0:
379,107,76215,1,0,0:0:0:0:
358,176,76352,1,0,0:0:0:0:
153,52,76624,6,0,L|147:102,1,47.9999985351563
43,295,76897,1,0,0:0:0:0:
112,278,77033,1,0,0:0:0:0:
155,220,77170,2,0,P|206:212|254:217,1,95.9999970703126
321,228,77579,1,0,0:0:0:0:
274,23,77715,6,0,L|277:81,1,47.9999985351563
215,346,77988,2,0,L|212:288,1,47.9999985351563
199,150,78261,1,0,0:0:0:0:
199,150,78397,1,0,0:0:0:0:
411,70,78533,6,0,P|448:191|321:214,1,287.999991210938
267,165,79215,1,0,0:0:0:0:
195,177,79352,1,0,0:0:0:0:
117,56,79488,1,0,0:0:0:0:
188,64,79624,6,0,P|253:59|286:51,1,95.9999970703126
458,98,80033,1,0,0:0:0:0:
458,98,80170,2,0,B|428:61|428:61|459:157,1,143.999995605469
315,327,80715,6,0,P|311:261|301:215,1,95.9999970703126
287,161,81124,1,0,0:0:0:0:
174,71,81261,1,0,0:0:0:0:
104,53,81397,1,0,0:0:0:0:
36,78,81534,1,0,0:0:0:0:
69,141,81670,1,0,0:0:0:0:
275,35,81806,6,0,B|295:103|295:103|288:139,1,95.9999970703126
271,197,82215,1,0,0:0:0:0:
400,297,82352,2,0,B|380:229|380:229|387:193,1,95.9999970703126
73,66,82897,6,0,B|89:79|89:79|98:117|92:168,1,95.9999970703126
82,225,83306,1,0,0:0:0:0:
136,272,83443,2,0,L|203:289,1,47.9999985351563
479,173,83715,2,0,L|423:163,1,47.9999985351563
225,48,83988,6,0,P|235:104|223:145,1,95.9999970703126
185,201,84397,1,0,0:0:0:0:
422,61,84533,2,0,B|405:34|405:34|422:117,1,95.9999970703126
281,315,85079,5,0,0:0:0:0:
300,51,85352,2,0,P|294:104|292:159,1,95.9999970703126
73,287,85897,1,0,0:0:0:0:
98,219,86033,1,0,0:0:0:0:
78,149,86170,1,0,0:0:0:0:
384,49,86443,1,0,0:0:0:0:
411,115,86579,1,0,0:0:0:0:
305,179,86715,6,0,L|246:180,1,47.9999985351563
389,325,86988,2,0,L|444:323,1,47.9999985351563
129,0,87261,6,0,B|175:20|194:46|194:46|125:73|89:129,1,215.999993408203
89,128,87806,6,0,P|114:155|153:170,1,71.9999978027344
422,255,88079,2,0,P|398:229|359:214,1,71.9999978027344
326,113,88352,1,0,0:0:0:0:
315,42,88488,1,0,0:0:0:0:
205,29,88624,1,0,0:0:0:0:
197,100,88761,1,0,0:0:0:0:
289,322,88897,6,0,B|286:298|235:270|235:270|172:270|150:295,1,143.999995605469
215,349,89306,1,0,0:0:0:0:
199,98,89443,6,0,B|207:50|263:42|263:42|295:106|375:90,1,215.999993408203
367,92,89988,6,0,P|380:128|382:166,1,71.9999978027344
144,291,90261,2,0,P|132:256|130:218,1,71.9999978027344
181,32,90533,1,0,0:0:0:0:
190,103,90670,1,0,0:0:0:0:
304,139,90806,1,0,0:0:0:0:
315,67,90943,1,0,0:0:0:0:
309,297,91079,6,0,B|301:274|245:257|245:257|184:270|167:300,1,143.999995605469
242,338,91488,1,0,0:0:0:0:
143,75,91624,6,0,B|175:52|175:52|215:52,1,71.9999978027344
423,115,91897,2,0,B|391:138|391:138|351:138,2,71.9999978027344
233,248,92443,6,0,P|233:206|224:170,1,71.9999978027344
153,166,92715,1,0,0:0:0:0:
146,93,92852,1,0,0:0:0:0:
297,49,92988,1,0,0:0:0:0:
294,77,93125,1,0,0:0:0:0:
290,105,93261,1,0,0:0:0:0:
428,297,93533,6,0,B|449:288|449:288|378:296,1,71.9999978027344
329,308,93806,1,0,0:0:0:0:
124,139,94079,2,0,L|49:133,2,71.9999978027344
426,60,94624,1,0,0:0:0:0:
195,146,94897,6,0,P|237:143|270:153,1,71.9999978027344
267,223,95170,2,0,P|267:260|279:293,1,71.9999978027344
336,112,95443,2,0,P|343:152|330:194,2,71.9999978027344
78,31,95988,6,0,B|78:85|102:136|102:136|140:157,1,143.999995605469
195,190,96397,1,0,0:0:0:0:
362,54,96533,6,0,P|372:98|368:130,1,71.9999978027344
194,338,96806,2,0,P|186:298|190:262,1,71.9999978027344
210,39,97079,5,0,0:0:0:0:
221,73,97215,1,0,0:0:0:0:
214,108,97352,1,0,0:0:0:0:
187,132,97488,1,0,0:0:0:0:
151,131,97624,6,0,B|124:93|124:93|157:214,1,143.999995605469
414,341,98170,6,0,B|452:282|451:235|451:235|430:211,1,143.999995605469
248,41,98715,1,0,0:0:0:0:
71,192,98988,6,0,L|155:186,1,71.9999978027344
438,116,99261,2,0,L|354:122,1,71.9999978027344
331,129,99533,1,0,0:0:0:0:
313,160,99670,1,0,0:0:0:0:
318,195,99806,1,0,0:0:0:0:
128,46,100079,1,0,0:0:0:0:
126,81,100215,1,0,0:0:0:0:
117,188,100352,6,0,L|196:186,1,71.9999978027344
453,247,100624,2,0,L|374:249,1,71.9999978027344
162,252,100897,1,0,0:0:0:0:
399,43,101170,6,0,B|404:83|404:83|391:128,1,71.9999978027344
248,90,101443,1,0,0:0:0:0:
213,98,101579,1,0,0:0:0:0:
187,202,101715,1,0,0:0:0:0:
223,202,101852,1,0,0:0:0:0:
258,202,101988,2,0,B|296:171|296:171|266:202|246:253,1,143.999995605469
399,43,102533,5,0,0:0:0:0:
383,318,102806,2,0,L|388:230,2,71.9999978027344
232,101,103352,5,0,0:0:0:0:
196,103,103488,1,0,0:0:0:0:
180,236,103624,1,0,0:0:0:0:
214,226,103761,1,0,0:0:0:0:
248,217,103897,1,0,0:0:0:0:
282,208,104033,1,0,0:0:0:0:
317,200,104170,6,0,L|389:182,2,71.9999978027344
276,69,104715,6,0,P|202:35|136:53,1,143.999995605469
143,48,105124,1,0,0:0:0:0:
331,259,105261,2,0,P|408:234|445:177,1,143.999995605469
442,185,105670,1,0,0:0:0:0:
113,261,105806,6,0,P|107:217|106:167,1,71.9999978027344
292,42,106079,1,0,0:0:0:0:
295,77,106215,1,0,0:0:0:0:
301,112,106352,2,0,B|347:127|347:127|302:122|249:140,1,143.999995605469
428,259,106761,1,0,0:0:0:0:
428,259,106897,6,0,B|413:244|413:244|331:320|229:282,1,215.999993408203
119,216,107443,6,0,P|116:182|121:137,1,71.9999978027344
334,40,107715,2,0,P|337:74|332:119,1,71.9999978027344
452,172,107988,5,0,0:0:0:0:
439,205,108124,1,0,0:0:0:0:
434,240,108261,1,0,0:0:0:0:
432,275,108397,1,0,0:0:0:0:
435,310,108533,2,0,B|442:344|442:344|389:329|327:333,1,143.999995605469
145,66,109079,5,0,0:0:0:0:
397,116,109352,1,0,0:0:0:0:
432,113,109488,1,0,0:0:0:0:
467,111,109624,1,0,0:0:0:0:
125,232,109897,6,0,B|126:273|126:273|134:311,1,71.9999978027344
379,242,110170,2,0,B|420:241|420:241|458:233,1,71.9999978027344
271,47,110443,2,0,B|230:48|230:48|192:56,2,71.9999978027344
261,321,110988,5,0,0:0:0:0:
260,320,111261,2,0,B|255:276|270:240|270:240|257:204,1,120.000004577637
195,148,111670,2,0,P|221:127|260:120,1,60.0000022888184
436,40,112079,6,0,B|439:85|456:128|456:128|418:163,1,120.000004577637
415,223,112488,2,0,L|411:283,1,60.0000022888184
310,182,112761,2,0,L|305:116,2,60.0000022888184
150,62,113443,6,0,B|150:108|167:146|167:146|149:187,1,111.999996582031
121,236,113852,1,0,0:0:0:0:
273,75,113988,2,0,P|337:64|398:68,1,111.999996582031
383,65,114397,1,0,0:0:0:0:
403,252,114533,6,0,L|409:320,1,55.9999982910157
213,318,114806,2,0,L|214:259,1,55.9999982910157
134,93,115079,2,0,B|166:80|166:80|130:72|77:99,1,111.999996582031
472,152,115624,6,0,B|419:137|419:137|355:137,1,103.999995239258
185,35,116170,1,0,0:0:0:0:
231,306,116443,5,0,0:0:0:0:
231,306,116579,1,0,0:0:0:0:
227,228,116715,2,0,L|222:164,1,51.999997619629
309,120,116988,2,0,L|309:65,1,51.999997619629
91,40,117261,2,0,P|97:102|95:182,1,103.999995239258
401,191,117806,6,0,P|375:235|384:287,1,95.9999970703126
380,278,118215,1,0,0:0:0:0:
380,278,118352,1,0,0:0:0:0:
102,217,118624,2,0,L|99:162,1,47.9999985351563
252,58,118897,2,0,L|256:133,1,47.9999985351563
236,317,119170,2,0,L|234:270,2,47.9999985351563
444,42,119715,6,0,P|400:68|346:60,1,95.9999970703126
328,320,120261,1,0,0:0:0:0:
333,313,120397,1,0,0:0:0:0:
339,306,120533,1,0,0:0:0:0:
465,132,120806,1,0,0:0:0:0:
281,168,121079,5,0,0:0:0:0:
252,188,121215,1,0,0:0:0:0:
216,191,121352,1,0,0:0:0:0:
181,183,121488,1,0,0:0:0:0:
151,164,121624,2,0,P|134:156|107:152,2,44.0000013427735
358,41,122170,6,0,P|406:62|407:136,1,111.999996582031
232,232,122988,1,0,0:0:0:0:
232,232,123261,2,0,P|288:214|308:155,1,111.999996582031
121,53,124352,6,0,P|99:101|104:163,1,111.999996582031
293,270,125170,1,0,0:0:0:0:
293,270,125443,2,0,P|313:217|301:161,1,111.999996582031
451,189,126533,6,0,B|475:44|386:14|230:53|230:53|306:176|204:281|1:259|22:115|67:47,1,783.999976074219
345,210,130897,6,0,P|366:262|357:319,1,111.999996582031
111,115,131988,2,0,B|124:99|124:99|168:81|225:77,1,111.999996582031
182,213,133079,6,0,P|186:275|215:321,1,111.999996582031
391,200,134170,2,0,P|387:138|358:92,1,111.999996582031
73,186,135261,6,0,B|74:398|302:331|302:331|231:181|358:96|537:147|480:316,1,783.999976074219
204,42,139624,6,0,P|182:99|182:158,1,111.999996582031
456,148,140715,2,0,P|401:147|341:156,1,111.999996582031
256,307,141806,6,0,P|233:273|229:249,1,55.9999982910157
215,187,142352,1,0,0:0:0:0:
74,74,142897,2,0,P|129:66|187:44,1,111.999996582031
412,118,143988,6,0,P|412:181|370:212,1,111.999996582031
188,309,145079,1,0,0:0:0:0:
98,194,145624,1,0,0:0:0:0:
243,195,146170,2,0,P|254:136|239:70,1,111.999996582031
421,37,147261,2,0,L|417:99,1,55.9999982910157
415,165,147806,1,0,0:0:0:0:
244,292,148352,5,0,0:0:0:0:
330,296,157079,6,0,L|171:287,1,160
181,87,159261,6,0,L|340:77,1,160
340,76,161443,6,0,P|381:183|296:272,1,240
125,264,163624,6,0,L|118:174,1,80
230,45,164715,2,0,L|237:135,1,80
417,147,165806,6,0,B|437:159|437:159|444:207|433:267,1,128
322,283,166897,1,0,0:0:0:0:
285,95,167443,1,0,0:0:0:0:
92,202,167988,6,0,B|87:240|94:309|94:309|134:323,1,128
285,201,169079,1,0,0:0:0:0:
169,84,169624,1,0,0:0:0:0:
264,111,169897,1,0,0:0:0:0:
460,80,170170,6,0,P|392:91|340:122,1,128
367,334,171261,2,0,L|363:269,1,64
356,161,171806,1,0,0:0:0:0:
346,56,172352,1,0,0:0:0:0:
172,48,173443,5,0,0:0:0:0:
138,100,173716,1,0,0:0:0:0:
138,162,173989,1,0,0:0:0:0:
171,214,174261,1,0,0:0:0:0:
319,309,174533,6,0,B|285:299|285:299|357:286,1,96
370,105,175079,6,0,L|368:164,1,32
229,162,175352,2,0,L|214:112,1,32
114,314,175624,2,0,L|121:276,1,32
83,213,175897,2,0,P|121:205|148:211,2,64
265,40,176715,6,0,B|257:52|257:52|265:106,1,64
406,144,177261,1,0,0:0:0:0:
293,274,177533,2,0,L|298:232,2,32
163,174,178079,1,0,0:0:0:0:
141,33,178352,2,0,L|146:77,1,32
276,135,178624,2,0,L|279:99,1,32
431,53,178897,5,0,0:0:0:0:
428,289,179170,2,0,L|427:322,2,32
130,323,179715,6,0,L|128:358,1,32
240,250,179988,2,0,L|237:215,1,32
314,66,180261,1,0,0:0:0:0:
136,77,180533,1,0,0:0:0:0:
406,320,180806,6,0,L|403:284,1,32
417,72,181079,2,0,P|416:109|425:139,1,64
275,187,181488,1,0,0:0:0:0:
229,48,181624,2,0,L|225:87,1,32
206,290,181897,1,0,0:0:0:0:
322,72,182170,6,0,L|326:35,2,32
128,187,182715,6,0,P|109:187|89:193,1,32
330,292,182988,2,0,P|330:311|336:331,1,32
232,127,183261,6,0,P|172:120|140:125,1,71.9999978027344
362,58,183670,1,0,0:0:0:0:
362,58,183806,2,0,L|365:106,1,35.9999989013672
243,283,184079,2,0,L|244:243,1,35.9999989013672
95,48,184352,6,0,B|101:67|101:67|161:87,1,71.9999978027344
88,188,184761,1,0,0:0:0:0:
88,188,184897,2,0,B|66:179|66:179|67:206|98:230,1,71.9999978027344
314,293,185443,6,0,L|351:285,1,35.9999989013672
416,97,185715,2,0,L|380:104,1,35.9999989013672
211,34,185988,2,0,B|198:65|196:95|196:95|213:112,1,71.9999978027344
154,253,186397,1,0,0:0:0:0:
410,310,186533,6,0,B|392:306|392:306|373:231,1,71.9999978027344
383,119,186943,1,0,0:0:0:0:
201,66,187079,2,0,L|163:71,1,35.9999989013672
48,274,187352,2,0,L|96:267,1,35.9999989013672
461,166,187624,6,0,P|457:122|439:79,1,71.9999978027344
447,95,188033,1,0,0:0:0:0:
229,261,188170,2,0,P|233:305|251:348,1,71.9999978027344
242,331,188579,1,0,0:0:0:0:
140,70,188715,6,0,B|158:78|158:78|222:60,1,71.9999978027344
343,175,189124,1,0,0:0:0:0:
368,49,189261,2,0,P|408:58|438:84,1,71.9999978027344
181,158,189670,1,0,0:0:0:0:
59,215,189806,6,0,P|46:172|53:125,1,75.9999979705811
327,238,190215,1,0,0:0:0:0:
327,238,190352,2,0,P|340:281|333:328,1,75.9999979705811
156,261,190761,1,0,0:0:0:0:
423,96,190897,6,0,B|417:70|417:70|405:45,1,47.9999985351563
80,144,191170,6,0,B|72:177|72:177|72:202,1,55.9999982910157
407,227,191443,6,0,B|438:226|438:226|470:232,1,64
122,43,191715,6,0,B|90:43|90:43|58:37,1,64
296,43,191988,6,0,B|268:93|325:137|291:193,1,143.999995605469,2|0,2:0|2:0,2:0:0:0:
176,231,193079,2,0,B|114:234|85:260|85:260|96:284|125:299,1,143.999995605469
336,153,194170,6,0,B|397:149|426:123|426:123|415:99|386:84,1,143.999995605469,2|0,0:0|0:0,0:0:0:0:
207,49,195261,2,0,P|156:46|53:58,1,143.999995605469
293,203,196352,6,0,B|300:231|300:231|341:272|341:272|362:309|314:381|239:357|217:310,1,264.000008056641
104,162,198261,6,0,L|201:157,1,88.000002685547
408,222,199352,2,0,L|311:227,1,88.000002685547
336,91,200715,6,0,B|370:128|370:128|416:103|476:100,1,143.999995605469
200,175,201806,2,0,B|237:141|237:141|212:95|209:35,1,143.999995605469
95,180,202897,6,0,B|112:211|112:211|107:258|120:330,1,143.999995605469
235,317,203988,2,0,B|257:290|257:290|303:277|366:239,1,143.999995605469
260,180,205079,6,0,B|252:151|252:151|211:110|211:110|190:73|238:1|314:26|335:72,1,264.000008056641
186,250,206988,6,0,L|94:256,1,88.000002685547
271,94,208079,5,0,0:0:0:0:
424,111,208624,1,0,0:0:0:0:
319,313,209443,2,0,P|323:288|293:313,1,88.000002685547
98,104,210261,5,0,0:0:0:0:
251,122,210806,1,0,0:0:0:0:
161,324,211624,2,0,P|157:299|187:324,1,88.000002685547
380,172,212443,5,0,0:0:0:0:
142,79,213261,6,0,L|246:83,1,88.000002685547
386,58,214624,5,0,0:0:0:0:
237,139,215170,6,0,B|215:81|112:57|112:57|36:128|47:195,1,308.000009399414,0|0,2:0|2:0,2:0:0:0:
148,184,217352,5,0,0:0:0:0:
202,235,217624,1,0,0:0:0:0:
275,247,217897,1,0,0:0:0:0:
337,288,218170,6,0,P|381:263|426:275,1,88.000002685547
389,89,218988,5,0,0:0:0:0:
236,105,219533,1,0,0:0:0:0:
261,321,220352,2,0,P|242:290|234:325,1,88.000002685547
174,107,221170,5,0,0:0:0:0:
327,89,221715,1,0,0:0:0:0:
256,192,222533,12,0,224170,0:0:0:0:
