osu file format v14

[General]
AudioFilename: audio.mp3
AudioLeadIn: 0
PreviewTime: 249965
Countdown: 0
SampleSet: Soft
StackLeniency: 0.7
Mode: 0
LetterboxInBreaks: 0
WidescreenStoryboard: 0

[Editor]
Bookmarks: 29,15546,26709,37872,50430,61593,72756,83918,95081,106244,117407,129965,141128,152290,163453,174616,188395,194151,199732,209500,223453,234616,245779,249965,258909,267853,276797,286240,291778
DistanceSpacing: 1.3
BeatDivisor: 4
GridSize: 32
TimelineZoom: 2.4

[Metadata]
Title:Taiyou to Tsuki no Rondo
TitleUnicode:太陽と月のロンド
Artist:PolyphonicBranch
ArtistUnicode:PolyphonicBranch
Creator:Heroine
Version:Extra feat. Lasse
Source:
Tags:Some Hero Lasse Deca Collab Collaboration Brilliant White Noise Rondo of the Sun and Moon ちょうちょ&花たん ChouCho & Hanatan Cover Japanese Rock J-rock Jrock Some_Hero
BeatmapID:3332766
BeatmapSetID:1632739

[Difficulty]
HPDrainRate:7
CircleSize:4
OverallDifficulty:8.8
ApproachRate:9.2
SliderMultiplier:1.7
SliderTickRate:1

[Events]
//Background and Video events
0,0,"bg.jpg",0,0
//Break Periods
2,180397,187825
//Storyboard Layer 0 (Background)
//Storyboard Layer 1 (Fail)
//Storyboard Layer 2 (Pass)
//Storyboard Layer 3 (Foreground)
//Storyboard Layer 4 (Overlay)
//Storyboard Sound Samples

[TimingPoints]
29,454.545454545455,4,2,1,40,1,0
29,-200,4,2,1,40,0,0
2756,-400,4,2,1,40,0,0
3665,-200,4,2,1,40,0,0
4574,-400,4,2,1,40,0,0
5483,-200,4,2,1,40,0,0
12756,348.837209302326,4,2,1,60,1,0
15197,-80,4,2,1,60,0,0
23918,-74.0740740740741,4,2,1,60,0,0
26709,-100,4,3,1,50,0,0
31593,-66.6666666666667,4,3,1,50,0,0
31942,-74.0740740740741,4,3,1,50,0,0
32290,-222.222222222222,4,3,1,60,0,0
33337,-222.222222222222,4,3,1,5,0,0
33686,-100,4,2,1,60,0,0
36476,-100,4,2,1,40,0,0
36825,-100,4,2,1,50,0,0
37174,-100,4,2,1,60,0,0
37523,-100,4,2,1,70,0,0
37872,-90.9090909090909,4,2,1,70,0,0
43279,-133.333333333333,4,2,1,60,0,0
44849,-117.647058823529,4,2,1,60,0,0
46244,-100,4,2,1,60,0,0
50430,-66.6666666666667,4,2,1,75,0,1
50779,-80,4,2,1,75,0,1
61593,-58.8235294117647,4,2,1,75,0,1
61942,-80,4,2,1,75,0,1
72756,-100,4,2,1,75,0,1
89151,-80,4,2,1,75,0,1
92290,-50,4,2,1,75,0,0
92814,-58.8235294117647,4,2,1,75,0,0
93337,-66.6666666666667,4,2,1,75,0,0
93860,-80,4,2,1,75,0,0
95081,-100,4,2,1,60,0,0
106244,-133.333333333333,4,2,2,40,0,0
111825,-114.942528735632,4,2,2,50,0,0
114616,-114.942528735632,4,2,1,50,0,0
117407,-90.9090909090909,4,2,1,70,0,0
122988,-133.333333333333,4,2,1,60,0,0
125081,-117.647058823529,4,2,1,60,0,0
125779,-100,4,2,1,60,0,0
129965,-58.8235294117647,4,2,1,75,0,1
130314,-80,4,2,1,75,0,1
141128,-58.8235294117647,4,2,1,75,0,1
141476,-80,4,2,1,75,0,1
152290,-100,4,2,1,75,0,1
168686,-80,4,2,1,75,0,1
171825,-50,4,2,1,75,0,0
172349,-58.8235294117647,4,2,1,75,0,0
172872,-66.6666666666667,4,2,1,75,0,0
173395,-80,4,2,1,75,0,0
174616,-186.915887850467,4,2,1,60,0,0
175314,-100,4,2,1,60,0,0
176360,-80,4,2,1,60,0,0
176709,-66.6666666666667,4,2,1,60,0,0
177407,-100,4,2,1,60,0,0
178104,-90.9090909090909,4,2,1,60,0,0
178715,-100,4,2,1,40,0,0
180197,-100,4,2,1,20,0,0
188395,-100,4,2,1,50,0,0
188569,-50,4,2,1,60,0,0
188918,-62.5,4,2,1,60,0,0
191011,-90.9090909090909,4,2,1,60,0,0
191360,-83.3333333333333,4,2,1,60,0,0
192756,-50,4,2,1,60,0,0
194151,-100,4,2,1,60,0,0
201128,-58.8235294117647,4,2,1,75,0,1
201476,-80,4,2,1,75,0,1
212290,-52.6315789473684,4,2,1,75,0,1
212639,-80,4,2,1,75,0,1
223453,-100,4,2,1,75,0,1
224151,-66.6666666666667,4,2,1,75,0,1
224674,-100,4,2,1,75,0,1
239849,-80,4,2,1,75,0,1
240197,-71.4285714285714,4,2,1,75,0,1
240546,-80,4,2,1,75,0,1
242988,-50,4,2,1,75,0,1
244558,-50,4,2,1,75,0,1
245779,-142.857142857143,4,2,1,75,0,0
246476,-133.333333333333,4,2,1,75,0,0
247174,-166.666666666667,4,2,1,75,0,0
247523,-125,4,2,1,75,0,0
247872,-100,4,2,1,75,0,0
248569,-133.333333333333,4,2,1,75,0,0
249267,-100,4,2,1,75,0,0
249965,372.670807453416,6,2,1,50,1,0
267853,-133.333333333333,6,2,1,40,0,0
270089,-117.647058823529,6,2,1,40,0,0
272325,-133.333333333333,6,2,1,40,0,0
274561,-117.647058823529,6,2,1,40,0,0
274933,-133.333333333333,6,2,1,40,0,0
276797,-117.647058823529,6,2,1,40,0,0
277169,-133.333333333333,6,2,1,40,0,0
279033,-111.111111111111,6,2,1,40,0,0
281269,-125,6,2,1,40,0,0
281642,-142.857142857143,6,2,1,40,0,0
283505,410.958904109589,6,2,1,40,1,0
283505,-133.333333333333,6,2,1,40,0,0
284121,419.58041958042,6,2,1,40,1,0
284121,-133.333333333333,6,2,1,40,0,0
284540,425.531914893617,6,2,1,40,1,0
284752,483.870967741935,6,2,1,40,1,0
285719,521.739130434783,6,2,1,40,1,0
286240,923.076923076923,6,2,1,40,1,0
286240,-117.647058823529,6,2,1,40,0,0
291778,-117.647058823529,6,2,1,5,0,0

[Colours]
Combo1 : 250,180,240
Combo2 : 120,200,230
Combo3 : 255,230,130
Combo4 : 160,230,150

[HitObjects]
56,311,1847,6,0,P|118:298|181:288,1,127.5,2|0,0:0|0:0,0:0:0:0:
235,226,2756,2,0,L|236:184,1,42.5
298,131,3665,2,0,P|360:143|423:153,1,127.5,2|0,0:0|0:0,0:0:0:0:
474,219,4574,2,0,L|476:262,1,42.5
264,306,5483,6,0,P|221:301|181:288,1,85,2|0,0:0|0:0,0:0:0:0:
47,220,6165,2,0,P|88:210|130:208,2,85
18,128,7301,2,0,B|29:61|-14:69|0:4,1,127.5,2|0,0:0|0:0,0:0:0:0:
124,17,8210,1,0,0:0:0:0:
164,35,8438,1,0,0:0:0:0:
100,142,8665,1,0,0:0:0:0:
100,142,9119,6,0,L|184:135,1,85,2|0,0:0|0:0,0:0:0:0:
316,194,9801,2,0,L|444:198,1,127.5
384,83,10710,1,0,0:0:0:0:
316,194,10938,2,0,P|322:238|326:278,1,85,2|0,0:0|0:0,0:0:0:0:
375,359,11619,5,0,0:0:0:0:
453,312,11847,1,0,0:0:0:0:
406,233,12074,1,0,0:0:0:0:
326,278,12301,2,0,P|289:298|250:314,1,85,0|14,0:0|1:2,0:0:0:0:
249,314,13104,5,8,0:0:0:0:
198,242,13279,1,8,0:0:0:0:
292,178,13453,1,8,0:0:0:0:
191,91,13628,1,8,0:0:0:0:
342,11,13802,6,0,B|373:21|381:55|381:55|355:32|323:25,1,127.5,10|0,0:0|0:0,0:0:0:0:
251,0,14151,1,10,0:0:0:0:
251,0,14238,1,10,0:0:0:0:
390,135,14412,1,10,0:0:0:0:
390,135,14499,1,10,0:0:0:0:
98,251,14674,1,10,0:0:0:0:
98,251,14761,1,10,0:0:0:0:
115,47,14936,1,10,0:0:0:0:
115,47,15023,1,10,0:0:0:0:
332,267,15197,6,0,B|287:230|299:164|299:164|305:187|318:204,1,159.375,10|8,0:1|0:0,0:0:0:0:
352,294,15546,6,0,B|273:262|285:335|197:322,1,159.375,6|0,1:1|0:0,0:0:0:0:
132,345,15895,2,0,B|108:319|74:327|74:327|104:333|120:356,1,106.25,8|2,0:0|2:2,0:0:0:0:
111,345,16157,1,0,3:0:0:0:
111,345,16244,1,0,1:0:0:0:
195,206,16418,1,0,1:0:0:0:
21,85,16593,2,0,P|94:55|155:74,1,106.25,10|0,0:0|0:0,0:0:0:0:
132,50,16854,1,0,3:0:0:0:
146,42,16942,6,0,B|137:94|137:94|141:100|141:100|128:174,1,106.25,2|0,1:1|1:0,0:0:0:0:
359,24,17290,2,0,B|329:35|308:44|308:44|296:27|269:4,1,106.25,8|2,0:0|3:2,0:0:0:0:
310,80,17552,1,0,3:0:0:0:
328,105,17639,1,2,1:1:0:0:
328,136,17726,1,0,3:0:0:0:
309,162,17814,1,0,1:0:0:0:
458,281,17988,2,2,P|410:249|299:265,1,159.375,10|0,0:2|3:0,0:1:0:0:
312,256,18337,6,0,B|361:273|361:273|420:244|420:244|421:194|475:160,1,212.5,2|10,1:1|0:2,0:0:0:0:
402,0,18860,1,2,3:2:0:0:
431,22,18947,1,0,3:0:0:0:
468,20,19035,1,0,1:0:0:0:
331,102,19209,1,2,1:2:0:0:
215,5,19383,1,8,0:0:0:0:
62,52,19558,5,0,3:0:0:0:
62,52,19645,1,0,3:0:0:0:
62,52,19732,2,0,L|48:182,1,106.25,2|0,1:1|1:0,0:0:0:0:
189,282,20081,2,0,P|182:349|78:365,1,159.375,8|0,0:0|3:0,0:0:0:0:
21,384,20430,5,2,1:1:0:0:
31,348,20517,1,2,1:2:0:0:
41,312,20604,1,2,3:2:0:0:
51,276,20692,1,2,1:2:0:0:
125,227,20779,5,2,3:1:0:0:
109,176,20866,1,2,1:2:0:0:
93,125,20953,1,2,3:2:0:0:
77,74,21040,1,2,3:2:0:0:
151,28,21128,6,0,P|197:63|319:32,1,159.375,6|0,1:1|2:2,2:2:0:0:
366,17,21476,2,0,B|337:52|337:52|355:131,1,106.25,8|2,2:0|0:0,0:0:0:0:
350,111,21738,1,0,3:2:0:0:
350,111,21825,1,0,1:0:0:0:
453,30,22000,1,0,1:0:0:0:
412,208,22174,2,0,B|371:205|334:225|334:225|314:192|271:175,1,159.375,8|0,0:0|3:0,0:0:0:0:
216,115,22523,5,2,1:2:0:0:
222,324,22697,2,0,P|292:324|335:281,1,106.25,2|8,1:1|0:0,0:0:0:0:
149,167,23046,2,0,B|126:180|126:180|139:146,1,53.125,0|0,2:2|3:0,3:0:0:0:
218,82,23221,5,2,1:1:0:0:
247,93,23308,1,2,3:2:0:0:
278,92,23395,1,2,3:2:0:0:
307,80,23482,1,2,3:2:0:0:
378,123,23569,5,2,1:1:0:0:
410,95,23657,1,2,1:2:0:0:
452,95,23744,1,2,3:2:0:0:
483,123,23831,1,2,3:2:0:0:
424,189,23918,6,0,P|382:178|274:168,1,114.750000437737,10|0,0:1|1:0,0:0:0:0:
308,191,24442,6,0,P|365:198|421:212,1,114.750000437737,2|0,1:1|0:0,0:0:0:0:
154,258,24790,2,0,P|97:264|41:278,1,114.750000437737,2|0,1:1|0:0,0:0:0:0:
313,95,25139,2,0,P|369:101|425:115,1,114.750000437737,2|8,1:1|0:0,0:0:0:0:
55,27,25488,5,2,1:1:0:0:
93,37,25575,1,0,1:0:0:0:
128,18,25662,1,8,2:2:0:0:
7,216,25837,1,8,2:0:0:0:
160,126,26011,5,0,1:0:0:0:
208,145,26099,1,8,0:0:0:0:
241,184,26186,1,10,0:2:0:0:
250,234,26273,1,8,0:0:0:0:
232,282,26360,1,10,0:0:0:0:
194,317,26447,1,8,0:0:0:0:
189,302,26535,1,0,1:0:0:0:
88,335,26709,6,0,B|84:293|84:293|87:287|87:287|83:251,1,85,2|0,1:3|0:2,0:2:0:0:
99,177,26971,1,0,0:2:0:0:
99,177,27058,2,0,B|65:210|65:210|87:240,1,85,2|0,1:3|0:2,0:2:0:0:
164,266,27319,1,2,0:2:0:0:
164,266,27407,1,2,1:3:0:0:
253,320,27581,1,2,0:2:0:0:
245,335,27668,1,0,0:2:0:0:
238,350,27756,1,2,1:3:0:0:
313,249,27930,6,0,L|305:207,1,42.5,2|0,0:2|0:2,0:2:0:0:
232,174,28104,2,0,L|316:186,1,85,2|2,1:3|0:2,0:2:0:0:
375,136,28366,1,0,0:2:0:0:
367,121,28453,1,2,1:3:0:0:
290,38,28628,6,0,L|282:79,1,42.5,2|0,0:2|0:2,0:2:0:0:
384,0,28802,2,0,L|299:12,2,85,2|2|2,1:3|0:2|1:2,0:2:0:0:
485,46,29238,1,0,0:2:0:0:
485,46,29325,1,2,0:3:0:0:
423,192,29500,6,0,B|424:233|424:233|416:242|416:242|417:273,1,85,2|2,1:3|0:2,0:2:0:0:
377,345,29761,1,0,0:2:0:0:
377,345,29849,2,0,L|378:302,2,42.5,2|0|2,1:2|0:2|0:3,0:2:0:0:
208,240,30110,5,2,0:2:0:0:
208,240,30197,2,0,L|167:230,1,42.5,2|0,1:2|0:2,0:2:0:0:
269,304,30372,2,0,L|282:344,1,42.5,2|0,0:2|0:2,0:2:0:0:
298,217,30546,2,0,L|325:184,1,42.5,2|0,0:2|0:2,0:2:0:0:
45,339,30721,5,2,0:2:0:0:
45,339,30808,1,2,0:2:0:0:
45,339,30895,2,0,B|59:304|57:266|57:266|69:253|69:253|65:212|81:177,1,170,6|0,1:2|1:2,0:2:0:0:
198,13,31418,2,0,B|196:57|196:57|195:63|195:63|192:96,1,85,2|0,0:3|1:2,0:2:0:0:
191,178,31680,1,0,0:0:0:0:
191,178,31767,2,0,B|184:198|184:198|181:176,1,42.5000016212464,2|0,0:2|0:2,0:2:0:0:
398,116,31942,2,2,B|385:164|315:176|279:152|279:152|283:130|318:129,1,172.125000656605,2|0,1:1|0:2,1:2:0:0:
299,131,32290,6,2,B|348:233|213:224|253:339,1,229.499992996216,6|0,1:1|0:2,2:1:0:0:
252,338,33686,5,8,0:2:0:0:
190,248,33860,2,0,P|114:242|104:319,1,170,4|8,0:3|0:3,0:2:0:0:
51,377,34296,1,4,0:3:0:0:
51,377,34383,1,8,0:3:0:0:
74,236,34558,5,4,0:3:0:0:
74,236,34645,1,4,0:3:0:0:
74,236,34732,2,0,B|66:180|66:180|57:166|57:166|50:112,1,127.5,14|0,0:2|0:2,0:2:0:0:
34,113,35081,1,6,1:2:0:0:
217,79,35256,1,2,1:2:0:0:
105,0,35430,1,10,0:2:0:0:
162,188,35604,5,8,0:3:0:0:
178,184,35692,1,4,0:3:0:0:
194,180,35779,1,4,1:3:0:0:
210,176,35866,1,4,0:3:0:0:
226,172,35953,1,4,1:3:0:0:
242,168,36040,1,4,0:3:0:0:
258,164,36127,1,8,0:2:0:0:
391,29,36302,5,8,0:3:0:0:
391,29,36389,1,4,0:3:0:0:
391,29,36476,2,0,L|395:71,3,42.5,2|4|4|4,1:1|0:3|1:3|0:3,0:2:0:0:
463,183,36825,2,0,B|489:148|474:98|474:98|467:120|455:131,1,127.5,10|4,0:1|0:3,0:2:0:0:
470,198,37174,5,10,0:1:0:0:
512,321,37349,1,8,0:2:0:0:
245,264,37523,1,10,0:1:0:0:
429,81,37697,1,8,0:2:0:0:
374,336,37872,6,0,L|361:219,1,93.5000028533936,6|0,1:0|3:0,0:0:0:0:
351,170,38133,1,0,3:0:0:0:
351,170,38221,1,12,0:0:0:0:
195,354,38395,1,2,0:0:0:0:
195,354,38482,1,0,3:0:0:0:
195,354,38569,2,0,P|248:358|305:324,1,93.5000028533936,0|0,1:0|1:0,0:0:0:0:
217,150,38918,2,0,B|157:144|168:197|72:198,1,140.25000428009,10|0,0:0|3:0,0:0:0:0:
10,161,39267,6,0,P|5:116|39:49,1,93.5000028533936,6|0,1:2|3:0,0:0:0:0:
88,30,39528,1,0,3:0:0:0:
88,30,39616,1,12,0:0:0:0:
206,177,39790,1,2,0:0:0:0:
164,168,39877,1,0,3:0:0:0:
123,180,39965,1,0,1:0:0:0:
103,217,40052,1,0,3:0:0:0:
104,258,40139,1,0,1:0:0:0:
270,219,40314,1,10,0:0:0:0:
249,380,40488,1,0,3:0:0:0:
448,222,40662,6,0,B|475:251|475:251|458:333,1,93.5000028533936,6|0,1:0|3:0,0:0:0:0:
449,384,40923,1,0,3:0:0:0:
449,384,41011,1,12,0:0:0:0:
360,282,41185,1,2,0:0:0:0:
360,282,41272,1,0,3:0:0:0:
360,282,41360,1,0,1:0:0:0:
512,155,41535,1,2,0:1:0:0:
410,96,41709,2,0,B|383:67|383:67|400:-15,1,93.5000028533936,10|0,2:0|3:0,0:0:0:0:
165,64,42058,5,2,1:0:0:0:
275,180,42232,1,8,0:0:0:0:
310,192,42319,1,8,0:0:0:0:
345,179,42407,1,0,1:0:0:0:
140,36,42581,1,8,0:0:0:0:
103,26,42668,1,8,0:0:0:0:
66,36,42756,2,0,P|48:81|49:142,1,93.5000028533936,2|8,1:0|0:0,0:0:0:0:
50,205,43017,1,10,0:0:0:0:
50,205,43104,2,0,L|-7:197,1,46.7500014266968,0|8,1:0|0:0,0:0:0:0:
136,134,43279,5,8,0:0:0:0:
136,134,43366,1,8,0:0:0:0:
136,134,43453,2,0,B|213:113|201:164|272:138,1,127.500004863739,4|0,1:2|0:0,0:0:0:0:
392,69,43976,5,0,1:0:0:0:
392,69,44064,1,0,1:0:0:0:
392,69,44151,2,0,B|328:79|328:79|261:54,1,127.500004863739,8|0,0:2|1:0,0:0:0:0:
335,0,44674,1,8,0:0:0:0:
387,169,44849,5,2,1:2:0:0:
387,169,44936,1,0,1:0:0:0:
387,169,45023,1,8,0:0:0:0:
477,102,45197,1,0,1:0:0:0:
393,268,45372,1,2,0:0:0:0:
495,242,45546,2,0,B|521:274|521:274|509:350,1,108.375002067089,10|0,0:0|0:0,0:0:0:0:
504,356,45895,2,0,P|473:363|431:351,1,72.2500013780594,2|8,1:2|0:0,0:0:0:0:
293,190,46244,6,0,P|231:186|168:286,1,170,4|0,1:0|0:0,0:0:0:0:
188,362,46767,1,10,0:0:0:0:
69,296,46942,1,8,0:0:0:0:
160,78,47116,1,8,0:0:0:0:
63,46,47290,5,8,0:0:0:0:
167,263,47465,1,8,0:0:0:0:
323,138,47639,5,10,0:0:0:0:
323,138,47726,2,0,P|352:134|387:107,1,42.5,8|0,0:0|0:0,0:0:0:0:
267,26,47901,1,10,0:0:0:0:
267,26,47988,2,0,P|255:53|261:96,1,42.5,8|0,0:0|0:0,0:0:0:0:
391,33,48162,2,0,P|373:9|332:-7,1,42.5,10|0,0:0|0:0,0:0:0:0:
225,147,48337,5,2,1:1:0:0:
225,147,48424,1,0,1:0:0:0:
225,147,48511,2,0,L|159:176,1,42.5,8|0,0:0|0:0,0:0:0:0:
365,208,48686,2,0,L|431:237,1,42.5,10|0,0:0|0:0,0:0:0:0:
190,274,48860,2,0,L|124:303,1,42.5,8|0,0:0|0:0,0:0:0:0:
367,378,49035,5,6,1:2:0:0:
367,378,49122,1,2,0:2:0:0:
367,378,49209,1,2,0:2:0:0:
367,378,49296,1,2,1:2:0:0:
427,326,49383,5,14,0:2:0:0:
427,326,49471,1,2,0:2:0:0:
427,326,49558,1,2,1:2:0:0:
427,326,49645,1,2,0:2:0:0:
500,359,49732,5,10,0:1:0:0:
507,334,49819,1,8,0:1:0:0:
505,308,49907,1,8,0:1:0:0:
494,284,49994,1,8,0:1:0:0:
512,192,50081,5,10,0:1:0:0:
478,211,50168,1,8,0:1:0:0:
440,214,50255,1,8,0:1:0:0:
402,204,50343,1,8,0:1:0:0:
373,136,50430,6,0,B|431:153|445:220|445:220|411:243|399:277,1,191.250007295609,6|0,1:2|0:2,0:2:0:0:
236,366,50779,2,0,B|240:318|240:318|235:304|235:304|237:260,1,106.25,8|0,0:2|3:2,0:2:0:0:
179,194,51040,1,8,0:2:0:0:
179,194,51128,1,2,1:2:0:0:
399,277,51302,1,0,1:2:0:0:
237,261,51476,6,0,P|230:336|157:349,1,159.375,10|0,0:2|0:2,0:2:0:0:
49,327,51825,2,0,B|99:317|99:317|106:321|106:321|152:310,1,106.25,2|0,1:2|1:2,0:2:0:0:
258,183,52174,5,8,0:2:0:0:
68,78,52349,1,2,0:2:0:0:
36,110,52436,1,8,0:2:0:0:
27,154,52523,1,2,1:2:0:0:
44,197,52610,1,8,0:2:0:0:
84,220,52697,1,2,1:3:0:0:
276,34,52872,6,0,B|238:45|193:31|193:31|177:69|148:90,1,159.375,10|0,0:2|0:2,0:2:0:0:
266,160,53221,2,0,B|257:88|257:88|261:77|261:77|252:2,1,159.375,2|0,1:2|0:2,0:2:0:0:
233,0,53569,5,10,0:2:0:0:
414,199,53744,1,2,0:2:0:0:
384,167,53831,1,8,0:2:0:0:
381,123,53918,1,0,1:2:0:0:
459,65,54093,1,2,1:2:0:0:
264,305,54267,6,0,B|313:296|313:296|320:299|320:299|368:290,1,106.25,8|2,0:2|0:2,0:2:0:0:
491,368,54616,1,0,1:2:0:0:
215,226,54790,1,0,1:2:0:0:
250,320,54965,1,8,0:2:0:0:
315,76,55139,1,8,0:2:0:0:
120,270,55314,5,0,1:2:0:0:
77,265,55401,1,8,0:2:0:0:
44,236,55488,1,0,1:2:0:0:
36,191,55575,1,4,0:3:0:0:
81,129,55662,5,8,0:2:0:0:
81,129,55750,1,8,0:2:0:0:
81,129,55837,1,12,0:3:0:0:
231,5,56011,6,0,B|222:76|222:76|226:98|226:98|217:162,1,159.375,6|0,1:2|0:2,0:2:0:0:
200,174,56360,1,8,0:2:0:0:
419,243,56535,1,2,0:2:0:0:
419,243,56622,2,0,B|370:245|370:245|358:254|358:254|315:257,1,106.25,8|0,0:2|0:2,0:2:0:0:
242,317,56883,2,0,P|284:291|280:240,1,106.25,2|8,1:2|0:2,0:2:0:0:
0,332,57232,6,0,B|43:338|71:370|71:370|103:347|141:347,1,159.375,2|0,0:2|0:2,0:2:0:0:
171,273,57581,1,0,1:2:0:0:
34,154,57756,1,8,0:2:0:0:
211,71,57930,5,2,0:2:0:0:
253,95,58017,1,8,0:2:0:0:
274,139,58105,1,0,1:2:0:0:
273,186,58192,1,8,0:2:0:0:
273,186,58279,1,0,1:2:0:0:
171,273,58453,2,0,B|166:219|166:219|164:216|164:216|159:167,1,106.25,10|0,0:2|0:2,0:2:0:0:
476,27,58802,6,0,P|380:49|375:148,1,212.5,2|8,1:2|0:2,0:2:0:0:
496,303,59325,1,2,0:2:0:0:
512,262,59412,1,8,0:2:0:0:
505,217,59500,1,2,1:2:0:0:
375,148,59674,1,2,1:2:0:0:
292,367,59849,2,0,B|283:315|283:315|277:305|277:305|270:263,1,106.25,10|2,0:2|3:2,0:2:0:0:
324,206,60110,5,0,3:2:0:0:
324,206,60197,1,10,1:2:0:0:
130,337,60372,1,8,0:2:0:0:
205,379,60546,1,8,1:2:0:0:
27,116,60721,5,10,0:2:0:0:
36,125,60808,1,10,0:2:0:0:
107,140,60895,5,2,1:2:0:0:
148,122,60982,1,10,0:2:0:0:
169,84,61069,1,10,0:2:0:0:
172,39,61157,1,10,0:2:0:0:
147,0,61244,1,10,0:2:0:0:
185,269,61418,1,8,0:2:0:0:
446,56,61593,6,0,B|470:74|498:76|498:76|403:112|403:112|351:75,1,216.750004134178,6|0,1:2|0:2,0:2:0:0:
479,174,61942,2,0,P|502:209|498:287,1,106.25,8|0,0:2|3:2,0:2:0:0:
481,354,62203,1,8,0:2:0:0:
481,354,62291,1,2,1:2:0:0:
286,260,62465,1,0,1:2:0:0:
402,236,62639,5,10,0:0:0:0:
276,366,62814,1,0,0:0:0:0:
120,231,62988,6,0,B|92:267|92:267|107:332,1,106.25,2|0,1:2|1:2,0:2:0:0:
316,156,63337,2,0,P|259:155|206:114,1,106.25,8|2,0:0|0:0,0:0:0:0:
146,157,63599,1,8,0:2:0:0:
135,110,63686,1,2,1:2:0:0:
97,80,63773,1,8,0:2:0:0:
49,75,63860,1,0,1:3:0:0:
218,129,64035,6,0,P|301:127|339:29,1,159.375,10|0,0:2|0:2,0:2:0:0:
472,0,64384,2,0,B|432:39|432:39|458:158,1,159.375,2|0,1:2|0:2,0:2:0:0:
478,215,64732,1,10,0:2:0:0:
376,336,64907,1,2,0:2:0:0:
411,359,64994,1,8,0:2:0:0:
452,350,65081,1,0,1:2:0:0:
344,208,65256,1,2,1:2:0:0:
261,352,65430,1,8,0:0:0:0:
211,237,65604,5,2,0:0:0:0:
376,336,65779,1,0,1:2:0:0:
211,237,65953,1,0,1:2:0:0:
366,128,66128,1,8,0:2:0:0:
211,237,66302,1,8,0:2:0:0:
223,12,66477,5,0,1:2:0:0:
220,30,66564,1,8,0:2:0:0:
144,60,66651,5,2,1:2:0:0:
141,42,66738,1,4,0:3:0:0:
69,6,66825,5,8,0:2:0:0:
67,15,66913,1,8,0:2:0:0:
65,24,67000,1,12,0:3:0:0:
208,157,67174,6,0,P|142:143|79:240,1,159.375,6|0,1:2|0:2,0:2:0:0:
32,263,67523,1,8,0:2:0:0:
245,334,67698,1,2,0:2:0:0:
245,334,67785,2,0,B|195:335|195:335|183:345|183:345|140:347,1,106.25,8|0,0:2|0:2,0:2:0:0:
67,367,68046,2,0,B|14:361|14:361|62:338,1,106.25,2|8,1:2|0:2,0:2:0:0:
312,271,68395,5,2,0:0:0:0:
325,287,68482,1,2,2:2:0:0:
340,301,68569,2,0,B|380:324|380:324|459:301|459:301|466:247|528:213,1,212.5,2|8,1:2|0:0,0:0:0:0:
363,120,69093,5,2,0:2:0:0:
397,87,69180,1,8,0:2:0:0:
403,39,69268,1,0,1:2:0:0:
373,1,69355,1,8,0:2:0:0:
373,1,69442,2,0,B|326:4|326:4|321:8|321:8|259:14,1,106.25,2|8,1:2|0:0,0:0:0:0:
147,0,69790,1,2,0:0:0:0:
127,200,69965,6,0,B|88:204|62:218|62:218|-14:181|13:89,1,212.5,2|8,1:2|0:2,0:2:0:0:
227,194,70488,1,2,0:2:0:0:
223,236,70575,1,8,0:2:0:0:
217,278,70663,1,2,1:2:0:0:
330,170,70837,1,2,1:2:0:0:
127,200,71011,1,10,0:0:0:0:
213,74,71186,5,0,3:0:0:0:
213,74,71273,1,0,3:2:0:0:
213,74,71360,1,14,1:2:0:0:
354,192,71535,1,0,1:2:0:0:
398,9,71709,1,8,1:2:0:0:
324,88,71883,1,10,0:0:0:0:
435,232,72058,5,8,2:0:0:0:
450,244,72174,2,0,P|484:244|516:204,1,70.8333333333333,8|8,0:0|0:0,0:0:0:0:
387,313,72407,5,8,0:3:0:0:
328,262,72523,1,8,0:3:0:0:
251,273,72639,1,8,0:3:0:0:
207,342,72756,6,0,B|205:299|228:264|228:264|188:185|188:185|104:174,1,255,6|0,1:2|1:2,0:2:0:0:
64,244,73366,1,0,1:2:0:0:
64,244,73453,1,10,0:1:0:0:
379,0,73802,6,0,L|369:84,1,85,2|2,0:3|1:1,0:2:0:0:
499,268,74151,1,2,0:3:0:0:
499,268,74325,2,0,L|489:183,1,85,10|0,0:1|0:2,0:2:0:0:
478,98,74674,1,2,1:2:0:0:
332,325,74849,1,10,0:2:0:0:
396,247,75023,1,2,0:2:0:0:
305,194,75197,1,2,1:2:0:0:
17,218,75372,5,0,1:2:0:0:
17,218,75459,1,0,1:2:0:0:
17,218,75546,2,0,B|-42:146|-4:55|-4:55|40:70|53:109,1,255,6|0,1:2|1:2,0:2:0:0:
139,133,76157,1,0,1:2:0:0:
139,133,76244,1,10,0:1:0:0:
225,91,76418,1,0,3:2:0:0:
217,0,76593,1,2,0:3:0:0:
117,293,76767,6,0,B|90:264|90:264|92:218,1,85,2|2,1:1|0:3,0:2:0:0:
225,187,77116,2,0,B|252:216|252:216|249:261,1,85,10|2,0:1|0:3,0:2:0:0:
512,293,77465,5,2,1:2:0:0:
420,315,77639,2,2,B|393:287|357:278|357:278|371:229|433:178|500:194,1,255,10|8,0:1|0:2,0:1:0:0:
506,201,78250,5,8,0:2:0:0:
506,201,78337,2,0,P|395:227|375:115,1,255,4|0,1:2|1:2,0:2:0:0:
342,42,78947,1,0,1:2:0:0:
342,42,79035,1,10,0:1:0:0:
163,322,79383,6,0,B|167:283|167:283|166:275|166:275|170:237,1,85,2|2,0:3|1:1,0:2:0:0:
32,117,79732,2,0,B|36:156|36:156|35:164|35:164|39:201,1,85,2|10,0:3|0:1,0:2:0:0:
163,322,80081,5,2,1:3:0:0:
248,272,80256,1,2,0:2:0:0:
185,136,80430,6,0,B|96:126|118:212|37:201,1,170,10|2,0:1|0:3,0:2:0:0:
253,46,80953,5,0,1:2:0:0:
253,46,81040,1,0,1:2:0:0:
253,46,81128,2,0,B|308:113|308:113|387:89,1,170,6|2,1:1|0:3,0:2:0:0:
415,0,81651,1,2,1:2:0:0:
415,0,81738,1,0,1:2:0:0:
415,0,81825,2,0,B|394:22|349:37|349:37|373:80|375:126,1,170,10|2,0:1|0:3,0:2:0:0:
512,206,82349,2,0,B|468:198|468:198|462:201|462:201|429:196,1,85,2|10,1:2|0:2,0:2:0:0:
365,249,82610,5,10,0:2:0:0:
365,249,82697,1,10,0:2:0:0:
495,84,82872,1,10,0:2:0:0:
280,59,83046,1,10,0:2:0:0:
280,59,83133,1,10,0:2:0:0:
89,252,83308,1,10,0:2:0:0:
89,252,83395,1,10,0:2:0:0:
125,170,83569,2,0,B|131:124|95:107|95:107|112:128|112:155,1,127.5,10|8,0:2|0:2,1:2:0:0:
8,284,83918,6,0,B|127:272|127:272|142:257|142:257|255:245,1,255,6|0,1:2|1:2,0:2:0:0:
321,303,84529,1,0,1:2:0:0:
321,303,84616,1,10,0:1:0:0:
420,87,84965,6,0,P|428:128|429:170,1,85,2|2,0:2|1:1,0:2:0:0:
245,160,85314,1,2,0:3:0:0:
255,244,85488,2,0,P|246:202|245:160,1,85,10|0,0:1|1:2,0:2:0:0:
429,170,85837,1,0,1:2:0:0:
256,359,86011,6,2,B|215:339|164:344|164:344|152:311|157:271|157:271|109:271|72:254,1,255,10|0,0:1|1:2,0:1:0:0:
77,258,86622,5,0,1:2:0:0:
77,258,86709,2,0,P|185:265|140:364,1,255,6|0,1:2|1:2,0:2:0:0:
60,354,87319,1,0,1:2:0:0:
60,354,87407,1,10,0:1:0:0:
236,92,87756,5,2,0:3:0:0:
244,8,87930,2,0,L|236:92,1,85,2|2,1:1|0:3,0:2:0:0:
338,246,88279,2,0,L|330:161,1,85,10|2,0:1|0:3,0:2:0:0:
79,124,88628,1,0,1:2:0:0:
273,304,88802,1,10,0:2:0:0:
248,224,88976,1,10,0:2:0:0:
131,59,89151,6,0,B|126:131|126:131|118:142|118:142|112:215,1,159.375,6|0,1:2|0:2,0:2:0:0:
29,260,89500,2,0,P|82:253|134:243,1,106.25,6|0,1:2|0:2,0:2:0:0:
350,110,89849,5,10,0:2:0:0:
222,33,90023,1,2,0:2:0:0:
222,33,90110,1,8,0:2:0:0:
222,33,90197,1,0,1:2:0:0:
299,9,90372,1,0,1:2:0:0:
134,243,90546,5,10,0:2:0:0:
221,256,90721,2,0,B|237:215|237:215|210:158,1,106.25,2|0,0:2|1:2,0:2:0:0:
136,142,90982,1,0,1:2:0:0:
136,142,91069,1,0,1:2:0:0:
271,171,91244,2,0,B|325:172|332:184|375:186,1,106.25,8|2,0:2|1:2,0:2:0:0:
433,126,91506,5,8,0:2:0:0:
433,126,91593,1,2,1:2:0:0:
467,345,91767,1,2,1:2:0:0:
512,183,91942,1,10,0:2:0:0:
510,140,92029,1,8,0:2:0:0:
509,94,92116,1,8,0:2:0:0:
162,50,92290,6,0,B|125:89|125:89|146:159|146:159|169:160|188:166,1,170,10|10,0:1|0:1,0:2:0:0:
257,219,92814,6,0,B|191:197|191:197|182:200|182:200|120:179,1,144.500002756119,10|10,1:1|0:1,0:2:0:0:
96,202,93337,5,10,0:1:0:0:
288,77,93511,1,10,0:1:0:0:
461,360,93860,6,0,B|455:308|455:308|452:300|452:300|446:254,1,106.25,6|12,1:1|0:2,0:2:0:0:
500,137,94209,1,4,0:3:0:0:
512,171,94296,1,4,0:3:0:0:
509,204,94383,1,2,1:3:0:0:
312,326,94558,1,0,1:2:0:0:
272,291,94645,1,0,1:2:0:0:
266,239,94732,1,14,0:2:0:0:
242,207,95081,5,6,1:2:0:0:
265,216,95168,1,2,0:0:0:0:
290,214,95256,1,2,0:0:0:0:
313,204,95343,1,2,0:0:0:0:
331,186,95430,2,0,P|331:155|321:125,1,42.5,10|0,0:0|0:0,0:0:0:0:
251,54,95604,5,0,1:0:0:0:
251,54,95692,1,0,1:0:0:0:
151,148,95866,1,0,1:0:0:0:
151,148,95953,1,0,1:0:0:0:
103,25,96128,1,8,0:0:0:0:
0,306,96476,5,0,1:0:0:0:
0,306,96564,2,0,B|70:285|61:326|138:306,1,127.5,0|8,1:0|0:0,0:0:0:0:
308,271,97000,5,0,1:0:0:0:
308,271,97087,1,0,1:0:0:0:
400,381,97261,1,0,1:0:0:0:
400,381,97349,1,0,1:0:0:0:
458,255,97523,1,8,0:0:0:0:
330,14,97872,5,2,1:2:0:0:
309,41,97959,1,2,0:0:0:0:
277,52,98046,1,2,0:0:0:0:
243,52,98133,1,2,0:0:0:0:
212,35,98221,1,10,0:0:0:0:
206,53,98395,5,2,1:2:0:0:
170,39,98482,1,2,1:2:0:0:
132,46,98569,1,2,0:2:0:0:
106,74,98657,1,2,1:2:0:0:
99,111,98744,1,2,1:2:0:0:
75,132,98918,5,10,0:0:0:0:
116,144,99006,1,2,0:0:0:0:
143,176,99093,1,2,0:0:0:0:
145,218,99180,1,2,0:0:0:0:
212,267,99267,5,2,1:1:0:0:
212,267,99354,2,0,B|148:252|148:252|75:283,1,127.5,0|8,1:0|0:0,0:0:0:0:
161,346,99790,5,0,1:0:0:0:
161,346,99878,1,0,1:0:0:0:
161,346,99965,1,8,0:0:0:0:
256,192,100139,1,0,1:0:0:0:
256,192,100226,1,0,1:0:0:0:
256,192,100314,1,8,0:0:0:0:
351,346,100488,1,0,1:0:0:0:
421,276,100662,5,6,1:2:0:0:
444,285,100749,1,2,0:0:0:0:
469,283,100837,1,2,0:0:0:0:
492,273,100924,1,2,0:0:0:0:
510,255,101011,2,0,P|510:224|500:194,1,42.5,10|0,0:0|0:0,0:0:0:0:
452,109,101185,5,0,1:0:0:0:
452,109,101273,1,0,1:0:0:0:
358,211,101447,1,0,1:0:0:0:
358,211,101534,1,0,1:0:0:0:
299,86,101709,1,8,0:0:0:0:
201,326,102057,5,0,1:0:0:0:
201,326,102145,2,0,B|233:331|260:347|260:347|281:327|321:305,1,127.5,0|8,1:0|0:0,0:0:0:0:
166,229,102581,5,0,1:0:0:0:
166,229,102668,1,0,1:0:0:0:
84,371,102842,1,0,1:0:0:0:
84,371,102930,1,0,1:0:0:0:
0,242,103104,1,8,0:0:0:0:
223,43,103453,5,0,1:0:0:0:
223,43,103541,2,0,B|153:22|167:67|85:43,1,127.5,0|8,1:0|0:0,0:0:0:0:
254,150,103976,5,0,1:0:0:0:
254,150,104064,1,0,1:0:0:0:
325,1,104238,1,0,1:0:0:0:
325,1,104325,1,0,1:0:0:0:
425,141,104500,1,8,0:0:0:0:
164,252,104849,5,10,0:0:0:0:
134,221,104936,1,2,0:0:0:0:
94,206,105023,1,2,0:0:0:0:
81,228,105110,1,10,0:0:0:0:
58,238,105197,1,10,0:0:0:0:
42,202,105285,1,2,0:0:0:0:
50,164,105372,1,10,0:0:0:0:
35,179,105459,1,2,0:0:0:0:
14,184,105546,1,2,0:0:0:0:
29,158,105633,1,10,0:0:0:0:
33,128,105721,1,10,0:0:0:0:
62,158,105808,1,2,0:0:0:0:
103,168,105895,1,10,0:0:0:0:
77,124,105982,1,2,0:0:0:0:
104,81,106069,1,10,0:0:0:0:
124,96,106157,1,2,0:0:0:0:
152,96,106244,6,0,B|171:86|190:79|190:79|216:39|181:0,1,127.500004863739,6|0,0:0|0:0,0:0:0:0:
326,153,106767,2,0,B|307:143|288:136|288:136|262:96|297:57,1,127.500004863739,2|0,0:0|0:0,0:0:0:0:
205,227,107290,2,0,P|246:216|278:216,1,63.7500024318696,2|0,0:0|0:0,0:0:0:0:
396,257,107639,6,0,P|445:260|521:215,1,127.500004863739,2|0,0:0|0:0,0:0:0:0:
423,370,108162,2,0,P|369:337|306:337,1,127.500004863739,2|0,0:0|0:0,0:0:0:0:
207,321,108686,2,0,L|194:405,1,63.7500024318696,2|0,0:0|0:0,0:0:0:0:
84,230,109035,6,0,B|116:237|141:254|141:254|168:236|200:227,1,127.500004863739,2|0,0:0|0:0,0:0:0:0:
201,122,109558,2,0,B|169:115|144:98|144:98|117:116|84:124,1,127.500004863739,2|0,0:0|0:0,0:0:0:0:
279,180,110081,2,0,L|294:104,1,63.7500024318696,2|0,0:0|0:0,0:0:0:0:
369,4,110430,6,0,P|385:37|491:37,1,127.500004863739,2|0,0:0|0:0,0:0:0:0:
512,206,110953,2,0,P|496:173|390:173,1,127.500004863739,2|0,0:0|0:0,0:0:0:0:
338,251,111476,2,0,L|404:240,1,63.7500024318696,2|0,0:0|0:0,0:0:0:0:
234,179,111825,6,0,B|197:113|254:111|220:35,1,147.900001241226,6|0,0:0|0:0,0:0:0:0:
135,163,112349,2,0,P|63:186|8:136,1,147.900001241226,2|0,0:0|0:0,0:0:0:0:
158,322,112872,2,0,L|170:238,1,73.9500006206131,2|0,0:0|0:0,0:0:0:0:
356,379,113221,6,0,L|353:213,1,147.900001241226,2|0,0:0|0:0,0:0:0:0:
512,120,113745,2,0,P|443:152|376:107,1,147.900001241226,2|0,0:0|0:0,0:0:0:0:
290,24,114268,2,0,L|376:16,1,73.9500006206131,2|0,0:0|0:0,0:0:0:0:
194,104,114616,5,2,0:0:0:0:
194,104,114790,1,0,0:0:0:0:
282,113,114965,1,2,0:0:0:0:
166,186,115139,1,2,0:0:0:0:
256,192,115314,1,2,0:0:0:0:
256,192,115488,1,0,0:0:0:0:
343,198,115662,1,2,0:0:0:0:
230,271,115837,1,2,0:0:0:0:
316,282,116011,5,10,0:0:0:0:
316,282,116186,1,8,0:0:0:0:
196,102,116360,5,10,0:0:0:0:
196,102,116535,1,8,0:0:0:0:
170,331,116709,5,10,0:0:0:0:
170,331,116884,1,8,0:0:0:0:
342,53,117058,5,10,0:0:0:0:
342,53,117233,1,8,0:0:0:0:
512,204,117407,6,0,B|536:252|536:252|510:283,1,93.5000028533936,6|0,1:0|3:0,0:0:0:0:
512,368,117668,1,0,3:0:0:0:
512,368,117756,1,12,0:0:0:0:
431,103,117930,1,2,0:0:0:0:
431,103,118017,1,0,3:0:0:0:
431,103,118104,2,0,B|455:55|455:55|429:23,1,93.5000028533936,2|0,1:2|1:2,0:0:0:0:
214,5,118453,1,10,0:0:0:0:
342,53,118628,1,2,0:0:0:0:
237,143,118802,6,0,B|246:191|246:191|244:197|244:197|250:235,1,93.5000028533936,6|0,1:2|3:0,0:0:0:0:
272,318,119063,1,0,3:0:0:0:
272,318,119151,1,12,0:0:0:0:
68,222,119325,5,2,0:0:0:0:
60,237,119412,1,8,0:2:0:0:
169,96,119587,1,8,0:2:0:0:
157,84,119674,1,0,1:0:0:0:
250,234,119849,5,10,0:0:0:0:
250,234,120023,1,0,3:0:0:0:
30,165,120197,6,0,B|30:120|30:120|34:113|34:113|35:72,1,93.5000028533936,6|0,1:0|3:0,0:0:0:0:
37,0,120458,1,0,3:0:0:0:
37,0,120546,1,12,0:0:0:0:
237,143,120720,5,2,0:0:0:0:
282,144,120807,1,0,3:0:0:0:
320,116,120895,1,0,1:0:0:0:
250,234,121070,1,2,0:1:0:0:
162,194,121244,2,0,B|181:270|143:257|156:331,1,140.25000428009,10|0,2:0|3:0,0:0:0:0:
233,378,121593,5,2,1:0:0:0:
320,116,121767,1,8,0:0:0:0:
322,159,121854,1,8,0:0:0:0:
324,204,121942,1,0,1:0:0:0:
193,55,122116,1,8,0:0:0:0:
191,98,122203,1,8,0:0:0:0:
189,143,122291,1,2,1:1:0:0:
7,251,122465,5,8,0:2:0:0:
7,251,122552,1,10,0:0:0:0:
7,251,122639,2,0,B|7:229|7:229|7:230|7:230|9:205,1,46.7500014266968,4|8,1:3|0:0,0:0:0:0:
144,293,122814,1,8,0:0:0:0:
144,293,122901,1,8,0:0:0:0:
144,293,122988,2,0,B|167:336|149:371|149:371|143:347|129:329,1,127.500004863739,4|0,1:2|0:0,0:0:0:0:
3,332,123511,1,0,1:0:0:0:
3,332,123599,1,0,1:0:0:0:
3,332,123686,2,0,B|68:328|68:328|74:333|74:333|128:329,1,127.500004863739,8|0,0:2|1:0,0:0:0:0:
233,321,124209,1,8,0:0:0:0:
353,194,124383,6,0,B|376:151|358:116|358:116|352:140|338:157,1,127.500004863739,2|0,1:2|1:0,0:0:0:0:
195,160,124907,1,2,3:2:0:0:
195,160,124994,1,0,3:2:0:0:
195,160,125081,2,0,B|263:157|263:157|271:161|271:161|338:157,1,144.500002756119,8|0,0:2|0:0,0:0:0:0:
233,321,125604,5,8,0:2:0:0:
302,254,125779,2,0,B|329:227|385:216|415:254|415:254|395:269|377:266,1,170,4|0,1:0|0:2,0:0:0:0:
376,266,126302,1,10,0:0:0:0:
434,99,126477,5,8,0:0:0:0:
342,355,126651,1,8,0:0:0:0:
493,169,126825,5,8,0:0:0:0:
227,134,127000,1,8,0:0:0:0:
173,241,127174,5,10,0:0:0:0:
177,231,127261,2,0,L|168:190,1,42.5,8|0,0:0|0:0,0:0:0:0:
111,21,127436,1,10,0:0:0:0:
115,31,127523,2,0,L|105:71,1,42.5,8|0,0:0|0:0,0:0:0:0:
37,133,127697,5,10,0:0:0:0:
5,167,127785,1,10,0:0:0:0:
0,213,127872,1,2,1:1:0:0:
21,253,127959,1,0,1:0:0:0:
61,268,128046,2,0,L|102:260,1,42.5,8|0,0:0|0:0,0:0:0:0:
227,134,128221,6,0,L|225:92,1,42.5,10|0,0:0|0:0,0:0:0:0:
307,84,128395,2,0,L|304:41,1,42.5,8|0,0:0|0:0,0:0:0:0:
388,215,128570,5,6,1:2:0:0:
388,215,128657,1,2,0:2:0:0:
388,215,128744,1,2,0:2:0:0:
388,215,128831,1,2,1:2:0:0:
461,270,128918,5,14,0:2:0:0:
461,270,129006,1,2,0:2:0:0:
461,270,129093,1,2,1:2:0:0:
461,270,129180,1,2,0:2:0:0:
414,332,129267,5,10,0:1:0:0:
385,327,129354,1,8,0:1:0:0:
358,331,129442,1,8,0:1:0:0:
332,340,129529,1,8,0:1:0:0:
261,295,129616,5,10,0:1:0:0:
292,260,129703,1,8,0:1:0:0:
294,214,129790,1,8,0:1:0:0:
270,175,129878,1,8,0:1:0:0:
172,195,129965,6,0,B|224:202|224:202|229:154|267:96|267:96|228:70,1,216.750004134178,6|0,1:2|0:2,0:2:0:0:
173,0,130314,2,0,B|180:51|180:51|174:66|174:66|179:104,1,106.25,8|0,0:2|0:2,0:2:0:0:
109,139,130575,1,8,0:2:0:0:
109,139,130662,1,2,1:2:0:0:
374,258,130837,1,0,1:2:0:0:
16,324,131011,6,0,B|63:325|63:325|75:332|75:332|132:334,1,106.25,10|0,0:2|0:2,0:2:0:0:
109,139,131360,2,0,B|55:137|55:137|86:187,1,106.25,2|0,1:2|1:2,0:2:0:0:
172,195,131709,1,8,0:2:0:0:
356,137,131883,1,0,3:2:0:0:
356,137,131971,1,8,0:2:0:0:
356,137,132058,1,2,1:2:0:0:
356,137,132145,1,8,0:2:0:0:
356,137,132232,1,0,1:2:0:0:
109,139,132407,6,0,B|90:94|144:61|144:61|119:89|121:119,1,159.375,10|0,0:2|0:2,0:2:0:0:
87,229,132756,2,0,B|95:149|95:149|89:141|89:141|97:72,1,159.375,2|0,1:2|0:2,0:2:0:0:
104,0,133104,1,10,0:2:0:0:
374,205,133279,5,10,0:2:0:0:
374,205,133366,1,8,0:2:0:0:
374,205,133453,1,0,1:2:0:0:
166,283,133628,1,2,1:2:0:0:
310,345,133802,1,8,0:2:0:0:
225,142,133976,1,2,0:2:0:0:
60,218,134151,6,0,B|68:270|68:270|66:280|66:280|72:322,1,106.25,0|0,1:2|1:2,0:2:0:0:
270,237,134500,1,8,0:2:0:0:
169,46,134674,1,8,0:2:0:0:
417,123,134849,5,2,0:2:0:0:
398,88,134936,1,10,0:2:0:0:
398,47,135023,1,2,1:2:0:0:
426,13,135110,1,2,0:2:0:0:
498,15,135197,5,10,0:2:0:0:
505,22,135285,1,10,0:2:0:0:
505,22,135372,1,4,0:3:0:0:
367,333,135546,6,0,B|310:262|360:200|360:200|402:208|410:238,1,212.5,6|10,1:2|0:2,0:2:0:0:
292,382,136069,1,2,0:2:0:0:
292,382,136157,1,8,0:2:0:0:
292,382,136245,1,0,1:2:0:0:
127,213,136418,1,2,1:2:0:0:
43,157,136593,2,0,B|40:236|40:236|35:246|35:246|33:315,1,159.375,8|0,0:2|0:2,0:2:0:0:
0,382,136942,6,0,P|50:366|102:359,1,106.25,2|0,1:2|1:2,0:2:0:0:
354,98,137290,1,8,0:2:0:0:
203,30,137465,5,0,3:2:0:0:
175,65,137552,1,8,0:2:0:0:
172,111,137639,1,0,1:2:0:0:
190,154,137726,1,8,0:2:0:0:
190,154,137814,1,0,1:2:0:0:
447,68,137988,6,0,B|464:21|417:-15|417:-15|437:17|435:44,1,159.375,10|0,0:2|0:2,0:2:0:0:
462,82,138337,2,0,B|443:169|503:154|501:230,1,159.375,2|0,1:2|0:2,0:2:0:0:
509,311,138686,2,0,B|499:361|499:361|487:308,1,106.25,10|2,0:2|0:2,0:2:0:0:
409,227,138947,1,8,0:2:0:0:
409,227,139035,1,0,1:2:0:0:
202,334,139209,5,2,1:2:0:0:
365,381,139383,1,8,0:2:0:0:
257,181,139558,5,2,3:2:0:0:
257,181,139645,1,0,3:2:0:0:
257,181,139732,1,10,0:2:0:0:
311,280,139907,1,8,0:2:0:0:
126,157,140081,1,8,0:2:0:0:
319,77,140256,5,10,0:2:0:0:
310,65,140343,1,10,0:2:0:0:
101,351,140517,1,10,0:2:0:0:
95,365,140604,1,10,0:2:0:0:
117,77,140779,6,0,B|133:26|133:26|142:77,1,106.25,10|8,0:2|0:2,0:2:0:0:
328,284,141128,6,0,B|366:306|366:306|435:287|435:287|451:227|503:204,1,216.750004134178,6|0,1:2|0:2,0:2:0:0:
371,152,141477,2,0,P|372:99|347:53,1,106.25,8|0,0:2|3:2,0:2:0:0:
281,16,141738,1,8,0:2:0:0:
281,16,141826,1,2,1:2:0:0:
234,214,142000,1,0,1:2:0:0:
142,77,142174,1,10,0:0:0:0:
234,214,142349,1,0,0:0:0:0:
104,299,142523,6,0,B|61:293|61:293|50:297|50:297|-9:288,1,106.25,2|0,1:2|1:2,0:2:0:0:
285,376,142872,2,0,P|299:321|285:270,1,106.25,8|2,0:0|0:0,0:0:0:0:
234,214,143134,1,8,0:2:0:0:
187,223,143221,1,2,1:2:0:0:
144,200,143308,1,8,0:2:0:0:
122,157,143395,1,0,1:3:0:0:
236,34,143570,6,0,B|330:14|304:67|397:51,1,159.375,10|0,0:2|0:2,0:2:0:0:
456,98,143919,2,0,P|468:47|447:0,1,106.25,2|0,1:2|0:2,0:2:0:0:
270,107,144267,1,10,0:2:0:0:
404,230,144442,1,2,0:2:0:0:
445,221,144529,1,8,0:2:0:0:
486,212,144616,1,0,1:2:0:0:
361,61,144791,1,2,1:2:0:0:
315,289,144965,1,8,0:0:0:0:
140,167,145139,5,2,0:0:0:0:
93,361,145314,1,0,1:2:0:0:
140,167,145488,1,0,1:2:0:0:
19,240,145663,1,8,0:2:0:0:
213,287,145837,1,8,0:2:0:0:
332,79,146012,5,0,1:2:0:0:
336,95,146099,1,8,0:2:0:0:
408,131,146186,5,2,1:2:0:0:
412,115,146273,1,4,0:3:0:0:
488,74,146360,5,8,0:2:0:0:
489,82,146448,1,8,0:2:0:0:
491,91,146535,1,12,0:3:0:0:
325,189,146709,6,0,P|365:253|460:239,1,159.375,6|0,1:2|0:2,0:2:0:0:
512,217,147058,1,8,0:2:0:0:
362,380,147233,1,2,0:2:0:0:
362,380,147319,2,0,B|352:270,1,106.25,8|0,0:2|0:2,0:2:0:0:
304,210,147581,2,0,B|292:91,1,106.25,2|8,1:2|0:2,0:2:0:0:
174,14,147930,5,2,0:0:0:0:
174,14,148017,1,2,2:2:0:0:
174,14,148104,2,0,B|155:81|76:69|76:69|49:32|-8:20,1,212.5,2|8,1:2|0:0,0:0:0:0:
147,141,148628,5,2,0:2:0:0:
100,153,148715,1,8,0:2:0:0:
77,195,148803,1,0,1:2:0:0:
82,242,148890,1,8,0:2:0:0:
82,242,148976,1,0,1:0:0:0:
18,366,149151,2,0,P|69:357|136:351,1,106.25,10|0,0:0|0:0,0:0:0:0:
334,293,149500,6,0,P|404:358|534:320,1,212.5,2|8,1:2|0:2,0:2:0:0:
393,213,150023,1,2,0:2:0:0:
433,201,150110,1,8,0:2:0:0:
473,187,150198,1,2,1:2:0:0:
355,117,150372,1,2,1:2:0:0:
457,46,150546,1,10,0:0:0:0:
274,0,150721,5,0,3:0:0:0:
274,0,150808,1,0,3:2:0:0:
274,0,150895,1,14,1:2:0:0:
228,181,151070,1,0,1:2:0:0:
91,70,151244,1,8,1:2:0:0:
197,81,151418,1,10,0:0:0:0:
88,222,151593,5,8,2:0:0:0:
73,234,151709,2,0,P|32:230|-2:204,1,70.8333333333333,8|8,0:0|0:0,0:0:0:0:
118,321,151942,5,8,0:3:0:0:
184,279,152058,1,8,0:3:0:0:
261,283,152174,1,8,0:3:0:0:
322,342,152290,6,0,B|404:369|440:289|440:289|386:251|403:181,1,255,6|0,1:2|1:2,0:2:0:0:
444,133,152900,1,0,1:2:0:0:
444,133,152987,1,10,0:1:0:0:
444,133,153337,5,2,0:3:0:0:
378,39,153511,2,0,L|466:28,1,85,2|2,1:0|0:3,0:0:0:0:
274,135,153860,2,0,L|264:50,1,85,10|2,0:1|0:3,0:2:0:0:
400,193,154208,1,2,1:2:0:0:
251,276,154383,1,10,0:2:0:0:
397,364,154557,1,2,0:2:0:0:
400,193,154731,1,2,1:2:0:0:
281,142,154906,5,0,1:2:0:0:
281,142,154993,1,0,1:2:0:0:
281,142,155080,2,0,B|251:180|195:169|195:169|184:109|113:93|113:93|138:114|146:150,1,255,6|0,1:2|1:2,0:2:0:0:
112,199,155691,1,0,1:2:0:0:
112,199,155778,1,10,0:1:0:0:
112,199,156128,5,2,0:3:0:0:
222,255,156301,2,0,B|321:239,1,85,2|2,1:1|0:3,0:2:0:0:
134,384,156650,2,0,B|122:276,1,85,10|2,0:1|0:3,0:2:0:0:
47,116,156999,5,2,1:2:0:0:
47,116,157173,2,2,B|89:151|89:191|89:191|111:201|111:201|73:150|81:87|112:54,1,255,10|8,0:1|0:2,0:1:0:0:
165,22,157785,5,8,0:2:0:0:
165,22,157871,2,0,B|192:94|275:87|275:87|311:18|387:26,1,255,4|0,1:2|1:2,0:2:0:0:
447,35,158481,1,0,1:2:0:0:
447,35,158569,1,10,0:1:0:0:
447,35,158918,5,2,0:3:0:0:
293,122,159092,2,0,P|338:111|380:112,1,85,2|2,1:0|0:3,0:0:0:0:
508,212,159442,2,0,P|472:195|407:189,1,85,10|2,0:1|0:3,0:2:0:0:
427,187,159790,1,2,0:2:0:0:
512,320,159965,6,0,B|467:320|428:337|428:337|403:300|366:282,1,170,10|2,0:1|0:3,0:2:0:0:
209,182,160487,5,0,1:2:0:0:
209,182,160574,1,0,1:2:0:0:
209,182,160662,2,0,B|179:267|251:258|220:358,1,170,6|2,1:1|0:3,0:2:0:0:
116,141,161185,5,2,1:2:0:0:
116,141,161272,1,0,1:2:0:0:
116,141,161360,2,0,P|224:132|310:98,1,170,10|2,0:1|0:3,0:2:0:0:
365,163,161883,1,0,1:0:0:0:
424,10,162058,5,2,2:0:0:0:
424,10,162144,1,10,0:2:0:0:
424,10,162231,1,10,0:2:0:0:
375,187,162406,1,10,0:2:0:0:
239,29,162581,5,10,0:2:0:0:
239,29,162667,1,10,0:2:0:0:
284,276,162843,1,10,0:2:0:0:
284,276,162930,1,10,0:2:0:0:
68,169,163104,6,0,B|68:200|68:200|99:208|99:208|116:182|116:182|95:158,1,127.5,10|8,0:2|0:2,1:2:0:0:
41,96,163453,6,0,B|35:65|23:42|-6:15|-6:15|61:-17|61:-17|39:25|44:65,1,255,6|0,1:1|1:2,0:2:0:0:
124,85,164064,1,0,1:2:0:0:
124,85,164151,1,10,0:1:0:0:
6,349,164500,1,2,0:3:0:0:
71,297,164674,2,0,B|110:299|110:299|115:304|115:304|154:306,1,85,2|2,1:1|0:3,0:2:0:0:
283,181,165023,2,0,B|243:183|243:183|238:188|238:188|199:190,1,85,10|2,0:1|0:3,0:2:0:0:
342,242,165372,1,2,1:2:0:0:
383,47,165546,1,10,0:2:0:0:
419,129,165721,1,2,0:2:0:0:
244,38,165895,1,2,0:3:0:0:
478,57,166069,5,2,1:2:0:0:
478,57,166157,1,0,1:2:0:0:
478,57,166244,2,0,B|509:98|509:98|504:178|504:178|452:213|442:281,1,255,6|0,1:2|1:2,0:2:0:0:
333,323,166854,1,0,1:2:0:0:
333,323,166942,2,0,B|357:348|357:348|371:335|371:335|350:305|354:265|354:265|328:230,1,170,10|2,0:1|0:3,0:2:0:0:
181,158,167465,2,0,L|176:242,1,85,2|2,1:1|0:3,0:2:0:0:
282,35,167814,2,0,L|277:119,1,85,10|2,0:1|0:3,0:2:0:0:
135,49,168162,5,0,1:2:0:0:
277,119,168337,1,10,0:2:0:0:
176,242,168511,1,10,0:2:0:0:
25,174,168686,2,0,B|-5:154|-17:109|-4:76|-4:76|24:62|42:80,1,159.375,4|0,1:2|0:2,0:2:0:0:
43,193,169035,6,0,B|66:238|66:238|48:290,1,106.25,6|0,1:2|0:2,0:2:0:0:
337,360,169383,1,10,0:2:0:0:
343,263,169558,1,2,0:2:0:0:
343,263,169645,1,8,0:2:0:0:
343,263,169732,2,0,B|320:308|320:308|337:360,1,106.25,0|0,1:2|1:2,0:2:0:0:
481,238,170081,5,10,0:2:0:0:
385,118,170256,2,0,B|333:123|333:123|327:126|327:126|279:130,1,106.25,2|0,0:2|1:2,0:2:0:0:
428,17,170604,1,0,1:2:0:0:
399,134,170779,2,0,B|434:137|464:157|464:157|497:118|486:73,1,159.375,8|8,0:2|0:2,0:2:0:0:
428,17,171128,5,2,1:2:0:0:
404,226,171302,1,2,1:2:0:0:
233,75,171476,1,10,0:2:0:0:
233,75,171564,1,8,0:2:0:0:
233,75,171651,1,12,0:3:0:0:
65,285,171825,6,0,B|104:327|104:327|171:299|171:299|144:267,1,170,10|10,0:1|0:1,0:2:0:0:
159,166,172349,6,0,B|137:200|103:214|103:214|133:233|144:268,1,144.500002756119,10|10,1:1|0:1,0:2:0:0:
225,230,172872,5,10,0:1:0:0:
76,128,173046,1,10,0:1:0:0:
331,50,173395,6,0,B|325:102|325:102|321:109|321:109|316:154,1,106.25,6|12,1:1|0:2,0:2:0:0:
12,88,173744,1,4,0:3:0:0:
0,122,173831,1,4,0:3:0:0:
3,155,173918,1,2,1:3:0:0:
186,307,174093,1,0,1:2:0:0:
218,274,174180,1,0,1:2:0:0:
225,230,174267,1,14,0:2:0:0:
437,319,174616,6,0,P|450:370|429:321,1,159.375006079674,6|0,1:1|0:2,0:2:0:0:
409,231,175314,2,2,B|411:205|426:191|426:191|402:178|389:147|389:147|325:120|325:120|387:158|394:222,1,297.5,6|0,1:2|0:2,0:1:0:0:
437,319,176011,6,2,B|468:336|501:312|501:312|466:323|446:311,1,127.5,6|0,1:2|0:2,0:1:0:0:
349,296,176360,2,2,B|307:319|313:369|313:369|322:325|350:309,1,159.375,6|0,1:2|0:2,0:1:0:0:
409,231,176709,2,2,B|408:171|350:145|350:145|391:183|391:222,1,191.250007295609,14|8,1:1|0:2,0:1:0:0:
445,326,177058,1,8,0:2:0:0:
445,326,177145,1,8,0:2:0:0:
445,326,177232,1,4,0:3:0:0:
350,145,177407,6,0,P|230:143|191:256,1,255,6|0,1:1|3:2,0:2:0:0:
125,347,178104,2,2,B|131:317|131:317|109:291|105:256|105:256|68:252|34:236|34:236|19:249|19:249|72:267|99:305|110:342,1,327.250009986878,6|0,1:2|0:2,0:1:0:0:
131,355,178758,1,2,3:2:0:0:
131,355,178802,2,0,L|160:353,24,28.3333333333333,6|0|0|0|0|0|0|0|0|0|0|0|0|0|0|0|0|0|0|0|0|0|0|0|4,3:2|0:2|3:2|3:2|3:2|3:2|3:2|3:2|3:2|3:2|3:2|3:2|3:2|3:2|3:2|3:2|3:2|3:2|3:2|3:2|3:2|3:2|3:2|3:2|3:2,3:2:0:0:
111,13,188395,6,2,B|93:29|93:29|95:3,1,42.5,2|0,0:3|0:0,0:1:0:0:
20,95,188569,6,2,B|46:42|194:0|149:107|375:79|299:-68|222:2|257:21,1,340,6|8,1:0|0:0,0:1:0:0:
44,219,189093,5,0,3:0:0:0:
44,219,189180,1,0,3:0:0:0:
44,219,189267,1,0,1:0:0:0:
116,242,189442,1,0,1:0:0:0:
100,169,189616,1,10,0:2:0:0:
329,281,189790,5,0,3:0:0:0:
285,291,189878,1,0,3:0:0:0:
241,299,189965,1,2,1:1:0:0:
431,379,190139,1,0,1:0:0:0:
512,163,190314,1,10,0:0:0:0:
343,4,190488,6,2,B|298:39|269:87|332:136|318:91,1,136,2|0,3:1|1:0,0:1:0:0:
319,98,190750,1,8,2:0:0:0:
319,98,190837,1,2,1:0:0:0:
389,178,191011,6,0,B|327:142|327:142|244:164,1,140.25000428009,10|0,0:0|0:0,0:0:0:0:
185,117,191360,5,2,1:1:0:0:
211,148,191447,1,2,0:2:0:0:
226,185,191535,1,2,0:2:0:0:
225,225,191622,1,2,0:2:0:0:
207,261,191709,2,2,B|182:268|182:268|205:237,1,50.9999984436036,10|0,0:1|0:2,0:1:0:0:
354,54,191883,5,2,0:1:0:0:
380,97,191970,1,10,0:2:0:0:
427,116,192058,1,2,1:2:0:0:
476,116,192145,1,2,0:2:0:0:
507,73,192232,2,2,B|510:49|510:49|485:61,1,50.9999984436036,2|0,1:1|0:0,0:1:0:0:
273,0,192407,5,10,0:1:0:0:
252,68,192494,5,2,0:2:0:0:
194,121,192582,5,2,0:2:0:0:
114,132,192669,5,2,0:2:0:0:
0,93,192756,6,2,B|45:62|45:62|5:214,1,170,2|8,1:1|0:0,0:1:0:0:
15,173,193017,1,8,0:0:0:0:
15,173,193104,1,8,0:0:0:0:
166,323,193279,5,8,0:0:0:0:
132,328,193366,1,8,0:0:0:0:
98,332,193453,1,8,0:0:0:0:
293,98,193628,5,8,0:0:0:0:
259,93,193715,1,8,0:0:0:0:
225,89,193802,1,8,0:0:0:0:
431,355,193977,5,8,0:0:0:0:
397,360,194064,1,8,0:0:0:0:
363,364,194151,1,8,0:0:0:0:
316,295,194325,1,0,3:2:0:0:
364,227,194500,1,2,0:3:0:0:
226,227,194674,5,2,1:2:0:0:
226,227,194761,1,0,1:2:0:0:
226,227,194849,2,0,B|259:182|259:182|237:114,1,127.5,14|0,0:2|0:2,0:2:0:0:
172,61,195197,2,0,B|131:56|131:56|124:58|124:58|87:54,1,85,2|8,3:2|0:2,0:2:0:0:
237,114,195546,1,2,1:3:0:0:
296,53,195721,1,8,0:2:0:0:
232,1,195895,1,2,1:2:0:0:
232,1,196069,1,2,0:2:0:0:
41,310,196244,6,0,B|67:226|-10:237|14:149,1,170,14|2,0:2|3:2,0:2:0:0:
158,144,196767,2,0,B|146:162|146:162|147:142,1,42.5,8|0,0:2|0:2,0:2:0:0:
172,61,196942,5,6,1:2:0:0:
172,61,197290,1,10,0:2:0:0:
258,29,197465,1,10,0:2:0:0:
360,66,197639,1,8,0:2:0:0:
416,177,197814,1,8,0:2:0:0:
370,317,197988,1,10,0:2:0:0:
229,363,198162,1,10,0:2:0:0:
63,296,198337,5,8,0:2:0:0:
63,296,198424,2,0,B|86:294|107:295|107:295|118:278|133:263,1,85,8|8,0:2|0:2,0:2:0:0:
100,187,198686,1,8,0:2:0:0:
100,187,198773,2,0,L|57:181,2,42.5,0|8|8,0:2|0:2|0:2,0:2:0:0:
173,136,199035,5,0,1:2:0:0:
173,136,199122,1,8,0:2:0:0:
173,136,199209,1,8,1:2:0:0:
15,9,199383,1,8,1:2:0:0:
29,85,199558,2,0,B|40:103|40:103|39:83,1,42.5,8|8,3:2|0:2,0:2:0:0:
342,103,199732,5,2,1:3:0:0:
342,103,199819,1,2,3:2:0:0:
342,103,199907,1,4,0:3:0:0:
342,103,199994,1,8,0:3:0:0:
359,199,200081,5,14,1:2:0:0:
359,199,200168,1,2,0:2:0:0:
359,199,200256,1,2,1:2:0:0:
411,207,200343,1,2,0:2:0:0:
462,187,200431,1,2,0:2:0:0:
491,143,200518,1,2,0:2:0:0:
503,67,200604,2,0,B|496:45|496:45|491:65,1,42.5,6|2,1:1|0:2,0:2:0:0:
255,281,200779,5,10,0:1:0:0:
249,237,200866,1,2,0:2:0:0:
259,194,200954,1,2,0:2:0:0:
285,158,201041,1,2,0:2:0:0:
342,103,201128,6,0,B|319:159|342:206|342:206|335:218|335:218|358:264|355:311,1,216.750004134178,6|0,1:1|0:2,0:2:0:0:
282,372,201476,2,0,P|269:324|219:315,1,106.25,8|0,0:2|0:2,0:2:0:0:
162,261,201738,1,8,0:2:0:0:
162,261,201825,1,2,1:2:0:0:
88,123,202000,1,0,1:2:0:0:
270,74,202174,2,0,B|244:114|247:156|247:156|211:154|178:175,1,159.375,10|0,0:2|0:2,0:2:0:0:
162,261,202523,5,2,1:2:0:0:
5,279,202697,1,0,1:2:0:0:
149,351,202872,1,8,0:2:0:0:
20,187,203046,1,2,0:2:0:0:
1,147,203133,1,8,0:2:0:0:
4,105,203221,1,2,1:2:0:0:
24,66,203308,1,10,0:2:0:0:
61,43,203395,1,0,1:2:0:0:
270,74,203569,6,0,B|241:77|218:94|218:94|201:77|175:67,1,106.25,10|0,0:2|0:2,0:2:0:0:
350,210,203918,2,0,B|357:160|351:110|351:110|357:96|357:96|348:48|356:-1,1,212.5,2|10,1:2|0:2,0:2:0:0:
504,130,204442,1,2,0:2:0:0:
474,95,204529,1,8,0:2:0:0:
469,50,204616,1,0,1:2:0:0:
251,308,204790,5,2,1:2:0:0:
399,357,204965,1,8,0:2:0:0:
448,209,205139,1,2,3:2:0:0:
300,160,205314,1,2,1:2:0:0:
351,256,205488,1,0,1:2:0:0:
256,67,205662,1,8,0:2:0:0:
351,256,205837,1,8,0:2:0:0:
109,246,206011,5,2,1:2:0:0:
83,210,206099,1,10,0:2:0:0:
76,164,206186,1,2,1:2:0:0:
93,121,206273,1,2,0:2:0:0:
42,65,206360,5,10,0:2:0:0:
42,65,206447,1,10,0:2:0:0:
42,65,206535,1,2,1:2:0:0:
330,26,206709,6,0,B|352:64|352:64|333:133|333:133|282:140|251:181,1,212.5,6|10,1:2|0:2,0:2:0:0:
241,320,207232,1,2,0:2:0:0:
241,320,207319,1,8,0:2:0:0:
241,320,207407,1,0,1:2:0:0:
243,74,207581,2,0,B|246:125|246:125|249:134|249:134|251:179,1,106.25,2|8,1:2|0:2,0:2:0:0:
5,238,207930,6,0,B|-24:237|-24:237|-1:229,1,53.125,2|0,3:2|3:2,0:2:0:0:
90,202,208104,1,2,1:2:0:0:
110,107,208279,1,0,1:2:0:0:
15,137,208453,1,8,0:2:0:0:
287,184,208628,5,2,0:2:0:0:
294,219,208715,1,8,0:2:0:0:
260,237,208802,1,0,1:2:0:0:
235,211,208889,1,8,0:2:0:0:
251,179,208976,1,0,1:2:0:0:
490,33,209151,2,0,B|490:67|487:87|487:87|488:96|488:96|486:114|485:140,1,106.25,10|0,0:2|0:2,0:2:0:0:
512,224,209412,5,8,0:0:0:0:
512,224,209500,2,0,P|416:202|397:119,1,159.375,2|0,1:2|0:2,0:2:0:0:
339,76,209849,2,0,B|369:118|369:118|359:57,1,106.25,10|0,0:0|0:0,0:0:0:0:
313,7,210110,1,8,0:2:0:0:
313,7,210198,1,2,1:2:0:0:
297,176,210372,1,2,1:2:0:0:
281,345,210546,1,8,0:2:0:0:
123,149,210721,5,0,3:0:0:0:
123,149,210808,1,0,3:2:0:0:
123,149,210895,1,10,1:2:0:0:
172,291,211070,1,8,0:2:0:0:
385,234,211244,1,8,1:2:0:0:
337,27,211419,5,2,2:2:0:0:
335,39,211506,1,2,2:2:0:0:
394,95,211593,5,2,1:2:0:0:
355,77,211680,1,8,0:2:0:0:
313,70,211767,1,8,0:2:0:0:
270,78,211855,1,8,0:2:0:0:
217,14,211942,5,10,0:2:0:0:
230,65,212029,1,8,0:2:0:0:
214,115,212116,1,8,0:2:0:0:
170,144,212203,1,8,0:2:0:0:
91,123,212291,6,0,B|60:123|37:141|37:141|109:133|176:179|171:272,1,242.249993531227,6|0,1:2|0:2,0:2:0:0:
144,316,212640,2,0,P|99:335|26:321,1,106.25,8|0,0:2|3:2,0:2:0:0:
42,329,212901,1,8,0:2:0:0:
42,329,212989,1,2,1:2:0:0:
170,144,213163,1,0,1:2:0:0:
278,304,213337,1,10,0:0:0:0:
278,304,213512,1,0,0:0:0:0:
440,238,213686,6,0,B|475:265|475:265|453:339,1,106.25,2|0,1:2|1:2,0:2:0:0:
354,154,214035,2,0,B|363:116|363:116|361:105|361:105|373:50,1,106.25,8|2,0:0|0:0,0:0:0:0:
312,0,214297,1,8,0:2:0:0:
282,37,214384,1,2,1:2:0:0:
236,50,214471,1,8,0:2:0:0:
189,40,214558,1,0,1:3:0:0:
0,204,214733,6,0,P|34:192|120:183,1,106.25,10|0,0:2|0:2,0:2:0:0:
201,129,214994,1,8,0:0:0:0:
201,129,215082,2,0,B|196:188|196:188|199:194|199:194|189:298,1,159.375,2|0,1:2|0:2,0:2:0:0:
224,384,215430,2,0,P|169:368|105:363,1,106.25,10|2,0:0|2:0,0:0:0:0:
120,362,215692,1,8,0:2:0:0:
120,362,215779,1,0,1:2:0:0:
299,264,215954,1,2,1:2:0:0:
103,182,216128,1,8,0:0:0:0:
284,24,216302,5,2,0:0:0:0:
252,120,216477,1,0,1:2:0:0:
252,120,216651,1,0,1:2:0:0:
153,30,216826,1,8,0:2:0:0:
394,121,217000,1,8,0:2:0:0:
319,287,217175,5,0,1:2:0:0:
334,282,217262,1,8,0:2:0:0:
246,248,217349,5,2,1:2:0:0:
241,233,217436,1,4,0:3:0:0:
207,321,217523,5,8,0:2:0:0:
200,323,217611,1,8,0:2:0:0:
192,326,217698,1,12,0:3:0:0:
156,151,217872,6,0,P|104:212|29:200,1,159.375,6|0,1:2|0:2,0:2:0:0:
0,131,218221,1,8,0:2:0:0:
153,62,218396,1,2,0:2:0:0:
153,62,218483,2,0,B|204:72|204:72|264:45,1,106.25,8|0,0:2|0:2,0:2:0:0:
329,113,218744,2,0,L|342:6,1,106.25,2|8,1:2|0:2,0:2:0:0:
504,162,219093,5,2,0:0:0:0:
504,162,219180,1,2,2:2:0:0:
504,162,219267,2,0,B|480:132|437:133|437:133|379:211|445:263,1,212.5,2|8,1:2|0:0,0:0:0:0:
247,329,219791,5,2,0:2:0:0:
292,316,219878,1,8,0:2:0:0:
339,324,219966,1,0,1:2:0:0:
380,356,220053,1,8,0:2:0:0:
380,356,220139,1,0,1:0:0:0:
244,209,220314,2,0,L|258:87,1,106.25,10|0,0:0|0:0,0:0:0:0:
200,26,220575,5,8,0:0:0:0:
200,26,220663,2,0,B|183:76|135:72|135:72|103:36|54:38,1,159.375,2|0,1:2|0:2,0:2:0:0:
0,68,221011,1,10,0:0:0:0:
107,242,221186,1,2,0:2:0:0:
64,241,221273,1,8,0:2:0:0:
25,259,221361,1,2,1:2:0:0:
157,99,221535,1,2,1:2:0:0:
217,320,221709,1,10,0:0:0:0:
395,292,221884,5,0,3:0:0:0:
395,292,221971,1,0,3:2:0:0:
395,292,222058,1,14,1:2:0:0:
284,218,222233,1,0,1:2:0:0:
323,381,222407,1,8,1:2:0:0:
511,323,222581,1,10,0:0:0:0:
433,165,222756,5,8,2:0:0:0:
448,177,222872,2,0,B|480:184|480:184|509:153,1,70.8333333333333,8|8,0:0|0:0,0:0:0:0:
383,79,223105,5,8,0:3:0:0:
315,117,223221,1,8,0:3:0:0:
239,96,223337,1,8,0:3:0:0:
198,28,223453,6,0,B|223:62|266:69|266:69|258:142|201:174|135:143,1,255,6|0,1:2|1:2,0:2:0:0:
71,183,224064,1,0,1:2:0:0:
71,183,224151,2,0,B|121:265|13:262|73:413|151:368,1,255.000009727478,10|2,0:1|0:3,0:2:0:0:
281,342,224674,6,0,L|273:257,1,85,2|2,1:1|0:3,0:2:0:0:
371,337,225023,2,0,L|363:252,1,85,10|2,0:1|0:3,0:2:0:0:
351,93,225372,1,2,1:2:0:0:
273,257,225546,1,10,0:2:0:0:
316,174,225721,1,2,0:2:0:0:
363,252,225895,1,2,1:3:0:0:
252,105,226069,5,2,1:2:0:0:
252,105,226157,1,0,1:2:0:0:
252,105,226244,2,0,B|207:110|171:97|171:97|120:172|120:172|145:207|148:247,1,255,6|0,1:2|1:2,0:2:0:0:
105,312,226854,1,0,1:2:0:0:
105,312,226942,1,10,0:1:0:0:
105,312,227290,1,2,0:2:0:0:
343,341,227465,6,0,B|299:339|299:339|262:357,1,85,2|2,1:1|0:3,0:2:0:0:
149,247,227814,2,0,B|193:249|193:249|229:230,1,85,10|2,0:1|0:3,0:2:0:0:
241,130,228162,1,0,1:2:0:0:
106,45,228337,6,2,B|119:107|96:168|5:179|5:179|-14:134|10:126,1,255,10|10,0:1|0:2,0:1:0:0:
77,208,228947,1,10,0:2:0:0:
77,208,229035,2,0,B|108:290|47:293|65:373,1,170,4|2,1:2|0:3,0:2:0:0:
294,295,229558,1,0,1:2:0:0:
294,295,229645,1,0,1:2:0:0:
294,295,229732,2,0,B|283:253|286:202|286:202|254:228|216:231,1,170,10|2,0:1|0:3,0:2:0:0:
170,294,230256,6,0,P|189:333|201:374,1,85,2|2,1:1|0:3,0:2:0:0:
216,145,230604,2,0,P|197:106|185:65,1,85,10|2,0:1|1:3,0:2:0:0:
102,48,230953,1,0,1:2:0:0:
376,289,231128,6,2,B|411:274|449:286|449:286|453:181|364:141,1,255,10|0,0:2|1:2,0:1:0:0:
317,82,231738,1,0,1:2:0:0:
317,82,231825,1,6,1:2:0:0:
317,82,232174,1,2,1:2:0:0:
170,294,232349,1,2,1:2:0:0:
170,294,232436,1,0,1:2:0:0:
170,294,232523,2,2,B|166:257|179:218|179:218|128:207|112:156|112:156|124:111|108:75,1,255,10|2,0:1|1:2,0:1:0:0:
26,117,233221,5,2,2:0:0:0:
26,117,233307,1,10,0:2:0:0:
26,117,233394,1,10,0:2:0:0:
254,184,233569,1,10,0:2:0:0:
29,320,233744,5,10,0:2:0:0:
29,320,233830,1,10,0:2:0:0:
112,80,234006,1,10,0:2:0:0:
112,80,234093,1,10,0:2:0:0:
386,277,234267,6,0,B|378:320|404:351|404:351|400:324|408:303,1,127.5,10|8,0:2|0:2,1:2:0:0:
465,239,234616,6,0,B|438:204|449:154|481:137|481:137|452:93|452:93|467:142|433:181,1,255,6|0,1:1|1:2,0:2:0:0:
364,189,235227,1,0,1:2:0:0:
364,189,235314,1,10,0:1:0:0:
364,189,235663,5,2,0:3:0:0:
278,89,235837,2,0,B|291:-2,1,85,2|2,1:1|0:3,0:2:0:0:
154,183,236186,2,0,B|168:86,1,85,10|2,0:1|0:3,0:2:0:0:
256,288,236535,1,2,1:2:0:0:
139,342,236709,1,10,0:2:0:0:
256,288,236884,1,2,0:2:0:0:
339,377,237058,1,2,0:3:0:0:
283,197,237232,5,2,1:2:0:0:
283,197,237320,1,0,1:2:0:0:
283,197,237407,2,0,B|249:153|264:119|284:123|290:83|263:57|263:57|268:39|268:39|259:62|241:91|206:92,1,255,6|0,1:2|1:2,0:2:0:0:
139,53,238017,1,0,1:2:0:0:
139,53,238105,2,0,B|101:44|101:44|70:74|70:74|68:139|9:151,1,170,10|2,0:1|0:3,0:2:0:0:
95,341,238628,6,0,P|60:341|-2:349,1,85,2|2,1:1|0:3,0:2:0:0:
199,300,238977,2,0,P|198:345|202:399,1,85,10|2,0:1|0:3,0:2:0:0:
119,224,239325,5,0,1:2:0:0:
311,153,239500,1,10,0:2:0:0:
184,97,239674,1,10,0:2:0:0:
377,217,239849,2,0,B|341:180|364:121|405:106|405:106|390:127|392:157,1,159.375,4|0,1:2|0:2,0:2:0:0:
472,159,240198,6,0,P|399:131|324:55,1,178.499994552612,6|0,1:2|0:2,0:2:0:0:
289,0,240546,1,10,0:2:0:0:
219,178,240721,1,2,0:2:0:0:
219,178,240808,1,8,0:2:0:0:
219,178,240895,2,0,B|267:190|267:190|333:155,1,106.25,0|0,1:2|1:2,0:2:0:0:
152,51,241244,5,10,0:2:0:0:
93,253,241418,1,2,3:2:0:0:
93,253,241506,1,0,3:2:0:0:
93,253,241593,1,0,1:0:0:0:
19,118,241767,1,0,1:2:0:0:
219,178,241942,1,8,0:0:0:0:
323,204,242116,5,0,3:0:0:0:
323,204,242203,1,0,3:0:0:0:
323,204,242291,1,2,1:2:0:0:
211,202,242465,1,2,1:2:0:0:
229,368,242639,1,10,0:2:0:0:
229,368,242727,1,8,0:2:0:0:
229,368,242814,1,12,0:3:0:0:
491,227,242988,6,0,B|485:339,1,85,10|0,0:1|0:1,0:2:0:0:
491,311,243162,2,0,B|486:226,1,85,10|0,0:1|0:1,0:2:0:0:
258,149,243511,6,0,B|252:261,1,85,10|0,0:1|0:1,0:2:0:0:
258,233,243685,2,0,B|253:148,1,85,10|0,0:1|0:1,0:2:0:0:
21,227,244035,6,0,B|27:339,1,85,10|0,0:1|0:1,0:2:0:0:
21,311,244209,2,0,B|25:226,1,85,10|0,0:1|0:1,0:2:0:0:
298,71,244558,6,0,B|186:65,1,85,10|0,0:1|0:1,0:2:0:0:
214,313,244732,2,0,B|298:317,1,85,14|0,0:1|0:1,0:2:0:0:
398,137,244907,5,4,0:3:0:0:
398,137,244994,1,4,0:3:0:0:
398,137,245081,1,2,1:3:0:0:
114,247,245256,1,0,1:2:0:0:
114,247,245343,1,0,1:2:0:0:
114,247,245430,1,14,0:2:0:0:
241,86,245779,6,0,B|265:118|268:137|268:137|288:148|288:148|249:85|284:27,1,208.249993644715,6|0,1:1|0:2,0:2:0:0:
360,7,246477,2,2,B|369:44|401:67|466:62|496:18|496:18|453:16|434:40,1,223.125008511544,6|0,1:2|0:2,0:1:0:0:
439,133,247174,6,2,B|436:162|455:178|455:178|449:149,1,76.4999976654053,6|0,1:2|0:2,0:1:0:0:
381,220,247523,6,2,B|357:252|369:284|369:284|381:245,1,102,6|0,1:2|0:2,0:1:0:0:
328,163,247872,5,8,0:0:0:0:
284,180,247959,1,8,0:0:0:0:
237,176,248046,1,8,2:3:0:0:
276,201,248133,1,8,0:0:0:0:
317,177,248221,1,8,0:0:0:0:
324,130,248308,1,8,0:0:0:0:
289,98,248395,1,4,0:3:0:0:
427,8,248570,6,0,P|320:45|197:58,1,223.125008511544,6|0,1:1|0:2,0:2:0:0:
137,46,249267,2,2,B|110:25|110:25|70:46|25:30|25:30|41:44|41:44|103:33|149:66|151:132,1,297.5,6|0,1:2|0:2,0:1:0:0:
132,244,249965,6,0,P|141:182|188:141,1,127.5,6|0,1:2|0:2,0:2:0:0:
212,58,250337,2,0,P|253:58|289:81,1,85,2|0,3:2|0:2,0:2:0:0:
322,171,250710,1,0,3:2:0:0:
322,171,250896,1,0,3:2:0:0:
189,142,251083,2,0,P|228:93|289:81,1,127.5,10|0,3:2|0:2,0:2:0:0:
361,23,251455,2,0,P|397:44|416:81,2,85,2|8|0,3:2|0:2|3:2,0:2:0:0:
376,377,252201,6,0,P|376:313|369:249,1,127.5,2|0,3:2|0:2,0:2:0:0:
410,166,252573,2,0,P|410:123|415:81,1,85,2|0,3:2|3:2,0:2:0:0:
496,44,252946,1,0,3:2:0:0:
496,44,253132,1,0,3:2:0:0:
322,171,253319,6,0,B|337:85|266:93|283:11,2,170,10|2|10,0:2|3:2|0:2,0:2:0:0:
419,365,254250,1,0,3:2:0:0:
419,365,254343,1,0,3:2:0:0:
419,365,254437,2,0,P|411:302|442:247,1,127.5,2|0,3:2|0:2,0:2:0:0:
410,166,254809,2,0,P|447:147|489:144,1,85,2|8,3:2|0:2,0:2:0:0:
512,64,255182,1,0,3:2:0:0:
328,298,255368,5,2,0:2:0:0:
328,298,255555,2,0,P|335:235|304:180,1,127.5,10|0,0:2|0:2,0:2:0:0:
337,99,255927,2,0,P|299:80|257:77,1,85,2|0,3:2|0:2,0:2:0:0:
185,14,256300,1,10,0:2:0:0:
185,14,256486,1,0,3:2:0:0:
10,242,256673,6,0,B|-46:231|-40:136|56:131|90:222,1,212.5,2|0,3:2|0:2,0:2:0:0:
233,156,257232,2,0,B|265:108|193:45|121:110|162:198,1,212.5,2|0,3:2|0:2,0:2:0:0:
138,355,257791,2,0,B|111:271|175:271|159:191,1,170,10|2,0:2|3:2,0:2:0:0:
285,217,258350,1,8,0:2:0:0:
233,156,258536,1,2,3:2:0:0:
255,295,258722,1,8,0:2:0:0:
358,195,258909,6,0,P|478:217|512:333,1,255,2|0,3:2|3:2,0:2:0:0:
387,314,259654,1,2,0:2:0:0:
495,175,259840,1,2,3:2:0:0:
495,175,259933,1,0,3:2:0:0:
495,175,260027,2,0,L|486:90,1,85,8|0,0:2|3:2,0:2:0:0:
346,6,260399,2,0,L|354:90,1,85,0|0,3:2|3:2,0:2:0:0:
358,195,260772,5,10,0:2:0:0:
358,195,261145,2,0,B|269:194|216:282|216:282|254:298|272:335,1,255,6|0,1:2|3:2,0:2:0:0:
225,201,261890,2,0,P|195:149|138:163,1,127.5,0|0,3:2|0:2,0:2:0:0:
104,242,262263,2,0,B|96:158|89:152|81:74,2,170,10|0|8,0:2|3:2|0:2,0:2:0:0:
282,346,263194,5,0,3:2:0:0:
282,346,263287,1,0,3:2:0:0:
282,346,263381,2,0,B|354:339|354:339|396:248|396:248|477:237,1,255,6|0,1:2|3:2,0:2:0:0:
429,118,264126,2,0,P|366:115|322:71,1,127.5,2|0,3:2|0:2,0:2:0:0:
201,56,264499,2,0,P|239:36|262:1,1,85,10|0,0:2|0:2,0:2:0:0:
204,146,264871,5,2,3:2:0:0:
322,71,265058,1,8,0:2:0:0:
127,108,265244,2,0,B|71:121|65:172|65:172|79:151|103:141,1,127.5,10|0,0:2|0:2,0:2:0:0:
75,353,265617,2,0,B|118:292|73:232|73:232|25:169|68:118,1,255,6|0,1:2|3:2,0:2:0:0:
283,104,266362,6,0,B|263:157|208:169|208:169|203:145,1,127.5,0|0,3:2|0:2,0:2:0:0:
272,190,266735,2,0,P|279:232|274:275,1,85,10|0,0:2|0:2,0:2:0:0:
415,362,267107,2,0,P|408:320|413:277,1,85,10|0,0:2|0:2,0:2:0:0:
485,228,267480,1,10,0:2:0:0:
485,228,267666,1,2,3:2:0:0:
506,105,267853,6,0,B|498:140|464:144|464:144|438:127|401:124,1,127.500004863739,2|0,0:0|3:2,0:0:0:0:
336,166,268412,2,0,L|346:304,1,127.500004863739,2|0,0:0|0:0,0:0:0:0:
310,365,268971,1,8,3:2:0:0:
158,344,269343,1,2,0:0:0:0:
179,192,269716,1,8,3:2:0:0:
102,151,270089,6,0,P|173:154|235:120,1,144.500002756119,2|0,0:0|0:0,0:0:0:0:
214,44,270648,2,0,P|142:40|80:74,1,144.500002756119,2|0,0:0|0:0,0:0:0:0:
30,132,271207,1,10,3:2:0:0:
30,132,271393,1,0,0:0:0:0:
102,151,271579,2,0,P|173:154|235:120,1,144.500002756119,2|8,0:0|3:2,0:0:0:0:
290,66,272138,1,0,0:0:0:0:
356,114,272325,6,0,L|342:269,1,127.500004863739,2|0,0:0|0:0,0:0:0:0:
383,311,272884,2,0,L|376:388,2,63.7500024318696,2|0|0,0:0|0:0|0:0,0:0:0:0:
454,275,273443,2,0,L|465:148,2,127.500004863739,10|0|8,3:2|0:0|0:0,0:0:0:0:
383,311,274374,1,0,0:0:0:0:
302,247,274561,6,0,B|219:219|238:272|163:253,1,144.500002756119,2|0,0:0|0:0,0:0:0:0:
89,286,275120,1,2,0:0:0:0:
28,234,275306,2,0,P|23:170|51:110,1,127.500004863739,0|8,0:0|3:2,0:0:0:0:
181,25,276051,2,0,L|250:36,1,63.7500024318696,2|0,0:0|3:0,0:0:0:0:
307,83,276424,2,0,L|376:94,1,63.7500024318696,10|0,0:0|3:0,0:0:0:0:
492,33,276797,6,0,B|465:103|512:105|480:181,1,144.500002756119,2|0,0:0|0:0,0:0:0:0:
426,231,277356,2,0,L|299:209,1,127.500004863739,2|0,0:0|0:0,0:0:0:0:
227,242,277915,2,0,L|100:220,1,127.500004863739,10|0,3:2|0:0,0:0:0:0:
44,164,278474,5,2,0:0:0:0:
44,275,278660,1,8,3:2:0:0:
156,275,278846,1,8,0:3:0:0:
156,164,279033,6,0,B|139:81|169:103|156:10,1,152.999995330811,2|0,0:0|3:0,0:0:0:0:
211,68,279592,1,8,0:3:0:0:
276,25,279778,1,8,0:3:0:0:
404,114,280151,1,10,3:2:0:0:
358,263,280524,1,8,0:3:0:0:
202,265,280896,1,10,3:2:0:0:
144,318,281083,1,8,0:3:0:0:
62,243,281269,6,0,P|55:193|74:90,1,136,2|0,1:2|0:0,0:0:0:0:
121,52,281828,1,2,0:0:0:0:
191,86,282014,2,0,P|235:96|327:77,1,118.999996368408,8|8,0:3|3:2,0:0:0:0:
372,43,282573,1,0,0:0:0:0:
442,75,282760,1,2,0:2:0:0:
387,234,283132,1,8,3:2:0:0:
387,234,283319,1,0,0:0:0:0:
447,289,283505,6,0,P|480:292|518:276,1,63.7500024318696,2|0,0:0|0:0,0:0:0:0:
305,257,283915,1,8,0:3:0:0:
305,257,284121,2,0,L|297:396,1,127.500004863739,2|8,0:0|0:3,0:0:0:0:
202,218,284752,5,8,3:2:0:0:
109,276,285235,5,0,3:0:0:0:
9,250,285719,5,0,3:0:0:0:
128,156,286240,6,0,B|122:243|166:320|320:316|320:316|175:275|159:16|363:-63|499:87|478:176|367:201|335:155,1,867.000016536713,4|0,0:0|0:0,0:0:0:0:
