osu file format v14

[General]
AudioFilename: audio.mp3
AudioLeadIn: 0
PreviewTime: 31684
Countdown: 0
SampleSet: Soft
StackLeniency: 0.7
Mode: 0
LetterboxInBreaks: 0
WidescreenStoryboard: 1

[Editor]
Bookmarks: 400,5542,11112,28256,33398,47113,52256,59113,65970,69398,95112,100254,113969,119112,125969,132826,137969,165397
DistanceSpacing: 1.2
BeatDivisor: 3
GridSize: 32
TimelineZoom: 2.6

[Metadata]
Title:Aru Shoujo no Senzai Ishiki
TitleUnicode:或る少女の潜在意識
Artist:PolyphonicBranch
ArtistUnicode:PolyphonicBranch
Creator:Some Hero
Version:Normal
Source:
Tags:PandaHero Rock Japanese 茶太 Chata A Certain Girl's Subconscious 超会 竜の涙 聲の羅針盤 Ryuunonamida Koenorashinban リュウノナミダ コエノラシンバン
BeatmapID:2804125
BeatmapSetID:1354017

[Difficulty]
HPDrainRate:3
CircleSize:3.4
OverallDifficulty:4
ApproachRate:5.5
SliderMultiplier:0.999999999999999
SliderTickRate:1

[Events]
//Background and Video events
0,0,"wp.jpg",0,0
//Break Periods
//Storyboard Layer 0 (Background)
//Storyboard Layer 1 (Fail)
//Storyboard Layer 2 (Pass)
//Storyboard Layer 3 (Foreground)
//Storyboard Layer 4 (Overlay)
//Storyboard Sound Samples

[TimingPoints]
400,428.571428571429,3,2,1,50,1,0
5542,428.571428571429,4,2,1,50,1,0
6399,428.571428571429,3,2,1,55,1,0
6827,-100,3,2,1,60,0,0
7256,-100,3,2,1,65,0,0
7684,-100,3,2,1,70,0,0
8113,-100,3,2,1,75,0,0
8541,-100,3,2,1,80,0,0
8970,428.571428571429,5,2,1,60,1,0
8970,-111.111111111111,5,2,1,60,0,0
10684,-111.111111111111,5,2,5,60,0,0
11112,428.571428571429,5,2,1,60,1,0
11112,-100,5,2,1,50,0,0
28256,428.571428571429,4,2,1,70,1,0
29112,-100,4,2,1,60,0,0
29969,-100,4,2,1,50,0,0
31684,-100,4,2,1,60,0,0
33398,-90.9090909090909,4,2,2,70,0,1
34541,-90.9090909090909,4,2,3,70,0,1
34827,-90.9090909090909,4,2,4,70,0,1
35113,-90.9090909090909,4,2,2,70,0,1
36256,-90.9090909090909,4,2,3,70,0,1
36541,-90.9090909090909,4,2,4,70,0,1
36827,-90.9090909090909,4,2,2,70,0,1
37970,-90.9090909090909,4,2,3,70,0,1
38255,-90.9090909090909,4,2,4,70,0,1
38969,-90.9090909090909,4,2,2,70,0,1
40112,-90.9090909090909,4,2,1,70,0,1
40256,-90.9090909090909,4,2,2,70,0,1
41398,-90.9090909090909,4,2,3,70,0,1
41684,-90.9090909090909,4,2,4,70,0,1
41970,-90.9090909090909,4,2,2,70,0,1
43113,-90.9090909090909,4,2,3,70,0,1
43398,-90.9090909090909,4,2,4,70,0,1
43684,-90.9090909090909,4,2,2,70,0,1
44826,-90.9090909090909,4,2,3,70,0,1
45112,-90.9090909090909,4,2,4,70,0,1
45398,-90.9090909090909,4,2,2,70,0,1
47113,-90.9090909090909,4,2,2,60,0,0
48827,-100,4,2,1,60,0,0
49398,-100,4,2,2,60,0,0
50541,-100,4,2,2,50,0,0
52256,-100,4,2,1,60,0,0
53398,-100,4,2,2,60,0,0
53970,-100,4,2,1,60,0,0
55398,-100,4,2,3,60,0,0
55684,-100,4,2,1,60,0,0
56255,-100,4,2,2,60,0,0
56541,-100,4,2,1,60,0,0
56827,-100,4,2,2,60,0,0
57398,-100,4,2,1,60,0,0
58827,-100,4,2,3,60,0,0
59113,-100,4,2,1,60,0,0
69398,428.571428571429,5,2,5,60,1,0
95112,428.571428571429,4,2,5,50,1,0
96826,-100,4,2,6,90,0,0
98540,-100,4,2,2,60,0,0
100254,-90.9090909090909,4,2,1,70,0,1
101397,-90.9090909090909,4,2,3,70,0,1
101683,-90.9090909090909,4,2,4,70,0,1
101969,-90.9090909090909,4,2,2,70,0,1
103112,-90.9090909090909,4,2,3,70,0,1
103397,-90.9090909090909,4,2,4,70,0,1
103683,-90.9090909090909,4,2,2,70,0,1
104826,-90.9090909090909,4,2,3,70,0,1
105112,-90.9090909090909,4,2,4,70,0,1
105825,-90.9090909090909,4,2,2,70,0,1
106968,-90.9090909090909,4,2,1,70,0,1
107112,-90.9090909090909,4,2,2,70,0,1
108254,-90.9090909090909,4,2,3,70,0,1
108540,-90.9090909090909,4,2,4,70,0,1
108826,-90.9090909090909,4,2,2,70,0,1
109969,-90.9090909090909,4,2,3,70,0,1
110254,-90.9090909090909,4,2,4,70,0,1
110540,-90.9090909090909,4,2,2,70,0,1
111682,-90.9090909090909,4,2,3,70,0,1
111968,-90.9090909090909,4,2,4,70,0,1
112254,-90.9090909090909,4,2,2,70,0,1
113969,-90.9090909090909,4,2,2,60,0,0
115683,-100,4,2,1,60,0,0
116254,-100,4,2,2,60,0,0
117397,-100,4,2,2,50,0,0
119112,-100,4,2,1,60,0,0
120254,-100,4,2,2,60,0,0
120826,-100,4,2,1,60,0,0
122254,-100,4,2,3,60,0,0
123111,-100,4,2,2,60,0,0
123397,-100,4,2,1,60,0,0
123683,-100,4,2,2,60,0,0
124254,-100,4,2,1,60,0,0
125683,-100,4,2,3,60,0,0
125969,-100,4,2,1,60,0,0
134540,-100,4,2,5,70,0,0
137326,-100,4,2,5,5,0,0
137969,-111.111111111111,4,2,5,50,0,0
151683,-111.111111111111,4,2,5,60,0,0
168826,468.75,4,2,5,60,1,0
168826,-111.111111111111,4,2,5,60,0,0
169763,526.315789473684,4,2,5,50,1,0
170815,526.315789473684,4,2,5,40,1,0
175420,-100,4,2,5,5,0,0

[Colours]
Combo1 : 232,238,233
Combo2 : 118,181,100
Combo3 : 232,119,70

[HitObjects]
428,133,400,6,0,P|429:109|422:83,2,50,10|10|2,2:0|2:0|2:0,2:0:0:0:
413,183,1042,1,10,2:0:0:0:
413,183,1257,1,10,2:0:0:0:
349,259,1685,6,0,P|369:271|394:279,2,50,10|10|2,2:0|2:0|2:0,2:0:0:0:
313,221,2327,1,10,2:0:0:0:
313,221,2542,1,10,2:0:0:0:
272,129,2971,6,0,P|250:140|231:158,2,50,10|10|2,2:0|2:0|2:0,2:0:0:0:
323,117,3613,1,10,2:0:0:0:
323,117,3828,1,10,2:0:0:0:
337,18,4257,6,0,P|360:23|383:36,2,50,10|10|2,2:0|2:0|2:0,2:0:0:0:
284,21,4899,1,10,2:0:0:0:
284,21,5114,1,10,2:0:0:0:
184,21,5542,6,2,B|155:25|117:52|156:88|114:121|88:124,1,150,10|8,2:0|2:0,2:1:0:0:
57,163,6399,5,10,3:1:0:0:
81,259,6827,1,10,3:1:0:0:
181,257,7256,1,10,3:1:0:0:
220,165,7684,1,10,3:1:0:0:
320,168,8113,1,10,3:1:0:0:
347,263,8541,1,10,3:1:0:0:
268,309,8970,6,0,P|114:330|134:175,1,359.999989013672,2|0,3:0|1:0,2:0:0:0:
209,110,11112,6,0,P|193:63|150:41,1,99.9999999999999,2|2,3:2|3:2,2:0:0:0:
101,52,11755,1,10,2:0:0:0:
32,124,12184,1,2,2:3:0:0:
32,124,12398,2,0,P|18:146|14:183,2,50,10|10|2,3:2|2:0|3:2,2:0:0:0:
117,175,13255,6,0,P|159:201|190:239,1,99.9999999999999,2|2,3:2|3:2,2:0:0:0:
241,236,13898,1,10,2:0:0:0:
340,231,14327,2,0,P|382:204|413:166,1,99.9999999999999,2|10,2:3|2:0,2:0:0:0:
464,170,14970,1,2,3:2:0:0:
493,264,15398,6,0,P|488:289|485:314,1,50,2|10,3:2|2:0,2:0:0:0:
457,355,15827,1,2,3:2:0:0:
457,355,16041,1,10,2:0:0:0:
359,333,16470,2,0,P|334:328|309:325,1,50,2|10,2:3|3:2,2:0:0:0:
269,297,16897,1,10,2:0:0:0:
269,297,17112,1,2,3:2:0:0:
174,331,17540,6,0,P|168:307|167:282,1,50,2|10,3:2|2:0,2:0:0:0:
183,235,17970,1,2,3:2:0:0:
183,235,18184,1,10,2:0:0:0:
225,144,18612,2,0,P|231:119|232:94,1,50,2|10,2:3|3:2,2:0:0:0:
217,47,19041,1,10,2:0:0:0:
217,47,19255,1,2,3:2:0:0:
130,99,19684,6,0,P|107:142|69:174,1,99.9999999999999,2|2,3:2|3:2,2:0:0:0:
71,225,20327,1,10,2:0:0:0:
33,317,20755,2,0,P|56:324|81:324,1,50,2|10,2:3|3:2,2:0:0:0:
133,313,21184,1,10,2:0:0:0:
133,313,21398,1,2,3:2:0:0:
227,279,21826,6,0,P|235:302|235:327,2,50,2|10|2,3:2|2:0|3:2,2:0:0:0:
232,229,22469,1,10,2:0:0:0:
326,197,22898,2,0,P|318:174|318:149,1,50,2|10,2:3|3:2,2:0:0:0:
295,103,23327,1,10,2:0:0:0:
295,103,23541,1,2,3:2:0:0:
394,95,23970,6,0,P|402:118|402:143,1,50,2|10,3:2|2:0,2:0:0:0:
428,191,24397,1,2,3:2:0:0:
428,191,24613,1,10,2:0:0:0:
471,280,25040,2,0,P|492:269|510:251,2,50,2|10|10,2:3|3:2|2:0,2:0:0:0:
438,318,25684,1,2,3:2:0:0:
338,319,26112,6,0,P|289:304|239:310,1,99.9999999999999,2|2,3:2|3:2,2:0:0:0:
195,329,26755,1,10,2:0:0:0:
96,312,27184,2,0,P|120:266|159:235,1,99.9999999999999,2|10,2:3|2:0,2:0:0:0:
203,218,27827,1,2,3:2:0:0:
162,126,28256,6,2,B|139:78|139:78|44:90|44:90|22:42,2,200,6|6|6,3:2|3:2|3:2,2:0:0:0:
293,123,31684,6,0,B|329:112|329:112|344:87,2,66.6666666666666,2|2|2,1:2|1:2|1:2,2:0:0:0:
215,102,32541,2,0,B|179:113|179:113|163:137,2,66.6666666666666,2|2|2,1:0|1:0|1:0,2:0:0:0:
238,187,33398,6,0,B|249:223|249:223|232:254,1,73.3333355712891,4|2,3:1|2:3,2:0:0:0:
300,310,33970,1,0,3:2:0:0:
385,289,34256,1,2,1:3:0:0:
385,201,34541,1,2,2:3:0:0:
316,145,34827,1,2,3:0:0:0:
363,70,35113,6,0,B|402:51|431:-10|431:-10|438:52|483:92,1,220.000006713867,6|2,3:0|1:3,2:0:0:0:
506,173,36256,1,2,2:3:0:0:
465,250,36541,1,2,2:3:0:0:
376,250,36827,6,0,B|322:216|269:260|307:301|242:349|195:312,1,220.000006713867,4|0,3:0|1:2,2:0:0:0:
129,252,37970,2,0,P|136:216|138:179,1,73.3333355712891,2|2,2:3|3:0,2:0:0:0:
51,201,38541,2,0,P|49:146|35:92,1,110.000003356934,2|0,3:2|1:2,2:0:0:0:
145,19,39398,2,0,B|190:19|190:19|250:1|250:1|264:21|264:21|322:26,1,183.333338928223,2|4,1:2|2:3,2:0:0:0:
349,53,40256,6,0,B|369:88|369:88|355:118,2,73.3333355712891,6|2|2,3:2|2:3|3:0,2:0:0:0:
274,99,41113,1,2,1:3:0:0:
285,181,41398,1,2,3:0:0:0:
370,200,41684,1,2,3:0:0:0:
379,288,41970,6,0,B|337:274|277:292|277:292|257:356|196:367,1,220.000006713867,4|2,3:0|1:3,2:0:0:0:
111,343,43113,1,2,3:0:0:0:
73,263,43398,1,2,2:3:0:0:
129,195,43684,5,4,3:0:0:0:
211,226,43970,1,2,2:3:0:0:
275,166,44256,1,6,3:0:0:0:
236,87,44541,2,0,P|209:61|176:45,2,73.3333355712891,2|2|2,1:3|2:3|3:0,2:0:0:0:
324,83,45398,6,0,P|392:109|465:117,1,146.666671142578,4|6,3:0|2:3,2:0:0:0:
484,201,46256,2,0,B|446:187|402:222|436:249|386:289,1,146.666671142578,2|2,1:3|3:0,2:0:0:0:
319,333,47113,5,6,3:2:0:0:
293,181,47684,1,10,2:0:0:0:
293,181,47970,1,2,3:2:0:0:
140,216,48541,1,10,2:0:0:0:
140,216,48827,2,0,B|155:268|155:268|139:302|139:302|148:342,1,133.333333333333,2|10,3:0|2:0,2:0:0:0:
75,375,49684,2,0,P|43:319|-3:264,1,133.333333333333,2|8,3:2|2:0,2:0:0:0:
6,186,50541,5,2,2:0:0:0:
374,30,51970,1,2,2:0:0:0:
432,85,52256,6,0,P|458:177|399:254,1,200,6|2,3:2|1:2,2:0:0:0:
329,292,53398,1,2,3:0:0:0:
293,363,53684,1,2,2:3:0:0:
226,318,53970,6,0,P|181:295|133:281,1,99.9999999999999,2|2,3:2|1:2,2:0:0:0:
19,242,54827,2,0,P|73:206|81:142,1,133.333333333333,2|10,1:2|2:0,2:0:0:0:
135,84,55684,6,0,P|199:96|229:153,1,133.333333333333,2|2,3:2|3:0,2:0:0:0:
299,193,56541,1,2,1:2:0:0:
363,145,56827,1,2,3:0:0:0:
324,74,57113,1,2,2:3:0:0:
382,19,57398,6,0,P|431:31|480:24,1,99.9999999999999,2|0,3:2|1:2,2:0:0:0:
470,143,58256,2,0,P|468:210|478:276,1,133.333333333333,2|8,1:2|2:0,2:0:0:0:
416,327,59113,6,0,P|390:307|360:293,1,66.6666666666666,6|8,3:2|2:0,2:0:0:0:
269,195,59970,2,0,P|235:193|202:197,1,66.6666666666666,2|10,3:2|2:0,2:0:0:0:
71,219,60827,2,0,P|46:241|26:267,1,66.6666666666666,2|10,3:2|2:0,2:0:0:0:
140,314,61684,2,0,P|164:336|184:362,1,66.6666666666666,2|10,3:2|2:0,2:0:0:0:
271,261,62541,6,0,P|272:227|268:194,1,66.6666666666666,2|8,3:2|2:0,2:0:0:0:
288,116,63113,1,10,2:0:0:0:
359,80,63398,2,0,P|393:78|426:82,1,66.6666666666666,2|8,3:2|2:0,2:0:0:0:
421,241,64256,2,0,P|443:265|469:285,1,66.6666666666666,2|10,3:2|2:0,2:0:0:0:
422,350,64827,1,8,2:0:0:0:
342,340,65113,2,0,P|319:364|293:384,1,66.6666666666666,2|10,3:2|2:0,2:0:0:0:
206,282,65970,6,0,P|131:217|38:182,2,200,10|10|10,2:0|2:0|2:0,2:0:0:0:
280,314,69398,6,0,B|262:280|262:280|265:243,2,74.9999999999999,6|10|2,3:0|2:0|2:0,2:0:0:0:
199,373,70469,1,10,2:0:0:0:
100,259,71112,2,0,P|84:239|68:220,1,50,10|10,1:2|1:2,2:0:0:0:
19,213,71540,6,0,B|1:247|1:247|6:285,2,74.9999999999999,2|10|2,3:2|2:0|2:0,2:0:0:0:
55,119,72612,1,10,2:0:0:0:
203,138,73255,2,0,P|227:140|252:143,1,50,10|10,1:2|1:2,2:0:0:0:
302,146,73683,6,0,B|320:112|320:112|315:74,2,74.9999999999999,2|10|2,3:2|2:0|2:0,2:0:0:0:
260,237,74755,1,10,2:0:0:0:
409,229,75398,2,0,P|414:253|414:278,1,50,10|10,1:2|1:2,2:0:0:0:
380,314,75826,6,0,B|341:316|341:316|312:337,2,74.9999999999999,2|10|2,3:2|2:0|2:0,2:0:0:0:
480,321,76898,1,10,2:0:0:0:
496,171,77540,2,0,P|480:153|460:138,1,50,10|10,1:2|1:2,2:0:0:0:
433,96,77969,6,0,B|394:94|394:94|365:72,2,74.9999999999999,2|10|2,3:2|2:0|2:0,2:0:0:0:
390,188,79040,1,10,2:0:0:0:
390,188,79255,2,0,P|378:209|369:233,2,50,2|2|10,3:2|2:0|1:2,2:0:0:0:
289,184,80112,6,0,B|250:186|250:186|221:207,2,74.9999999999999,2|10|2,3:2|2:0|2:0,2:0:0:0:
246,92,81183,1,10,2:0:0:0:
246,92,81398,2,0,P|234:70|225:46,2,50,2|2|10,3:2|2:0|1:2,2:0:0:0:
155,133,82255,6,0,B|128:161|128:161|123:197,2,74.9999999999999,2|10|2,3:2|2:0|2:0,2:0:0:0:
221,207,83326,1,10,2:0:0:0:
221,207,83541,2,0,P|232:228|241:252,2,50,2|2|10,3:2|2:0|1:2,2:0:0:0:
149,277,84398,6,0,B|151:316|151:316|130:345,2,74.9999999999999,2|10|2,3:2|2:0|2:0,2:0:0:0:
54,262,85469,1,10,2:0:0:0:
54,262,85684,2,0,L|33:216,1,50,2|2,3:2|2:0,2:0:0:0:
49,169,86112,2,0,L|69:123,1,50,10|10,1:2|1:2,2:0:0:0:
92,79,86540,6,0,B|80:44|80:44|75:44|75:44|62:10,2,74.9999999999999,2|10|2,3:2|2:0|2:0,2:0:0:0:
191,51,87612,1,10,2:0:0:0:
191,51,87827,2,0,P|219:42|239:35,2,50,2|2|10,3:2|2:0|1:2,2:0:0:0:
189,150,88683,6,0,B|191:186|191:186|187:188|187:188|188:225,2,74.9999999999999,2|10|2,3:2|2:0|2:0,2:0:0:0:
289,126,89755,1,10,2:0:0:0:
289,126,89970,2,0,P|318:115|337:107,2,50,2|2|10,3:2|2:0|1:2,2:0:0:0:
289,225,90826,6,0,B|324:235|324:235|327:231|327:231|362:240,2,74.9999999999999,2|10|2,3:2|2:0|2:0,2:0:0:0:
264,325,91898,1,10,2:0:0:0:
264,325,92113,2,0,P|253:354|246:374,2,50,2|2|10,3:2|2:0|1:2,2:0:0:0:
357,340,92969,6,0,B|393:335|393:335|394:330|394:330|430:325,2,74.9999999999999,2|10|2,3:2|2:0|2:0,2:0:0:0:
359,239,94040,1,10,2:0:0:0:
359,239,94255,2,0,P|370:210|377:190,2,50,2|2|10,3:2|2:0|1:2,2:0:0:0:
271,288,95112,6,2,P|179:309|116:237,2,200,2|6|6,3:2|3:0|3:0,2:0:0:0:
243,156,98540,6,0,B|207:145|207:145|191:120,2,66.6666666666666,2|2|2,1:2|1:2|1:2,2:0:0:0:
321,135,99397,2,0,B|357:146|357:146|372:170,2,66.6666666666666,2|2|2,1:0|1:0|1:0,2:0:0:0:
298,220,100254,6,0,B|287:256|287:256|303:287,1,73.3333355712891,4|2,3:1|2:3,2:0:0:0:
226,330,100826,1,0,3:2:0:0:
147,370,101112,1,2,1:3:0:0:
100,295,101397,1,2,2:3:0:0:
16,322,101683,1,2,3:0:0:0:
3,234,101969,6,0,B|47:217|132:158|132:158|132:195|156:222,1,220.000006713867,6|2,3:0|1:3,2:0:0:0:
217,159,103112,1,2,2:3:0:0:
285,104,103397,1,2,2:3:0:0:
372,102,103683,6,0,P|456:166|439:269,1,220.000006713867,4|0,3:0|1:2,2:0:0:0:
359,306,104826,1,2,2:3:0:0:
313,381,105112,1,2,3:0:0:0:
241,328,105397,2,0,P|240:274|203:235,1,110.000003356934,2|0,3:2|1:2,2:0:0:0:
231,106,106254,2,0,B|131:83|131:83|107:115|107:115|67:104,1,183.333338928223,2|4,1:2|2:3,2:0:0:0:
44,142,107112,6,0,B|24:177|24:177|37:207,2,73.3333355712891,6|2|2,3:2|2:3|3:0,2:0:0:0:
115,193,107969,1,2,1:3:0:0:
202,188,108254,1,2,3:0:0:0:
290,186,108540,1,2,3:0:0:0:
339,258,108826,6,0,B|316:305|312:362|312:362|290:312|247:268,1,220.000006713867,4|2,3:0|1:3,2:0:0:0:
162,272,109969,1,2,3:0:0:0:
111,343,110254,1,2,2:3:0:0:
24,326,110540,5,4,3:0:0:0:
26,238,110826,1,2,2:3:0:0:
102,194,111112,1,6,3:0:0:0:
188,179,111397,2,0,B|223:190|223:190|260:186,2,73.3333355712891,2|2|2,1:3|2:3|3:0,2:0:0:0:
230,101,112254,6,0,P|307:109|352:170,1,146.666671142578,4|6,3:0|2:3,2:0:0:0:
355,247,113112,2,0,B|393:232|437:267|403:294|452:335,1,146.666671142578,2|2,1:3|3:0,2:0:0:0:
500,271,113969,5,6,3:2:0:0:
502,115,114540,1,10,2:0:0:0:
502,115,114826,1,2,3:2:0:0:
346,116,115397,1,10,2:0:0:0:
346,116,115683,2,0,B|296:116|296:116|251:136|251:136|211:135,1,133.333333333333,2|10,3:0|2:0,2:0:0:0:
153,182,116540,2,0,P|110:230|129:291,1,133.333333333333,2|10,3:2|2:0,2:0:0:0:
129,371,117397,5,2,2:0:0:0:
486,191,118826,1,2,2:0:0:0:
431,130,119112,6,0,P|336:102|251:50,1,200,6|2,3:2|1:2,2:0:0:0:
173,69,120254,1,2,3:0:0:0:
96,93,120540,1,2,2:3:0:0:
93,172,120826,6,0,P|97:222|126:262,1,99.9999999999999,2|2,3:2|1:2,2:0:0:0:
245,245,121683,2,0,P|309:256|327:321,1,133.333333333333,2|10,1:2|2:0,2:0:0:0:
405,290,122540,6,0,P|383:227|335:182,1,133.333333333333,2|2,3:2|3:0,2:0:0:0:
260,154,123397,1,2,1:2:0:0:
246,75,123683,1,2,3:0:0:0:
317,38,123969,1,2,2:3:0:0:
387,73,124254,6,0,P|421:111|461:139,1,99.9999999999999,2|0,3:2|1:2,2:0:0:0:
387,235,125112,2,0,P|344:285|294:329,1,133.333333333333,2|8,1:2|2:0,2:0:0:0:
218,355,125969,6,0,P|184:353|150:351,1,66.6666666666666,6|8,3:2|2:0,2:0:0:0:
83,207,126826,2,0,P|116:208|150:210,1,66.6666666666666,2|10,3:2|2:0,2:0:0:0:
272,106,127683,2,0,P|296:83|321:60,1,66.6666666666666,2|10,3:2|2:0,2:0:0:0:
473,110,128540,2,0,P|448:132|423:155,1,66.6666666666666,2|8,3:2|2:0,2:0:0:0:
334,287,129397,6,0,P|300:285|267:289,1,66.6666666666666,10|8,3:2|2:0,2:0:0:0:
193,319,129969,1,10,2:0:0:0:
130,269,130254,2,0,P|155:246|175:220,1,66.6666666666666,2|8,3:2|2:0,2:0:0:0:
195,142,130826,1,10,2:0:0:0:
130,94,131112,2,0,P|108:119|82:139,1,66.6666666666666,2|10,3:2|2:0,2:0:0:0:
18,286,131969,2,0,P|15:320|17:353,1,66.6666666666666,0|8,3:2|2:0,2:0:0:0:
175,377,132826,5,10,2:0:0:0:
256,192,132933,12,4,134540,3:0:0:0:
256,192,134969,12,0,137326,2:0:0:0:
88,169,137969,6,0,P|246:354|435:200,1,539.999983520508,2|2,2:0|2:0,2:0:0:0:
436,109,140969,1,2,2:0:0:0:
388,32,141397,1,2,2:0:0:0:
208,31,142254,5,2,2:0:0:0:
165,110,142683,1,2,2:0:0:0:
118,187,143112,2,0,P|241:242|347:326,1,269.999991760254,2|2,2:0|2:0,2:0:0:0:
397,245,144826,6,0,P|354:108|162:111,1,359.999989013672,2|2,2:0|2:0,2:0:0:0:
53,250,147397,5,2,2:0:0:0:
101,326,147826,1,2,2:0:0:0:
174,274,148254,1,2,2:0:0:0:
319,167,149112,5,2,2:0:0:0:
271,91,149541,1,2,2:0:0:0:
190,130,149969,2,0,P|253:249|303:374,1,269.999991760254,2|2,2:0|2:0,2:0:0:0:
386,339,151683,5,2,2:1:0:0:
386,339,152540,1,2,2:1:0:0:
508,207,153397,5,2,2:1:0:0:
508,207,154254,1,2,2:1:0:0:
361,101,155112,5,2,2:1:0:0:
361,101,155969,1,2,2:1:0:0:
241,235,156826,5,2,2:1:0:0:
241,235,157683,1,2,2:1:0:0:
101,120,158540,5,2,2:1:0:0:
101,120,159397,1,2,2:1:0:0:
53,293,160254,5,2,2:1:0:0:
53,293,161111,1,2,2:1:0:0:
209,381,161969,5,2,2:1:0:0:
209,381,162826,1,2,2:1:0:0:
379,324,163683,5,2,2:1:0:0:
379,324,164540,1,2,2:1:0:0:
410,146,165397,5,2,2:0:0:0:
105,337,167112,5,2,2:0:0:0:
57,182,167969,1,2,2:0:0:0:
15,39,168826,6,0,B|73:60|73:60|104:56|104:56|121:79|121:79|187:101,1,179.999994506836,2|2,2:0|2:0,2:0:0:0:
36,210,170815,5,2,2:0:0:0:
256,192,170946,12,0,175420,2:0:0:0:
