osu file format v14

[General]
AudioFilename: audio.mp3
AudioLeadIn: 0
PreviewTime: 31684
Countdown: 0
SampleSet: Soft
StackLeniency: 0.6
Mode: 0
LetterboxInBreaks: 0
WidescreenStoryboard: 1

[Editor]
Bookmarks: 400,5542,11112,28256,33398,47113,52256,59113,65970,69398,95112,100254,113969,119112,125969,132826,137969,165397
DistanceSpacing: 0.2
BeatDivisor: 4
GridSize: 32
TimelineZoom: 2.6

[Metadata]
Title:Aru Shoujo no Senzai Ishiki
TitleUnicode:或る少女の潜在意識
Artist:PolyphonicBranch
ArtistUnicode:PolyphonicBranch
Creator:Some Hero
Version:Hard
Source:
Tags:PandaHero Rock Japanese 茶太 Chata A Certain Girl's Subconscious 超会 竜の涙 聲の羅針盤 Ryuunonamida Koenorashinban リュウノナミダ コエノラシンバン
BeatmapID:2908491
BeatmapSetID:1354017

[Difficulty]
HPDrainRate:4
CircleSize:3.6
OverallDifficulty:6
ApproachRate:7.5
SliderMultiplier:1.4
SliderTickRate:1

[Events]
//Background and Video events
0,0,"wp.jpg",0,0
//Break Periods
//Storyboard Layer 0 (Background)
//Storyboard Layer 1 (Fail)
//Storyboard Layer 2 (Pass)
//Storyboard Layer 3 (Foreground)
//Storyboard Layer 4 (Overlay)
//Storyboard Sound Samples

[TimingPoints]
400,428.571428571429,3,2,1,50,1,0
5542,428.571428571429,4,2,1,50,1,0
6399,428.571428571429,3,2,1,55,1,0
6827,-90.9090909090909,3,2,1,60,0,0
7256,-83.3333333333333,3,2,1,65,0,0
7684,-76.9230769230769,3,2,1,70,0,0
8113,-68.9655172413793,3,2,1,75,0,0
8541,-58.8235294117647,3,2,1,80,0,0
8970,428.571428571429,5,2,1,60,1,0
10684,-100,5,2,5,60,0,0
11112,428.571428571429,5,2,1,60,1,0
11112,-100,5,2,1,50,0,0
28256,428.571428571429,4,2,1,70,1,0
29113,-100,4,2,1,60,0,0
29970,-100,4,2,1,50,0,0
31684,-86.9565217391304,4,2,1,60,0,0
33398,-76.9230769230769,4,2,2,70,0,1
34541,-76.9230769230769,4,2,3,70,0,1
34827,-76.9230769230769,4,2,4,70,0,1
35113,-76.9230769230769,4,2,2,70,0,1
36255,-76.9230769230769,4,2,3,70,0,1
36398,-76.9230769230769,4,2,1,70,0,1
36541,-76.9230769230769,4,2,4,70,0,1
36827,-76.9230769230769,4,2,2,70,0,1
37970,-76.9230769230769,4,2,3,70,0,1
38112,-76.9230769230769,4,2,1,70,0,1
38256,-76.9230769230769,4,2,4,70,0,1
38826,-76.9230769230769,4,2,2,70,0,1
39827,-76.9230769230769,4,2,1,70,0,1
40256,-76.9230769230769,4,2,2,70,0,1
41398,-76.9230769230769,4,2,3,70,0,1
41684,-76.9230769230769,4,2,4,70,0,1
41970,-76.9230769230769,4,2,2,70,0,1
43113,-76.9230769230769,4,2,3,70,0,1
43256,-76.9230769230769,4,2,1,70,0,1
43398,-76.9230769230769,4,2,4,70,0,1
43684,-76.9230769230769,4,2,2,70,0,1
44826,-76.9230769230769,4,2,3,70,0,1
45112,-76.9230769230769,4,2,4,70,0,1
45398,-76.9230769230769,4,2,2,70,0,1
47113,-76.9230769230769,4,2,2,60,0,0
47398,-100,4,2,2,60,0,0
48828,-100,4,2,1,60,0,0
49113,-100,4,2,2,60,0,0
50541,-100,4,2,2,50,0,0
52256,-100,4,2,1,60,0,0
52827,-100,4,2,2,60,0,0
53112,-100,4,2,1,60,0,0
53398,-100,4,2,2,60,0,0
53970,-100,4,2,1,60,0,0
54541,-100,4,2,2,60,0,0
54827,-100,4,2,1,60,0,0
55112,-100,4,2,2,60,0,0
55398,-100,4,2,3,60,0,0
55684,-100,4,2,1,60,0,0
56255,-100,4,2,2,60,0,0
56541,-100,4,2,1,60,0,0
56827,-100,4,2,2,60,0,0
57256,-100,4,2,1,60,0,0
57683,-100,4,2,2,60,0,0
58256,-100,4,2,1,60,0,0
58541,-100,4,2,2,60,0,0
58827,-100,4,2,3,60,0,0
59113,-100,4,2,1,60,0,0
69398,428.571428571429,5,2,5,60,1,0
95112,428.571428571429,4,2,5,50,1,0
96826,-100,4,2,6,90,0,0
98540,-86.9565217391304,4,2,2,60,0,0
100254,-76.9230769230769,4,2,1,70,0,1
101397,-76.9230769230769,4,2,3,70,0,1
101683,-76.9230769230769,4,2,4,70,0,1
101969,-76.9230769230769,4,2,2,70,0,1
103111,-76.9230769230769,4,2,3,70,0,1
103254,-76.9230769230769,4,2,1,70,0,1
103397,-76.9230769230769,4,2,4,70,0,1
103683,-76.9230769230769,4,2,2,70,0,1
104826,-76.9230769230769,4,2,3,70,0,1
104968,-76.9230769230769,4,2,1,70,0,1
105112,-76.9230769230769,4,2,4,70,0,1
105682,-76.9230769230769,4,2,2,70,0,1
106683,-76.9230769230769,4,2,1,70,0,1
107112,-76.9230769230769,4,2,2,70,0,1
108254,-76.9230769230769,4,2,3,70,0,1
108540,-76.9230769230769,4,2,4,70,0,1
108826,-76.9230769230769,4,2,2,70,0,1
109969,-76.9230769230769,4,2,3,70,0,1
110112,-76.9230769230769,4,2,1,70,0,1
110254,-76.9230769230769,4,2,4,70,0,1
110540,-76.9230769230769,4,2,2,70,0,1
111682,-76.9230769230769,4,2,3,70,0,1
111968,-76.9230769230769,4,2,4,70,0,1
112254,-76.9230769230769,4,2,2,70,0,1
113969,-76.9230769230769,4,2,2,60,0,0
114254,-100,4,2,2,60,0,0
115684,-100,4,2,1,60,0,0
115969,-100,4,2,2,60,0,0
117397,-100,4,2,2,50,0,0
119112,-100,4,2,1,60,0,0
119683,-100,4,2,2,60,0,0
119968,-100,4,2,1,60,0,0
120254,-100,4,2,2,60,0,0
120826,-100,4,2,1,60,0,0
121397,-100,4,2,2,60,0,0
121683,-100,4,2,1,60,0,0
121968,-100,4,2,2,60,0,0
122254,-100,4,2,3,60,0,0
122825,-100,4,2,2,60,0,0
123397,-100,4,2,1,60,0,0
123683,-100,4,2,2,60,0,0
124254,-100,4,2,1,60,0,0
124539,-100,4,2,2,60,0,0
125112,-100,4,2,1,60,0,0
125397,-100,4,2,2,60,0,0
125683,-100,4,2,3,60,0,0
125969,-100,4,2,1,60,0,0
134540,-100,4,2,5,70,0,0
134969,-133.333333333333,4,2,5,70,0,0
137433,-133.333333333333,4,2,5,5,0,0
137969,-133.333333333333,4,2,5,50,0,0
151683,-133.333333333333,4,2,5,60,0,0
167112,-200,4,2,5,60,0,0
168826,468.75,4,2,5,60,1,0
168826,-200,4,2,5,60,0,0
169763,526.315789473684,4,2,5,50,1,0
170815,526.315789473684,4,2,5,40,1,0
175420,-100,4,2,5,5,0,0

[Colours]
Combo1 : 232,238,233
Combo2 : 118,181,100
Combo3 : 232,119,70

[HitObjects]
235,109,400,5,10,2:0:0:0:
289,187,614,1,10,2:0:0:0:
236,265,828,1,2,2:0:0:0:
152,238,1042,1,10,2:0:0:0:
150,150,1257,1,10,2:0:0:0:
380,376,1685,5,10,2:0:0:0:
326,298,1899,1,10,2:0:0:0:
380,218,2113,1,2,2:0:0:0:
468,260,2327,1,10,2:0:0:0:
467,350,2542,1,10,2:0:0:0:
104,312,2971,5,10,2:0:0:0:
154,241,3185,1,10,2:0:0:0:
236,265,3399,1,2,2:0:0:0:
244,356,3613,1,10,2:0:0:0:
160,384,3828,1,10,2:0:0:0:
428,145,4257,5,10,2:0:0:0:
380,216,4471,1,10,2:0:0:0:
291,188,4685,1,2,2:0:0:0:
286,103,4899,1,10,2:0:0:0:
369,65,5114,1,10,2:0:0:0:
33,40,5435,5,8,2:0:0:0:
33,40,5542,2,2,P|86:124|35:210,1,210,10|8,2:0|2:0,2:1:0:0:
48,304,6399,6,0,P|77:345|122:374,1,105,10|0,3:1|2:0,2:0:0:0:
122,374,6827,6,0,P|178:379|231:356,1,115.50000352478,10|0,3:1|2:0,2:0:0:0:
231,355,7256,6,0,P|274:304|288:245,1,125.999996154785,10|0,3:1|2:0,2:0:0:0:
288,247,7684,6,0,P|274:181|227:131,1,136.499993751526,10|0,3:1|2:0,2:0:0:0:
228,131,8113,6,0,P|156:114|86:140,1,152.250004646301,10|0,3:1|2:0,2:0:0:0:
84,140,8541,6,0,P|38:213|46:301,1,178.500003404617,10|0,3:1|2:0,2:0:0:0:
46,301,8970,5,2,3:0:0:0:
256,192,9077,12,0,10684,1:0:0:0:
422,340,11112,6,0,P|428:305|436:271,1,70,2|0,3:2|2:0,2:0:0:0:
336,232,11541,1,2,3:2:0:0:
336,232,11647,1,8,2:0:0:0:
336,232,11755,2,0,P|329:197|321:163,1,70,10|8,2:0|3:2,2:0:0:0:
236,86,12184,1,2,2:3:0:0:
148,105,12398,1,10,3:2:0:0:
62,125,12612,1,10,2:0:0:0:
86,213,12827,2,0,P|115:255|165:267,1,105,2|2,3:2|2:0,2:0:0:0:
165,266,13255,6,0,P|173:300|183:334,1,70,2|8,3:2|2:0,2:0:0:0:
293,384,13684,1,2,3:2:0:0:
293,384,13790,1,8,2:0:0:0:
293,384,13898,2,0,P|299:349|307:315,1,70,2|8,2:0|3:2,2:0:0:0:
245,199,14326,2,0,P|211:190|177:180,1,70,2|8,2:3|3:2,2:0:0:0:
236,86,14754,1,10,2:0:0:0:
236,86,14970,2,0,P|270:79|304:71,1,70,2|10,3:2|2:0,2:0:0:0:
430,12,15398,5,2,3:2:0:0:
430,12,15612,1,10,2:0:0:0:
485,111,15827,1,2,3:2:0:0:
485,111,15933,1,8,2:0:0:0:
485,111,16041,2,0,P|467:178|458:248,1,140,10|2,2:0|2:3,2:0:0:0:
415,334,16684,1,10,3:2:0:0:
320,348,16898,1,10,2:0:0:0:
230,296,17112,2,0,P|268:261|318:246,1,105,2|2,3:2|2:0,2:0:0:0:
318,246,17541,5,2,3:2:0:0:
347,154,17755,1,10,2:0:0:0:
256,109,17970,1,2,3:2:0:0:
180,168,18184,2,0,P|162:198|157:232,1,70,10|8,2:0|3:2,2:0:0:0:
59,327,18612,1,2,2:3:0:0:
37,240,18827,1,10,3:2:0:0:
17,155,19041,1,10,2:0:0:0:
0,69,19255,2,0,P|51:58|102:45,1,105,2|2,3:2|2:0,2:0:0:0:
102,45,19684,5,2,3:2:0:0:
198,25,19898,1,10,2:0:0:0:
227,118,20112,1,2,3:2:0:0:
227,118,20219,1,8,2:0:0:0:
227,118,20327,2,0,P|293:96|361:80,1,140,10|2,2:0|2:3,2:0:0:0:
465,110,20970,1,10,3:2:0:0:
455,211,21184,1,10,2:0:0:0:
361,252,21398,2,0,P|310:244|271:210,1,105,2|2,3:2|2:0,2:0:0:0:
271,210,21827,5,2,3:2:0:0:
175,212,22041,1,10,2:0:0:0:
146,308,22255,1,2,3:2:0:0:
224,374,22470,2,0,P|257:368|319:371,1,70,10|8,2:0|3:2,2:0:0:0:
415,369,22898,1,2,2:3:0:0:
502,328,23112,1,10,3:2:0:0:
455,243,23327,1,10,2:0:0:0:
455,243,23541,2,0,P|425:199|395:156,1,105,2|2,3:2|2:0,2:0:0:0:
395,156,23970,5,2,3:2:0:0:
301,170,24184,1,10,2:0:0:0:
275,80,24398,1,2,3:2:0:0:
275,80,24612,2,0,P|211:109|150:143,1,140,10|2,2:0|2:3,2:0:0:0:
112,244,25255,1,10,3:2:0:0:
28,292,25470,1,10,2:0:0:0:
101,356,25684,2,0,P|146:381|198:383,1,105,2|2,3:2|2:0,2:0:0:0:
198,383,26112,6,0,P|201:348|194:314,1,70,2|8,3:2|2:0,2:0:0:0:
303,229,26541,1,2,3:2:0:0:
303,229,26647,1,8,2:0:0:0:
303,229,26755,2,0,P|299:263|306:297,1,70,10|8,2:0|3:2,2:0:0:0:
401,361,27184,2,0,P|435:364|469:357,1,70,2|8,2:3|3:2,2:0:0:0:
498,252,27612,1,10,2:0:0:0:
498,252,27826,2,0,P|463:248|429:255,1,70,2|10,3:2|2:0,2:0:0:0:
359,169,28256,6,0,B|421:113|422:43|422:43|393:29|372:-4,1,210,6|0,3:2|2:0,2:0:0:0:
257,11,29113,6,0,B|222:-4|222:-4|42:100|42:100|10:88,1,280,6|6,3:2|3:2,2:0:0:0:
319,216,31684,6,0,P|317:269|312:323,2,107.333335380554,2|2|2,1:2|1:2|1:2,2:0:0:0:
240,62,32540,5,2,1:1:0:0:
240,62,32826,1,2,1:1:0:0:
240,62,33112,1,2,1:1:0:0:
124,142,33398,6,0,P|77:109|81:51,2,121.333327779134,4|2|0,3:1|2:3|3:2,2:0:0:0:
19,222,34256,2,0,P|30:251|36:281,1,60.6666638895672,2|0,1:3|2:0,2:0:0:0:
119,284,34541,2,0,P|116:314|109:343,1,60.6666638895672,2|0,2:3|2:0,2:0:0:0:
180,384,34827,1,2,3:0:0:0:
385,304,35113,6,0,P|406:248|438:196,2,121.333327779134,6|2|6,3:0|3:0|3:0,2:0:0:0:
330,160,35970,2,0,P|273:143|212:143,1,121.333327779134,2|2,1:3|2:3,2:0:0:0:
146,90,36398,1,0,1:0:0:0:
146,90,36541,2,0,P|161:65|171:36,1,60.6666638895672,2|0,2:3|2:0,2:0:0:0:
212,143,36827,6,0,B|249:232|233:244|259:318,1,181.999991668702,4|0,3:0|1:2,2:0:0:0:
348,330,37398,2,0,P|333:355|323:384,1,60.6666638895672,6|0,3:0|2:0,2:0:0:0:
259,318,37684,1,0,1:2:0:0:
106,264,37970,2,0,P|122:238|120:208,1,60.6666638895672,2|0,2:3|1:0,2:0:0:0:
31,192,38256,2,0,P|15:217|17:247,1,60.6666638895672,2|0,3:0|2:0,2:0:0:0:
57,329,38541,6,0,P|112:304|171:291,2,121.333327779134,2|2|2,3:2|3:0|3:0,2:0:0:0:
96,128,39398,6,0,L|91:98,3,30.3333319447836,2|2|2|0,1:2|1:2|1:2|1:2,0:0:0:0:
198,30,39827,2,0,L|202:59,3,30.3333319447836,8|8|8|4,2:3|2:3|2:3|2:3,0:0:0:0:
312,120,40256,6,0,P|364:95|365:37,1,121.333327779134,6|2,3:2|2:3,0:0:0:0:
455,4,40684,1,0,1:2:0:0:
455,4,40827,2,0,P|464:63|477:123,2,121.333327779134,2|2|2,3:0|1:3|3:0,2:0:0:0:
283,16,41684,1,2,3:0:0:0:
134,26,41970,2,0,P|96:70|107:127,1,121.333327779134,4|2,3:0|3:0,2:0:0:0:
98,217,42398,5,0,1:2:0:0:
98,217,42541,2,0,L|157:229,1,60.6666638895672,6|0,3:0|2:0,2:0:0:0:
219,290,42827,2,0,L|278:278,1,60.6666638895672,2|0,1:3|2:0,2:0:0:0:
353,326,43113,1,2,3:0:0:0:
353,326,43256,1,0,1:0:0:0:
353,326,43398,1,2,2:3:0:0:
459,163,43684,6,0,P|449:134|443:104,1,60.6666638895672,4|0,3:0|2:0,2:0:0:0:
415,0,43970,2,0,P|394:22|372:42,1,60.6666638895672,2|0,2:3|1:2,2:0:0:0:
304,111,44255,2,0,P|333:116|362:126,1,60.6666638895672,6|0,3:0|2:0,2:0:0:0:
389,210,44541,2,0,P|369:264|350:334,2,121.333327779134,2|2|2,1:3|2:3|3:0,2:0:0:0:
278,20,45398,6,0,B|232:-3|167:38|204:97|142:152|89:125,1,242.666655558269,4|6,3:0|2:3,0:0:0:0:
14,223,46256,6,0,L|9:253,3,30.3333319447836,2|2|2|0,1:3|2:0|2:0|2:0,0:0:0:0:
90,125,46684,2,0,L|85:95,3,30.3333319447836,2|2|2|2,1:2|2:0|3:0|2:0,0:0:0:0:
181,198,47113,6,0,P|199:254|168:305,1,121.333327779134,6|10,3:2|2:0,0:0:0:0:
41,346,47684,1,10,2:0:0:0:
41,346,47827,1,0,2:0:0:0:
41,346,47970,1,2,3:2:0:0:
168,304,48256,2,0,B|217:313|217:313|224:311|224:311|260:316,1,93.3333333333333,10|10,3:2|2:0,2:0:0:0:
260,315,48685,5,0,3:2:0:0:
260,315,48828,1,2,3:0:0:0:
382,259,49113,1,10,2:0:0:0:
498,194,49398,1,0,2:0:0:0:
498,194,49684,6,0,P|484:175|473:154,1,46.6666666666667,2|2,3:2|2:0,2:0:0:0:
406,108,49970,2,0,P|397:86|392:63,1,46.6666666666667,10|2,3:2|3:2,2:0:0:0:
323,31,50256,1,10,2:0:0:0:
323,31,50398,1,2,2:0:0:0:
323,31,50541,5,2,2:0:0:0:
250,125,50827,1,2,2:0:0:0:
176,217,51113,1,2,2:0:0:0:
74,140,51398,5,2,2:0:0:0:
91,253,51684,1,2,2:0:0:0:
105,363,51970,1,2,2:0:0:0:
227,377,52256,6,0,P|240:332|261:291,1,93.3333333333333,6|0,3:2|2:0,2:0:0:0:
335,256,52684,1,2,3:2:0:0:
335,256,52827,2,0,P|331:209|319:164,2,93.3333333333333,2|2|2,2:3|1:2|3:0,2:0:0:0:
447,341,53684,1,2,2:3:0:0:
447,341,53827,1,0,2:0:0:0:
447,340,53970,2,0,P|463:272|485:206,1,140,2|2,3:2|1:2,2:0:0:0:
452,133,54541,1,2,3:0:0:0:
354,27,54827,2,0,P|312:47|267:61,1,93.3333333333333,2|2,1:2|3:0,2:0:0:0:
93,7,55398,5,10,2:0:0:0:
93,7,55541,1,8,2:0:0:0:
49,71,55684,2,0,P|60:117|64:163,1,93.3333333333333,2|0,3:2|2:0,2:0:0:0:
138,214,56113,2,0,L|152:258,2,46.6666666666667,2|2|0,3:2|3:0|2:0,2:0:0:0:
185,143,56541,1,2,1:2:0:0:
312,193,56827,1,2,3:0:0:0:
434,253,57113,5,2,2:3:0:0:
434,253,57256,1,0,3:2:0:0:
434,253,57398,2,0,P|400:285|363:313,2,93.3333333333333,2|2|2,3:2|2:3|3:0,2:0:0:0:
311,192,58256,2,0,P|278:161|271:115,1,93.3333333333333,2|2,1:2|2:3,2:0:0:0:
416,4,58827,1,8,2:0:0:0:
416,4,58970,1,8,2:0:0:0:
498,51,59113,6,0,P|496:98|497:145,2,93.3333333333333,6|8|10,3:2|2:0|2:0,2:0:0:0:
410,167,59970,2,0,P|409:189|409:213,5,46.6666666666667,2|2|10|2|10|2,3:2|2:0|2:0|2:0|2:0|2:0,2:0:0:0:
328,255,60827,2,0,P|311:297|323:341,2,93.3333333333333,2|10|10,3:2|2:0|2:0,2:0:0:0:
227,135,61684,2,0,P|245:178|233:222,2,93.3333333333333,2|10|10,3:2|2:0|2:0,2:0:0:0:
108,60,62541,6,0,B|62:79|74:100|39:121,1,93.3333333333333,2|8,3:2|2:0,2:0:0:0:
39,120,62970,1,0,2:0:0:0:
39,120,63113,1,10,2:0:0:0:
22,271,63398,2,0,P|40:313|57:357,1,93.3333333333333,2|8,3:2|2:0,2:0:0:0:
57,357,63827,1,0,2:0:0:0:
57,357,63970,1,10,2:0:0:0:
255,327,64256,5,2,3:2:0:0:
338,188,64541,1,10,2:0:0:0:
338,188,64684,1,8,2:0:0:0:
338,188,64827,1,8,2:0:0:0:
396,21,65113,2,0,P|354:43|312:62,1,93.3333333333333,2|10,3:2|2:0,2:0:0:0:
312,61,65541,1,0,3:2:0:0:
312,61,65684,1,10,2:0:0:0:
256,192,65970,12,10,67684,2:0:0:0:
201,34,69398,6,0,B|226:85|226:85|209:130,2,105,4|10|2,3:0|2:0|2:0,0:0:0:0:
431,56,70469,5,10,2:0:0:0:
431,56,70576,1,2,2:0:0:0:
431,56,70683,2,0,L|425:90,3,35,2|2|2|10,3:2|2:0|2:0|2:0,2:0:0:0:
393,125,71112,2,0,L|398:159,3,35,10|2|10|2,1:2|2:0|1:2|2:0,2:0:0:0:
363,196,71540,5,2,3:2:0:0:
285,292,71862,1,10,2:0:0:0:
196,384,72183,1,2,2:0:0:0:
74,233,72612,5,10,2:0:0:0:
74,233,72719,1,2,2:0:0:0:
74,233,72826,2,0,L|68:198,3,35,2|2|2|10,3:2|2:0|2:0|2:0,2:0:0:0:
80,152,73255,2,0,L|99:123,3,35,10|2|10|2,1:2|2:0|1:2|2:0,2:0:0:0:
142,110,73683,5,2,3:2:0:0:
226,201,74005,1,10,2:0:0:0:
165,309,74326,1,2,2:0:0:0:
382,272,74755,6,0,P|366:240|357:206,1,70,10|2,2:0|3:2,2:0:0:0:
475,142,75183,1,2,2:0:0:0:
475,142,75290,1,10,2:0:0:0:
475,142,75398,2,0,P|459:173|450:207,1,70,10|10,1:2|1:2,2:0:0:0:
453,331,75826,5,2,3:2:0:0:
310,371,76148,1,10,2:0:0:0:
228,258,76469,1,2,2:0:0:0:
43,155,76898,2,0,P|53:189|58:224,1,70,10|2,2:0|3:2,2:0:0:0:
146,165,77326,1,2,2:0:0:0:
146,165,77433,1,0,2:0:0:0:
146,165,77540,2,0,L|163:133,3,35,10|0|10|0,1:2|2:0|1:2|2:0,2:0:0:0:
201,113,77969,5,2,3:2:0:0:
336,90,78290,1,10,2:0:0:0:
463,65,78612,1,2,2:0:0:0:
512,273,79040,2,0,P|499:305|490:339,2,70,10|2|2,2:0|3:2|2:0,2:0:0:0:
481,242,79576,1,8,2:0:0:0:
481,242,79683,1,10,1:2:0:0:
392,215,79898,1,8,1:2:0:0:
366,299,80112,5,2,3:2:0:0:
234,326,80433,1,10,2:0:0:0:
203,185,80755,1,2,2:0:0:0:
0,111,81183,2,0,P|12:78|21:44,2,70,10|2|2,2:0|3:2|2:0,2:0:0:0:
31,142,81719,1,8,2:0:0:0:
31,142,81826,1,10,1:2:0:0:
120,169,82041,1,8,1:2:0:0:
146,85,82255,5,2,3:2:0:0:
278,58,82576,1,10,2:0:0:0:
410,28,82898,1,2,2:0:0:0:
479,265,83326,1,10,2:0:0:0:
391,238,83540,2,0,P|385:203|374:170,1,70,2|2,3:2|2:0,2:0:0:0:
334,153,83862,1,8,2:0:0:0:
334,153,83969,2,0,P|301:164|282:193,1,70,10|8,1:2|1:2,2:0:0:0:
210,250,84398,5,2,3:2:0:0:
66,269,84719,1,10,2:0:0:0:
162,384,85040,1,2,2:0:0:0:
2,199,85469,6,0,P|0:164|0:129,2,70,10|2|2,2:0|3:2|2:0,2:0:0:0:
95,116,86112,1,10,1:2:0:0:
95,116,86219,1,10,1:2:0:0:
95,116,86326,2,0,L|129:118,2,35,10|10|2,1:2|1:2|3:2,2:0:0:0:
233,160,86862,1,10,2:0:0:0:
357,198,87183,1,2,2:0:0:0:
492,346,87612,5,10,2:0:0:0:
468,256,87826,2,0,P|476:222|487:188,1,70,2|2,3:2|2:0,2:0:0:0:
415,106,88255,2,0,P|406:72|395:38,1,70,10|8,1:2|1:2,2:0:0:0:
277,16,88683,5,2,3:2:0:0:
150,88,89005,1,10,2:0:0:0:
28,160,89326,1,2,2:0:0:0:
162,299,89755,5,10,2:0:0:0:
162,299,89969,1,2,3:2:0:0:
93,372,90183,1,2,2:0:0:0:
23,308,90398,1,10,1:2:0:0:
23,308,90612,1,10,1:2:0:0:
78,234,90826,5,2,3:2:0:0:
222,219,91148,1,10,2:0:0:0:
242,356,91469,1,2,2:0:0:0:
458,283,91898,5,10,2:0:0:0:
458,283,92112,1,2,3:2:0:0:
458,283,92326,1,2,2:0:0:0:
382,203,92540,1,10,1:2:0:0:
459,141,92755,1,8,1:2:0:0:
399,57,92969,5,2,3:2:0:0:
238,36,93290,1,10,2:0:0:0:
85,18,93612,1,2,2:0:0:0:
40,236,94040,6,0,P|20:206|6:174,2,70,10|2|2,2:0|3:2|2:0,2:0:0:0:
69,338,94683,1,10,1:2:0:0:
69,338,94790,1,8,1:2:0:0:
69,338,94898,2,0,L|127:329,2,35,8|8|2,1:2|1:2|3:2,2:0:0:0:
358,112,95540,6,0,P|365:134|373:155,2,46.6666666666667,4|4|4,2:3|2:3|2:3,2:0:0:0:
318,99,95969,1,6,3:0:0:0:
249,197,96254,1,2,2:0:0:0:
177,289,96540,1,2,3:2:0:0:
123,161,96826,5,6,3:0:0:0:
117,271,98540,6,0,P|63:269|33:226,2,107.333335380554,2|2|2,1:2|1:2|1:2,2:0:0:0:
256,192,99396,5,2,1:1:0:0:
256,192,99682,1,2,1:1:0:0:
256,192,99968,1,2,1:1:0:0:
304,361,100254,6,0,B|326:295|313:316|334:244,2,121.333327779134,4|2|0,3:1|2:3|3:2,2:0:0:0:
473,232,101112,2,0,P|451:211|431:187,1,60.6666638895672,2|0,1:3|2:0,2:0:0:0:
379,113,101397,2,0,P|398:89|420:68,1,60.6666638895672,2|0,2:3|2:0,2:0:0:0:
360,0,101683,1,2,3:0:0:0:
145,29,101969,6,0,P|164:86|179:145,2,121.333327779134,6|2|6,3:0|3:0|3:0,2:0:0:0:
47,206,102826,2,0,P|74:258|132:264,1,121.333327779134,2|2,1:3|2:3,2:0:0:0:
215,286,103254,1,0,1:0:0:0:
215,286,103397,2,0,P|230:260|250:237,1,60.6666638895672,2|0,2:3|2:0,2:0:0:0:
341,198,103683,6,0,L|388:373,1,181.999991668702,4|0,3:0|1:2,2:0:0:0:
462,349,104254,1,6,3:0:0:0:
510,172,104540,2,0,P|494:146|474:123,1,60.6666638895672,0|0,1:2|2:0,2:0:0:0:
431,48,104826,2,0,P|401:40|371:38,1,60.6666638895672,2|0,2:3|1:0,2:0:0:0:
290,9,105112,1,2,3:0:0:0:
100,0,105397,6,0,P|77:56|61:114,2,121.333327779134,2|2|2,3:2|3:0|3:0,2:0:0:0:
138,177,106254,6,0,L|143:207,3,30.3333319447836,2|2|2|0,1:2|1:2|1:2|1:2,0:0:0:0:
62,287,106683,2,0,L|58:316,3,30.3333319447836,8|8|8|4,2:3|2:3|2:3|2:3,0:0:0:0:
156,379,107112,6,0,P|208:354|273:336,1,121.333327779134,6|2,3:2|2:3,0:0:0:0:
335,277,107540,1,0,1:2:0:0:
335,277,107683,2,0,P|392:286|434:245,2,121.333327779134,2|2|2,3:0|1:3|3:0,2:0:0:0:
223,374,108540,1,2,3:0:0:0:
81,278,108826,2,0,P|60:221|31:167,1,121.333327779134,4|2,3:0|3:0,2:0:0:0:
60,86,109254,5,0,1:2:0:0:
60,86,109397,2,0,P|90:88|118:98,1,60.6666638895672,6|0,3:0|2:0,2:0:0:0:
182,45,109683,2,0,P|212:43|240:33,1,60.6666638895672,2|0,1:3|2:0,2:0:0:0:
323,75,109969,1,2,3:0:0:0:
323,75,110112,1,0,1:0:0:0:
323,75,110254,1,2,2:3:0:0:
451,183,110540,6,0,L|435:242,1,60.6666638895672,4|0,3:0|2:0,2:0:0:0:
361,193,110826,2,0,L|345:252,1,60.6666638895672,2|0,2:3|1:2,2:0:0:0:
272,202,111112,2,0,L|256:261,1,60.6666638895672,6|0,3:0|2:0,2:0:0:0:
176,320,111397,2,0,P|157:260|138:204,2,121.333327779134,2|2|2,1:3|2:3|3:0,2:0:0:0:
272,202,112254,6,0,B|318:179|383:220|346:279|408:334|461:307,1,242.666655558269,4|6,3:0|2:3,0:0:0:0:
512,184,113112,6,0,L|507:154,3,30.3333319447836,2|2|2|0,1:3|2:0|2:0|2:0,0:0:0:0:
433,77,113540,2,0,L|438:47,3,30.3333319447836,2|2|2|2,1:2|2:0|3:0|2:0,0:0:0:0:
322,14,113969,6,0,P|259:15|226:65,1,121.333327779134,6|10,3:2|2:0,0:0:0:0:
123,158,114540,1,10,2:0:0:0:
123,158,114683,1,0,2:0:0:0:
123,158,114826,1,2,3:2:0:0:
15,248,115112,2,0,B|22:294|22:294|21:300|21:300|27:340,1,93.3333333333333,10|10,3:2|2:0,2:0:0:0:
27,340,115541,5,0,3:2:0:0:
27,340,115684,1,2,3:0:0:0:
169,347,115969,1,10,2:0:0:0:
308,345,116254,1,10,2:0:0:0:
308,345,116540,6,0,L|343:314,1,46.6666666666667,2|0,3:2|2:0,2:0:0:0:
405,260,116826,2,0,L|440:229,1,46.6666666666667,10|2,3:2|3:2,2:0:0:0:
506,177,117112,1,10,2:0:0:0:
506,177,117254,1,2,2:0:0:0:
506,177,117397,5,2,2:0:0:0:
420,87,117683,1,2,2:0:0:0:
333,0,117969,1,2,2:0:0:0:
244,102,118254,5,2,2:0:0:0:
148,163,118540,1,2,2:0:0:0:
54,222,118826,1,2,2:0:0:0:
147,308,119112,6,0,P|192:295|238:287,1,93.3333333333333,6|0,3:2|2:0,2:0:0:0:
279,211,119540,1,2,3:2:0:0:
279,211,119683,2,0,P|324:206|362:232,2,93.3333333333333,2|2|2,2:3|1:2|3:0,2:0:0:0:
156,170,120540,1,2,2:3:0:0:
156,170,120683,1,0,2:0:0:0:
156,169,120826,2,0,P|140:101|128:31,1,140,2|2,3:2|1:2,2:0:0:0:
52,38,121397,1,2,3:0:0:0:
14,198,121683,2,0,P|56:218|93:248,1,93.3333333333333,2|2,1:2|3:0,2:0:0:0:
235,379,122254,5,10,2:0:0:0:
235,379,122397,1,8,2:0:0:0:
314,343,122540,2,0,P|324:298|339:254,1,93.3333333333333,2|2,3:2|2:3,2:0:0:0:
307,181,122969,2,0,L|298:135,2,46.6666666666667,0|2|2,2:0|3:0|2:0,2:0:0:0:
234,222,123397,1,2,1:2:0:0:
153,127,123683,1,2,3:0:0:0:
76,38,123969,5,2,2:3:0:0:
76,38,124112,1,0,2:0:0:0:
76,38,124254,2,0,P|32:51|16:93,2,93.3333333333333,2|2|2,3:2|2:3|3:0,2:0:0:0:
238,82,125112,2,0,L|322:42,1,93.3333333333333,2|2,1:2|2:3,2:0:0:0:
455,158,125683,1,8,2:0:0:0:
455,158,125826,1,8,2:0:0:0:
389,226,125969,6,0,P|412:266|405:312,2,93.3333333333333,6|8|10,3:2|2:0|2:0,2:0:0:0:
289,350,126826,2,0,P|282:328|288:304,5,46.6666666666667,2|2|10|2|10|2,3:2|2:0|2:0|2:0|2:0|2:0,2:0:0:0:
238,238,127683,2,0,P|259:198|253:153,2,93.3333333333333,2|10|10,3:2|2:0|2:0,2:0:0:0:
163,362,128540,2,0,P|145:319|157:275,2,93.3333333333333,2|8|8,3:2|2:0|2:0,2:0:0:0:
60,263,129397,6,0,P|24:235|0:195,1,93.3333333333333,10|8,3:2|2:0,2:0:0:0:
0,194,129826,1,2,2:0:0:0:
0,194,129969,1,10,2:0:0:0:
13,65,130254,2,0,P|52:41|98:30,1,93.3333333333333,2|8,3:2|2:0,2:0:0:0:
97,30,130683,1,0,2:0:0:0:
97,30,130826,1,10,2:0:0:0:
247,108,131112,5,2,3:2:0:0:
129,207,131397,1,10,2:0:0:0:
129,207,131540,1,0,2:0:0:0:
129,207,131683,1,8,2:0:0:0:
276,262,131969,2,0,P|321:265|356:295,1,93.3333333333333,0|8,3:2|2:0,2:0:0:0:
356,295,132397,1,0,3:2:0:0:
356,295,132540,1,8,2:0:0:0:
256,192,132826,12,10,134112,2:0:0:0:
177,102,134540,5,4,3:0:0:0:
177,102,134754,1,4,3:0:0:0:
177,102,134969,2,0,B|124:125|71:132|71:132|69:200|69:200|129:212|204:173|204:173|245:234|238:366|100:357|93:270|151:254,1,603.750023031236,6|0,3:0|2:0,2:0:0:0:
151,253,137969,5,2,2:0:0:0:
271,338,138397,1,2,2:0:0:0:
370,213,138826,1,2,2:0:0:0:
246,128,139254,1,2,2:0:0:0:
120,45,139683,2,0,L|151:252,1,210.000008010865,2|2,2:0|2:0,2:0:0:0:
245,128,140969,2,0,P|261:91|260:52,1,78.7500030040742,2|0,2:0|2:0,2:0:0:0:
273,41,141397,5,2,2:0:0:0:
413,18,141826,1,2,2:0:0:0:
421,170,142254,2,0,P|415:223|400:273,1,105.000004005432,2|2,2:0|2:0,2:0:0:0:
327,47,143112,2,0,P|219:146|96:67,1,315.000012016297,2|2,2:0|2:0,2:0:0:0:
116,297,144826,6,0,P|195:174|96:67,1,315.000012016297,2|2,2:0|2:0,2:0:0:0:
306,235,146540,1,2,2:0:0:0:
456,227,146969,1,2,2:0:0:0:
489,84,147397,1,2,2:0:0:0:
366,0,147826,1,2,2:0:0:0:
266,103,148254,2,0,P|172:148|70:171,1,210.000008010865,2|2,2:0|2:0,2:0:0:0:
36,317,149540,1,2,2:0:0:0:
198,359,149969,2,0,P|142:211|104:59,1,315.000012016297,2|2,2:0|2:0,2:0:0:0:
341,171,151683,6,0,P|325:191|312:214,3,52.5000020027161,2|2|2|2,2:1|2:0|2:0|2:0,2:0:0:0:
426,124,152540,2,0,P|410:103|397:80,3,52.5000020027161,2|2|2|2,2:1|2:0|2:0|2:0,2:0:0:0:
330,20,153397,2,0,P|304:16|278:9,3,52.5000020027161,2|2|2|2,2:1|2:0|2:0|2:0,2:0:0:0:
194,55,154254,2,0,P|171:69|150:83,3,52.5000020027161,2|2|2|2,2:1|2:0|2:0|2:0,2:0:0:0:
112,170,155112,2,0,P|135:184|155:198,3,52.5000020027161,2|2|2|2,2:1|2:0|2:0|2:0,2:0:0:0:
172,296,155969,2,0,P|178:322|182:347,3,52.5000020027161,2|2|2|2,2:1|2:0|2:0|2:0,2:0:0:0:
278,337,156826,2,0,P|284:310|288:285,3,52.5000020027161,2|2|2|2,2:1|2:0|2:0|2:0,2:0:0:0:
382,250,157683,5,2,2:1:0:0:
394,162,157897,1,2,2:0:0:0:
305,128,158112,1,2,2:0:0:0:
246,196,158326,1,2,2:0:0:0:
160,203,158540,6,0,P|153:176|149:151,3,52.5000020027161,2|2|2|2,2:1|2:0|2:0|2:0,2:0:0:0:
64,127,159397,2,0,P|70:100|74:75,3,52.5000020027161,2|2|2|2,2:1|2:0|2:0|2:0,2:0:0:0:
24,208,160254,2,0,P|30:234|34:259,3,52.5000020027161,2|2|2|2,2:1|2:0|2:0|2:0,2:0:0:0:
117,305,161112,2,0,P|138:320|160:333,3,52.5000020027161,2|2|2|2,2:1|2:0|2:0|2:0,2:0:0:0:
252,363,161969,2,0,P|267:341|280:319,3,52.5000020027161,2|2|2|2,2:1|2:0|2:0|2:0,2:0:0:0:
378,328,162826,2,0,P|393:349|406:371,3,52.5000020027161,2|2|2|2,2:1|2:0|2:0|2:0,2:0:0:0:
487,299,163683,2,0,P|443:120|277:199,1,420.000016021729,2|2,2:1|2:0,2:0:0:0:
25,355,167112,6,0,B|53:355|53:355|110:295|110:295|139:295,1,140,2|2,2:0|2:0,2:0:0:0:
188,168,168826,6,0,B|160:168|160:168|103:108|103:108|74:108,1,140,2|2,2:0|2:0,2:0:0:0:
0,0,170815,5,2,2:0:0:0:
256,192,170946,12,0,175420,2:0:0:0:
