osu file format v14

[General]
AudioFilename: audio.mp3
AudioLeadIn: 0
PreviewTime: 31684
Countdown: 0
SampleSet: Soft
StackLeniency: 0.4
Mode: 0
LetterboxInBreaks: 0
WidescreenStoryboard: 1

[Editor]
Bookmarks: 400,5542,11112,28256,33398,47113,52256,59113,65970,69398,95112,100254,113969,119112,125969,132826,137969,165397
DistanceSpacing: 0.2
BeatDivisor: 6
GridSize: 32
TimelineZoom: 2.6

[Metadata]
Title:Aru Shoujo no Senzai Ishiki
TitleUnicode:或る少女の潜在意識
Artist:PolyphonicBranch
ArtistUnicode:PolyphonicBranch
Creator:Some Hero
Version:Extra
Source:
Tags:PandaHero Rock Japanese 茶太 Chata A Certain Girl's Subconscious 超会 竜の涙 聲の羅針盤 Ryuunonamida Koenorashinban リュウノナミダ コエノラシンバン
BeatmapID:2803052
BeatmapSetID:1354017

[Difficulty]
HPDrainRate:6
CircleSize:4
OverallDifficulty:8
ApproachRate:9
SliderMultiplier:1.9
SliderTickRate:1

[Events]
//Background and Video events
0,0,"wp.jpg",0,0
//Break Periods
//Storyboard Layer 0 (Background)
//Storyboard Layer 1 (Fail)
//Storyboard Layer 2 (Pass)
//Storyboard Layer 3 (Foreground)
//Storyboard Layer 4 (Overlay)
//Storyboard Sound Samples

[TimingPoints]
400,428.571428571429,3,2,1,50,1,0
400,-71.4285714285714,3,2,1,50,0,0
5542,428.571428571429,4,2,1,50,1,0
6399,428.571428571429,3,2,1,55,1,0
6399,-66.6666666666667,3,2,1,55,0,0
6827,-62.5,3,2,1,60,0,0
7256,-58.8235294117647,3,2,1,65,0,0
7684,-55.5555555555556,3,2,1,70,0,0
8113,-52.6315789473684,3,2,1,75,0,0
8541,-52.6315789473684,3,2,1,80,0,0
8970,428.571428571429,5,2,1,60,1,0
10684,-100,5,2,5,60,0,0
11112,428.571428571429,5,2,1,50,1,0
28256,428.571428571429,4,2,1,70,1,0
28256,-117.647058823529,4,2,1,70,0,0
29006,-117.647058823529,4,2,1,50,0,0
29113,-74.0740740740741,4,2,1,60,0,0
29863,-74.0740740740741,4,2,1,50,0,0
29970,-1000,4,2,1,50,0,0
31255,-1000,4,2,1,30,0,0
31684,-1000,4,2,1,60,0,0
33398,-66.6666666666667,4,2,2,70,0,1
34256,-100,4,2,2,70,0,1
34541,-86.9565217391304,4,2,3,70,0,1
34827,-100,4,2,4,70,0,1
35113,-66.6666666666667,4,2,2,70,0,1
35970,-100,4,2,2,70,0,1
36256,-80,4,2,3,70,0,1
36541,-71.4285714285714,4,2,4,70,0,1
36827,-66.6666666666667,4,2,2,70,0,1
37684,-80,4,2,2,70,0,1
37970,-71.4285714285714,4,2,3,70,0,1
38256,-76.9230769230769,4,2,4,70,0,1
38827,-76.9230769230769,4,2,2,70,0,1
38970,-100,4,2,2,70,0,1
39827,-100,4,2,1,70,0,1
40256,-66.6666666666667,4,2,2,70,0,1
41113,-80,4,2,2,70,0,1
41398,-71.4285714285714,4,2,3,70,0,1
41684,-80,4,2,4,70,0,1
41970,-80,4,2,2,70,0,1
43113,-80,4,2,3,70,0,1
43398,-80,4,2,4,70,0,1
43684,-66.6666666666667,4,2,2,70,0,1
44541,-80,4,2,2,70,0,1
44827,-71.4285714285714,4,2,3,70,0,1
45113,-66.6666666666667,4,2,4,70,0,1
45398,-66.6666666666667,4,2,2,70,0,1
47113,-80,4,2,2,60,0,0
48827,-80,4,2,1,60,0,0
49113,-80,4,2,2,60,0,0
50541,-80,4,2,2,50,0,0
51970,-100,4,2,2,50,0,0
52256,-80,4,2,1,60,0,0
52541,-80,4,2,2,60,0,0
52684,-80,4,2,1,60,0,0
52827,-80,4,2,2,60,0,0
53113,-80,4,2,1,60,0,0
53398,-80,4,2,2,60,0,0
53970,-80,4,2,1,60,0,0
54255,-80,4,2,2,60,0,0
54398,-80,4,2,1,60,0,0
54541,-80,4,2,2,60,0,0
54827,-80,4,2,1,60,0,0
55112,-80,4,2,2,60,0,0
55398,-80,4,2,3,60,0,0
55684,-80,4,2,1,60,0,0
55969,-80,4,2,2,60,0,0
56113,-80,4,2,1,60,0,0
56256,-80,4,2,2,60,0,0
56541,-80,4,2,1,60,0,0
56827,-80,4,2,2,60,0,0
57256,-80,4,2,1,60,0,0
57683,-80,4,2,2,60,0,0
57827,-80,4,2,1,60,0,0
57970,-80,4,2,2,60,0,0
58256,-80,4,2,1,60,0,0
58541,-80,4,2,2,60,0,0
58827,-80,4,2,3,60,0,0
59113,-80,4,2,1,60,0,0
69398,428.571428571429,5,2,5,60,1,0
95112,428.571428571429,4,2,5,50,1,0
95969,-133.333333333333,4,2,5,50,0,0
96826,-699.300699300699,4,2,6,90,0,0
98325,-699.300699300699,4,2,6,50,0,0
98540,-699.300699300699,4,2,2,60,0,0
100254,-66.6666666666667,4,2,1,70,0,1
101112,-80,4,2,1,70,0,1
101397,-86.9565217391304,4,2,3,70,0,1
101683,-100,4,2,4,70,0,1
101969,-66.6666666666667,4,2,2,70,0,1
102826,-100,4,2,2,70,0,1
103112,-80,4,2,3,70,0,1
103397,-71.4285714285714,4,2,4,70,0,1
103683,-66.6666666666667,4,2,2,70,0,1
104540,-80,4,2,2,70,0,1
104826,-71.4285714285714,4,2,3,70,0,1
105112,-66.6666666666667,4,2,4,70,0,1
105683,-66.6666666666667,4,2,2,70,0,1
105826,-100,4,2,2,70,0,1
106683,-100,4,2,1,70,0,1
107112,-66.6666666666667,4,2,2,70,0,1
107969,-80,4,2,2,70,0,1
108254,-71.4285714285714,4,2,3,70,0,1
108540,-80,4,2,4,70,0,1
108826,-80,4,2,2,70,0,1
109969,-80,4,2,3,70,0,1
110254,-80,4,2,4,70,0,1
110540,-66.6666666666667,4,2,2,70,0,1
111397,-80,4,2,2,70,0,1
111683,-71.4285714285714,4,2,3,70,0,1
111969,-66.6666666666667,4,2,4,70,0,1
112254,-66.6666666666667,4,2,2,70,0,1
113969,-80,4,2,2,60,0,0
115683,-80,4,2,1,60,0,0
115969,-80,4,2,2,60,0,0
117397,-80,4,2,2,50,0,0
118826,-100,4,2,2,50,0,0
119112,-80,4,2,1,60,0,0
119397,-80,4,2,2,60,0,0
119540,-80,4,2,1,60,0,0
119683,-80,4,2,2,60,0,0
119969,-80,4,2,1,60,0,0
120254,-80,4,2,2,60,0,0
120826,-80,4,2,1,60,0,0
121111,-80,4,2,2,60,0,0
121254,-80,4,2,1,60,0,0
121397,-80,4,2,2,60,0,0
121683,-80,4,2,1,60,0,0
121968,-80,4,2,2,60,0,0
122254,-80,4,2,3,60,0,0
122825,-80,4,2,2,60,0,0
122969,-80,4,2,1,60,0,0
123112,-80,4,2,2,60,0,0
123397,-80,4,2,1,60,0,0
123683,-80,4,2,2,60,0,0
124112,-80,4,2,1,60,0,0
124539,-80,4,2,2,60,0,0
124683,-80,4,2,1,60,0,0
124826,-80,4,2,2,60,0,0
125112,-80,4,2,1,60,0,0
125397,-80,4,2,2,60,0,0
125683,-80,4,2,3,60,0,0
125969,-80,4,2,1,60,0,0
134540,-80,4,2,5,70,0,0
137326,-80,4,2,5,5,0,0
137969,-285.714285714286,4,2,5,50,0,0
140433,-285.714285714286,4,2,5,5,0,0
140540,-200,4,2,5,50,0,0
140861,-200,4,2,5,5,0,0
140969,-200,4,2,5,50,0,0
141290,-200,4,2,5,5,0,0
141397,-200,4,2,5,50,0,0
142575,-200,4,2,5,5,0,0
142683,-200,4,2,5,50,0,0
143004,-200,4,2,5,5,0,0
143112,-200,4,2,5,50,0,0
144719,-200,4,2,5,5,0,0
144826,-200,4,2,5,50,0,0
147290,-200,4,2,5,5,0,0
147397,-200,4,2,5,50,0,0
147718,-200,4,2,5,5,0,0
147826,-200,4,2,5,50,0,0
148147,-200,4,2,5,5,0,0
148254,-200,4,2,5,50,0,0
149433,-200,4,2,5,5,0,0
149540,-200,4,2,5,50,0,0
149861,-200,4,2,5,5,0,0
149969,-200,4,2,5,50,0,0
151683,-200,4,2,5,60,0,0
157683,-100,4,2,5,60,0,0
165397,-1000,4,2,5,60,0,0
167004,-1000,4,2,5,5,0,0
167112,-526.315789473684,4,2,5,60,0,0
168826,468.75,4,2,5,60,1,0
169763,526.315789473684,4,2,5,50,1,0
170815,526.315789473684,4,2,5,40,1,0
175420,-100,4,2,5,5,0,0

[Colours]
Combo1 : 232,238,233
Combo2 : 118,181,100
Combo3 : 232,119,70

[HitObjects]
480,83,400,6,0,P|494:52|498:19,1,67.5,10|0,2:0|2:0,2:0:0:0:
458,177,614,2,0,P|475:204|503:224,1,67.5,10|0,2:0|2:0,2:0:0:0:
392,117,828,1,2,2:0:0:0:
387,115,935,1,8,2:0:0:0:
382,113,1042,2,0,P|348:105|315:112,1,67.5,10|0,2:0|2:0,2:0:0:0:
161,45,1257,1,10,2:0:0:0:
161,45,1685,6,0,P|182:17|209:0,1,67.5,10|0,2:0|2:0,2:0:0:0:
83,102,1900,2,0,P|50:97|19:81,1,67.5,10|0,2:0|2:0,2:0:0:0:
169,137,2114,1,2,2:0:0:0:
173,141,2221,1,8,2:0:0:0:
177,145,2328,2,0,P|196:171|205:204,1,67.5,10|0,2:0|2:0,2:0:0:0:
79,14,2542,1,10,2:0:0:0:
428,194,2864,5,8,2:0:0:0:
436,192,2971,2,0,P|469:191|501:200,1,67.5,10|0,2:0|2:0,2:0:0:0:
341,173,3185,2,0,P|323:145|316:112,1,67.5,10|0,2:0|2:0,2:0:0:0:
368,256,3400,1,2,2:0:0:0:
368,262,3507,1,8,2:0:0:0:
368,268,3614,2,0,P|360:301|341:328,1,67.5,10|0,2:0|2:0,2:0:0:0:
141,323,3828,1,10,2:0:0:0:
141,323,4257,6,0,P|164:347|193:363,1,67.5,10|0,2:0|2:0,2:0:0:0:
60,270,4471,2,0,P|28:276|-3:295,1,67.5,10|0,2:0|2:0,2:0:0:0:
144,231,4685,1,2,2:0:0:0:
148,227,4792,1,8,2:0:0:0:
152,223,4900,2,0,P|170:194|176:161,1,67.5,10|0,2:0|2:0,2:0:0:0:
59,362,5114,1,10,2:0:0:0:
451,347,5435,5,8,2:0:0:0:
456,342,5542,2,2,B|516:242|512:169|401:91|331:196|401:265,1,332.5,10|8,2:0|2:0,2:1:0:0:
387,248,6399,6,0,L|335:271,5,47.5000018119813,10|8|8|8|8|8,3:1|2:0|2:0|2:0|2:0|2:0,2:0:0:0:
265,212,6827,6,0,L|271:151,5,50.6666666666667,10|8|8|8|8|8,3:1|2:0|2:0|2:0|2:0|2:0,2:0:0:0:
329,80,7256,6,0,L|295:36,5,53.8333343601227,10|8|8|8|8|8,3:1|2:0|2:0|2:0|2:0|2:0,2:0:0:0:
190,23,7684,6,0,P|163:33|138:59,5,56.9999982604981,10|8|8|8|8|8,3:1|2:0|2:0|2:0|2:0|2:0,2:0:0:0:
53,124,8113,6,0,P|76:145|89:174,5,60.1666650600434,10|8|8|8|8|8,3:1|2:0|2:0|2:0|2:0|2:0,2:0:0:0:
189,240,8541,5,10,3:1:0:0:
190,246,8613,1,8,2:0:0:0:
191,252,8684,1,8,2:0:0:0:
191,258,8756,1,8,2:0:0:0:
192,264,8827,1,8,2:0:0:0:
193,270,8899,1,8,2:0:0:0:
194,276,8970,1,2,3:0:0:0:
256,192,9041,12,0,10684,1:0:0:0:
482,209,11112,6,0,P|494:164|472:123,1,95,2|8,3:2|2:0,2:0:0:0:
479,114,11541,1,2,3:2:0:0:
482,117,11648,1,8,2:0:0:0:
485,121,11755,2,0,P|506:162|498:208,1,95,10|8,2:0|3:2,2:0:0:0:
343,233,12184,5,2,2:3:0:0:
343,233,12291,1,8,2:0:0:0:
343,233,12398,2,0,P|319:235|296:243,1,47.5,10|0,3:2|2:0,2:0:0:0:
224,287,12612,2,0,P|206:304|195:325,1,47.5,10|0,2:0|2:0,2:0:0:0:
90,378,12827,5,2,3:2:0:0:
43,370,12934,1,10,2:0:0:0:
13,336,13041,1,10,2:0:0:0:
9,286,13148,1,2,2:0:0:0:
32,243,13255,6,0,P|76:225|122:234,1,95,2|8,3:2|2:0,2:0:0:0:
128,223,13684,1,2,3:2:0:0:
124,223,13791,1,8,2:0:0:0:
120,224,13898,2,0,P|73:216|30:234,1,95,10|8,2:0|3:2,2:0:0:0:
263,181,14327,5,2,2:3:0:0:
263,181,14434,1,8,2:0:0:0:
263,181,14541,2,0,P|251:160|247:137,1,47.5,8|0,3:2|2:0,2:0:0:0:
252,51,14755,2,0,P|262:30|280:13,1,47.5,10|0,2:0|2:0,2:0:0:0:
395,9,14970,5,2,3:2:0:0:
427,47,15077,1,10,2:0:0:0:
434,93,15184,1,10,2:0:0:0:
416,133,15291,1,2,2:0:0:0:
377,157,15398,6,0,P|349:154|328:144,1,47.5,2|0,3:2|2:0,2:0:0:0:
248,138,15612,2,0,P|220:141|199:151,1,47.5,10|0,2:0|2:0,2:0:0:0:
136,209,15827,1,2,3:2:0:0:
136,209,15934,1,8,2:0:0:0:
136,209,16041,2,0,P|119:231|112:254,2,47.5,10|0|8,2:0|2:0|3:2,2:0:0:0:
36,92,16470,5,2,2:3:0:0:
36,92,16577,1,8,2:0:0:0:
36,92,16684,2,0,P|64:86|84:89,1,47.5,10|0,3:2|2:0,2:0:0:0:
166,119,16898,2,0,P|185:131|202:148,1,47.5,10|0,2:0|2:0,2:0:0:0:
331,173,17112,5,2,3:2:0:0:
379,168,17220,1,8,2:0:0:0:
413,135,17327,1,8,2:0:0:0:
416,86,17434,1,2,2:0:0:0:
393,47,17541,6,0,P|374:32|351:26,1,47.5,2|0,3:2|2:0,2:0:0:0:
265,33,17755,2,0,P|240:48|228:65,1,47.5,10|0,2:0|2:0,2:0:0:0:
202,148,17970,1,2,3:2:0:0:
202,148,18077,1,8,2:0:0:0:
202,148,18184,2,0,P|196:171|194:194,2,47.5,10|0|8,2:0|2:0|3:2,2:0:0:0:
339,180,18612,5,2,2:3:0:0:
339,180,18719,1,8,2:0:0:0:
339,180,18826,2,0,P|360:191|386:194,1,47.5,10|0,3:2|2:0,2:0:0:0:
462,235,19040,2,0,P|476:249|489:273,1,47.5,10|0,2:0|2:0,2:0:0:0:
441,367,19255,5,2,3:2:0:0:
397,384,19363,1,10,2:0:0:0:
352,380,19470,1,10,2:0:0:0:
323,349,19577,1,2,2:0:0:0:
309,307,19684,6,0,P|308:284|315:258,1,47.5,2|0,3:2|2:0,2:0:0:0:
339,180,19898,2,0,P|338:156|330:132,1,47.5,10|0,2:0|2:0,2:0:0:0:
271,69,20112,1,2,3:2:0:0:
271,69,20220,1,8,2:0:0:0:
271,69,20327,2,0,P|250:56|227:50,2,47.5,10|0|8,2:0|2:0|3:2,2:0:0:0:
88,102,20755,5,2,2:3:0:0:
88,102,20862,1,8,2:0:0:0:
88,102,20970,2,0,P|75:122|69:145,1,47.5,10|0,3:2|2:0,2:0:0:0:
55,237,21184,2,0,P|57:261|66:283,1,47.5,10|0,2:0|2:0,2:0:0:0:
173,365,21397,5,2,3:2:0:0:
218,368,21504,1,8,2:0:0:0:
256,349,21612,1,8,2:0:0:0:
272,314,21719,1,2,2:0:0:0:
266,272,21826,6,0,P|256:249|239:227,1,47.5,2|0,3:2|2:0,2:0:0:0:
191,169,22040,2,0,P|180:142|175:118,1,47.5,10|0,2:0|2:0,2:0:0:0:
170,44,22254,1,2,3:2:0:0:
170,44,22362,1,8,2:0:0:0:
170,44,22469,2,0,P|171:20|176:-2,2,47.5,10|0|8,2:0|2:0|3:2,2:0:0:0:
378,83,22898,5,2,2:3:0:0:
378,83,23005,1,8,2:0:0:0:
378,83,23113,2,0,P|392:101|401:123,1,47.5,10|0,3:2|2:0,2:0:0:0:
415,212,23327,2,0,P|414:238|407:260,1,47.5,10|0,2:0|2:0,2:0:0:0:
295,299,23540,5,2,3:2:0:0:
250,285,23647,1,8,2:0:0:0:
223,251,23754,1,8,2:0:0:0:
221,208,23862,1,2,2:0:0:0:
240,167,23969,6,0,P|255:149|276:137,1,47.5,2|0,3:2|2:0,2:0:0:0:
354,119,24183,2,0,P|377:117|400:123,1,47.5,10|0,2:0|2:0,2:0:0:0:
492,161,24397,1,2,3:2:0:0:
492,161,24504,1,8,2:0:0:0:
492,161,24612,2,0,P|505:180|512:202,2,47.5,10|0|8,2:0|2:0|3:2,2:0:0:0:
298,55,25040,5,2,2:3:0:0:
298,55,25147,1,8,2:0:0:0:
298,55,25254,2,0,P|280:42|256:30,1,47.5,10|0,3:2|2:0,2:0:0:0:
169,2,25469,2,0,P|146:0|122:3,1,47.5,10|0,2:0|2:0,2:0:0:0:
37,57,25683,5,2,3:2:0:0:
18,100,25790,1,10,2:0:0:0:
23,143,25897,1,10,2:0:0:0:
52,175,26004,1,2,2:0:0:0:
91,191,26112,6,0,P|137:184|166:148,1,95,2|8,3:2|2:0,2:0:0:0:
176,149,26541,1,2,3:2:0:0:
174,154,26648,1,8,2:0:0:0:
172,158,26755,2,0,P|142:193|96:203,1,95,10|8,2:0|3:2,2:0:0:0:
253,221,27183,5,2,2:3:0:0:
253,221,27290,1,8,2:0:0:0:
253,221,27397,2,0,P|275:230|294:244,1,47.5,8|0,3:2|2:0,2:0:0:0:
362,308,27612,2,0,P|375:328|383:350,1,47.5,10|0,2:0|2:0,2:0:0:0:
512,171,27826,5,2,3:2:0:0:
491,134,27933,1,10,2:0:0:0:
457,110,28040,1,10,2:0:0:0:
415,100,28147,1,2,2:0:0:0:
379,105,28256,6,0,P|245:116|176:1,1,282.625005390644,6|0,3:2|2:0,2:0:0:0:
94,6,29113,6,0,B|55:16|8:13|8:13|16:27|8:53|10:88|10:88|61:94|105:84|105:84|108:137|102:151|110:164|110:164|46:172|-3:166,1,448.875001712322,6|0,3:2|2:0,2:0:0:0:
0,166,29970,6,2,P|13:192|23:220,1,57,6|0,3:2|2:0,2:1:0:0:
256,192,31684,5,2,1:2:0:0:
256,192,31970,1,2,1:2:0:0:
256,192,32256,1,2,1:2:0:0:
512,0,32541,5,2,1:0:0:0:
512,0,32827,1,2,1:0:0:0:
512,0,33113,1,2,1:0:0:0:
381,162,33398,6,0,B|340:208|377:264|408:231|426:299|408:335,1,190.000007247925,4|2,3:1|2:3,2:0:0:0:
376,155,33827,1,0,1:2:0:0:
228,19,33970,2,0,P|265:75|231:133,1,142.500005435944,0|0,3:2|2:0,2:0:0:0:
160,221,34256,2,0,B|148:197|150:177|150:177|163:201|187:215,1,95,2|0,1:3|2:0,2:0:0:0:
279,289,34541,2,0,B|308:289|328:303|328:303|295:302|267:318,1,109.250002083778,2|0,2:3|2:0,2:0:0:0:
161,356,34827,2,0,B|146:377|128:386|128:386|142:363|142:335,1,95,2|0,3:0|2:0,2:0:0:0:
51,336,35113,6,0,B|33:283|28:250|28:250|22:244|22:244|17:205|0:155,1,190.000007247925,6|2,3:0|3:0,2:0:0:0:
49,346,35541,1,0,1:2:0:0:
159,221,35684,2,0,P|143:178|98:171,1,95.0000036239625,6|0,3:0|2:0,2:0:0:0:
223,20,35970,2,0,B|185:11|163:42|163:42|178:36|191:37,1,95,2|0,1:3|2:0,2:0:0:0:
308,91,36256,2,0,B|339:56|312:12|312:12|313:34|309:47,1,118.75,2|0,2:3|2:0,2:0:0:0:
198,123,36541,2,0,B|214:174|273:172|273:172|257:165|244:149,1,132.999995941162,2|0,2:3|2:0,2:0:0:0:
329,265,36827,6,0,P|410:216|503:220,1,190.000007247925,4|2,3:0|2:3,2:0:0:0:
326,275,37256,1,0,1:2:0:0:
198,316,37398,2,0,P|150:313|99:313,1,95.0000036239625,6|0,3:0|2:0,2:0:0:0:
361,148,37684,2,0,B|402:132|402:96|402:96|379:100|372:129,1,118.75,0|0,1:2|2:0,2:0:0:0:
326,275,37970,2,0,B|318:324|353:344|353:344|362:319|338:296,1,132.999995941162,2|0,2:3|2:0,2:0:0:0:
227,187,38256,2,0,B|190:157|157:176|157:176|173:195|203:186,1,123.499994346619,2|0,3:0|2:0,2:0:0:0:
135,53,38541,5,2,3:2:0:0:
133,49,38613,1,2,2:0:0:0:
132,45,38684,1,2,2:0:0:0:
131,41,38756,1,2,2:0:0:0:
130,37,38827,1,2,3:0:0:0:
129,33,38898,1,2,2:0:0:0:
128,29,38970,2,0,L|123:-7,5,31.6666666666667,2|2|2|2|2|2,1:2|1:2|3:0|2:0|2:0|2:0,2:0:0:0:
51,123,39398,5,2,1:2:0:0:
49,131,39470,1,2,1:2:0:0:
47,139,39541,1,2,1:2:0:0:
45,147,39613,1,2,1:2:0:0:
44,154,39684,1,2,1:2:0:0:
42,161,39755,1,2,1:2:0:0:
41,169,39827,2,0,L|31:211,3,31.6666666666667,8|8|8|4,2:3|2:3|2:3|2:3,2:0:0:0:
102,288,40113,5,4,2:3:0:0:
102,288,40184,1,4,2:3:0:0:
102,288,40256,2,0,B|138:296|138:296|232:229|232:229|269:233,1,190.000007247925,6|2,3:2|2:3,2:0:0:0:
492,228,40684,1,0,1:2:0:0:
512,99,40827,2,0,P|443:99|435:166,1,142.500005435944,2|0,3:0|2:0,2:0:0:0:
381,246,41113,2,0,B|394:291|440:296|440:296|425:283|417:268,1,118.75,2|0,1:3|2:0,2:0:0:0:
269,233,41398,2,0,B|216:226|190:271|190:271|210:261|229:259,1,132.999995941162,2|0,3:0|2:0,2:0:0:0:
338,138,41684,2,0,B|362:94|331:57|331:57|334:74|331:90,1,118.75,2|0,3:0|2:0,2:0:0:0:
248,65,41970,6,0,B|207:42|159:74|197:103|151:132|116:119,1,158.333333333333,4|2,3:0|3:0,2:0:0:0:
255,72,42398,1,0,1:2:0:0:
269,233,42541,2,0,P|275:262|257:238,1,79.1666666666667,6|0,3:0|2:0,2:0:0:0:
41,224,42827,2,0,B|20:196|28:169|28:169|55:187|50:222,1,118.75,2|0,1:3|2:0,2:0:0:0:
140,307,43113,2,0,B|173:302|192:322|192:322|163:337|135:315,1,118.75,2|0,3:0|2:0,2:0:0:0:
13,345,43398,2,0,B|0:375|-27:382|-27:382|-25:350|6:337,1,118.75,2|0,2:3|2:0,2:0:0:0:
160,183,43684,6,0,P|246:159|349:127,1,190.000007247925,4|2,3:0|2:3,2:0:0:0:
155,191,44113,1,0,1:2:0:0:
60,134,44256,2,0,P|39:93|64:55,1,95.0000036239625,6|0,3:0|2:0,2:0:0:0:
342,129,44541,2,0,B|367:170|347:197|347:197|347:176|339:151,1,118.75,2|0,1:3|2:0,2:0:0:0:
241,73,44827,2,0,B|181:84|165:40|165:40|185:55|220:56,1,132.999995941162,2|0,2:3|2:0,2:0:0:0:
343,22,45113,2,0,B|368:-16|419:-16|419:-16|383:-5|367:23,1,142.500005435944,2|0,3:0|2:0,2:0:0:0:
443,64,45398,6,0,P|460:134|456:204,1,142.500005435944,4|0,3:0|2:0,2:0:0:0:
349,198,45684,1,2,3:0:0:0:
343,202,45756,1,2,2:0:0:0:
337,207,45827,2,0,L|284:213,2,47.5000018119813,2|2|6,1:2|2:0|2:3,2:0:0:0:
184,289,46112,5,2,1:2:0:0:
180,286,46184,1,2,1:2:0:0:
176,284,46255,1,2,1:3:0:0:
172,283,46327,1,2,2:0:0:0:
168,281,46398,1,2,2:0:0:0:
165,279,46469,1,2,2:0:0:0:
161,277,46541,2,0,L|153:228,1,47.5000018119813,2|2,1:3|2:0,2:0:0:0:
85,322,46684,2,0,L|75:375,3,47.5000018119813,2|2|2|2,1:2|2:0|3:0|2:0,2:0:0:0:
56,242,46970,5,2,1:2:0:0:
56,242,47041,1,2,1:2:0:0:
56,242,47113,2,0,B|53:196|53:196|71:169|71:169|67:127,1,118.75,6|0,3:2|2:0,2:0:0:0:
67,128,47398,2,0,P|106:124|145:119,1,79.1666666666667,10|0,2:0|3:2,2:0:0:0:
352,167,47684,1,10,2:0:0:0:
352,167,47827,1,0,2:0:0:0:
264,100,47970,6,0,P|257:44|307:19,1,118.75,2|0,3:2|2:0,2:0:0:0:
306,18,48256,2,0,B|350:14|350:14|355:50,1,79.1666666666667,10|0,3:2|2:0,2:0:0:0:
441,230,48541,1,10,2:0:0:0:
441,230,48684,1,0,3:2:0:0:
338,270,48827,6,0,P|278:266|219:262,1,118.75,2|0,3:0|2:0,2:0:0:0:
219,262,49113,2,0,P|200:299|218:332,1,79.1666666666667,10|0,2:0|3:2,2:0:0:0:
432,337,49398,1,10,2:0:0:0:
432,337,49541,1,2,2:0:0:0:
441,230,49684,6,0,P|442:190|444:150,1,79.1666666666667,2|2,3:2|2:0,2:0:0:0:
412,63,49970,1,10,3:2:0:0:
501,71,50113,1,2,3:2:0:0:
357,182,50256,1,10,2:0:0:0:
443,150,50398,1,2,2:0:0:0:
322,92,50541,5,2,2:0:0:0:
312,88,50827,1,2,2:0:0:0:
303,84,51113,1,2,2:0:0:0:
3,60,51398,5,2,2:0:0:0:
2,70,51684,1,2,2:0:0:0:
0,80,51970,2,0,P|27:117|7:158,1,95,2|0,2:0|2:0,2:0:0:0:
7,157,52256,6,0,P|78:125|154:140,1,158.333333333333,6|2,3:2|2:3,2:0:0:0:
206,33,52684,1,2,3:2:0:0:
295,89,52827,2,0,P|351:102|405:79,1,118.75,2|0,2:3|2:0,2:0:0:0:
459,139,53113,2,0,P|442:175|432:214,1,79.1666666666667,2|0,1:2|2:0,2:0:0:0:
300,356,53398,2,0,P|326:282|325:204,1,158.333333333333,2|2,3:0|2:3,2:0:0:0:
39,277,53970,6,0,P|108:322|160:382,1,158.333333333333,2|2,3:2|2:3,2:0:0:0:
151,128,54398,1,2,1:2:0:0:
237,165,54541,2,0,P|223:207|204:239,1,79.1666666666667,2|0,3:0|2:0,2:0:0:0:
69,88,54827,2,0,P|101:19|177:9,1,158.333333333333,2|2,1:2|3:0,2:0:0:0:
387,237,55398,5,10,2:0:0:0:
387,237,55541,1,8,2:0:0:0:
480,223,55684,6,0,P|462:146|416:80,1,158.333333333333,2|2,3:2|2:3,2:0:0:0:
316,0,56113,1,2,3:2:0:0:
246,61,56256,2,0,P|217:110|236:164,1,118.75,2|0,3:0|2:0,2:0:0:0:
204,235,56541,2,0,P|220:271|213:309,1,79.1666666666667,2|0,1:2|2:0,2:0:0:0:
38,273,56827,2,0,P|34:195|80:132,1,158.333333333333,2|2,3:0|2:3,2:0:0:0:
234,56,57256,1,0,3:2:0:0:
325,87,57398,6,0,P|316:166|301:244,1,158.333333333333,2|2,3:2|2:3,2:0:0:0:
423,352,57827,1,0,1:2:0:0:
509,312,57970,2,0,P|520:274|512:235,1,79.1666666666667,2|0,3:0|2:0,2:0:0:0:
464,22,58256,2,0,P|385:13|307:-1,1,158.333333333333,2|2,1:2|2:3,2:0:0:0:
233,310,58827,5,8,2:0:0:0:
233,310,58970,1,8,2:0:0:0:
137,242,59113,6,0,P|81:222|22:228,1,118.75,6|0,3:2|2:0,2:0:0:0:
22,227,59398,2,0,P|46:196|41:158,1,79.1666666666667,8|2,2:0|2:0,2:0:0:0:
154,117,59684,1,10,2:0:0:0:
151,107,59756,1,8,2:0:0:0:
149,98,59827,1,10,2:0:0:0:
146,87,59898,1,8,2:0:0:0:
143,76,59970,6,0,P|201:65|260:57,1,118.75,2|0,3:2|2:0,2:0:0:0:
260,56,60256,2,0,P|287:82|286:121,1,79.1666666666667,10|0,2:0|3:2,2:0:0:0:
357,230,60541,1,10,2:0:0:0:
360,242,60613,1,8,2:0:0:0:
363,254,60684,1,8,2:0:0:0:
366,266,60755,1,8,2:0:0:0:
369,278,60827,6,0,P|436:238|448:190,1,118.75,2|0,3:2|2:0,2:0:0:0:
447,202,61113,2,0,P|418:175|410:137,1,79.1666666666667,10|8,2:0|2:0,2:0:0:0:
358,40,61398,1,10,2:0:0:0:
286,116,61541,5,8,2:0:0:0:
286,116,61613,1,8,2:0:0:0:
286,116,61684,2,0,P|283:175|282:234,1,118.75,2|0,3:2|2:0,2:0:0:0:
281,234,61970,2,0,P|242:237|212:213,1,79.1666666666667,10|0,2:0|3:2,2:0:0:0:
104,304,62256,1,10,2:0:0:0:
93,307,62327,1,8,2:0:0:0:
82,310,62398,1,8,2:0:0:0:
72,313,62470,1,8,2:0:0:0:
63,316,62541,6,0,P|49:258|39:199,1,118.75,2|0,3:2|2:0,2:0:0:0:
39,199,62827,2,0,P|76:187|97:155,1,79.1666666666667,8|0,2:0|2:0,2:0:0:0:
170,14,63113,1,10,2:0:0:0:
182,15,63185,1,8,2:0:0:0:
194,15,63256,1,8,2:0:0:0:
206,16,63327,1,8,2:0:0:0:
220,16,63399,6,0,P|208:94|204:141,1,118.75,2|0,3:2|2:0,2:0:0:0:
204,133,63684,2,0,P|246:126|286:118,1,79.1666666666667,8|0,2:0|3:2,2:0:0:0:
415,193,63970,1,10,2:0:0:0:
414,206,64042,1,8,2:0:0:0:
414,220,64113,1,8,2:0:0:0:
413,234,64184,1,8,2:0:0:0:
413,246,64256,6,0,P|356:256|314:217,1,118.75,2|0,3:2|2:0,2:0:0:0:
314,217,64541,1,10,2:0:0:0:
281,118,64684,1,8,2:0:0:0:
391,95,64827,1,8,2:0:0:0:
402,93,64899,1,8,2:0:0:0:
414,90,64970,1,8,2:0:0:0:
426,89,65041,1,8,2:0:0:0:
438,86,65113,6,0,P|448:125|461:162,1,79.1666666666667,2|0,3:2|2:0,2:0:0:0:
448,340,65398,1,10,2:0:0:0:
351,356,65541,2,0,P|315:341|296:306,1,79.1666666666667,0|10,3:2|2:0,2:0:0:0:
196,302,65756,1,8,2:0:0:0:
193,290,65827,1,8,2:0:0:0:
191,278,65898,1,8,2:0:0:0:
189,264,65970,6,0,P|182:233|168:204,3,59.375,10|2|2|2,2:0|2:0|2:0|2:0,2:0:0:0:
281,118,66398,1,10,2:0:0:0:
298,102,66506,2,0,P|297:73|304:39,2,59.375,2|2|2,2:0|2:0|2:0,2:0:0:0:
186,57,66827,1,10,2:0:0:0:
166,28,66934,1,2,2:0:0:0:
129,18,67041,2,0,P|99:21|71:35,1,59.375,10|2,2:0|2:0,2:0:0:0:
24,124,67256,1,10,2:0:0:0:
11,158,67363,2,0,P|26:187|24:220,2,59.375,2|2|2,2:0|2:0|2:0,2:0:0:0:
0,301,67684,5,10,2:0:0:0:
256,192,67791,12,0,69291,2:0:0:0:
447,86,69398,6,0,P|451:131|415:160,1,95,4|0,3:0|2:0,2:0:0:0:
329,181,69719,1,8,2:0:0:0:
326,188,69826,2,0,P|334:234|340:281,1,95,0|0,1:2|2:0,2:0:0:0:
252,296,70148,1,8,2:0:0:0:
248,296,70201,1,8,2:0:0:0:
244,296,70255,2,0,P|224:282|204:269,2,47.5,8|8|10,3:2|2:0|2:0,2:0:0:0:
157,185,70576,5,2,2:0:0:0:
116,160,70683,1,2,3:2:0:0:
69,169,70790,1,2,2:0:0:0:
37,204,70898,1,2,2:0:0:0:
34,251,71005,1,10,2:0:0:0:
50,292,71112,2,0,P|70:311|88:320,1,47.5,10|2,1:2|2:0,2:0:0:0:
249,186,71326,5,10,1:2:0:0:
249,186,71433,1,2,2:0:0:0:
249,186,71540,2,0,P|239:135|229:94,1,95,2|0,3:2|2:0,2:0:0:0:
289,26,71862,1,8,2:0:0:0:
295,30,71969,2,0,P|341:34|371:73,1,95,0|0,1:2|2:0,2:0:0:0:
440,115,72290,1,8,2:0:0:0:
442,119,72343,1,8,2:0:0:0:
444,123,72397,2,0,L|440:174,2,47.5,8|8|10,3:2|2:0|2:0,2:0:0:0:
368,222,72719,5,2,2:0:0:0:
323,217,72826,1,2,3:2:0:0:
288,188,72933,1,2,2:0:0:0:
276,144,73040,1,2,2:0:0:0:
291,103,73148,1,10,2:0:0:0:
324,73,73255,2,0,P|348:69|372:71,1,47.5,10|2,1:2|2:0,2:0:0:0:
512,228,73469,5,10,1:2:0:0:
512,228,73576,1,2,2:0:0:0:
512,228,73683,2,0,P|510:281|509:326,1,95,2|0,3:2|2:0,2:0:0:0:
418,335,74005,1,8,2:0:0:0:
412,337,74112,2,0,P|365:329|335:290,1,95,0|0,1:2|2:0,2:0:0:0:
249,288,74433,1,8,2:0:0:0:
245,290,74486,1,8,2:0:0:0:
241,292,74540,2,0,L|189:288,1,47.5,8|8,3:2|2:0,2:0:0:0:
122,201,74755,6,0,P|106:183|83:176,1,47.5,10|0,2:0|2:0,2:0:0:0:
55,84,74969,2,0,P|71:68|79:46,1,47.5,2|0,3:2|2:0,2:0:0:0:
169,21,75183,2,0,P|186:37|208:46,1,47.5,2|8,2:0|2:0,2:0:0:0:
243,139,75398,2,0,P|225:156|218:178,1,47.5,10|0,1:2|2:0,2:0:0:0:
61,267,75612,5,10,1:2:0:0:
61,267,75719,1,2,2:0:0:0:
61,266,75826,2,0,P|69:313|74:360,1,95,2|0,3:2|2:0,2:0:0:0:
174,354,76148,1,8,2:0:0:0:
180,354,76255,2,0,P|222:333|241:287,1,95,0|0,1:2|2:0,2:0:0:0:
334,289,76576,1,8,2:0:0:0:
338,291,76629,1,8,2:0:0:0:
342,293,76683,2,0,L|395:288,1,47.5,8|8,3:2|2:0,2:0:0:0:
472,165,76898,6,0,P|488:149|496:127,1,47.5,10|0,2:0|2:0,2:0:0:0:
471,24,77112,2,0,P|455:8|433:0,1,47.5,2|0,3:2|2:0,2:0:0:0:
333,18,77326,2,0,P|317:34|309:56,1,47.5,2|8,2:0|2:0,2:0:0:0:
151,164,77540,5,10,1:2:0:0:
84,108,77648,1,8,1:2:0:0:
109,24,77755,1,10,1:2:0:0:
198,17,77862,1,8,1:2:0:0:
241,97,77969,6,0,P|249:143|265:189,1,95,0|0,3:2|2:0,2:0:0:0:
281,277,78290,1,8,2:0:0:0:
278,285,78398,2,0,P|230:300|183:275,1,95,0|0,1:2|2:0,2:0:0:0:
95,286,78719,1,8,2:0:0:0:
93,290,78772,1,8,2:0:0:0:
91,294,78826,2,0,P|93:327|96:347,1,47.5,8|8,3:2|2:0,2:0:0:0:
10,239,79040,6,0,L|6:191,1,47.5,10|0,2:0|2:0,2:0:0:0:
6,88,79255,2,0,L|49:107,1,47.5,2|0,3:2|2:0,2:0:0:0:
134,160,79469,2,0,L|95:187,1,47.5,2|8,2:0|2:0,2:0:0:0:
184,66,79683,2,0,P|224:87|232:132,1,95,10|8,1:2|1:2,2:0:0:0:
286,289,80112,6,0,P|294:243|307:192,1,95,0|0,3:2|2:0,2:0:0:0:
331,98,80433,1,8,2:0:0:0:
336,102,80541,2,0,P|383:96|414:130,1,95,0|0,1:2|2:0,2:0:0:0:
410,215,80862,1,8,2:0:0:0:
412,219,80915,1,8,2:0:0:0:
414,223,80969,2,0,P|412:256|409:276,1,47.5,8|8,3:2|2:0,2:0:0:0:
496,169,81183,6,0,L|500:121,1,47.5,10|0,2:0|2:0,2:0:0:0:
498,27,81398,2,0,L|454:46,1,47.5,2|0,3:2|2:0,2:0:0:0:
374,100,81612,2,0,L|412:127,1,47.5,2|8,2:0|2:0,2:0:0:0:
233,0,81826,2,0,P|192:21|184:66,1,95,10|8,1:2|1:2,2:0:0:0:
153,161,82255,6,0,P|196:191|238:222,1,95,0|0,3:2|2:0,2:0:0:0:
280,299,82576,1,8,2:0:0:0:
283,305,82683,2,0,P|268:348|224:363,1,95,0|0,1:2|2:0,2:0:0:0:
133,361,83005,1,8,2:0:0:0:
131,357,83058,1,8,2:0:0:0:
129,353,83112,2,0,P|131:320|134:300,1,47.5,8|8,3:2|2:0,2:0:0:0:
8,288,83326,6,0,L|0:242,1,47.5,10|0,2:0|2:0,2:0:0:0:
71,180,83540,2,0,L|80:227,1,47.5,2|0,3:2|2:0,2:0:0:0:
153,161,83755,2,0,B|145:115,1,47.5,2|8,2:0|2:0,2:0:0:0:
307,11,83969,2,0,P|263:25|253:69,1,95,10|8,1:2|1:2,2:0:0:0:
391,122,84398,6,0,P|438:117|485:115,1,95,0|0,3:2|2:0,2:0:0:0:
494,210,84719,1,8,2:0:0:0:
497,215,84826,2,0,P|487:271|453:286,1,95,0|0,1:2|2:0,2:0:0:0:
404,367,85148,1,8,2:0:0:0:
400,369,85201,1,8,2:0:0:0:
396,371,85255,2,0,P|363:369|345:369,1,47.5,8|8,3:2|2:0,2:0:0:0:
286,288,85469,6,0,L|281:237,1,47.5,10|0,2:0|2:0,2:0:0:0:
192,279,85683,2,0,L|197:327,1,47.5,2|0,3:2|2:0,2:0:0:0:
109,376,85898,2,0,L|104:325,1,47.5,2|8,2:0|2:0,2:0:0:0:
30,167,86112,5,10,1:2:0:0:
0,90,86219,1,10,1:2:0:0:
64,35,86326,1,10,1:2:0:0:
130,86,86433,1,10,1:2:0:0:
125,163,86540,6,0,P|101:210|81:261,1,95,0|0,3:2|2:0,2:0:0:0:
3,255,86862,1,8,2:0:0:0:
0,260,86969,2,0,P|7:314|47:332,1,95,0|0,1:2|2:0,2:0:0:0:
109,376,87290,1,8,2:0:0:0:
113,378,87343,1,8,2:0:0:0:
117,380,87397,2,0,P|150:378|168:378,1,47.5,8|8,3:2|2:0,2:0:0:0:
309,362,87612,6,0,L|268:339,1,47.5,10|0,2:0|2:0,2:0:0:0:
264,243,87827,2,0,L|305:219,1,47.5,2|0,3:2|2:0,2:0:0:0:
394,261,88041,2,0,L|397:309,1,47.5,2|8,2:0|2:0,2:0:0:0:
162,269,88255,2,0,P|141:229|155:185,1,95,10|8,1:2|1:2,2:0:0:0:
242,3,88683,6,0,P|289:3|336:0,1,95,0|0,3:2|2:0,2:0:0:0:
438,0,89005,1,8,2:0:0:0:
446,3,89113,2,0,P|461:51|436:98,1,95,0|0,1:2|2:0,2:0:0:0:
339,185,89433,1,8,2:0:0:0:
335,187,89486,1,8,2:0:0:0:
331,189,89540,2,0,P|298:187|280:187,1,47.5,8|8,3:2|2:0,2:0:0:0:
119,216,89755,6,0,L|154:184,1,47.5,10|0,2:0|2:0,2:0:0:0:
134,74,89970,2,0,L|88:59,1,47.5,2|0,3:2|2:0,2:0:0:0:
15,129,90184,2,0,L|22:176,1,47.5,2|8,2:0|2:0,2:0:0:0:
130,362,90398,2,0,P|176:336|183:290,1,95,10|10,1:2|1:2,2:0:0:0:
293,282,90826,6,0,P|289:234|284:187,1,95,0|0,3:2|2:0,2:0:0:0:
330,93,91148,1,8,2:0:0:0:
336,97,91255,2,0,P|384:97|417:129,1,95,0|0,1:2|2:0,2:0:0:0:
508,139,91576,1,8,2:0:0:0:
510,143,91629,1,8,2:0:0:0:
512,147,91683,2,0,P|510:180|510:198,1,47.5,8|8,3:2|2:0,2:0:0:0:
430,257,91898,6,0,L|382:255,1,47.5,10|0,2:0|2:0,2:0:0:0:
286,250,92112,2,0,L|302:294,1,47.5,2|0,3:2|2:0,2:0:0:0:
355,374,92326,2,0,L|385:337,1,47.5,2|8,2:0|2:0,2:0:0:0:
206,296,92540,2,0,P|159:302|126:335,1,95,10|8,1:2|1:2,2:0:0:0:
51,209,92969,6,0,P|45:161|36:115,1,95,0|0,3:2|2:0,2:0:0:0:
131,103,93290,1,8,2:0:0:0:
139,102,93397,2,0,P|178:76|187:30,1,95,0|0,1:2|2:0,2:0:0:0:
281,14,93719,1,8,2:0:0:0:
284,11,93772,1,8,2:0:0:0:
287,8,93826,2,0,P|319:3|337:0,1,47.5,8|8,3:2|2:0,2:0:0:0:
412,45,94040,6,0,L|413:92,1,47.5,10|0,2:0|2:0,2:0:0:0:
419,189,94254,2,0,L|374:172,1,47.5,2|0,3:2|2:0,2:0:0:0:
295,120,94468,2,0,L|331:89,1,47.5,2|8,2:0|2:0,2:0:0:0:
492,128,94683,5,10,1:2:0:0:
492,128,94790,1,8,1:2:0:0:
512,218,94898,5,8,1:2:0:0:
512,218,95005,1,8,1:2:0:0:
450,282,95112,6,0,P|378:287|308:298,1,142.5,2|0,3:2|2:0,2:0:0:0:
173,329,95540,5,4,3:0:0:0:
227,195,95683,1,4,3:0:0:0:
308,297,95826,1,4,3:0:0:0:
123,135,95969,2,0,B|130:159|138:174|138:174|136:187|136:187|142:208|146:228,2,95.0000036239625,6|2|2,3:0|2:0|3:2,2:0:0:0:
512,5,96826,6,2,B|507:38|507:38|505:41|505:41|501:68|501:68|499:74|499:74|495:98,1,95.0949971559724,6|2,3:0|2:0,2:1:0:0:
256,192,98540,5,2,1:2:0:0:
256,192,98826,1,2,1:2:0:0:
256,192,99112,1,2,1:2:0:0:
0,0,99397,5,2,1:0:0:0:
0,0,99683,1,2,1:0:0:0:
0,0,99969,1,2,1:0:0:0:
131,318,100254,6,0,P|135:223|142:128,1,190.000007247925,4|2,3:1|2:3,2:0:0:0:
134,324,100683,1,0,1:2:0:0:
374,329,100826,2,0,P|390:266|329:229,1,142.500005435944,0|0,3:2|2:0,2:0:0:0:
443,110,101112,2,0,B|489:82|521:94|521:94|500:95|481:103,1,118.75,2|0,1:3|2:0,2:0:0:0:
346,63,101397,2,0,B|317:52|298:5|298:5|314:27|321:30,1,109.250002083778,2|0,2:3|2:0,2:0:0:0:
356,167,101683,2,0,B|359:192|332:229|332:229|339:210|341:198,1,95,2|0,3:0|2:0,2:0:0:0:
260,188,101969,6,0,B|209:159|176:154|176:154|165:145|165:145|126:142|82:121,1,190.000007247925,6|2,3:0|3:0,2:0:0:0:
266,192,102397,1,0,1:2:0:0:
182,303,102540,2,0,P|146:274|146:228,1,95.0000036239625,6|0,3:0|2:0,2:0:0:0:
85,5,102826,2,0,B|107:-28|132:-13|132:-13|119:14|77:12,1,95,2|0,1:3|2:0,2:0:0:0:
210,33,103112,2,0,B|230:74|201:90|201:90|182:62|207:23,1,118.75,2|0,2:3|2:0,2:0:0:0:
114,130,103397,2,0,B|64:128|65:92|65:92|102:89|123:132,1,132.999995941162,2|0,2:3|2:0,2:0:0:0:
278,126,103683,6,0,P|327:217|284:286,1,190.000007247925,4|2,3:0|2:3,2:0:0:0:
93,265,104112,1,0,1:2:0:0:
40,174,104254,2,0,P|80:131|133:138,1,95.0000036239625,6|0,3:0|2:0,2:0:0:0:
199,250,104540,2,0,B|191:290|166:309|166:309|175:289|178:253,1,118.75,0|0,1:2|2:0,2:0:0:0:
113,129,104826,2,0,B|78:98|74:63|74:63|88:83|120:106,1,132.999995941162,2|0,2:3|2:0,2:0:0:0:
278,126,105112,2,0,B|322:109|365:130|365:130|330:127|293:144,1,142.500005435944,2|0,3:0|2:0,2:0:0:0:
350,228,105397,5,2,3:2:0:0:
352,232,105469,1,2,2:0:0:0:
353,236,105540,1,2,2:0:0:0:
354,240,105612,1,2,2:0:0:0:
355,244,105683,1,2,3:0:0:0:
356,248,105754,1,2,2:0:0:0:
357,252,105826,2,0,L|362:288,5,31.6666666666667,2|2|2|2|2|2,1:2|1:2|3:0|2:0|2:0|2:0,2:0:0:0:
493,234,106254,5,2,1:2:0:0:
494,225,106326,1,2,1:2:0:0:
495,217,106397,1,2,1:2:0:0:
496,209,106469,1,2,1:2:0:0:
496,202,106540,1,2,1:2:0:0:
497,195,106611,1,2,1:2:0:0:
498,187,106683,2,0,L|503:145,3,31.6666666666667,8|8|8|4,2:3|2:3|2:3|2:3,2:0:0:0:
444,65,106969,5,4,2:3:0:0:
437,57,107040,1,4,2:3:0:0:
430,49,107112,2,0,B|388:45|388:45|308:130|308:130|269:124,1,190.000007247925,6|2,3:2|2:3,2:0:0:0:
114,90,107540,1,0,1:2:0:0:
216,305,107683,2,0,P|256:261|238:221,1,95.0000036239625,2|0,3:0|2:0,2:0:0:0:
33,72,107969,2,0,B|0:77|-24:68|-24:68|3:94|38:94,1,118.75,2|0,1:3|2:0,2:0:0:0:
124,177,108254,2,0,B|148:200|156:231|156:231|159:183|147:157,1,132.999995941162,2|0,3:0|2:0,2:0:0:0:
176,28,108540,2,0,B|185:1|206:-18|206:-18|173:-10|148:27,1,118.75,2|0,3:0|2:0,2:0:0:0:
22,209,108826,6,0,P|16:286|59:357,1,158.333333333333,4|2,3:0|3:0,2:0:0:0:
251,339,109254,1,0,1:2:0:0:
342,320,109397,2,0,P|338:265|311:241,1,79.1666666666667,6|0,3:0|2:0,2:0:0:0:
311,114,109683,2,0,B|264:127|253:168|253:168|275:165|290:141,1,118.75,2|0,1:3|2:0,2:0:0:0:
412,165,109969,2,0,B|444:194|485:183|485:183|471:165|442:166,1,118.75,2|0,3:0|2:0,2:0:0:0:
406,56,110254,2,0,B|413:9|385:-17|385:-17|376:1|388:25,1,118.75,2|0,2:3|2:0,2:0:0:0:
113,7,110540,6,0,P|29:41|11:131,1,190.000007247925,4|2,3:0|2:3,2:0:0:0:
120,13,110969,1,0,1:2:0:0:
272,39,111112,2,0,P|309:68|308:119,1,95.0000036239625,6|0,3:0|2:0,2:0:0:0:
293,229,111397,2,0,B|248:216|243:170|243:170|256:185|271:193,1,118.75,2|0,1:3|2:0,2:0:0:0:
169,341,111683,2,0,B|208:304|256:328|256:328|233:331|221:338,1,132.999995941162,2|0,2:3|2:0,2:0:0:0:
132,187,111969,2,0,B|143:232|105:259|105:259|112:241|111:224,1,118.75,2|0,3:0|2:0,2:0:0:0:
22,226,112254,6,0,P|-9:289|24:346,1,142.500005435944,4|0,3:0|2:0,2:0:0:0:
169,341,112540,1,2,3:0:0:0:
175,343,112612,1,2,2:0:0:0:
182,347,112683,2,0,L|236:341,2,47.5000018119813,2|2|6,1:2|2:0|2:3,2:0:0:0:
294,229,112968,5,2,1:2:0:0:
296,225,113040,1,2,1:2:0:0:
298,221,113111,1,2,1:3:0:0:
299,217,113183,1,2,2:0:0:0:
301,213,113254,1,2,2:0:0:0:
303,210,113325,1,2,2:0:0:0:
305,206,113397,2,0,L|354:198,1,47.5000018119813,2|2,1:3|2:0,2:0:0:0:
367,116,113540,2,0,L|357:63,3,47.5000018119813,2|2|2|2,1:2|2:0|3:0|2:0,2:0:0:0:
273,82,113826,5,2,1:2:0:0:
273,82,113897,1,2,1:2:0:0:
273,82,113969,2,0,B|226:91|226:91|201:111|201:111|162:119,1,118.75,6|0,3:2|2:0,2:0:0:0:
163,119,114254,2,0,P|147:155|167:187,1,79.1666666666667,10|0,2:0|3:2,2:0:0:0:
335,309,114540,1,10,2:0:0:0:
335,309,114683,1,0,2:0:0:0:
434,285,114826,6,0,B|467:274|467:274|479:191,1,118.75,2|0,3:2|2:0,2:0:0:0:
479,191,115112,2,0,B|443:172|443:172|443:133,1,79.1666666666667,10|0,3:2|2:0,2:0:0:0:
257,7,115397,1,10,2:0:0:0:
257,7,115540,1,0,3:2:0:0:
156,0,115683,6,0,P|102:17|85:72,1,118.75,2|0,3:0|2:0,2:0:0:0:
85,72,115969,2,0,P|105:104|86:142,1,79.1666666666667,10|0,2:0|3:2,2:0:0:0:
0,297,116254,1,10,2:0:0:0:
0,297,116397,1,2,2:0:0:0:
119,306,116540,6,0,L|198:312,1,79.1666666666667,2|2,3:2|2:0,2:0:0:0:
288,282,116826,1,10,3:2:0:0:
272,371,116969,1,2,3:2:0:0:
170,224,117112,1,10,2:0:0:0:
197,311,117254,1,2,2:0:0:0:
254,194,117397,5,2,2:0:0:0:
259,188,117683,1,2,2:0:0:0:
264,182,117969,1,2,2:0:0:0:
442,0,118254,5,2,2:0:0:0:
436,5,118540,1,2,2:0:0:0:
431,11,118826,2,0,P|383:12|336:11,1,95,2|0,2:0|2:0,2:0:0:0:
336,11,119112,6,0,P|329:85|395:121,1,158.333333333333,6|2,3:2|2:3,2:0:0:0:
483,238,119540,1,2,3:2:0:0:
395,274,119683,2,0,P|337:266|277:258,1,118.75,2|0,2:3|2:0,2:0:0:0:
212,306,119969,2,0,P|220:344|194:373,1,79.1666666666667,2|0,1:2|2:0,2:0:0:0:
45,363,120254,2,0,P|19:289|51:216,1,158.333333333333,2|2,3:0|2:3,2:0:0:0:
267,8,120826,6,0,P|261:84|196:123,1,158.333333333333,2|2,3:2|2:3,2:0:0:0:
371,180,121254,1,2,1:2:0:0:
464,159,121397,2,0,P|470:120|454:85,1,79.1666666666667,2|0,3:0|2:0,2:0:0:0:
267,8,121683,2,0,P|202:47|197:125,1,158.333333333333,2|2,1:2|3:0,2:0:0:0:
399,278,122254,5,10,2:0:0:0:
399,278,122397,1,8,2:0:0:0:
302,306,122540,6,0,P|225:295|171:238,1,158.333333333333,2|2,3:2|2:3,2:0:0:0:
100,103,122969,1,2,3:2:0:0:
21,131,123112,2,0,P|5:194|43:239,1,118.75,2|0,3:0|2:0,2:0:0:0:
115,286,123397,2,0,P|148:275|172:230,1,79.1666666666667,2|0,1:2|2:0,2:0:0:0:
330,201,123683,2,0,P|316:121|306:38,1,158.333333333333,2|2,3:0|2:3,2:0:0:0:
452,46,124112,1,0,3:2:0:0:
512,113,124254,6,0,P|496:186|419:208,1,158.333333333333,2|2,3:2|2:3,2:0:0:0:
393,316,124683,1,0,1:2:0:0:
302,307,124826,2,0,P|280:267|260:235,1,79.1666666666667,2|0,3:0|2:0,2:0:0:0:
85,82,125112,2,0,P|75:120|43:241,1,158.333333333333,2|2,1:2|2:3,2:0:0:0:
408,8,125683,5,8,2:0:0:0:
408,8,125826,1,8,2:0:0:0:
501,27,125969,6,0,P|507:85|482:138,1,118.75,6|0,3:2|2:0,2:0:0:0:
481,138,126254,2,0,P|442:135|420:94,1,79.1666666666667,8|2,2:0|2:0,2:0:0:0:
279,98,126540,1,10,2:0:0:0:
270,97,126612,1,8,2:0:0:0:
261,97,126683,1,10,2:0:0:0:
252,96,126754,1,8,2:0:0:0:
244,96,126826,6,0,P|214:146|233:200,1,118.75,2|0,3:2|2:0,2:0:0:0:
232,199,127112,2,0,P|272:203|311:206,1,79.1666666666667,10|0,2:0|3:2,2:0:0:0:
490,327,127397,1,10,2:0:0:0:
490,338,127469,1,8,2:0:0:0:
489,350,127540,1,8,2:0:0:0:
489,362,127611,1,8,2:0:0:0:
489,375,127683,6,0,P|429:367|370:361,1,118.75,2|0,3:2|2:0,2:0:0:0:
371,361,127969,1,10,2:0:0:0:
279,351,128112,1,8,2:0:0:0:
298,250,128254,1,10,2:0:0:0:
301,238,128326,1,8,2:0:0:0:
304,227,128397,1,8,2:0:0:0:
307,216,128468,1,8,2:0:0:0:
310,205,128540,6,0,P|367:216|427:226,1,118.75,2|0,3:2|2:0,2:0:0:0:
427,226,128826,2,0,P|432:266|399:298,1,79.1666666666667,8|0,2:0|3:2,2:0:0:0:
211,283,129112,1,8,2:0:0:0:
203,280,129183,1,8,2:0:0:0:
195,278,129254,1,8,2:0:0:0:
187,276,129326,1,8,2:0:0:0:
180,274,129397,6,0,P|194:217|208:159,1,118.75,10|0,3:2|2:0,2:0:0:0:
208,158,129683,2,0,P|246:151|267:119,1,79.1666666666667,8|0,2:0|2:0,2:0:0:0:
112,0,129969,1,10,2:0:0:0:
102,0,130040,1,8,2:0:0:0:
93,0,130111,1,8,2:0:0:0:
85,0,130183,1,8,2:0:0:0:
76,0,130254,6,0,P|41:51|68:108,1,118.75,2|0,3:2|2:0,2:0:0:0:
58,100,130540,2,0,P|79:133|66:171,1,79.1666666666667,8|0,2:0|3:2,2:0:0:0:
57,288,130826,1,10,2:0:0:0:
47,288,130898,1,8,2:0:0:0:
36,288,130969,1,8,2:0:0:0:
26,289,131040,1,8,2:0:0:0:
17,289,131112,6,0,P|23:348|87:361,1,118.75,2|0,3:2|2:0,2:0:0:0:
73,365,131397,1,10,2:0:0:0:
196,357,131540,1,8,2:0:0:0:
182,234,131683,1,8,2:0:0:0:
181,223,131755,1,8,2:0:0:0:
179,211,131826,1,8,2:0:0:0:
178,199,131897,1,8,2:0:0:0:
177,187,131969,6,0,P|136:190|96:194,1,79.1666666666667,0|0,3:2|2:0,2:0:0:0:
265,16,132254,1,8,2:0:0:0:
361,6,132397,2,0,P|399:19|422:60,1,79.1666666666667,0|8,3:2|2:0,2:0:0:0:
496,169,132612,1,8,2:0:0:0:
496,177,132683,1,8,2:0:0:0:
495,185,132754,1,8,2:0:0:0:
495,193,132826,6,0,L|436:201,3,59.375,10|2|2|2,2:0|2:0|2:0|2:0,2:0:0:0:
490,295,133254,1,10,2:0:0:0:
455,326,133362,2,0,P|427:332|394:325,2,59.375,2|2|2,2:0|2:0|2:0,2:0:0:0:
263,346,133683,5,10,2:0:0:0:
265,302,133790,1,2,2:0:0:0:
246,261,133897,2,0,P|229:236|206:217,1,59.375,10|2,2:0|2:0,2:0:0:0:
99,153,134112,2,0,P|128:151|156:140,1,59.375,10|2,2:0|2:0,2:0:0:0:
267,83,134326,2,0,P|253:109|248:138,1,59.375,2|2,2:0|2:0,2:0:0:0:
144,316,134540,5,4,3:0:0:0:
106,342,134647,1,2,2:0:0:0:
60,327,134754,2,0,P|50:298|39:271,1,59.375,4|2,3:0|2:0,2:0:0:0:
6,90,134969,5,6,3:0:0:0:
256,192,135076,12,0,137326,2:0:0:0:
73,26,137969,6,0,B|61:91|101:149|71:204|71:204|104:217|130:259|130:259|138:199|160:214|161:164|155:130,1,382.374988330841,2|0,2:0|2:0,2:0:0:0:
157,145,140540,6,0,P|188:128|223:131,1,71.25,2|0,2:0|2:0,2:0:0:0:
312,181,140969,2,0,P|346:185|377:168,1,71.25,2|0,2:0|2:0,2:0:0:0:
481,51,141397,5,2,2:0:0:0:
481,51,142254,2,0,P|499:84|492:118,1,71.25,2|0,2:0|2:0,2:0:0:0:
409,182,142683,2,0,P|375:177|344:194,1,71.25,2|0,2:0|2:0,2:0:0:0:
289,83,143112,6,0,B|326:31|323:-12|323:-12|346:54|402:95|402:95|351:134|343:194,1,356.25,2|0,2:0|2:0,2:0:0:0:
264,257,144826,6,0,B|256:220|243:165|243:165|199:171|151:178|151:178|142:141|131:88|131:88|78:93|26:104|26:104|44:197|44:197|124:183,1,546.25,2|0,2:0|2:0,2:0:0:0:
142,253,147397,2,0,P|144:290|133:325,1,71.25,2|0,2:0|2:0,2:0:0:0:
35,263,147826,2,0,P|30:229|44:197,1,71.25,2|0,2:0|2:0,2:0:0:0:
131,88,148254,5,2,2:0:0:0:
131,88,149112,2,0,P|132:123|134:159,1,71.25,2|0,2:0|2:0,2:0:0:0:
138,246,149540,2,0,P|140:281|142:317,1,71.25,2|0,2:0|2:0,2:0:0:0:
286,337,149969,6,0,B|309:293|324:224|289:201|291:146|291:146|260:186|228:206|228:206|245:245|232:284,1,356.25,2|0,2:0|2:0,2:0:0:0:
149,177,151683,5,2,2:1:0:0:
188,95,151897,1,2,2:0:0:0:
110,51,152112,1,2,2:0:0:0:
188,95,152326,1,2,2:0:0:0:
149,177,152540,1,2,2:1:0:0:
188,95,152754,1,2,2:0:0:0:
110,51,152969,1,2,2:0:0:0:
188,95,153183,1,2,2:0:0:0:
357,175,153397,5,2,2:1:0:0:
318,93,153611,1,2,2:0:0:0:
396,49,153826,1,2,2:0:0:0:
318,93,154040,1,2,2:0:0:0:
357,175,154254,1,2,2:1:0:0:
318,93,154468,1,2,2:0:0:0:
396,49,154683,1,2,2:0:0:0:
318,93,154897,1,2,2:0:0:0:
149,177,155112,5,2,2:1:0:0:
188,259,155326,1,2,2:0:0:0:
110,303,155541,1,2,2:0:0:0:
188,259,155755,1,2,2:0:0:0:
149,177,155969,1,2,2:1:0:0:
188,259,156183,1,2,2:0:0:0:
110,303,156398,1,2,2:0:0:0:
188,259,156612,1,2,2:0:0:0:
357,175,156826,5,2,2:1:0:0:
318,257,157040,1,2,2:0:0:0:
396,301,157255,1,2,2:0:0:0:
322,261,157469,1,2,2:0:0:0:
322,261,157683,6,0,P|300:253|275:247,1,47.5,2|0,2:1|2:0,2:0:0:0:
155,175,157897,2,0,P|178:169|200:161,1,47.5,2|0,2:0|2:0,2:0:0:0:
171,298,158112,2,0,P|183:277|193:256,1,47.5,2|0,2:0|2:0,2:0:0:0:
105,381,158326,2,0,P|99:357|91:335,1,47.5,2|0,2:0|2:0,2:0:0:0:
65,162,158540,5,2,2:1:0:0:
3,83,158754,1,2,2:0:0:0:
96,66,158969,1,2,2:0:0:0:
3,83,159183,1,2,2:0:0:0:
65,162,159397,1,2,2:1:0:0:
3,83,159611,1,2,2:0:0:0:
96,66,159826,1,2,2:0:0:0:
3,83,160040,1,2,2:0:0:0:
167,138,160254,5,2,2:1:0:0:
244,192,160468,1,2,2:0:0:0:
167,138,160683,1,2,2:0:0:0:
155,238,160897,1,2,2:0:0:0:
167,138,161111,1,2,2:1:0:0:
244,192,161325,1,2,2:0:0:0:
167,138,161540,1,2,2:0:0:0:
155,238,161754,1,2,2:0:0:0:
264,88,161969,5,2,2:1:0:0:
343,25,162183,1,2,2:0:0:0:
357,127,162398,1,2,2:0:0:0:
343,25,162612,1,2,2:0:0:0:
264,88,162826,1,2,2:1:0:0:
343,25,163040,1,2,2:0:0:0:
357,127,163255,1,2,2:0:0:0:
343,25,163469,1,2,2:0:0:0:
429,292,163683,5,2,2:1:0:0:
348,230,163897,1,2,2:0:0:0:
429,292,164112,1,2,2:0:0:0:
440,192,164326,1,2,2:0:0:0:
429,292,164540,1,2,2:1:0:0:
348,230,164754,1,2,2:0:0:0:
429,292,164969,1,2,2:0:0:0:
440,192,165183,1,2,2:0:0:0:
332,330,165397,6,0,P|301:363|284:384,1,71.2500027179719,2|0,2:0|2:0,2:0:0:0:
221,314,167112,6,0,P|191:278|174:258,2,72.1999991186524,2|2|2,2:0|2:0|2:0,2:0:0:0:
300,270,169763,5,2,2:0:0:0:
256,192,170815,5,2,2:0:0:0:
256,192,170946,12,0,175420,2:0:0:0:
