osu file format v14

[General]
AudioFilename: audio.mp3
AudioLeadIn: 0
PreviewTime: 31684
Countdown: 0
SampleSet: Soft
StackLeniency: 0.6
Mode: 0
LetterboxInBreaks: 0
WidescreenStoryboard: 0

[Editor]
Bookmarks: 19684,40256,59113,77969,95112,107112,119112,131112,144826,158540
DistanceSpacing: 0.5
BeatDivisor: 4
GridSize: 4
TimelineZoom: 2.3

[Metadata]
Title:Aru Shoujo no Senzai Ishiki
TitleUnicode:或る少女の潜在意識
Artist:PolyphonicBranch
ArtistUnicode:PolyphonicBranch
Creator:Some Hero
Version:Collab Insane
Source:
Tags:PandaHero Rock Japanese 茶太 Chata A Certain Girl's Subconscious 超会 竜の涙 聲の羅針盤 Ryuunonamida Koenorashinban リュウノナミダ コエノラシンバン
BeatmapID:2907223
BeatmapSetID:1354017

[Difficulty]
HPDrainRate:5
CircleSize:4
OverallDifficulty:7
ApproachRate:8
SliderMultiplier:1.7
SliderTickRate:1

[Events]
//Background and Video events
0,0,"wp.jpg",0,0
//Break Periods
//Storyboard Layer 0 (Background)
//Storyboard Layer 1 (Fail)
//Storyboard Layer 2 (Pass)
//Storyboard Layer 3 (Foreground)
//Storyboard Layer 4 (Overlay)
//Storyboard Sound Samples

[TimingPoints]
400,428.571428571429,3,2,1,50,1,0
5542,428.571428571429,4,2,1,50,1,0
6399,428.571428571429,3,2,1,55,1,0
6827,-100,3,2,1,60,0,0
7256,-100,3,2,1,65,0,0
7684,-100,3,2,1,70,0,0
8113,-100,3,2,1,75,0,0
8541,-100,3,2,1,80,0,0
8970,428.571428571429,5,2,1,60,1,0
8970,-200,5,2,1,60,0,0
9505,-200,5,2,1,50,0,0
9827,-100,5,2,1,50,0,0
10684,-100,5,2,5,60,0,0
11112,428.571428571429,5,2,1,60,1,0
11112,-100,5,2,1,50,0,0
28256,428.571428571429,4,2,1,70,1,0
29113,-100,4,2,1,60,0,0
29970,-100,4,2,1,50,0,0
31684,-100,4,2,1,60,0,0
32541,-80,4,2,1,60,0,0
33398,-71.4285714285714,4,2,2,70,0,1
34256,-100,4,2,2,70,0,1
34541,-100,4,2,3,70,0,1
34827,-100,4,2,4,70,0,1
35113,-71.4285714285714,4,2,2,70,0,1
35970,-100,4,2,2,70,0,1
36256,-100,4,2,3,70,0,1
36398,-100,4,2,1,70,0,1
36541,-100,4,2,4,70,0,1
36827,-71.4285714285714,4,2,2,70,0,1
37684,-100,4,2,2,70,0,1
37970,-100,4,2,3,70,0,1
38113,-100,4,2,1,70,0,1
38256,-100,4,2,4,70,0,1
38826,-100,4,2,2,70,0,1
39398,-66.6666666666667,4,2,2,70,0,1
39826,-66.6666666666667,4,2,1,70,0,1
40256,-71.4285714285714,4,2,2,70,0,1
41113,-100,4,2,2,70,0,1
41398,-100,4,2,3,70,0,1
41684,-100,4,2,4,70,0,1
41970,-100,4,2,2,70,0,1
42113,-71.4285714285714,4,2,2,70,0,1
43112,-71.4285714285714,4,2,3,70,0,1
43256,-71.4285714285714,4,2,1,70,0,1
43398,-71.4285714285714,4,2,4,70,0,1
43684,-71.4285714285714,4,2,2,70,0,1
44826,-71.4285714285714,4,2,3,70,0,1
44970,-71.4285714285714,4,2,1,70,0,1
45113,-71.4285714285714,4,2,4,70,0,1
45398,-71.4285714285714,4,2,2,70,0,1
47113,-133.333333333333,4,2,2,60,0,0
48827,-133.333333333333,4,2,1,60,0,0
49113,-133.333333333333,4,2,2,60,0,0
50541,-133.333333333333,4,2,2,50,0,0
52256,-111.111111111111,4,2,1,60,0,0
52827,-111.111111111111,4,2,2,60,0,0
53113,-111.111111111111,4,2,1,60,0,0
53398,-111.111111111111,4,2,2,60,0,0
53970,-111.111111111111,4,2,1,60,0,0
54256,-111.111111111111,4,2,2,60,0,0
54398,-111.111111111111,4,2,1,60,0,0
54541,-111.111111111111,4,2,2,60,0,0
54827,-111.111111111111,4,2,1,60,0,0
55113,-111.111111111111,4,2,2,60,0,0
55398,-111.111111111111,4,2,3,60,0,0
55684,-111.111111111111,4,2,1,60,0,0
56256,-111.111111111111,4,2,2,60,0,0
56541,-111.111111111111,4,2,1,60,0,0
56826,-111.111111111111,4,2,2,60,0,0
57255,-111.111111111111,4,2,1,60,0,0
57684,-111.111111111111,4,2,2,60,0,0
57827,-111.111111111111,4,2,1,60,0,0
57970,-111.111111111111,4,2,2,60,0,0
58256,-111.111111111111,4,2,1,60,0,0
58541,-111.111111111111,4,2,2,60,0,0
58827,-111.111111111111,4,2,3,60,0,0
59113,-111.111111111111,4,2,1,60,0,0
69398,428.571428571429,5,2,5,60,1,0
95112,428.571428571429,4,2,5,50,1,0
96826,-100,4,2,6,90,0,0
98540,-100,4,2,2,60,0,0
99397,-80,4,2,2,60,0,0
100254,-71.4285714285714,4,2,1,70,0,1
101112,-100,4,2,1,70,0,1
101397,-100,4,2,3,70,0,1
101683,-100,4,2,4,70,0,1
101969,-71.4285714285714,4,2,2,70,0,1
102826,-100,4,2,2,70,0,1
103112,-100,4,2,3,70,0,1
103254,-100,4,2,1,70,0,1
103396,-100,4,2,4,70,0,1
103683,-71.4285714285714,4,2,2,70,0,1
104540,-100,4,2,2,70,0,1
104825,-100,4,2,3,70,0,1
104969,-100,4,2,1,70,0,1
105112,-100,4,2,4,70,0,1
105682,-100,4,2,2,70,0,1
106254,-66.6666666666667,4,2,2,70,0,1
106683,-66.6666666666667,4,2,1,70,0,1
107112,-71.4285714285714,4,2,2,70,0,1
107683,-100,4,2,2,70,0,1
108254,-100,4,2,3,70,0,1
108540,-100,4,2,4,70,0,1
108826,-71.4285714285714,4,2,2,70,0,1
109969,-71.4285714285714,4,2,3,70,0,1
110112,-71.4285714285714,4,2,1,70,0,1
110254,-71.4285714285714,4,2,4,70,0,1
110540,-71.4285714285714,4,2,2,70,0,1
111682,-71.4285714285714,4,2,3,70,0,1
111826,-71.4285714285714,4,2,1,70,0,1
111969,-71.4285714285714,4,2,4,70,0,1
112254,-71.4285714285714,4,2,2,70,0,1
113969,-125,4,2,2,60,0,0
115683,-125,4,2,1,60,0,0
115969,-125,4,2,2,60,0,0
117397,-125,4,2,2,50,0,0
119112,-111.111111111111,4,2,1,60,0,0
119683,-111.111111111111,4,2,2,60,0,0
119969,-111.111111111111,4,2,1,60,0,0
120254,-111.111111111111,4,2,2,60,0,0
120826,-111.111111111111,4,2,1,60,0,0
121111,-111.111111111111,4,2,2,60,0,0
121254,-111.111111111111,4,2,1,60,0,0
121397,-111.111111111111,4,2,2,60,0,0
121683,-111.111111111111,4,2,1,60,0,0
121968,-111.111111111111,4,2,2,60,0,0
122254,-111.111111111111,4,2,3,60,0,0
122825,-111.111111111111,4,2,2,60,0,0
123397,-111.111111111111,4,2,1,60,0,0
123683,-111.111111111111,4,2,2,60,0,0
124254,-111.111111111111,4,2,1,60,0,0
124540,-111.111111111111,4,2,2,60,0,0
124683,-111.111111111111,4,2,1,60,0,0
124826,-111.111111111111,4,2,2,60,0,0
125112,-111.111111111111,4,2,1,60,0,0
125397,-111.111111111111,4,2,2,60,0,0
125683,-111.111111111111,4,2,3,60,0,0
125969,-111.111111111111,4,2,1,60,0,0
134540,-111.111111111111,4,2,5,70,0,0
137326,-111.111111111111,4,2,5,5,0,0
137969,-199.999999999999,4,2,5,50,0,0
151683,-199.999999999999,4,2,5,60,0,0
165397,-333.333333333331,4,2,5,60,0,0
168826,468.75,4,2,5,60,1,0
168826,-333.333333333333,4,2,5,60,0,0
169763,526.315789473684,4,2,5,50,1,0
170815,526.315789473684,4,2,5,40,1,0

[Colours]
Combo1 : 232,238,233
Combo2 : 118,181,100
Combo3 : 232,119,70

[HitObjects]
46,150,400,6,0,L|146:131,1,85,10|10,2:0|2:0,2:0:0:0:
209,165,828,1,2,2:0:0:0:
209,165,935,1,8,2:0:0:0:
209,165,1042,1,10,2:0:0:0:
190,239,1257,1,10,2:0:0:0:
190,239,1685,6,0,L|86:258,1,85,10|10,2:0|2:0,2:0:0:0:
47,303,2114,1,2,2:0:0:0:
47,303,2221,1,8,2:0:0:0:
47,303,2328,1,10,2:0:0:0:
112,358,2542,1,10,2:0:0:0:
112,358,2864,5,8,2:0:0:0:
112,358,2971,2,0,L|129:272,1,85,10|10,2:0|2:0,2:0:0:0:
41,220,3400,1,2,2:0:0:0:
41,220,3507,1,8,2:0:0:0:
41,220,3614,1,10,2:0:0:0:
128,179,3828,1,10,2:0:0:0:
128,179,4257,5,10,2:0:0:0:
200,204,4471,1,10,2:0:0:0:
253,149,4685,1,2,2:0:0:0:
253,149,4792,1,8,2:0:0:0:
253,149,4900,1,10,2:0:0:0:
330,178,5114,1,10,2:0:0:0:
330,178,5435,5,8,2:0:0:0:
330,178,5542,1,10,2:0:0:0:
382,235,5756,1,8,2:0:0:0:
374,254,5863,1,8,2:0:0:0:
366,273,5970,1,8,2:0:0:0:
356,291,6077,1,8,2:0:0:0:
347,310,6184,1,8,2:0:0:0:
337,328,6292,1,8,2:0:0:0:
328,347,6399,6,0,L|315:308,5,28.3333333333333,10|8|8|8|8|8,3:1|2:0|2:0|2:0|2:0|2:0,2:0:0:0:
245,292,6827,2,0,L|255:253,5,28.3333333333333,10|8|8|8|8|8,3:1|2:0|2:0|2:0|2:0|2:0,2:0:0:0:
200,188,7256,6,0,L|191:224,5,28.3333333333333,10|8|8|8|8|8,3:1|2:0|2:0|2:0|2:0|2:0,2:0:0:0:
111,236,7684,2,0,L|126:270,5,28.3333333333333,10|8|8|8|8|8,3:1|2:0|2:0|2:0|2:0|2:0,2:0:0:0:
44,162,8113,6,0,L|51:117,5,28.3333333333333,10|8|8|8|8|8,3:1|2:0|2:0|2:0|2:0|2:0,2:0:0:0:
120,75,8541,2,0,L|124:104,5,28.3333333333333,10|8|8|8|8|8,3:1|2:0|2:0|2:0|2:0|2:0,2:0:0:0:
74,19,8970,6,0,L|179:39,1,106.25,2|0,3:0|2:0,2:0:0:0:
207,55,9612,1,2,2:0:0:0:
224,84,9720,1,2,2:0:0:0:
235,120,9827,2,0,L|210:166,5,28.3333333333333,2|2|2|2|2|2,2:0|2:0|2:0|2:0|2:0|2:0,2:0:0:0:
311,88,10255,2,0,L|380:97,1,42.5,2|2,2:0|2:0,2:0:0:0:
434,137,10470,1,2,1:2:0:0:
434,137,10577,1,2,1:2:0:0:
434,137,10684,1,0,1:0:0:0:
434,137,11112,6,0,P|369:163|343:220,1,127.5,2|0,3:2|2:0,2:0:0:0:
339,241,11541,2,0,L|266:223,1,42.5,2|8,3:2|2:0,2:0:0:0:
233,275,11755,1,10,2:0:0:0:
233,275,11862,1,0,2:0:0:0:
233,275,11970,2,0,L|254:337,1,42.5,8|0,3:2|2:0,2:0:0:0:
183,361,12184,1,2,2:3:0:0:
183,361,12291,1,8,2:0:0:0:
183,361,12398,1,10,3:2:0:0:
160,341,12505,1,0,2:0:0:0:
134,326,12612,1,10,2:0:0:0:
105,317,12720,1,0,2:0:0:0:
75,319,12827,1,2,3:2:0:0:
47,330,12934,1,10,2:0:0:0:
29,348,13041,2,0,L|10:366,2,21.25,10|0|2,2:0|1:0|2:0,2:0:0:0:
62,269,13255,6,0,P|70:220|61:168,1,85,2|8,3:2|2:0,2:0:0:0:
42,93,13684,1,2,3:2:0:0:
42,93,13791,1,8,2:0:0:0:
170,150,14005,1,2,2:0:0:0:
170,150,14112,1,8,3:2:0:0:
212,33,14327,1,2,2:3:0:0:
212,33,14434,1,8,2:0:0:0:
212,33,14541,1,8,3:2:0:0:
182,38,14648,1,0,2:0:0:0:
156,54,14755,1,10,2:0:0:0:
133,73,14862,1,0,2:0:0:0:
114,96,14970,1,2,3:2:0:0:
102,123,15077,1,10,2:0:0:0:
97,152,15184,2,0,L|104:184,2,21.25,10|0|2,2:0|1:0|2:0,2:0:0:0:
191,175,15398,5,2,3:2:0:0:
309,232,15612,1,10,2:0:0:0:
257,356,15827,1,2,3:2:0:0:
257,356,15934,1,8,2:0:0:0:
131,312,16148,1,2,2:0:0:0:
131,312,16255,1,8,3:2:0:0:
223,246,16470,5,2,2:3:0:0:
223,246,16577,1,8,2:0:0:0:
223,246,16684,1,10,3:2:0:0:
251,236,16791,1,0,2:0:0:0:
280,240,16898,1,10,2:0:0:0:
305,255,17005,1,0,2:0:0:0:
325,276,17112,1,2,3:2:0:0:
347,296,17220,1,8,2:0:0:0:
372,310,17327,2,0,L|407:300,2,21.25,8|0|2,2:0|1:2|2:0,2:0:0:0:
474,309,17541,6,0,P|465:253|470:214,1,85,2|10,3:2|2:0,2:0:0:0:
445,125,17970,1,2,3:2:0:0:
445,125,18077,2,0,P|406:146|353:167,1,85,8|0,2:0|2:0,2:0:0:0:
339,168,18398,2,0,L|348:114,1,42.5,8|0,3:2|2:0,2:0:0:0:
352,45,18612,1,2,2:3:0:0:
352,45,18720,1,8,2:0:0:0:
352,45,18827,1,10,3:2:0:0:
323,37,18934,1,0,2:0:0:0:
294,44,19041,1,10,2:0:0:0:
266,55,19148,1,0,2:0:0:0:
246,77,19255,1,2,3:2:0:0:
236,105,19362,1,10,2:0:0:0:
240,134,19470,2,0,L|246:166,2,21.25,10|0|2,2:0|1:0|2:0,2:0:0:0:
172,226,19684,6,0,P|116:217|77:222,1,85,2|10,3:2|2:0,2:0:0:0:
113,319,20113,1,2,3:2:0:0:
113,319,20220,2,0,P|152:340|185:368,1,85,8|0,2:0|2:0,2:0:0:0:
219,367,20541,2,0,L|233:314,1,42.5,8|0,3:2|2:0,2:0:0:0:
299,261,20755,1,2,2:3:0:0:
299,261,20863,1,8,2:0:0:0:
299,261,20970,1,10,3:2:0:0:
307,232,21077,1,0,2:0:0:0:
330,214,21184,1,10,2:0:0:0:
356,210,21291,1,0,2:0:0:0:
386,220,21398,1,2,3:2:0:0:
404,237,21505,1,8,2:0:0:0:
413,263,21613,2,0,L|419:295,2,21.25,8|0|2,2:0|1:0|2:0,2:0:0:0:
492,202,21827,6,0,P|494:178|501:152,1,42.5,2|0,3:2|2:0,2:0:0:0:
458,92,22041,2,0,P|436:94|415:94,1,42.5,10|0,2:0|2:0,2:0:0:0:
353,43,22255,1,2,3:2:0:0:
353,43,22362,1,8,2:0:0:0:
353,43,22470,1,10,2:0:0:0:
248,142,22683,1,8,3:2:0:0:
191,72,22897,1,2,2:3:0:0:
191,72,23004,1,8,2:0:0:0:
191,72,23112,1,10,3:2:0:0:
156,42,23219,1,0,2:0:0:0:
115,38,23326,1,10,2:0:0:0:
78,51,23433,1,0,2:0:0:0:
58,85,23540,1,2,3:2:0:0:
58,122,23647,1,8,2:0:0:0:
70,154,23754,2,0,L|84:169,2,21.25,8|0|2,2:0|1:0|2:0,2:0:0:0:
146,221,23969,5,2,3:2:0:0:
28,352,24183,1,10,2:0:0:0:
164,341,24397,1,2,3:2:0:0:
164,341,24504,1,8,2:0:0:0:
21,233,24719,1,2,2:0:0:0:
21,233,24826,1,8,3:2:0:0:
80,318,25040,1,2,2:3:0:0:
80,318,25147,1,8,2:0:0:0:
80,318,25254,1,10,3:2:0:0:
112,326,25362,1,0,2:0:0:0:
142,318,25469,1,10,2:0:0:0:
165,290,25576,1,0,2:0:0:0:
164,252,25683,1,2,3:2:0:0:
146,221,25790,1,10,2:0:0:0:
118,200,25897,2,0,L|94:190,2,21.25,10|0|2,2:0|1:0|2:0,2:0:0:0:
198,149,26112,6,0,P|222:106|262:88,1,85,2|8,3:2|2:0,2:0:0:0:
328,22,26541,1,2,3:2:0:0:
328,22,26648,1,8,2:0:0:0:
328,22,26755,2,0,P|337:40|356:65,2,42.5,10|0|8,2:0|2:0|3:2,2:0:0:0:
483,179,27183,1,2,2:3:0:0:
483,179,27291,1,8,2:0:0:0:
483,179,27398,1,8,3:2:0:0:
456,212,27505,1,0,2:0:0:0:
418,222,27612,1,10,2:0:0:0:
384,208,27719,1,0,2:0:0:0:
366,173,27826,1,2,3:2:0:0:
378,135,27933,1,10,2:0:0:0:
409,114,28041,2,0,L|430:110,2,21.25,10|0|2,2:0|1:0|2:0,2:0:0:0:
256,192,28256,5,6,3:2:0:0:
256,192,28363,12,6,29113,3:2:0:0:
256,192,29220,12,6,29970,3:2:0:0:
94,49,31684,6,0,P|126:93|113:147,2,113.333333333333,2|2|2,1:2|1:2|1:2,2:0:0:0:
235,159,32541,6,0,P|217:225|154:252,2,141.666666666667,2|2|2,1:0|1:0|1:0,2:0:0:0:
264,347,33398,6,0,P|196:382|127:350,1,158.666661824544,4|2,3:1|2:3,2:0:0:0:
46,369,33827,1,0,1:2:0:0:
127,350,33970,1,0,3:2:0:0:
377,279,34256,2,0,P|366:252|359:225,1,56.6666666666667,2|0,1:3|2:0,2:0:0:0:
235,159,34541,2,0,P|262:163|290:170,1,56.6666666666667,2|0,2:3|2:0,2:0:0:0:
410,103,34827,2,0,P|392:124|372:145,1,56.6666666666667,2|0,3:0|2:0,2:0:0:0:
298,47,35113,6,0,P|229:14|164:53,1,158.666661824544,6|2,3:0|3:0,2:0:0:0:
94,0,35541,1,0,1:2:0:0:
164,54,35684,1,6,3:0:0:0:
80,284,35970,2,0,P|101:266|109:239,1,56.6666666666667,2|0,1:3|2:0,2:0:0:0:
0,177,36256,2,0,P|4:204|23:225,1,56.6666666666667,2|0,2:3|1:0,2:0:0:0:
131,161,36541,2,0,P|104:150|77:157,1,56.6666666666667,2|0,2:3|2:0,2:0:0:0:
224,284,36827,6,0,B|258:260|306:285|306:294|306:304|344:318|372:299,1,158.666661824544,4|2,3:0|2:3,2:0:0:0:
345,209,37256,1,0,1:2:0:0:
372,300,37398,1,6,3:0:0:0:
414,83,37684,2,0,L|451:40,1,56.6666666666667,0|0,1:2|2:0,2:0:0:0:
473,177,37970,1,2,2:3:0:0:
500,270,38113,1,0,1:0:0:0:
473,177,38256,2,0,L|489:122,1,56.6666666666667,2|0,3:0|2:0,2:0:0:0:
293,49,38541,6,0,P|238:49|193:82,1,113.333333333333,2|2,3:2|3:0,2:0:0:0:
143,150,38970,1,2,1:2:0:0:
193,82,39113,2,0,P|187:55|169:33,1,56.6666666666667,2|2,3:0|2:0,2:0:0:0:
265,232,39398,2,0,B|265:256|265:256|277:277,5,42.5000016212464,2|2|2|2|2|2,1:2|1:2|1:2|1:2|1:2|1:2,2:0:0:0:
239,346,39826,5,8,2:3:0:0:
239,346,39898,1,8,2:3:0:0:
239,346,39969,1,8,2:3:0:0:
238,345,40041,2,0,P|210:344|191:347,2,42.5000016212464,4|4|4,2:3|2:3|2:3,2:0:0:0:
173,267,40256,6,0,B|75:240|109:326|-15:296,1,158.666661824544,6|2,3:2|2:3,2:0:0:0:
19,207,40684,1,0,1:2:0:0:
94,148,40827,2,0,P|134:157|188:165,1,79.3333309122722,2|0,3:0|2:0,2:0:0:0:
280,93,41113,6,0,L|265:35,1,56.6666666666667,2|0,1:3|2:0,2:0:0:0:
371,134,41398,2,0,L|378:69,1,56.6666666666667,2|0,3:0|2:0,2:0:0:0:
311,231,41684,2,0,L|288:159,1,56.6666666666667,2|0,3:0|2:0,2:0:0:0:
483,238,41970,5,4,3:0:0:0:
428,316,42113,2,0,L|337:339,1,79.3333309122722,0|2,2:0|3:0,2:0:0:0:
263,373,42398,5,0,1:2:0:0:
208,295,42541,2,0,L|117:272,1,79.3333309122722,6|0,3:0|2:0,2:0:0:0:
32,363,42827,2,0,B|89:337|89:337|108:241,1,158.666661824544,2|2,1:3|3:0,2:0:0:0:
27,156,43256,1,0,1:0:0:0:
131,121,43398,1,2,2:3:0:0:
39,177,43541,1,2,2:0:0:0:
189,42,43684,6,0,P|172:111|231:189,1,158.666661824544,4|2,3:0|2:3,2:0:0:0:
315,178,44113,1,0,1:2:0:0:
315,178,44256,2,0,P|324:134|314:84,1,79.3333309122722,6|0,3:0|2:0,2:0:0:0:
412,242,44541,2,0,P|326:232|231:284,1,158.666661824544,2|2,1:3|2:3,2:0:0:0:
260,258,44970,1,0,1:0:0:0:
216,351,45113,1,2,3:0:0:0:
216,351,45256,1,0,2:0:0:0:
158,263,45398,6,0,L|116:250,5,39.6666654561361,4|2|2|2|2|2,3:0|2:0|2:0|2:0|3:0|2:0,2:0:0:0:
24,228,45827,1,2,1:2:0:0:
104,163,45970,1,6,2:3:0:0:
24,105,46113,1,2,1:2:0:0:
24,105,46184,1,2,1:2:0:0:
24,105,46256,6,0,L|15:164,3,39.6666654561361,2|2|2|2,1:3|2:0|2:0|2:0,2:0:0:0:
95,52,46541,2,0,L|86:-7,3,39.6666654561361,2|2|2|2,1:3|2:0|1:2|2:0,2:0:0:0:
183,82,46827,2,0,L|174:141,3,39.6666654561361,2|2|2|2,3:0|2:0|1:2|1:2,2:0:0:0:
288,121,47113,6,0,L|274:211,1,85,6|10,3:2|2:0,2:0:0:0:
274,204,47541,1,0,3:2:0:0:
350,240,47684,2,0,L|363:196,1,42.5000016212464,10|0,2:0|2:0,2:0:0:0:
436,177,47970,2,0,L|423:84,2,85.0000032424928,2|10|10,3:2|3:2|2:0,2:0:0:0:
436,177,48684,1,0,3:2:0:0:
478,248,48827,6,0,L|468:290,1,42.5000016212464,2|0,3:0|2:0,2:0:0:0:
423,355,49113,2,0,P|343:326|284:320,1,127.500004863739,10|2,2:0|2:0,2:0:0:0:
226,314,49684,2,0,L|243:254,1,42.5000016212464,2|2,3:2|2:0,2:0:0:0:
180,221,49970,1,10,3:2:0:0:
144,288,50113,1,2,3:2:0:0:
89,341,50256,1,10,2:0:0:0:
66,268,50398,1,2,2:0:0:0:
158,292,50541,5,2,2:0:0:0:
172,296,50827,1,2,2:0:0:0:
186,300,51113,1,2,2:0:0:0:
224,134,51398,5,2,2:0:0:0:
210,138,51684,1,2,2:0:0:0:
196,142,51970,1,2,2:0:0:0:
321,32,52256,6,0,P|382:35|488:55,1,152.999995330811,6|2,3:2|3:2,2:0:0:0:
480,142,52827,2,0,L|466:213,1,50.9999984436036,2|0,2:3|2:0,2:0:0:0:
401,253,53113,2,0,L|374:132,1,101.999996887207,2|2,1:2|3:0,2:0:0:0:
378,153,53541,1,0,2:0:0:0:
287,134,53684,2,0,L|216:145,1,50.9999984436036,2|0,2:3|2:0,2:0:0:0:
148,214,53970,6,0,P|188:235|226:252,1,76.4999976654053,2|0,3:2|2:0,2:0:0:0:
233,266,54256,1,2,2:3:0:0:
197,350,54398,1,2,1:2:0:0:
105,337,54541,2,0,L|48:332,1,50.9999984436036,2|0,3:0|2:0,2:0:0:0:
15,248,54827,2,0,L|72:253,1,50.9999984436036,2|0,1:2|2:0,2:0:0:0:
119,177,55113,2,0,L|62:172,1,50.9999984436036,2|0,3:0|2:0,2:0:0:0:
37,85,55398,1,10,2:0:0:0:
116,38,55541,1,8,2:0:0:0:
235,157,55684,6,0,P|223:252|229:324,1,152.999995330811,2|2,3:2|3:2,2:0:0:0:
309,349,56256,2,0,L|329:279,1,50.9999984436036,2|0,3:0|2:0,2:0:0:0:
353,212,56541,2,0,P|405:223|462:239,1,101.999996887207,2|2,1:2|3:0,2:0:0:0:
452,235,56970,1,0,2:0:0:0:
492,153,57113,2,0,L|447:112,1,50.9999984436036,2|0,2:3|3:2,2:0:0:0:
389,53,57398,6,0,L|355:118,1,50.9999984436036,2|0,3:2|2:0,2:0:0:0:
288,149,57684,1,2,2:3:0:0:
260,61,57827,1,0,1:2:0:0:
281,241,57970,2,0,L|254:292,1,50.9999984436036,2|0,3:0|2:0,2:0:0:0:
149,216,58256,2,0,L|206:213,1,50.9999984436036,2|0,1:2|2:0,2:0:0:0:
191,347,58541,2,0,L|160:298,1,50.9999984436036,2|0,2:3|2:0,2:0:0:0:
38,222,58827,1,8,2:0:0:0:
1,303,58970,1,8,2:0:0:0:
9,384,59113,6,0,P|57:365|107:355,1,101.999996887207,6|8,3:2|2:0,2:0:0:0:
272,374,59541,1,2,2:0:0:0:
337,317,59684,1,10,2:0:0:0:
337,317,59827,1,10,2:0:0:0:
426,317,59970,6,0,P|410:268|397:219,2,101.999996887207,2|10|10,3:2|2:0|2:0,2:0:0:0:
476,170,60827,2,0,P|453:139|417:127,1,76.4999976654053,2|0,3:2|2:0,2:0:0:0:
407,120,61113,1,10,2:0:0:0:
371,41,61256,1,8,2:0:0:0:
450,15,61398,1,10,2:0:0:0:
274,137,61684,2,0,P|267:86|256:36,2,101.999996887207,2|10|10,3:2|2:0|2:0,2:0:0:0:
79,310,62541,6,0,B|174:304|189:349|284:346,1,203.999993774414,2|10,3:2|2:0,2:0:0:0:
438,200,63398,2,0,P|419:247|407:297,2,101.999996887207,2|8|10,3:2|2:0|2:0,2:0:0:0:
416,91,64256,2,0,P|381:78|347:59,1,76.4999976654053,2|0,3:2|2:0,2:0:0:0:
337,66,64541,1,10,2:0:0:0:
302,142,64684,1,8,2:0:0:0:
265,218,64827,1,8,2:0:0:0:
68,300,65113,5,2,3:2:0:0:
35,212,65398,1,10,2:0:0:0:
35,212,65541,1,0,3:2:0:0:
97,112,65684,2,0,P|129:153|153:198,1,101.999996887207,10|10,2:0|2:0,2:0:0:0:
256,192,66041,12,10,67684,2:0:0:0:
346,319,69398,6,0,P|366:282|369:240,1,85,4|0,3:0|2:0,2:0:0:0:
310,182,69719,2,0,P|267:182|230:201,1,85,10|0,2:0|2:0,2:0:0:0:
213,279,70041,2,0,P|234:315|269:338,1,85,2|8,2:0|3:2,2:0:0:0:
53,323,70469,5,10,2:0:0:0:
53,323,70576,1,2,2:0:0:0:
53,323,70683,1,2,3:2:0:0:
23,284,70790,1,2,2:0:0:0:
27,237,70898,1,2,2:0:0:0:
60,205,71005,1,10,2:0:0:0:
104,195,71112,2,0,L|122:233,1,42.5,10|2,1:2|2:0,2:0:0:0:
198,119,71326,2,0,L|194:162,1,42.5,10|2,1:2|2:0,2:0:0:0:
243,45,71540,6,0,L|327:33,1,85,2|0,3:2|2:0,2:0:0:0:
383,98,71862,2,0,L|350:176,1,85,10|0,2:0|2:0,2:0:0:0:
408,242,72183,2,0,L|440:320,1,85,2|8,2:0|3:2,2:0:0:0:
505,169,72612,5,10,2:0:0:0:
505,169,72719,1,2,2:0:0:0:
505,169,72826,1,2,3:2:0:0:
511,125,72933,1,2,2:0:0:0:
489,79,73040,1,2,2:0:0:0:
444,61,73148,1,10,2:0:0:0:
402,70,73255,2,0,L|371:100,1,42.5,10|2,1:2|2:0,2:0:0:0:
281,59,73469,2,0,L|240:45,1,42.5,10|2,1:2|2:0,2:0:0:0:
153,25,73683,6,0,P|140:65|136:107,1,85,2|0,3:2|2:0,2:0:0:0:
126,190,74005,2,0,P|139:230|159:267,1,85,10|0,2:0|2:0,2:0:0:0:
192,340,74326,2,0,P|226:365|264:384,1,85,2|8,2:0|3:2,2:0:0:0:
36,359,74755,5,10,2:0:0:0:
36,359,74862,1,2,2:0:0:0:
36,359,74969,1,2,3:2:0:0:
66,332,75076,1,2,2:0:0:0:
78,285,75183,1,2,2:0:0:0:
59,240,75290,1,10,2:0:0:0:
46,197,75398,2,0,L|68:142,1,42.5,10|2,1:2|2:0,2:0:0:0:
131,57,75612,2,0,L|153:112,1,42.5,10|2,1:2|2:0,2:0:0:0:
258,81,75826,6,0,P|296:98|338:106,1,85,2|0,3:2|2:0,2:0:0:0:
368,193,76148,2,0,P|333:217|306:249,1,85,10|0,2:0|2:0,2:0:0:0:
229,226,76469,2,0,P|225:183|210:143,1,85,2|8,2:0|3:2,2:0:0:0:
357,353,76898,5,10,2:0:0:0:
357,353,77005,1,2,2:0:0:0:
357,353,77112,2,0,L|384:346,2,28.3333333333333,2|2|2,3:2|2:0|2:0,2:0:0:0:
440,293,77326,2,0,L|467:299,2,28.3333333333333,2|2|2,2:0|2:0|2:0,2:0:0:0:
456,220,77540,2,0,L|483:226,2,28.3333333333333,10|2|2,1:2|2:0|2:0,2:0:0:0:
471,146,77755,2,0,L|498:152,2,28.3333333333333,10|2|2,1:2|2:0|2:0,2:0:0:0:
407,94,77969,6,0,P|348:136|315:148,1,85,2|0,3:2|2:0,2:0:0:0:
268,111,78290,2,0,P|274:66|287:0,1,85,10|0,2:0|2:0,2:0:0:0:
281,27,78612,1,2,2:0:0:0:
150,132,78826,2,0,L|161:188,1,42.5,8|8,3:2|2:0,2:0:0:0:
215,225,79040,2,0,L|203:288,1,42.5,10|0,2:0|2:0,2:0:0:0:
169,331,79255,2,0,P|110:316|73:309,1,85,2|2,3:2|2:0,2:0:0:0:
86,311,79576,1,8,2:0:0:0:
86,311,79683,1,10,1:2:0:0:
5,359,79898,1,8,1:2:0:0:
19,207,80112,5,2,3:2:0:0:
19,207,80433,1,10,2:0:0:0:
19,207,80540,1,0,1:2:0:0:
89,144,80755,1,2,2:0:0:0:
168,192,80969,2,0,L|270:208,1,85,8|10,3:2|2:0,2:0:0:0:
399,314,81398,2,0,L|282:300,1,85,2|2,3:2|2:0,2:0:0:0:
314,303,81719,1,8,2:0:0:0:
314,303,81826,1,10,1:2:0:0:
233,350,82040,1,8,1:2:0:0:
245,199,82255,6,0,P|249:163|264:99,1,85,2|0,3:2|2:0,2:0:0:0:
323,66,82576,2,0,P|367:73|423:92,1,85,10|0,2:0|2:0,2:0:0:0:
405,84,82898,1,2,2:0:0:0:
498,231,83112,1,8,3:2:0:0:
408,257,83326,1,10,2:0:0:0:
478,317,83540,1,2,3:2:0:0:
312,217,83755,1,2,2:0:0:0:
312,217,83862,1,8,2:0:0:0:
312,217,83969,2,0,L|232:227,1,42.5,10|0,1:2|2:0,2:0:0:0:
207,272,84183,2,0,L|154:266,1,42.5,8|0,1:2|2:0,2:0:0:0:
67,249,84398,6,0,P|80:174|88:112,2,127.5,2|10|2,3:2|2:0|2:0,2:0:0:0:
194,109,85255,1,8,3:2:0:0:
194,109,85362,1,8,2:0:0:0:
194,109,85469,1,10,2:0:0:0:
46,32,85683,1,2,3:2:0:0:
137,12,85898,1,2,2:0:0:0:
144,194,86112,1,10,1:2:0:0:
185,214,86219,1,10,1:2:0:0:
230,224,86326,1,10,1:2:0:0:
276,218,86433,1,10,1:2:0:0:
315,193,86540,6,0,P|304:154|284:97,1,85,2|0,3:2|2:0,2:0:0:0:
274,67,86862,1,10,2:0:0:0:
274,67,86969,2,0,P|336:79|392:88,1,85,0|2,1:2|2:0,2:0:0:0:
447,139,87398,2,0,P|435:186|423:236,1,85,8|10,3:2|2:0,0:0:0:0:
397,317,87826,1,2,3:2:0:0:
268,240,88040,1,2,2:0:0:0:
268,240,88148,1,8,2:0:0:0:
268,240,88255,2,0,L|279:168,1,42.5,10|0,1:2|2:0,2:0:0:0:
207,304,88469,2,0,L|225:360,1,42.5,8|0,1:2|2:0,2:0:0:0:
141,229,88683,5,2,3:2:0:0:
141,229,89005,1,10,2:0:0:0:
141,229,89112,1,0,1:2:0:0:
51,255,89326,1,2,2:0:0:0:
70,163,89540,2,0,L|104:44,1,85,8|10,3:2|2:0,2:0:0:0:
214,17,89969,2,0,L|180:136,1,85,2|2,3:2|2:0,2:0:0:0:
190,98,90290,1,8,2:0:0:0:
190,98,90398,1,10,1:2:0:0:
305,171,90612,1,10,1:2:0:0:
425,105,90826,6,0,P|352:47|308:33,2,127.5,2|10|2,3:2|2:0|2:0,2:0:0:0:
474,184,91683,2,0,L|484:276,1,85,8|10,3:2|2:0,2:0:0:0:
368,368,92112,2,0,L|352:252,1,85,2|2,3:2|2:0,2:0:0:0:
356,283,92433,1,8,2:0:0:0:
356,283,92540,1,10,1:2:0:0:
304,171,92755,1,8,1:2:0:0:
183,223,92969,6,0,L|79:226,1,85,2|0,3:2|2:0,2:0:0:0:
29,190,93290,2,0,L|63:75,1,85,10|0,2:0|2:0,2:0:0:0:
97,45,93612,2,0,L|157:90,1,42.5,2|8,2:0|2:0,2:0:0:0:
209,69,93826,2,0,L|189:2,2,42.5,8|8|10,3:2|2:0|2:0,2:0:0:0:
266,269,94255,2,0,L|285:186,1,85,2|2,3:2|2:0,2:0:0:0:
452,233,94683,1,10,1:2:0:0:
487,263,94790,1,8,1:2:0:0:
498,308,94898,1,8,1:2:0:0:
472,347,95005,1,8,1:2:0:0:
428,363,95112,1,2,3:2:0:0:
256,192,95219,12,6,95969,3:0:0:0:
256,192,96076,12,6,96826,3:0:0:0:
256,192,96933,12,2,98326,2:0:0:0:
442,77,98540,6,0,B|357:70|413:82|328:75,2,113.333333333333,2|2|2,1:2|1:2|1:2,2:0:0:0:
315,180,99397,6,0,B|421:188|351:174|457:183,2,141.666666666667,2|2|2,1:0|1:0|1:0,2:0:0:0:
463,287,100254,6,0,B|345:277|423:293|304:283,1,158.666661824544,4|2,3:1|2:3,2:0:0:0:
176,335,100683,1,0,1:2:0:0:
125,265,100826,2,0,P|118:225|107:187,1,79.3333309122722,0|0,3:2|2:0,2:0:0:0:
33,74,101112,2,0,L|25:130,1,56.6666666666667,2|0,1:3|2:0,2:0:0:0:
118,52,101397,2,0,L|110:108,1,56.6666666666667,2|0,2:3|2:0,2:0:0:0:
205,32,101683,2,0,L|197:88,1,56.6666666666667,2|0,3:0|2:0,2:0:0:0:
318,107,101969,6,0,P|393:83|472:73,1,158.666661824544,6|2,3:0|3:0,2:0:0:0:
407,0,102397,1,0,1:2:0:0:
472,73,102540,1,6,3:0:0:0:
405,266,102826,2,0,P|421:244|429:217,1,56.6666666666667,2|0,1:3|2:0,2:0:0:0:
475,339,103112,1,2,2:3:0:0:
400,270,103254,2,0,L|345:256,2,56.6666666666667,0|2|0,1:0|2:3|2:0,2:0:0:0:
273,344,103683,6,0,P|199:349|179:278,1,158.666661824544,4|2,3:0|2:3,2:0:0:0:
91,310,104112,1,0,1:2:0:0:
179,278,104254,1,6,3:0:0:0:
60,78,104540,2,0,P|51:134|40:189,1,113.333333333333,0|2,1:2|2:3,2:0:0:0:
148,140,104969,1,0,1:0:0:0:
205,87,105112,2,0,P|197:62|189:32,1,56.6666666666667,2|0,3:0|2:0,2:0:0:0:
295,148,105397,6,0,L|288:175,5,28.3333333333333,2|2|2|2|2|2,3:2|2:0|2:0|2:0|3:0|2:0,2:0:0:0:
356,238,105826,1,2,1:2:0:0:
356,238,105897,1,2,1:2:0:0:
356,238,105969,2,0,L|363:266,3,28.3333333333333,2|2|2|2,3:0|2:0|2:0|2:0,2:0:0:0:
435,191,106254,6,0,L|441:147,5,42.5000016212464,2|2|2|2|2|2,1:2|1:2|1:2|1:2|1:2|1:2,2:0:0:0:
391,73,106683,1,8,2:3:0:0:
387,69,106754,1,8,2:3:0:0:
383,65,106826,1,8,2:3:0:0:
379,61,106897,1,4,2:3:0:0:
375,57,106969,1,4,2:3:0:0:
371,54,107040,1,4,2:3:0:0:
367,50,107112,6,0,B|324:84|324:84|194:61,1,158.666661824544,6|2,3:2|2:3,2:0:0:0:
100,36,107540,1,0,1:2:0:0:
136,123,107683,2,0,L|126:189,1,56.6666666666667,2|0,3:0|2:0,2:0:0:0:
44,215,107969,2,0,L|31:138,1,56.6666666666667,2|0,1:3|2:0,2:0:0:0:
117,265,108254,2,0,L|105:321,1,56.6666666666667,2|0,3:0|2:0,2:0:0:0:
203,360,108540,1,2,3:0:0:0:
277,308,108683,1,0,2:0:0:0:
293,217,108826,6,0,B|292:166|292:166|181:77,1,158.666661824544,4|2,3:0|3:0,2:0:0:0:
208,98,109254,1,0,1:2:0:0:
276,28,109397,2,0,L|370:56,1,79.3333309122722,6|0,3:0|2:0,2:0:0:0:
443,97,109683,2,0,L|463:15,1,79.3333309122722,2|0,1:3|2:0,2:0:0:0:
373,158,109969,1,2,3:0:0:0:
373,158,110112,2,0,L|398:262,1,79.3333309122722,0|2,1:0|2:3,2:0:0:0:
408,324,110397,1,2,2:0:0:0:
296,351,110540,6,0,P|212:308|230:235,1,158.666661824544,4|2,3:0|2:3,2:0:0:0:
257,159,110969,1,0,1:2:0:0:
257,159,111112,1,6,3:0:0:0:
48,20,111397,6,0,P|132:63|114:136,1,158.666661824544,2|2,1:3|2:3,2:0:0:0:
87,212,111826,1,0,1:0:0:0:
0,155,111969,1,2,3:0:0:0:
98,185,112112,1,0,2:0:0:0:
44,302,112254,6,0,L|28:246,5,39.6666654561361,4|2|2|2|2|2,3:0|2:0|2:0|2:0|3:0|2:0,2:0:0:0:
128,349,112683,1,2,1:2:0:0:
128,349,112754,1,2,2:0:0:0:
128,349,112826,2,0,L|158:260,1,79.3333309122722,6|2,2:3|1:2,2:0:0:0:
165,257,113040,1,2,1:2:0:0:
183,248,113112,6,0,L|249:258,3,39.6666654561361,2|2|2|2,1:3|2:0|2:0|2:0,2:0:0:0:
300,309,113397,2,0,L|358:296,3,39.6666654561361,2|2|2|2,1:3|2:0|1:2|2:0,2:0:0:0:
376,223,113683,1,2,3:0:0:0:
383,223,113754,1,2,2:0:0:0:
390,223,113826,1,2,1:2:0:0:
397,224,113897,1,2,1:2:0:0:
403,224,113969,6,0,P|453:194|428:126,1,136,6|0,3:2|3:2,2:0:0:0:
376,83,114540,2,0,L|330:95,1,45.3333333333333,10|0,2:0|2:0,2:0:0:0:
253,111,114826,2,0,L|272:2,2,90.6666666666667,2|10|10,3:2|3:2|2:0,2:0:0:0:
187,156,115540,1,0,3:2:0:0:
187,156,115683,6,0,L|200:215,1,45.3333333333333,2|0,3:0|2:0,2:0:0:0:
177,275,115969,2,0,L|66:256,1,90.6666666666667,10|10,2:0|2:0,2:0:0:0:
87,259,116397,1,2,2:0:0:0:
41,322,116540,1,2,3:2:0:0:
41,322,116826,5,10,3:2:0:0:
14,249,116969,1,2,3:2:0:0:
61,188,117112,1,10,2:0:0:0:
27,118,117254,1,2,2:0:0:0:
68,52,117397,6,0,L|160:62,2,90.6666666666667,2|2|2,2:0|2:0|2:0,2:0:0:0:
413,201,118254,6,0,L|321:211,2,90.6666666666667,2|2|2,2:0|2:0|2:0,2:0:0:0:
215,160,119112,6,0,B|190:223|199:227|173:309,1,152.999995330811,6|2,3:2|3:2,2:0:0:0:
226,367,119683,2,0,P|245:356|274:343,1,50.9999984436036,2|0,2:3|2:0,2:0:0:0:
133,384,119969,2,0,P|105:348|49:334,2,101.999996887207,2|2|2,1:2|3:0|2:3,2:0:0:0:
55,141,120826,6,0,P|64:191|80:239,1,101.999996887207,2|2,3:2|2:3,2:0:0:0:
94,248,121254,1,2,1:2:0:0:
165,169,121397,1,2,3:0:0:0:
121,84,121540,1,0,2:0:0:0:
186,30,121683,2,0,P|236:28|285:12,2,101.999996887207,2|2|10,1:2|3:0|2:0,2:0:0:0:
299,122,122397,1,8,2:0:0:0:
386,122,122540,6,0,P|405:74|411:24,2,101.999996887207,2|2|2,3:2|2:3|3:0,2:0:0:0:
428,222,123254,1,2,2:0:0:0:
347,252,123397,2,0,P|348:278|352:303,1,50.9999984436036,2|0,1:2|2:0,2:0:0:0:
272,371,123683,2,0,P|260:322|217:296,1,101.999996887207,2|2,3:0|2:3,2:0:0:0:
77,284,124254,5,2,3:2:0:0:
77,284,124540,1,2,2:3:0:0:
133,223,124683,1,0,1:2:0:0:
71,170,124826,2,0,P|56:149|44:126,1,50.9999984436036,2|0,3:0|2:0,2:0:0:0:
118,90,125112,2,0,P|128:113|142:134,1,50.9999984436036,2|0,1:2|2:0,2:0:0:0:
210,91,125397,2,0,P|196:71|185:48,1,50.9999984436036,2|0,2:3|2:0,2:0:0:0:
322,137,125683,1,8,2:0:0:0:
322,137,125826,1,8,2:0:0:0:
385,211,125969,6,0,P|349:246|320:288,1,101.999996887207,6|8,3:2|2:0,2:0:0:0:
227,339,126397,1,2,2:0:0:0:
144,315,126540,1,10,2:0:0:0:
144,315,126683,1,10,2:0:0:0:
16,298,126826,2,0,P|55:330|60:379,2,101.999996887207,2|10|10,3:2|2:0|2:0,2:0:0:0:
40,194,127683,6,0,P|70:170|106:158,1,76.4999976654053,2|0,3:2|2:0,2:0:0:0:
121,164,127969,1,10,2:0:0:0:
144,75,128112,1,8,2:0:0:0:
78,28,128254,1,10,2:0:0:0:
225,45,128540,2,0,P|275:40|323:57,2,101.999996887207,2|8|8,3:2|2:0|2:0,2:0:0:0:
432,27,129397,6,0,P|440:77|450:127,1,101.999996887207,10|8,3:2|2:0,2:0:0:0:
391,209,129826,1,2,2:0:0:0:
325,264,129969,1,10,2:0:0:0:
325,264,130254,2,0,P|272:253|224:236,2,101.999996887207,2|8|10,3:2|2:0|2:0,2:0:0:0:
146,155,131112,6,0,P|93:166|45:183,2,101.999996887207,2|10|8,3:2|2:0|2:0,2:0:0:0:
295,80,131969,1,0,3:2:0:0:
295,80,132254,2,0,L|215:44,1,50.9999984436036,8|0,2:0|3:2,2:0:0:0:
169,21,132540,2,0,L|105:39,1,50.9999984436036,8|8,2:0|2:0,2:0:0:0:
34,98,132826,5,10,2:0:0:0:
34,98,133112,2,0,L|45:141,2,25.4999992218018,8|8|10,2:0|2:0|2:0,2:0:0:0:
126,166,133397,2,0,L|104:285,1,101.999996887207,8|10,2:0|2:0,2:0:0:0:
217,259,133826,2,0,L|207:225,2,25.4999992218018,0|10|8,2:0|2:0|2:0,2:0:0:0:
274,318,134112,1,10,2:0:0:0:
357,297,134254,1,2,2:0:0:0:
360,210,134397,1,2,2:0:0:0:
288,162,134540,5,4,3:0:0:0:
444,248,134754,1,4,3:0:0:0:
456,75,134969,1,6,3:0:0:0:
256,192,135112,12,0,137326,2:0:0:0:
307,114,137969,6,0,L|219:127,1,85,2|0,2:0|2:0,2:0:0:0:
154,160,138826,2,0,L|209:229,1,85,2|0,2:0|2:0,2:0:0:0:
264,276,139683,2,0,L|296:193,1,85,2|0,2:0|2:0,2:0:0:0:
377,37,140540,5,2,2:0:0:0:
415,143,140969,1,2,2:0:0:0:
497,66,141397,1,2,2:0:0:0:
497,66,142254,5,2,2:0:0:0:
415,143,142683,1,2,2:0:0:0:
377,37,143112,2,0,L|286:49,1,85,2|0,2:0|2:0,2:0:0:0:
174,134,143969,2,0,L|265:146,1,85,2|0,2:0|2:0,2:0:0:0:
144,330,144826,6,0,B|166:290|166:290|155:252,1,85,2|0,2:0|2:0,2:0:0:0:
78,204,145683,2,0,B|32:204|32:204|4:233,1,85,2|0,2:0|2:0,2:0:0:0:
0,322,146540,2,0,B|23:361|23:361|61:370,1,85,2|0,2:0|2:0,2:0:0:0:
297,314,147397,5,2,2:0:0:0:
351,163,147826,1,2,2:0:0:0:
398,26,148254,1,2,2:0:0:0:
324,86,149112,5,2,2:0:0:0:
378,237,149541,1,2,2:0:0:0:
425,374,149969,2,0,B|386:360|386:360|341:362,1,85,2|0,2:0|2:0,2:0:0:0:
214,286,150826,2,0,B|175:300|175:300|130:298,1,85,2|0,2:0|2:0,2:0:0:0:
36,110,151683,5,2,2:1:0:0:
92,47,151897,1,2,2:0:0:0:
163,86,152112,1,2,2:0:0:0:
153,165,152326,1,2,2:0:0:0:
77,179,152540,5,2,2:1:0:0:
36,110,152754,1,2,2:0:0:0:
92,47,152968,1,2,2:0:0:0:
163,86,153183,1,2,2:0:0:0:
153,165,153397,5,2,2:1:0:0:
77,179,153611,1,2,2:0:0:0:
36,110,153826,1,2,2:0:0:0:
92,47,154040,1,2,2:0:0:0:
163,86,154255,5,2,2:1:0:0:
153,165,154469,1,2,2:0:0:0:
77,179,154683,1,2,2:0:0:0:
36,110,154897,1,2,2:0:0:0:
92,47,155112,6,0,B|131:40|131:40|205:96|205:96|250:86,2,170,2|2|2,2:1|2:1|2:1,2:0:0:0:
36,110,157040,1,2,2:0:0:0:
77,179,157254,1,2,2:0:0:0:
153,165,157469,1,2,2:0:0:0:
216,280,157683,2,0,L|220:237,1,42.5,2|2,2:1|2:0,2:0:0:0:
299,295,158112,2,0,L|294:337,1,42.5,2|2,2:0|2:0,2:0:0:0:
354,224,158540,5,2,2:1:0:0:
430,249,158754,1,2,2:0:0:0:
486,191,158969,1,2,2:0:0:0:
439,125,159183,1,2,2:0:0:0:
358,133,159397,5,2,2:1:0:0:
280,157,159612,1,2,2:0:0:0:
232,91,159826,1,2,2:0:0:0:
284,30,160040,1,2,2:0:0:0:
361,51,160254,5,2,2:1:0:0:
318,119,160469,1,2,2:0:0:0:
284,30,160683,1,2,2:0:0:0:
318,119,160897,1,2,2:0:0:0:
226,91,161112,1,2,2:1:0:0:
318,119,161326,1,2,2:0:0:0:
263,184,161540,1,2,2:0:0:0:
318,119,161754,1,2,2:0:0:0:
383,175,161969,6,0,B|357:214|357:214|381:293|381:293|360:335,3,170,2|2|2|2,2:1|2:1|2:1|2:1,2:0:0:0:
362,329,165397,6,0,L|179:354,1,178.499994552612,2|0,2:0|2:0,2:0:0:0:
141,244,167112,6,0,L|225:255,1,76.4999976654053,2|0,2:0|2:0,2:0:0:0:
303,145,167969,6,0,L|224:159,1,76.4999976654053,2|0,2:0|2:0,2:0:0:0:
118,51,168826,6,0,L|226:66,1,101.999996887207,2|2,2:0|2:0,2:0:0:0:
465,108,170815,5,2,2:0:0:0:
