osu file format v14

[General]
AudioFilename: audio.mp3
AudioLeadIn: 0
PreviewTime: 44771
Countdown: 0
SampleSet: Soft
StackLeniency: 0.7
Mode: 0
LetterboxInBreaks: 0
WidescreenStoryboard: 0

[Editor]
Bookmarks: 134,7518,11210,14903,22287,29672,37057,44441,51826,55518,59210,62903,70287,73980,77672,85057
DistanceSpacing: 1.1
BeatDivisor: 4
GridSize: 32
TimelineZoom: 4.117279

[Metadata]
Title:Inferno
TitleUnicode:インフェルノ
Artist:Polyphia, Will Stetson
ArtistUnicode:Polyphia, Will Stetson
Creator:Asa
Version:Repent
Source:ベルセルク
Tags:Berserk English Metal Dictate David Toth 9mm Parabellum Bullet HowRengar Callie CallieCube Gabdu09 Gordon Lazarus Xoul Defy Foss Pianosuki AsaBen
BeatmapID:2682467
BeatmapSetID:1292543

[Difficulty]
HPDrainRate:5.3
CircleSize:4.2
OverallDifficulty:9
ApproachRate:9.6
SliderMultiplier:1.9
SliderTickRate:1

[Events]
//Background and Video events
0,0,"InfernoWallpaper.jpg",0,0
//Break Periods
//Storyboard Layer 0 (Background)
//Storyboard Layer 1 (Fail)
//Storyboard Layer 2 (Pass)
//Storyboard Layer 3 (Foreground)
//Storyboard Layer 4 (Overlay)
//Storyboard Sound Samples

[TimingPoints]
564,307.692307692308,6,2,1,70,1,0
564,-66.6666666666667,6,2,1,70,0,0
1794,-66.6666666666667,4,2,3,70,0,0
2102,-66.6666666666667,4,2,2,70,0,0
2410,-66.6666666666667,4,2,1,70,0,0
3640,-66.6666666666667,4,2,2,70,0,0
3948,-66.6666666666667,4,2,1,70,0,0
4256,-60.6060606060606,4,2,1,70,0,0
5487,-60.6060606060606,4,2,3,70,0,0
5794,-60.6060606060606,4,2,2,70,0,0
6102,-60.6060606060606,4,2,1,70,0,0
7333,-60.6060606060606,4,2,4,70,0,0
7948,-100,4,2,1,70,0,0
11640,-80,4,2,1,70,0,0
14717,-80,4,2,3,70,0,0
15025,-80,4,2,2,70,0,0
15333,-80,4,2,1,70,0,0
22717,-100,4,2,4,70,0,0
23640,-100,4,2,1,70,0,0
24564,-100,4,2,4,70,0,0
25487,-100,4,2,3,70,0,0
25794,-100,4,2,2,70,0,0
26102,-100,4,2,1,70,0,0
26410,-100,4,2,4,70,0,0
26717,-100,4,2,1,70,0,0
27333,-100,4,2,4,70,0,0
27640,-100,4,2,1,70,0,0
28256,-100,4,2,4,70,0,0
29179,-100,4,2,3,70,0,0
29487,-100,4,2,2,70,0,0
29794,-100,4,2,1,70,0,0
30102,-100,4,2,2,70,0,0
31025,-100,4,2,1,70,0,0
32102,-100,4,2,3,70,0,0
32564,-100,4,2,2,70,0,0
32717,-100,4,2,1,70,0,0
33179,-100,4,2,2,70,0,0
33410,-100,4,2,1,70,0,0
33794,-90.9090909090909,4,2,1,70,0,0
35025,-57.1428571428571,4,2,1,70,0,0
35256,-57.1428571428571,4,2,1,5,0,0
35333,-100,4,2,1,70,0,0
35564,-100,4,2,1,5,0,0
35640,-285.714285714286,4,2,1,70,0,0
37487,-66.6666666666667,4,2,1,70,0,0
37948,-133.333333333333,4,2,1,70,0,0
38871,-100,4,2,1,70,0,0
39179,-133.333333333333,4,2,1,70,0,0
41179,-80,4,2,1,70,0,0
41640,-133.333333333333,4,2,1,70,0,0
42256,-133.333333333333,4,2,3,70,0,0
42410,-133.333333333333,4,2,2,70,0,0
42717,-133.333333333333,4,2,1,70,0,0
43487,-133.333333333333,4,2,1,52,0,0
43640,-133.333333333333,4,2,1,54,0,0
43794,-133.333333333333,4,2,1,56,0,0
43948,-133.333333333333,4,2,1,58,0,0
44102,-133.333333333333,4,2,1,60,0,0
44256,-133.333333333333,4,2,1,62,0,0
44410,-133.333333333333,4,2,1,64,0,0
44564,-133.333333333333,4,2,1,66,0,0
44717,-133.333333333333,4,2,1,68,0,0
44871,-66.6666666666667,4,2,1,70,0,0
46102,-66.6666666666667,4,2,3,70,0,0
46410,-66.6666666666667,4,2,2,70,0,0
46717,-66.6666666666667,4,2,1,70,0,0
49487,-66.6666666666667,4,2,3,70,0,0
49794,-66.6666666666667,4,2,2,70,0,0
50102,-66.6666666666667,4,2,1,70,0,0
51333,-66.6666666666667,4,2,4,70,0,0
52256,-66.6666666666667,4,2,1,70,0,0
55948,-100,4,2,1,70,0,0
58717,-80,4,2,1,70,0,0
58948,-80,4,2,1,5,0,0
59025,-80,4,2,1,70,0,0
63025,-80,4,2,2,70,0,0
63333,-80,4,2,1,70,0,1
73487,-80,4,2,4,70,0,1
73948,-80,4,2,2,70,0,1
74102,-80,4,2,1,70,0,1
75256,-80,4,2,1,5,0,1
75333,-80,4,2,1,70,0,1
76564,-80,4,2,3,70,0,1
76717,-80,4,2,2,70,0,1
76871,-80,4,2,1,70,0,1
78102,-80,4,2,1,70,0,0
83948,-80,4,2,3,70,0,0
84256,-80,4,2,2,70,0,0
84564,-80,4,2,1,70,0,0
84871,-80,4,2,2,70,0,0
85179,-80,4,2,1,70,0,0
85487,-66.6666666666667,4,2,1,70,0,0
86717,-66.6666666666667,4,2,3,70,0,0
87025,-66.6666666666667,4,2,2,70,0,0
87333,-66.6666666666667,4,2,1,70,0,0
88256,-133.333333333333,4,2,1,70,0,0
88564,-133.333333333333,4,2,1,10,0,0

[Colours]
Combo1 : 229,201,194
Combo2 : 141,147,159
Combo3 : 139,139,164
Combo4 : 192,146,161

[HitObjects]
85,0,564,6,0,B|89:31|89:31|92:35|92:35|97:69,1,71.2500027179719,12|0,3:0|3:0,0:0:0:0:
215,339,717,1,8,3:0:0:0:
245,290,794,1,0,3:0:0:0:
236,232,871,2,0,P|224:198|201:171,1,71.2500027179719,0|0,3:0|3:0,0:0:0:0:
79,21,1025,6,0,B|83:52|83:52|86:56|86:56|91:90,1,71.2500027179719,8|0,3:0|3:0,0:0:0:0:
85,358,1179,1,8,3:0:0:0:
40,322,1256,1,0,3:0:0:0:
28,264,1333,2,0,P|27:228|39:195,1,71.2500027179719,0|0,3:0|3:0,0:0:0:0:
224,7,1487,5,8,3:0:0:0:
210,69,1564,1,8,3:0:0:0:
196,130,1640,1,0,3:0:0:0:
179,192,1717,1,0,3:0:0:0:
208,239,1794,5,8,3:0:0:0:
192,191,1871,1,8,3:0:0:0:
182,142,1948,1,8,3:0:0:0:
165,94,2025,1,8,3:0:0:0:
184,61,2102,5,8,3:0:0:0:
172,94,2179,1,8,3:0:0:0:
156,126,2256,1,8,3:0:0:0:
142,159,2333,1,8,3:0:0:0:
106,200,2410,6,0,L|176:211,1,71.2500027179719,8|0,3:0|3:0,0:0:0:0:
512,120,2564,1,8,3:0:0:0:
456,85,2640,1,0,3:0:0:0:
393,76,2717,2,0,P|357:75|324:88,1,71.2500027179719,0|0,3:0|3:0,0:0:0:0:
123,218,2871,6,0,L|193:229,1,71.2500027179719,8|0,3:0|3:0,0:0:0:0:
491,371,3025,1,8,3:0:0:0:
426,384,3101,1,0,3:0:0:0:
364,371,3179,2,0,P|330:359|304:335,1,71.2500027179719,0|0,3:0|3:0,0:0:0:0:
320,28,3333,5,8,3:0:0:0:
310,91,3410,1,8,3:0:0:0:
299,154,3487,1,0,3:0:0:0:
288,217,3564,1,0,3:0:0:0:
326,275,3640,5,8,3:0:0:0:
317,240,3717,1,8,3:0:0:0:
312,204,3794,1,8,3:0:0:0:
307,168,3871,1,8,3:0:0:0:
257,125,3948,6,0,B|316:166|376:129|351:122|414:84|465:121,1,213.750008153916,12|0,3:2|0:0,0:0:0:0:
468,128,4256,6,0,B|430:134|430:134|425:132|425:132|391:138,1,78.3750007474423,8|0,3:0|3:0,0:0:0:0:
14,96,4410,1,8,3:0:0:0:
63,45,4486,1,0,3:0:0:0:
133,42,4563,2,0,P|171:45|203:67,1,78.3750007474423,0|0,3:0|3:0,0:0:0:0:
456,139,4717,6,0,B|418:145|418:145|413:143|413:143|379:149,1,78.3750007474423,8|0,3:0|3:0,0:0:0:0:
44,311,4871,1,8,3:0:0:0:
107,342,4947,1,0,3:0:0:0:
174,321,5025,2,0,P|208:304|231:272,1,78.3750007474423,0|0,3:0|3:0,0:0:0:0:
276,21,5179,5,8,3:0:0:0:
287,90,5256,1,8,3:0:0:0:
299,159,5333,1,0,3:0:0:0:
312,228,5410,1,0,3:0:0:0:
354,285,5487,5,8,3:0:0:0:
298,277,5564,1,8,3:0:0:0:
245,264,5640,1,8,3:0:0:0:
193,248,5717,1,8,3:0:0:0:
161,210,5794,5,8,3:0:0:0:
136,219,5871,1,8,3:0:0:0:
111,226,5948,1,8,3:0:0:0:
86,235,6025,1,8,3:0:0:0:
31,260,6102,6,0,B|68:253|68:253|73:255|73:255|107:249,1,78.3750007474423,8|0,3:0|3:0,0:0:0:0:
482,138,6256,1,8,3:0:0:0:
424,86,6332,1,0,3:0:0:0:
345,78,6410,2,0,P|306:81|274:103,1,78.3750007474423,0|0,3:0|3:0,0:0:0:0:
39,245,6564,6,0,B|76:238|76:238|81:240|81:240|115:234,1,78.3750007474423,8|0,3:0|3:0,0:0:0:0:
497,313,6717,1,8,3:0:0:0:
439,365,6793,1,0,3:0:0:0:
360,373,6871,2,0,P|321:369|289:347,1,78.3750007474423,0|0,3:0|3:0,0:0:0:0:
156,38,7025,6,0,B|172:129|172:129|184:146|184:146|179:171|179:171|196:265,1,235.125002242327,12|0,3:2|0:0,0:0:0:0:
91,305,7333,1,8,3:0:0:0:
131,363,7409,1,8,3:0:0:0:
201,383,7486,1,8,3:0:0:0:
268,355,7563,1,8,3:0:0:0:
301,291,7640,1,8,3:0:0:0:
335,225,7717,1,8,3:0:0:0:
401,197,7794,1,8,3:0:0:0:
470,217,7871,1,8,3:0:0:0:
511,277,7948,6,0,B|505:324|462:353|401:356|366:300|398:274|420:283,2,190,4|0|2,3:0|0:0|0:1,0:0:0:0:
323,35,8871,2,0,P|332:128|305:219,2,190,4|0|2,3:2|0:0|0:1,0:0:0:0:
23,312,9794,6,0,B|72:281|128:307|110:327|170:359|239:309,1,190,4|0,3:2|0:0,0:0:0:0:
352,134,10256,2,0,P|312:159|289:200,1,95
283,282,10564,1,0,3:0:0:0:
493,43,10717,6,0,B|443:65|433:115|433:115|423:67|372:54,1,190,4|0,3:0|0:0,0:0:0:0:
82,257,11179,2,0,L|90:210,1,47.5,0|0,3:0|3:0,0:0:0:0:
122,51,11333,1,8,3:0:0:0:
126,32,11640,5,12,3:0:0:0:
72,54,11716,1,0,3:0:0:0:
44,105,11793,1,8,3:0:0:0:
54,163,11870,1,0,3:0:0:0:
96,201,11948,1,8,3:0:0:0:
139,240,12024,1,0,3:0:0:0:
149,298,12101,1,8,3:0:0:0:
121,349,12178,1,0,3:0:0:0:
67,372,12255,5,8,3:0:0:0:
52,353,12333,1,0,3:0:0:0:
49,329,12410,1,8,3:0:0:0:
56,306,12487,1,0,3:0:0:0:
72,288,12564,5,8,3:0:0:0:
113,320,12640,1,0,3:0:0:0:
164,333,12717,1,8,3:0:0:0:
213,312,12794,1,0,3:0:0:0:
244,268,12871,1,8,3:0:0:0:
241,214,12948,1,0,3:0:0:0:
209,170,13025,1,8,3:0:0:0:
158,153,13102,1,0,3:0:0:0:
105,164,13179,5,8,3:0:0:0:
126,173,13256,1,0,3:0:0:0:
143,189,13333,1,8,3:0:0:0:
152,210,13410,1,0,3:0:0:0:
153,233,13487,5,8,3:0:0:0:
189,194,13564,1,0,3:0:0:0:
241,186,13640,2,0,P|270:191|295:207,1,59.375,8|0,3:0|3:0,3:0:0:0:
476,370,13794,5,8,3:0:0:0:
416,356,13871,1,0,3:0:0:0:
379,307,13948,2,0,P|366:275|368:241,1,59.375,8|0,3:0|3:0,3:0:0:0:
420,2,14102,5,8,3:0:0:0:
439,68,14179,1,0,3:0:0:0:
411,134,14256,2,0,P|386:164|351:182,1,59.375,8|0,3:0|3:0,3:0:0:0:
54,291,14410,5,8,3:0:0:0:
119,284,14487,1,8,3:0:0:0:
184,277,14564,1,0,3:0:0:0:
248,271,14640,1,0,3:0:0:0:
311,233,14717,5,8,3:0:0:0:
306,272,14794,1,8,3:0:0:0:
301,310,14871,1,8,3:0:0:0:
297,348,14947,1,8,3:0:0:0:
342,384,15025,5,8,3:0:0:0:
336,367,15102,1,8,3:0:0:0:
330,350,15179,1,8,3:0:0:0:
324,333,15256,1,8,3:0:0:0:
354,273,15333,5,4,3:0:0:0:
291,328,15410,1,0,3:0:0:0:
214,335,15487,1,8,3:0:0:0:
146,312,15564,1,0,3:0:0:0:
110,257,15640,1,2,3:0:0:0:
110,197,15717,1,0,3:0:0:0:
134,149,15794,1,8,3:0:0:0:
171,119,15871,1,0,3:0:0:0:
211,109,15948,1,2,3:0:0:0:
246,109,16025,1,0,3:0:0:0:
274,118,16102,1,8,3:0:0:0:
294,130,16179,1,0,3:0:0:0:
304,144,16256,5,2,3:0:0:0:
220,138,16333,1,0,3:0:0:0:
194,65,16410,1,8,3:0:0:0:
232,4,16487,1,0,3:0:0:0:
297,7,16564,1,2,3:0:0:0:
338,48,16640,1,0,3:0:0:0:
340,101,16717,1,8,3:0:0:0:
360,143,16794,1,0,3:0:0:0:
399,156,16871,1,2,3:0:0:0:
433,147,16948,1,0,3:0:0:0:
454,126,17025,1,8,3:0:0:0:
456,102,17102,1,0,3:0:0:0:
448,85,17179,5,2,3:0:0:0:
379,131,17256,1,0,3:0:0:0:
381,208,17333,1,8,3:0:0:0:
425,263,17410,1,0,3:0:0:0:
435,327,17487,1,2,3:0:0:0:
392,368,17564,1,0,3:0:0:0:
339,378,17641,1,8,3:0:0:0:
296,356,17718,1,0,3:0:0:0:
290,315,17794,2,0,L|348:305,1,59.375,2|0,3:0|3:0,0:0:0:0:
506,94,17948,2,0,L|447:84,1,59.375,8|0,3:0|3:0,0:0:0:0:
236,174,18102,5,2,3:0:0:0:
177,183,18179,1,0,3:0:0:0:
118,193,18256,1,8,3:0:0:0:
59,201,18333,1,0,3:0:0:0:
0,210,18410,2,0,L|-11:268,3,59.375,2|0|8|0,3:0|3:0|3:0|3:0,0:0:0:0:
142,98,18717,2,0,L|131:39,3,59.375,2|0|8|0,3:0|3:0|3:0|3:0,0:0:0:0:
361,220,19025,5,4,3:2:0:0:
404,283,19102,1,0,3:0:0:0:
387,352,19179,1,8,3:0:0:0:
328,381,19256,1,0,3:0:0:0:
269,369,19333,1,2,3:0:0:0:
239,324,19410,1,0,3:0:0:0:
237,276,19487,1,8,3:0:0:0:
257,239,19564,1,0,3:0:0:0:
282,215,19640,1,2,3:0:0:0:
290,186,19717,1,0,3:0:0:0:
284,162,19794,1,8,3:0:0:0:
270,150,19871,1,0,3:0:0:0:
258,147,19948,5,2,3:0:0:0:
198,196,20025,1,0,3:0:0:0:
224,262,20102,1,8,3:0:0:0:
287,278,20179,1,0,3:0:0:0:
335,243,20256,1,2,3:0:0:0:
348,191,20333,1,0,3:0:0:0:
382,158,20410,1,8,3:0:0:0:
422,149,20487,1,0,3:0:0:0:
454,162,20564,1,2,3:0:0:0:
472,184,20640,1,0,3:0:0:0:
476,207,20717,1,8,3:0:0:0:
468,223,20794,1,0,3:0:0:0:
458,229,20871,5,2,3:1:0:0:
393,236,20948,1,0,3:0:0:0:
327,238,21025,1,8,3:0:0:0:
261,235,21102,1,0,3:0:0:0:
196,226,21179,6,0,L|185:285,1,59.375,2|0,3:0|3:0,0:0:0:0:
0,384,21333,2,0,L|11:325,1,59.375,8|0,3:0|3:0,0:0:0:0:
150,81,21487,2,0,L|159:139,1,59.375,2|0,3:0|3:0,0:0:0:0:
176,225,21640,2,0,L|185:283,1,59.375,8|0,3:0|3:0,0:0:0:0:
23,204,21794,5,2,3:0:0:0:
3,173,21871,1,0,3:0:0:0:
0,137,21948,2,0,P|5:107|19:81,1,59.375,8|0,3:0|3:0,0:0:0:0:
278,162,22102,5,2,3:0:0:0:
286,126,22179,1,0,3:0:0:0:
276,91,22256,2,0,P|261:65|239:45,1,59.375,8|0,3:0|3:0,0:0:0:0:
161,285,22410,2,0,B|145:197|145:197|147:190|147:190|132:108,1,178.125,12|0,3:2|0:0,0:0:0:0:
123,36,22717,5,8,3:0:0:0:
105,32,22794,1,8,3:0:0:0:
87,28,22871,1,8,3:0:0:0:
326,73,23025,5,8,3:0:0:0:
308,77,23102,1,8,3:0:0:0:
289,81,23179,2,0,L|335:89,1,47.5,8|8,3:0|3:0,0:0:0:0:
427,22,23333,1,8,3:0:0:0:
443,38,23410,1,8,3:0:0:0:
450,60,23487,1,8,3:0:0:0:
446,83,23564,1,8,3:0:0:0:
434,103,23640,6,0,B|456:123|458:155|458:155|446:132|424:122,1,95,0|2,3:0|0:1,0:0:0:0:
434,103,23948,2,0,B|456:123|458:155|458:155|446:132|424:122,1,95,0|2,3:0|0:1,0:0:0:0:
434,103,24256,2,0,B|456:123|458:155|458:155|446:132|424:122,1,95,0|2,3:0|0:1,0:0:0:0:
308,384,24564,5,8,3:0:0:0:
290,380,24641,1,8,3:0:0:0:
272,376,24718,1,8,3:0:0:0:
510,286,24871,5,8,3:0:0:0:
492,290,24948,1,8,3:0:0:0:
473,293,25025,2,0,L|426:302,1,47.5,8|8,3:0|3:0,0:0:0:0:
191,353,25179,1,8,3:0:0:0:
167,357,25256,1,8,3:0:0:0:
143,361,25333,1,8,3:0:0:0:
120,365,25410,1,8,3:0:0:0:
96,369,25487,5,8,3:0:0:0:
19,313,25640,1,8,3:0:0:0:
126,196,25794,1,8,3:0:0:0:
106,285,25948,1,8,3:0:0:0:
58,134,26102,5,0,3:0:0:0:
283,278,26256,1,0,3:0:0:0:
401,206,26410,1,8,3:0:0:0:
405,182,26487,1,8,3:0:0:0:
409,158,26564,1,8,3:0:0:0:
413,135,26641,1,8,3:0:0:0:
417,111,26717,6,0,B|439:131|441:163|441:163|429:140|407:130,1,95,0|2,3:0|0:1,0:0:0:0:
417,111,27025,2,0,B|439:131|441:163|441:163|429:140|407:130,1,95,0|2,3:0|0:1,0:0:0:0:
162,35,27333,1,8,3:0:0:0:
167,64,27410,1,8,3:0:0:0:
172,93,27487,1,8,3:0:0:0:
177,122,27564,1,8,3:0:0:0:
184,153,27640,6,0,B|206:133|208:101|208:101|196:124|174:134,1,95,0|2,3:0|0:1,0:0:0:0:
184,153,27948,2,0,B|206:133|208:101|208:101|196:124|174:134,1,95,0|2,3:0|0:1,0:0:0:0:
263,348,28256,5,8,3:0:0:0:
259,366,28333,1,8,3:0:0:0:
255,384,28410,1,8,3:0:0:0:
345,184,28564,5,8,3:0:0:0:
349,202,28641,1,8,3:0:0:0:
352,220,28717,2,0,L|388:165,1,47.5,8|8,3:0|3:0,0:0:0:0:
512,74,28871,1,8,3:0:0:0:
488,78,28948,1,8,3:0:0:0:
464,82,29025,1,8,3:0:0:0:
441,86,29102,1,8,3:0:0:0:
417,90,29179,5,8,3:0:0:0:
488,250,29333,1,8,3:0:0:0:
290,103,29487,1,8,3:0:0:0:
386,174,29640,1,8,3:0:0:0:
234,247,29794,1,0,3:0:0:0:
309,210,29948,1,0,3:0:0:0:
98,222,30102,5,4,3:2:0:0:
54,284,30256,1,0,3:0:0:0:
86,352,30410,2,0,P|131:364|177:355,1,95,8|8,3:0|3:0,0:0:0:0:
302,213,30717,2,0,P|270:247|258:293,1,95,0|0,3:0|3:0,0:0:0:0:
387,195,31025,1,0,3:0:0:0:
387,195,31179,1,0,3:0:0:0:
254,53,31333,5,12,3:2:0:0:
363,289,31487,1,0,3:0:0:0:
452,17,31640,1,10,3:1:0:0:
214,148,31794,1,0,3:0:0:0:
447,289,31948,1,0,3:0:0:0:
387,195,32102,1,8,3:0:0:0:
387,195,32179,1,8,3:0:0:0:
386,195,32256,2,0,P|429:176|476:182,2,95,8|8|8,3:0|3:0|3:0,0:0:0:0:
299,336,32717,1,0,3:0:0:0:
141,49,32871,6,0,B|132:93|132:93|133:99|133:99|126:144,1,95,12|0,3:2|3:0,0:0:0:0:
0,339,33179,2,0,P|0:292|25:253,1,95,8|8,3:0|3:0,0:0:0:0:
113,224,33410,1,0,3:0:0:0:
113,224,33487,1,8,3:0:0:0:
138,40,33640,1,0,3:0:0:0:
177,285,33794,6,0,B|197:332|171:373|171:373|221:325|177:238,1,209.000006378174,4|0,3:2|0:0,0:0:0:0:
92,321,34256,5,0,3:0:0:0:
5,345,34410,1,0,3:0:0:0:
113,224,34564,1,0,3:0:0:0:
393,216,34717,6,0,P|409:252|373:233,1,104.500003189087,2|0,3:1|3:0,0:0:0:0:
440,327,35025,2,0,B|376:358|317:307|317:307|314:309|314:309|267:263|197:301,1,249.375002378225,0|0,3:0|0:0,0:0:0:0:
8,240,35333,2,0,P|75:228|123:277,1,142.5,0|0,3:0|0:0,0:0:0:0:
204,131,35640,6,0,L|191:196,1,66.4999979705811,4|0,3:2|0:0,0:0:0:0:
433,0,36102,2,0,B|437:27|437:27|436:32|436:32|442:68,1,66.4999979705811,2|0,3:1|3:0,0:0:0:0:
465,202,36487,1,0,3:0:0:0:
468,219,36564,1,8,3:0:0:0:
471,237,36871,5,0,0:0:0:0:
385,224,37025,1,0,0:0:0:0:
321,282,37179,1,0,0:0:0:0:
236,262,37333,1,0,0:0:0:0:
46,341,37487,6,0,B|25:305|44:273|44:273|124:262|137:325|137:325|143:326|143:326|173:380|248:365,1,285.000010871888,4|0,3:2|0:0,0:0:0:0:
462,328,37948,2,0,B|420:336|388:311|388:311|382:350|348:367,1,142.500005435944,2|0,0:1|3:0,0:0:0:0:
512,384,38410,1,8,3:0:0:0:
478,185,38564,5,0,0:0:0:0:
443,254,38717,1,0,0:0:0:0:
272,209,38871,2,0,B|317:187|317:187|371:211,1,95,2|0,0:0|0:0,0:0:0:0:
195,304,39179,1,0,3:0:0:0:
260,111,39333,2,0,B|227:105|227:105|220:101|220:101|191:96,1,71.2500027179719,2|0,3:0|0:0,0:0:0:0:
109,323,39640,2,0,B|76:329|76:329|69:333|69:333|40:339,2,71.2500027179719,2|2|0,0:0|0:1|0:0,0:0:0:0:
169,383,40102,1,0,3:0:0:0:
198,115,40256,5,10,3:0:0:0:
125,133,40359,1,2,0:0:0:0:
96,203,40461,1,2,0:0:0:0:
119,318,40564,5,2,0:0:0:0:
135,263,40667,1,2,0:0:0:0:
101,218,40769,1,2,0:0:0:0:
15,193,40871,5,2,0:0:0:0:
45,224,40974,1,2,0:0:0:0:
87,218,41076,1,2,0:0:0:0:
196,201,41179,6,0,B|258:170|296:219|296:219|304:218|304:218|352:269|416:234,1,237.5,4|0,3:2|0:0,0:0:0:0:
406,25,41640,2,0,B|384:13|384:13|338:67|378:147,1,142.500005435944,2|0,0:1|3:0,0:0:0:0:
502,326,42102,5,8,3:0:0:0:
383,260,42256,1,8,3:0:0:0:
313,350,42410,1,8,3:0:0:0:
405,346,42564,1,8,3:0:0:0:
276,254,42717,1,8,3:0:0:0:
293,266,42871,1,0,3:0:0:0:
151,119,43025,5,4,3:2:0:0:
94,384,43179,1,0,3:0:0:0:
97,376,43487,5,8,3:0:0:0:
50,284,43640,1,8,3:0:0:0:
208,310,43794,1,8,3:0:0:0:
9,192,43948,1,8,3:0:0:0:
298,138,44102,1,8,3:0:0:0:
246,384,44256,1,8,3:0:0:0:
250,68,44410,1,8,3:0:0:0:
450,270,44564,1,8,3:0:0:0:
148,162,44717,1,8,3:0:0:0:
512,102,44871,6,0,B|485:106|485:106|478:105|478:105|431:113,1,71.2500027179719,12|0,3:0|3:0,0:0:0:0:
175,242,45025,1,8,3:0:0:0:
223,272,45102,1,0,3:0:0:0:
281,263,45179,2,0,P|315:251|342:228,1,71.2500027179719,0|0,3:0|3:0,0:0:0:0:
497,115,45333,6,0,B|470:119|470:119|463:118|463:118|416:126,1,71.2500027179719,8|0,3:0|3:0,0:0:0:0:
152,71,45487,1,8,3:0:0:0:
186,26,45564,1,0,3:0:0:0:
244,15,45641,2,0,P|280:14|313:27,1,71.2500027179719,0|0,3:0|3:0,0:0:0:0:
22,185,45794,5,8,3:0:0:0:
85,173,45871,1,8,3:0:0:0:
148,162,45948,1,0,3:0:0:0:
210,150,46025,1,0,3:0:0:0:
259,112,46102,5,8,3:0:0:0:
246,161,46179,1,8,3:0:0:0:
231,209,46256,1,8,3:0:0:0:
216,257,46333,1,8,3:0:0:0:
165,270,46410,5,8,3:0:0:0:
175,304,46487,1,8,3:0:0:0:
185,338,46564,1,8,3:0:0:0:
196,371,46640,1,8,3:0:0:0:
246,384,46717,6,0,L|256:313,1,71.2500027179719,8|0,3:0|3:0,0:0:0:0:
385,64,46871,1,8,3:0:0:0:
415,112,46948,1,0,3:0:0:0:
406,170,47025,2,0,P|394:204|371:231,1,71.2500027179719,0|0,3:0|3:0,0:0:0:0:
239,360,47179,6,0,L|249:289,1,71.2500027179719,8|0,3:0|3:0,0:0:0:0:
205,34,47333,1,8,3:0:0:0:
160,68,47410,1,0,3:0:0:0:
149,126,47487,2,0,P|148:162|161:195,1,71.2500027179719,0|0,3:0|3:0,0:0:0:0:
437,324,47640,5,8,3:0:0:0:
374,312,47717,1,8,3:0:0:0:
311,301,47794,1,0,3:0:0:0:
249,289,47871,1,0,3:0:0:0:
206,321,47948,5,0,3:0:0:0:
171,329,48025,1,0,3:0:0:0:
136,336,48102,1,0,3:0:0:0:
101,344,48179,1,0,3:0:0:0:
51,325,48256,6,0,B|59:365|121:370|162:322|138:258|73:215,1,213.750008153916,12|0,3:2|0:0,0:0:0:0:
0,135,48564,6,0,B|26:130|26:130|33:131|33:131|80:123,1,71.2500027179719,8|0,3:0|3:0,0:0:0:0:
396,31,48718,1,8,3:0:0:0:
348,1,48795,1,0,3:0:0:0:
290,10,48872,2,0,P|256:22|229:45,1,71.2500027179719,0|0,3:0|3:0,0:0:0:0:
15,123,49026,6,0,B|41:118|41:118|48:119|48:119|95:111,1,71.2500027179719,8|0,3:0|3:0,0:0:0:0:
415,114,49180,1,8,3:0:0:0:
381,159,49257,1,0,3:0:0:0:
323,170,49334,2,0,P|286:170|253:157,1,71.2500027179719,0|0,3:0|3:0,0:0:0:0:
145,0,49487,5,8,3:0:0:0:
154,63,49564,1,8,3:0:0:0:
162,125,49640,1,8,3:0:0:0:
171,188,49717,1,8,3:0:0:0:
137,239,49794,5,8,3:0:0:0:
154,192,49871,1,8,3:0:0:0:
171,145,49948,1,8,3:0:0:0:
188,98,50025,1,8,3:0:0:0:
184,49,50102,5,0,3:0:0:0:
216,62,50179,1,0,3:0:0:0:
248,75,50256,1,0,3:0:0:0:
280,89,50333,1,0,3:0:0:0:
339,63,50410,6,0,L|328:133,1,71.2500027179719,8|0,3:0|3:0,0:0:0:0:
164,352,50564,1,8,3:0:0:0:
134,304,50641,1,0,3:0:0:0:
143,246,50718,2,0,P|155:212|178:185,1,71.2500027179719,0|0,3:0|3:0,0:0:0:0:
346,87,50872,6,0,L|335:157,1,71.2500027179719,8|0,3:0|3:0,0:0:0:0:
449,384,51025,1,8,3:0:0:0:
494,350,51103,1,0,3:0:0:0:
505,292,51179,2,0,P|505:255|492:222,1,71.2500027179719,0|0,3:0|3:0,0:0:0:0:
262,7,51333,5,8,3:0:0:0:
201,29,51410,1,8,3:0:0:0:
168,84,51487,1,8,3:0:0:0:
172,148,51564,1,8,3:0:0:0:
207,200,51640,1,8,3:0:0:0:
240,226,51717,1,8,3:0:0:0:
252,266,51794,1,8,3:0:0:0:
245,308,51871,1,8,3:0:0:0:
214,338,51948,2,0,P|187:314|174:282,3,71.2500027179719,8|8|8|8,3:0|3:0|3:0|3:0,0:0:0:0:
312,364,52256,5,2,0:0:0:0:
382,137,52410,1,2,0:0:0:0:
502,274,52564,1,2,0:0:0:0:
402,271,52717,1,2,0:0:0:0:
512,264,52871,1,2,0:0:0:0:
393,280,53025,1,2,0:0:0:0:
495,64,53179,5,2,0:0:0:0:
461,192,53333,1,2,0:0:0:0:
313,99,53487,1,2,0:0:0:0:
277,190,53640,1,2,0:0:0:0:
323,106,53794,1,2,0:0:0:0:
266,191,53948,1,2,0:0:0:0:
190,350,54102,5,4,3:2:0:0:
263,11,54256,1,2,3:1:0:0:
263,0,54564,5,4,3:2:0:0:
352,350,54718,1,2,3:1:0:0:
357,361,55025,5,4,3:2:0:0:
512,0,55333,1,4,3:2:0:0:
23,207,55640,1,8,3:0:0:0:
22,196,55948,6,0,B|63:152|124:170|116:190|161:218|226:161,2,190,4|0|2,3:0|0:0|0:1,0:0:0:0:
302,308,56871,2,0,B|316:329|319:360|319:360|338:281|278:243,2,190,4|0|2,3:2|0:0|0:1,0:0:0:0:
154,165,57640,2,0,P|177:168|198:178,1,47.5,0|0,3:0|3:0,0:0:0:0:
372,2,57794,6,0,P|299:60|290:152,2,190,4|0|2,3:0|0:0|0:1,0:0:0:0:
278,243,58564,2,0,P|276:266|267:288,1,47.5,0|0,0:0|3:0,0:0:0:0:
0,365,58717,6,0,B|40:357|40:357|61:364|61:364|99:331|99:331|124:338|124:338|162:331,1,178.125,4|0,3:2|0:0,0:0:0:0:
279,374,59025,5,0,3:0:0:0:
295,378,59102,1,0,3:0:0:0:
312,381,59179,1,0,3:0:0:0:
328,384,59256,1,0,3:0:0:0:
371,366,59333,1,8,3:0:0:0:
384,373,59640,5,12,3:0:0:0:
432,338,59717,1,0,3:0:0:0:
457,284,59794,1,8,3:0:0:0:
441,226,59871,1,0,3:0:0:0:
393,190,59948,1,8,3:0:0:0:
340,162,60025,1,0,3:0:0:0:
311,110,60102,1,8,3:0:0:0:
307,50,60179,1,0,3:0:0:0:
346,5,60256,5,8,3:0:0:0:
367,15,60333,1,0,3:0:0:0:
382,32,60410,1,8,3:0:0:0:
392,53,60487,1,0,3:0:0:0:
395,76,60564,5,8,3:0:0:0:
343,64,60640,1,0,3:0:0:0:
291,77,60717,1,8,3:0:0:0:
256,117,60794,1,0,3:0:0:0:
244,169,60871,1,8,3:0:0:0:
265,217,60948,1,0,3:0:0:0:
305,252,61025,1,8,3:0:0:0:
357,262,61102,1,0,3:0:0:0:
398,228,61179,5,8,3:0:0:0:
389,211,61256,1,0,3:0:0:0:
375,194,61333,1,8,3:0:0:0:
361,179,61410,1,0,3:0:0:0:
342,171,61487,5,8,3:0:0:0:
314,223,61564,1,0,3:0:0:0:
256,235,61640,2,0,P|227:230|202:214,1,59.375,8|0,3:0|3:0,0:0:0:0:
45,13,61794,5,8,3:0:0:0:
105,27,61871,1,0,3:0:0:0:
142,76,61948,2,0,P|155:108|153:142,1,59.375,8|0,3:0|3:0,0:0:0:0:
67,383,62102,5,8,3:0:0:0:
48,317,62179,1,0,3:0:0:0:
76,251,62256,2,0,P|101:221|136:203,1,59.375,8|0,3:0|3:0,0:0:0:0:
455,201,62410,5,0,3:0:0:0:
406,177,62487,1,0,3:0:0:0:
353,185,62564,1,0,3:0:0:0:
318,224,62640,1,0,3:0:0:0:
309,286,62717,5,8,3:0:0:0:
293,216,62794,1,8,3:0:0:0:
278,146,62871,1,8,3:0:0:0:
263,76,62948,1,8,3:0:0:0:
285,25,63025,5,8,3:0:0:0:
283,31,63102,1,8,3:0:0:0:
281,37,63179,1,8,3:0:0:0:
279,43,63256,1,8,3:0:0:0:
246,66,63333,5,12,3:0:0:0:
512,224,63487,1,0,3:0:0:0:
196,332,63640,1,8,3:0:0:0:
450,149,63794,1,2,3:1:0:0:
151,94,63948,1,8,3:0:0:0:
297,378,64102,1,0,3:0:0:0:
297,378,64179,1,0,3:0:0:0:
297,378,64256,5,12,3:2:0:0:
354,123,64410,1,0,3:0:0:0:
115,371,64564,1,8,3:0:0:0:
66,69,64717,1,2,3:1:0:0:
27,342,64871,1,8,3:0:0:0:
310,211,65025,1,0,3:0:0:0:
52,63,65179,6,0,P|37:119|59:173,1,118.75,12|0,3:2|3:0,0:0:0:0:
435,375,65487,2,0,P|393:333|335:324,1,118.75,8|4,3:0|3:2,0:0:0:0:
24,335,65794,1,8,3:0:0:0:
248,150,65948,1,0,3:0:0:0:
248,150,66025,1,0,3:0:0:0:
248,150,66102,5,12,3:2:0:0:
112,364,66256,1,0,3:0:0:0:
187,69,66410,1,8,3:0:0:0:
430,270,66564,1,2,3:1:0:0:
66,202,66717,1,8,3:0:0:0:
370,67,66871,1,0,3:0:0:0:
370,67,66948,1,0,3:0:0:0:
370,67,67025,5,12,3:2:0:0:
276,265,67179,1,0,3:0:0:0:
264,1,67333,1,8,3:0:0:0:
445,176,67487,1,2,3:1:0:0:
169,219,67640,1,8,3:0:0:0:
488,95,67794,1,0,3:0:0:0:
488,95,67871,1,0,3:0:0:0:
488,95,67948,5,12,3:2:0:0:
316,345,68102,1,0,3:0:0:0:
214,67,68256,2,0,B|163:58|163:58|156:53|156:53|98:43,1,118.75,8|2,3:0|3:1,0:0:0:0:
397,384,68564,2,0,B|447:375|447:375|454:370|454:370|512:360,1,118.75,8|0,3:0|3:0,0:0:0:0:
234,292,68794,1,0,3:0:0:0:
216,288,68871,6,0,L|86:310,1,118.75,12|0,3:2|3:0,0:0:0:0:
375,146,69179,1,8,3:0:0:0:
310,353,69333,1,4,3:2:0:0:
370,36,69487,1,8,3:0:0:0:
502,275,69640,1,0,3:0:0:0:
262,2,69794,1,12,3:2:0:0:
186,377,69948,1,0,3:0:0:0:
0,85,70102,5,8,3:0:0:0:
58,44,70179,1,8,3:0:0:0:
129,41,70256,1,8,3:0:0:0:
182,88,70333,1,8,3:0:0:0:
218,156,70410,5,0,3:0:0:0:
259,178,70487,1,0,3:0:0:0:
306,175,70564,1,0,3:0:0:0:
345,149,70640,1,0,3:0:0:0:
391,73,70717,6,0,P|428:117|428:175,1,118.75,12|0,3:2|3:0,0:0:0:0:
138,221,71025,1,8,3:0:0:0:
376,74,71179,1,2,3:1:0:0:
288,208,71333,1,8,3:0:0:0:
215,90,71487,1,0,3:0:0:0:
102,372,71640,5,12,3:2:0:0:
34,99,71794,1,0,3:0:0:0:
2,255,71948,1,8,3:0:0:0:
297,198,72102,1,2,3:1:0:0:
43,91,72256,1,8,3:0:0:0:
354,267,72410,1,0,3:0:0:0:
354,267,72487,1,0,3:0:0:0:
354,267,72564,6,0,L|333:389,1,118.75,12|0,3:2|3:0,0:0:0:0:
492,73,72871,1,8,3:0:0:0:
216,124,73025,1,2,3:1:0:0:
335,30,73179,1,8,3:0:0:0:
361,166,73333,1,0,3:0:0:0:
82,125,73487,5,8,3:0:0:0:
36,171,73564,1,8,3:0:0:0:
24,234,73640,1,8,3:0:0:0:
49,294,73717,1,8,3:0:0:0:
102,331,73794,1,8,3:0:0:0:
167,329,73871,1,8,3:0:0:0:
217,288,73948,2,0,P|232:262|237:233,1,59.375,8|8,3:0|3:0,0:0:0:0:
217,110,74102,5,0,3:0:0:0:
212,92,74179,1,0,3:0:0:0:
214,74,74256,1,0,3:0:0:0:
220,57,74333,1,0,3:0:0:0:
232,43,74410,6,0,P|283:73|342:70,1,118.75,4|0,3:0|0:0,0:0:0:0:
512,0,74717,2,0,P|461:29|434:81,1,118.75,0|0,3:0|0:0,0:0:0:0:
228,316,75025,2,0,B|317:300|317:300|324:295|324:295|406:281,1,178.125,8|0,3:0|0:0,0:0:0:0:
411,275,75333,6,0,P|410:216|379:167,1,118.75,4|0,3:2|0:0,0:0:0:0:
114,338,75640,1,0,3:0:0:0:
37,286,75794,1,8,3:0:0:0:
317,249,75948,1,8,3:0:0:0:
373,168,76102,1,0,3:0:0:0:
510,335,76256,5,4,3:2:0:0:
283,164,76410,1,8,3:0:0:0:
188,384,76564,1,8,3:0:0:0:
38,270,76717,1,8,3:0:0:0:
115,322,76871,1,0,3:0:0:0:
204,297,77025,1,0,3:0:0:0:
380,373,77179,5,0,3:0:0:0:
386,363,77256,1,0,3:0:0:0:
390,351,77333,1,0,3:0:0:0:
390,339,77410,1,0,3:0:0:0:
385,328,77487,1,2,3:0:0:0:
374,317,77794,5,8,3:0:0:0:
347,277,77871,1,8,3:0:0:0:
342,228,77948,2,0,P|351:201|371:179,1,59.375,8|8,3:0|3:0,0:0:0:0:
512,48,78102,5,4,3:0:0:0:
453,98,78179,1,0,3:0:0:0:
381,103,78256,1,8,3:0:0:0:
326,66,78333,1,0,3:0:0:0:
283,23,78410,1,2,3:0:0:0:
229,19,78487,1,0,3:0:0:0:
187,42,78564,1,8,3:0:0:0:
168,78,78640,1,0,3:0:0:0:
169,113,78717,1,2,3:0:0:0:
182,139,78794,1,0,3:0:0:0:
202,151,78871,1,8,3:0:0:0:
219,153,78948,1,0,3:0:0:0:
229,148,79025,5,2,3:0:0:0:
158,115,79102,1,0,3:0:0:0:
102,159,79179,1,8,3:0:0:0:
105,224,79256,1,0,3:0:0:0:
156,253,79333,1,2,3:0:0:0:
195,289,79410,1,0,3:0:0:0:
205,335,79487,1,8,3:0:0:0:
187,372,79564,1,0,3:0:0:0:
152,380,79641,1,2,3:0:0:0:
124,370,79717,1,0,3:0:0:0:
116,347,79794,1,8,3:0:0:0:
120,329,79871,1,0,3:0:0:0:
127,320,79948,5,2,3:0:0:0:
192,360,80025,1,0,3:0:0:0:
261,342,80102,1,8,3:0:0:0:
288,282,80179,1,0,3:0:0:0:
279,223,80256,1,2,3:0:0:0:
302,175,80333,1,0,3:0:0:0:
347,159,80410,1,8,3:0:0:0:
386,171,80487,1,0,3:0:0:0:
408,198,80564,2,0,L|393:282,1,59.375,2|0,3:0|3:0,3:0:0:0:
512,23,80717,2,0,L|501:81,1,59.375,8|0,3:0|3:0,0:0:0:0:
259,73,80871,5,2,3:0:0:0:
200,85,80948,1,0,3:0:0:0:
140,91,81025,1,8,3:0:0:0:
81,99,81102,1,0,3:0:0:0:
22,111,81179,2,0,L|33:169,3,59.375,2|0|8|0,3:0|3:0|3:0|3:0,0:0:0:0:
159,233,81487,2,0,L|170:174,3,59.375,2|0|8|0,3:0|3:0|3:0|3:0,0:0:0:0:
391,190,81794,5,4,3:2:0:0:
428,122,81871,1,0,3:0:0:0:
409,52,81948,1,8,3:0:0:0:
352,19,82025,1,0,3:0:0:0:
292,23,82102,1,2,3:0:0:0:
247,53,82179,1,0,3:0:0:0:
234,98,82256,1,8,3:0:0:0:
242,138,82333,1,0,3:0:0:0:
260,167,82409,1,2,3:0:0:0:
284,183,82486,1,0,3:0:0:0:
301,199,82563,1,8,3:0:0:0:
307,215,82640,1,0,3:0:0:0:
305,226,82717,5,2,3:0:0:0:
377,199,82794,1,0,3:0:0:0:
435,239,82871,1,8,3:0:0:0:
436,304,82948,1,0,3:0:0:0:
390,342,83025,1,2,3:0:0:0:
336,337,83102,1,0,3:0:0:0:
301,304,83179,1,8,3:0:0:0:
260,293,83256,1,0,3:0:0:0:
225,301,83333,1,2,3:0:0:0:
199,315,83409,1,0,3:0:0:0:
185,334,83486,1,8,3:0:0:0:
179,350,83563,1,0,3:0:0:0:
181,361,83640,5,10,3:1:0:0:
165,297,83717,1,8,3:0:0:0:
152,232,83794,1,8,3:0:0:0:
136,168,83871,1,8,3:0:0:0:
118,104,83948,6,0,L|109:164,1,59.375,8|8,3:0|3:0,0:0:0:0:
70,366,84102,2,0,L|79:306,1,59.375,8|8,3:0|3:0,0:0:0:0:
222,180,84256,5,8,3:0:0:0:
245,178,84333,1,8,3:0:0:0:
266,168,84410,1,8,3:0:0:0:
281,150,84487,1,8,3:0:0:0:
304,118,84564,5,8,3:0:0:0:
292,182,84641,1,8,3:0:0:0:
284,246,84718,1,8,3:0:0:0:
271,310,84795,1,8,3:0:0:0:
254,378,84871,5,8,3:0:0:0:
243,349,84948,1,8,3:0:0:0:
233,321,85025,1,8,3:0:0:0:
223,293,85102,1,8,3:0:0:0:
229,257,85179,5,0,3:0:0:0:
224,269,85256,1,0,3:0:0:0:
220,281,85333,1,0,3:0:0:0:
216,292,85410,1,0,3:0:0:0:
204,337,85487,6,0,L|188:254,1,71.2500027179719,8|0,3:0|3:0,0:0:0:0:
0,67,85640,1,8,3:0:0:0:
52,18,85717,1,0,3:0:0:0:
121,9,85794,2,0,P|155:17|184:37,1,71.2500027179719,0|0,3:0|3:0,0:0:0:0:
208,325,85948,6,0,L|194:242,1,71.2500027179719,8|0,3:0|3:0,0:0:0:0:
410,82,86101,1,8,3:0:0:0:
351,57,86179,1,0,3:0:0:0:
291,72,86256,2,0,P|265:89|241:125,1,71.2500027179719,0|0,3:0|3:0,0:0:0:0:
88,374,86410,5,8,3:0:0:0:
77,304,86487,1,8,3:0:0:0:
66,234,86564,1,0,3:0:0:0:
56,165,86640,1,0,3:0:0:0:
88,122,86717,5,8,3:0:0:0:
80,171,86794,1,8,3:0:0:0:
72,221,86871,1,8,3:0:0:0:
64,269,86948,1,8,3:0:0:0:
61,311,87025,5,8,3:0:0:0:
69,291,87102,1,8,3:0:0:0:
78,273,87179,1,8,3:0:0:0:
88,256,87256,1,8,3:0:0:0:
70,226,87332,5,12,3:2:0:0:
408,80,87486,1,12,3:2:0:0:
167,358,87640,1,12,3:2:0:0:
438,241,87794,1,12,3:2:0:0:
113,68,87948,1,12,3:2:0:0:
331,365,88102,1,12,3:2:0:0:
263,3,88256,6,0,B|263:56|263:56|268:71|268:71|262:87|262:87|261:226,1,213.750008153916,12|0,3:2|0:0,0:0:0:0:
