osu file format v14

[General]
AudioFilename: audio.mp3
AudioLeadIn: 0
PreviewTime: 120468
Countdown: 0
SampleSet: Soft
StackLeniency: 0.3
Mode: 0
LetterboxInBreaks: 0
WidescreenStoryboard: 1

[Editor]
Bookmarks: 65865,73068,76840,87808,109754,120725,131697,142665,153637,164611,175582,186554,190325
DistanceSpacing: 0.9
BeatDivisor: 4
GridSize: 8
TimelineZoom: 1.4

[Metadata]
Title:Rich Kids (feat. Yvette Young)
TitleUnicode:Rich Kids (feat. Yvette Young)
Artist:Polyphia
ArtistUnicode:Polyphia
Creator:IllusionB
Version:Normal
Source:
Tags:new levels new devils metal math progressive electronic rock instrumental chizu-kun celektus
BeatmapID:2896355
BeatmapSetID:1399084

[Difficulty]
HPDrainRate:3
CircleSize:3.5
OverallDifficulty:4.5
ApproachRate:6
SliderMultiplier:1.2
SliderTickRate:1

[Events]
//Background and Video events
0,0,"bg04.png",0,0
//Break Periods
2,88151,97408
2,132037,141294
//Storyboard Layer 0 (Background)
//Storyboard Layer 1 (Fail)
//Storyboard Layer 2 (Pass)
//Storyboard Layer 3 (Foreground)
//Storyboard Layer 4 (Overlay)
//Storyboard Sound Samples

[TimingPoints]
37,342.857142857143,4,2,3,50,1,0
37,-125,4,2,3,50,0,0
5865,-125,4,2,3,50,0,0
11008,-125,4,2,3,50,0,0
18894,-125,4,2,3,50,0,0
20608,-125,4,2,3,50,0,0
20951,-125,4,2,3,50,0,0
21294,-125,4,2,3,50,0,0
21637,-125,4,2,3,50,0,0
21894,-125,4,2,3,50,0,0
21979,-125,4,2,1,85,0,0
24551,-100,4,2,1,85,0,0
25408,-100,4,2,1,85,0,0
25751,-100,4,2,1,85,0,0
27122,-100,4,2,2,85,0,0
27465,-100,4,2,1,85,0,0
28151,-100,4,2,1,85,0,0
28837,-100,4,2,1,85,0,0
29694,-100,4,2,2,85,0,0
29865,-100,4,2,1,85,0,0
30037,-100,4,2,1,85,0,0
30894,-100,4,2,1,85,0,0
31237,-100,4,2,1,85,0,0
32608,-100,4,2,1,85,0,0
32954,-100,4,2,1,85,0,0
33637,-100,4,2,1,85,0,0
34837,-100,4,2,1,85,0,0
37751,-100,4,2,2,85,0,0
38437,-100,4,2,1,85,0,0
39122,-100,4,2,1,85,0,0
39811,-100,4,2,1,85,0,0
42554,-100,4,2,1,85,0,0
43579,-100,4,2,2,85,0,0
43922,-100,4,2,1,85,0,0
44951,-100,4,2,1,60,0,0
45294,-100,4,2,3,60,0,0
46837,-100,4,2,3,60,0,0
47351,-100,4,2,3,60,0,0
47694,-100,4,2,2,60,0,0
48722,-100,4,2,3,60,0,0
50437,-100,4,2,2,60,0,0
51122,-100,4,2,3,60,0,0
52322,-100,4,2,3,60,0,0
52837,-100,4,2,3,60,0,0
53179,-100,4,2,3,60,0,0
54894,-125,4,2,2,60,0,0
55922,-125,4,2,1,60,0,0
56265,-125,4,2,2,60,0,0
58837,-125,4,2,1,60,0,0
59008,-125,4,2,2,60,0,0
60379,-125,4,2,2,60,0,0
60722,-111.111111111111,4,2,2,60,0,0
61579,-111.111111111111,4,2,1,60,0,0
61751,-111.111111111111,4,2,2,60,0,0
64494,-111.111111111111,4,2,2,80,0,0
65865,-125,4,2,1,85,0,0
67237,-125,4,2,1,85,0,0
67922,-100,4,2,1,85,0,0
71008,-100,4,2,1,85,0,0
71179,-100,4,2,1,85,0,0
74608,-100,4,2,2,85,0,0
74779,-100,4,2,1,85,0,0
79579,-100,4,2,1,85,0,0
80040,-100,4,2,1,85,0,0
80265,-100,4,2,2,85,0,0
80951,-100,4,2,1,85,0,0
82665,-100,4,2,2,85,0,0
83008,-100,4,2,1,85,0,0
87808,-100,4,2,4,50,0,0
98779,-125,4,2,4,50,0,0
104265,-125,4,2,4,50,0,0
108379,-125,4,2,4,50,0,0
108722,-125,4,2,4,50,0,0
109065,-125,4,2,4,50,0,0
109408,-125,4,2,4,50,0,0
109751,-125,4,2,1,85,0,0
111122,-125,4,2,1,85,0,0
112151,-100,4,2,1,85,0,0
112665,-100,4,2,1,85,0,0
113865,-100,4,2,2,85,0,0
114893,-100,4,2,2,85,0,0
115237,-100,4,2,1,85,0,0
115922,-100,4,2,1,85,0,0
116608,-100,4,2,1,85,0,0
116951,-100,4,2,2,85,0,0
117122,-100,4,2,2,85,0,0
117465,-100,4,2,2,85,0,0
117637,-100,4,2,1,85,0,0
119008,-100,4,2,2,85,0,0
119351,-100,4,2,1,85,0,0
119694,-100,4,2,1,85,0,0
120037,-100,4,2,1,85,0,0
120208,-100,4,2,2,85,0,0
120722,-100,4,2,1,85,0,0
121408,-100,4,2,1,85,0,0
122094,-125,4,2,2,85,0,0
122611,-125,4,2,2,85,0,0
123122,-125,4,2,1,85,0,0
123465,-125,4,2,1,85,0,0
124497,-125,4,2,1,85,0,0
124837,-100,4,2,1,85,0,0
125522,-100,4,2,2,85,0,0
126208,-100,4,2,1,85,0,0
126894,-100,4,2,1,85,0,0
127579,-100,4,2,2,85,0,0
129122,-100,4,2,1,85,0,0
129636,-100,4,2,1,85,0,0
129979,-100,4,2,1,85,0,0
130322,-100,4,2,1,85,0,0
131008,-100,4,2,2,85,0,0
131697,-100,4,2,2,85,0,0
142665,-125,4,2,4,25,0,0
152265,-125,4,2,2,30,0,0
152722,-125,4,2,2,30,0,0
152951,-125,4,2,2,45,0,0
153408,-125,4,2,2,45,0,0
153637,-125,4,2,4,40,0,0
157751,-125,4,2,4,40,0,0
158437,-125,4,2,4,40,0,0
164608,-125,4,2,4,60,0,0
165122,-125,4,2,2,60,0,0
165294,-125,4,2,4,60,0,0
165808,-125,4,2,1,60,0,0
165979,-125,4,2,4,60,0,0
166322,-125,4,2,1,60,0,0
168037,-125,4,2,4,60,0,0
168379,-125,4,2,2,60,0,0
168722,-125,4,2,4,60,0,0
169065,-125,4,2,1,60,0,0
170094,-125,4,2,4,60,0,0
170437,-125,4,2,2,60,0,0
170779,-125,4,2,4,60,0,0
171122,-125,4,2,1,60,0,0
171465,-125,4,2,4,60,0,0
171722,-125,4,2,1,60,0,0
172151,-125,4,2,4,60,0,0
172408,-125,4,2,1,60,0,0
172837,-125,4,2,1,60,0,0
173522,-125,4,2,4,60,0,0
174208,-125,4,2,4,50,0,0
174894,-125,4,2,4,50,0,0
175579,-100,4,2,1,75,0,0
175922,-100,4,2,1,75,0,0
176265,-100,4,2,1,75,0,0
176951,-100,4,2,1,75,0,0
177122,-100,4,2,2,75,0,0
177637,-100,4,2,2,75,0,0
179694,-100,4,2,1,75,0,0
180722,-100,4,2,2,75,0,0
182437,-100,4,2,1,75,0,0
182779,-100,4,2,2,75,0,0
183122,-100,4,2,1,75,0,0
185179,-100,4,2,1,75,0,0
185865,-100,4,2,2,80,0,0
186551,-125,4,2,1,65,0,0
186894,-125,4,2,1,65,0,0
189122,-125,4,2,1,65,0,0
190665,-125,4,2,1,65,0,0
192037,-125,4,2,1,65,0,0
192722,-125,4,2,1,65,0,0
194437,-125,4,2,1,65,0,0

[Colours]
Combo1 : 80,97,245
Combo2 : 0,0,255
Combo3 : 125,206,230
Combo4 : 19,120,168

[HitObjects]
147,135,37,5,2,0:2:0:0:
201,213,379,2,0,L|320:223,1,96,2|2,0:2|0:2,0:0:0:0:
378,170,1065,1,2,0:2:0:0:
449,233,1408,2,0,P|425:287|411:351,2,96,2|2|2,0:2|0:2|0:2,0:0:0:0:
508,157,2437,2,0,P|507:91|386:43,1,192,2|2,0:2|0:2,0:0:0:0:
221,232,5865,6,0,P|241:299|248:350,2,96,2|2|2,0:2|0:2|0:2,0:0:0:0:
140,179,6894,2,0,P|160:112|167:61,2,96,2|2|2,0:2|0:2|0:2,0:0:0:0:
68,242,7922,1,2,0:2:0:0:
324,345,10665,6,0,L|403:351,1,48,2|2,0:2|0:2,0:0:0:0:
415,354,11008,1,2,3:2:0:0:
415,354,11179,2,0,P|469:330|521:315,1,96,2|2,0:2|3:2,0:0:0:0:
508,280,11694,2,0,L|499:184,1,96,2|2,3:2|3:2,0:0:0:0:
429,102,12379,2,0,P|377:86|313:95,1,96,2|2,0:2|3:2,0:0:0:0:
305,119,12894,1,0,0:0:0:0:
305,119,13065,2,0,P|253:135|193:123,1,96,2|2,3:2|0:2,0:0:0:0:
122,95,13751,6,0,B|97:114|97:114|78:253,1,144,2|0,3:2|3:2,0:0:0:0:
76,273,14437,2,0,P|131:258|179:262,1,96,2|2,3:2|3:2,0:0:0:0:
248,205,15122,2,0,L|257:101,1,96,2|2,0:2|3:2,0:0:0:0:
333,52,15808,2,0,L|396:46,1,48,2|0,3:2|0:0,0:0:0:0:
428,44,16151,1,2,0:2:0:0:
479,125,16494,6,0,P|453:178|448:258,2,96,2|2|2,3:2|0:2|3:2,0:0:0:0:
428,44,17522,1,2,3:2:0:0:
355,107,17865,2,0,B|346:128|346:128|354:215,1,96,2|2,0:2|3:2,0:0:0:0:
285,270,18551,1,2,3:2:0:0:
194,236,18894,1,2,3:2:0:0:
256,192,19237,12,4,21979,3:3:0:0:
152,80,23351,6,0,B|127:64|127:64|32:64|32:64|0:88,2,144,2|2|2,3:2|3:2|3:2,0:0:0:0:
190,117,24551,2,0,P|256:137|324:107,1,120,6|2,0:2|0:2,0:0:0:0:
343,86,25065,1,6,3:2:0:0:
428,152,25408,1,0,0:0:0:0:
462,248,25751,2,0,L|467:311,1,60,2|2,3:2|3:2,0:0:0:0:
433,350,26094,1,0,1:2:0:0:
433,350,26265,2,0,P|375:329|305:346,1,120,2|0,0:2|3:2,0:0:0:0:
271,364,26779,2,0,P|255:318|223:245,2,120,2|2|4,3:2|0:3|3:2,0:0:0:0:
390,206,28151,5,10,0:2:0:0:
201,96,28837,2,0,B|128:77|140:119|70:101,1,120,0|2,1:2|3:3,0:0:0:0:
44,67,29351,2,0,P|33:147|22:198,1,120,6|8,3:2|0:2,0:0:0:0:
6,238,29865,1,10,3:2:0:0:
6,238,30037,2,0,P|56:287|131:274,1,120,10|2,0:2|0:2,0:0:0:0:
151,263,30551,2,0,L|144:342,1,60,8|0,0:2|0:0,0:0:0:0:
182,362,30894,5,2,0:2:0:0:
275,308,31237,1,2,3:2:0:0:
362,370,31579,2,0,B|423:384|423:384|494:362,2,120,0|2|2,1:0|0:2|3:2,0:0:0:0:
421,279,32608,1,2,0:3:0:0:
372,182,32951,1,6,3:2:0:0:
498,17,33637,5,10,0:2:0:0:
344,85,34322,2,0,B|303:104|303:104|219:78,1,120,6|2,3:2|0:3,0:0:0:0:
180,62,34837,2,0,L|191:197,1,120,2|2,3:3|0:2,0:0:0:0:
225,222,35351,1,2,3:2:0:0:
309,289,35694,2,0,B|349:289|349:289|383:269|383:269|423:270,2,120,2|2|2,2:2|2:2|2:2,2:0:0:0:
225,222,36722,2,0,L|165:227,1,60,2|2,3:2|3:2,0:0:0:0:
111,231,37065,1,0,1:2:0:0:
39,149,37408,1,2,0:2:0:0:
0,257,37751,2,0,P|16:299|28:338,1,60,2|10,3:2|0:2,0:0:0:0:
40,363,38094,2,0,P|87:343|170:367,1,120,2|6,0:3|3:2,0:0:0:0:
294,185,39122,5,10,0:2:0:0:
437,363,39808,2,0,P|455:298|481:237,1,120,2|2,1:2|0:3,0:0:0:0:
501,202,40322,1,2,3:2:0:0:
462,101,40665,1,2,0:2:0:0:
462,101,40837,2,0,B|376:67|376:67|292:93,2,180,6|6|2,3:2|3:2|0:2,0:0:0:0:
374,163,42208,1,2,3:2:0:0:
443,245,42551,5,0,1:2:0:0:
374,328,42894,2,0,P|346:316|302:306,1,60,0|0,0:0|3:2,0:0:0:0:
264,328,43237,2,0,B|235:350|235:350|129:332,2,120,0|2|4,3:2|0:3|3:3,0:0:0:0:
69,79,44951,6,0,L|150:72,1,60,2|0,0:3|0:0,0:0:0:0:
183,73,45294,1,8,0:1:0:0:
239,165,45637,2,0,P|221:211|219:259,2,60,2|2|2,0:2|0:2|0:2,0:0:0:0:
281,131,46151,1,2,0:2:0:0:
281,131,46322,2,0,B|322:145|322:145|403:120,1,120,2|0,0:2|0:0,0:0:0:0:
445,101,46837,2,0,L|436:236,1,120,2|0,0:2|0:0,0:0:0:0:
431,265,47351,5,2,3:2:0:0:
347,347,47694,1,6,0:2:0:0:
347,347,47865,2,0,P|305:332|263:327,2,60,8|8|10,0:2|0:2|0:2,0:0:0:0:
400,341,48379,1,2,0:2:0:0:
507,311,48722,2,0,L|515:151,2,120,2|2|6,3:2|3:2|3:2,0:0:0:0:
407,259,49751,1,2,0:2:0:0:
328,190,50094,2,0,L|334:118,1,60,2|2,0:2|0:2,0:0:0:0:
375,95,50437,2,0,L|368:23,1,60,2|2,0:3|0:2,0:0:0:0:
325,4,50779,1,8,0:1:0:0:
238,68,51122,6,0,P|204:74|169:69,1,60,2|2,0:2|0:2,0:0:0:0:
132,42,51465,2,0,P|98:36|63:41,1,60,2|2,0:2|0:2,0:0:0:0:
28,69,51808,2,0,P|36:155|44:254,2,180,6|6|6,0:2|0:2|3:2,0:0:0:0:
123,120,53179,2,0,B|153:125|179:146|179:146|201:127|243:122,1,120,0|8,3:2|0:1,0:0:0:0:
256,338,54208,5,2,0:2:0:0:
404,181,54894,2,0,P|468:179|468:250,1,144,14|8,1:2|0:2,0:0:0:0:
444,278,55579,1,10,1:2:0:0:
357,273,55922,1,2,0:3:0:0:
298,209,56265,2,0,B|272:190|272:190|195:203,1,96,10|8,1:2|0:2,0:0:0:0:
159,272,56951,2,0,B|133:290|133:290|56:277,1,96,10|2,1:2|0:2,0:0:0:0:
23,206,57637,6,0,B|50:125|-8:137|12:61,1,144,8|8,1:2|0:2,0:0:0:0:
35,32,58322,1,10,1:2:0:0:
106,80,58665,2,0,L|172:84,1,48,10|2,0:2|0:3,0:0:0:0:
197,84,59008,1,10,1:2:0:0:
197,84,59179,2,0,B|224:98|224:98|306:93,1,96,10|2,0:2|0:2,0:0:0:0:
332,87,59694,2,0,P|344:156|320:197,2,96,10|2|8,1:2|1:2|1:2,0:0:0:0:
237,139,60722,6,0,L|165:132,1,53.9999983520508,2|10,1:2|0:2,0:0:0:0:
137,163,61065,1,10,1:2:0:0:
71,77,61408,2,0,P|78:51|87:25,2,53.9999983520508,8|2|10,1:2|0:3|1:2,0:0:0:0:
34,116,61922,1,10,1:2:0:0:
34,116,62094,1,10,1:2:0:0:
33,227,62437,1,8,1:2:0:0:
33,227,62608,1,10,1:2:0:0:
33,227,62779,2,0,L|106:233,1,53.9999983520508,10|10,1:2|1:2,0:0:0:0:
256,192,63122,12,6,64494,1:3:0:0:
158,132,65865,6,0,P|268:114|386:144,2,192,6|6|2,3:2|3:2|1:2,0:0:0:0:
56,215,67579,1,0,0:0:0:0:
102,325,67922,2,0,P|32:341|9:347,2,80,6|6|6,3:2|3:2|3:2,0:0:0:0:
178,298,68608,2,0,P|238:322|339:266,1,180,6|0,3:2|0:0,0:0:0:0:
366,228,69294,2,0,B|385:191|385:191|409:347,1,180,2|0,3:2|0:0,0:0:0:0:
455,350,69979,2,0,P|483:331|524:321,2,60,2|2|2,1:2|0:2|0:2,0:0:0:0:
492,235,70665,5,6,3:2:0:0:
433,138,71008,2,0,L|439:74,1,60,2|2,0:2|3:2,0:0:0:0:
483,38,71351,1,6,3:2:0:0:
377,0,71694,1,2,0:2:0:0:
279,61,72037,2,0,P|246:64|209:55,2,60,2|2|2,0:2|0:2|3:3,0:0:0:0:
361,135,72722,2,0,L|354:214,1,60,2|0,1:2|3:2,0:0:0:0:
304,213,73065,2,0,L|310:292,1,60,2|0,0:2|3:2,0:0:0:0:
275,315,73408,5,4,3:2:0:0:
181,368,73751,2,0,P|114:368|66:322,1,120,6|0,3:2|0:0,0:0:0:0:
38,296,74265,2,0,L|50:157,1,120,6|8,3:2|0:2,0:0:0:0:
21,136,74779,2,0,B|2:113|2:113|-3:41,2,80,2|6|6,3:2|3:2|3:2,0:0:0:0:
84,86,75465,2,0,P|136:76|196:134,1,120,2|0,1:2|0:0,0:0:0:0:
300,69,76151,1,2,3:3:0:0:
207,259,76837,6,0,P|268:238|340:225,1,120,6|2,3:2|0:2,0:0:0:0:
426,286,77522,2,0,P|464:299|509:307,2,80,6|0|0,3:2|0:0|0:0,0:0:0:0:
410,207,78208,2,0,P|402:167|386:124,2,80,2|0|0,1:2|0:0|0:0,0:0:0:0:
348,258,78894,2,0,P|317:284|287:319,1,80,6|6,3:2|3:2,0:0:0:0:
249,382,79351,1,6,3:2:0:0:
180,340,79579,6,0,L|68:330,2,80,6|0|0,3:2|0:0|0:0,0:0:0:0:
226,274,80265,2,0,L|337:264,2,80,2|0|0,3:3|0:0|0:0,0:0:0:0:
167,219,80951,1,2,1:2:0:0:
361,90,81637,5,2,0:2:0:0:
157,18,82322,2,0,P|181:79|193:150,1,120,6|10,3:2|0:2,0:0:0:0:
178,185,82837,1,10,0:2:0:0:
178,185,83008,2,0,P|129:183|99:162,1,60,2|2,3:2|3:2,0:0:0:0:
78,144,83351,2,0,P|36:202|39:265,1,120,6|2,3:2|1:2,0:0:0:0:
104,332,84037,1,6,3:2:0:0:
205,295,84379,1,6,3:2:0:0:
288,363,84722,6,0,P|357:376|415:348,1,120,6|0,3:2|0:0,0:0:0:0:
463,269,85408,1,6,3:2:0:0:
395,184,85751,2,0,B|336:172|336:172|304:181,2,80,2|0|0,3:2|0:0|0:0,0:0:0:0:
461,138,86437,1,4,1:2:0:0:
256,192,87808,5,2,3:2:0:0:
127,101,98779,6,0,P|186:83|257:127,1,144,2|2,3:2|3:2,0:0:0:0:
252,165,99465,2,0,L|242:276,1,96,2|2,3:3|3:2,0:0:0:0:
293,331,100151,2,0,B|322:311|322:311|438:321,1,144,2|2,0:2|0:2,0:0:0:0:
473,325,100837,1,2,3:3:0:0:
510,247,101179,1,2,0:2:0:0:
451,183,101522,2,0,B|415:79|491:95|465:-1,1,192,2|2,3:2|3:3,0:0:0:0:
383,28,102551,1,0,3:2:0:0:
328,95,102894,2,0,B|297:117|297:117|216:107,2,96,2|2|2,0:2|3:2|3:3,0:0:0:0:
381,162,103922,1,2,0:2:0:0:
355,244,104265,6,0,P|420:269|480:280,2,96,2|2|2,3:2|0:2|3:3,0:0:0:0:
276,207,105294,1,2,3:2:0:0:
214,268,105637,2,0,P|149:293|89:304,2,96,2|2|2,0:2|3:2|3:3,0:0:0:0:
189,185,106665,1,2,3:2:0:0:
256,192,107008,12,4,109751,3:3:0:0:
155,325,111122,6,0,B|130:341|130:341|35:341|35:341|3:317,1,144,2|2,3:2|3:2,0:0:0:0:
145,227,112151,2,0,B|166:191|139:139|139:139|87:140|60:174,1,180,6|2,3:2|3:2,0:0:0:0:
25,213,112837,1,0,3:2:0:0:
0,107,113179,2,0,L|5:43,1,60,2|0,0:2|0:0,0:0:0:0:
46,11,113522,2,0,P|86:6|118:15,2,60,2|2|0,3:2|3:2|1:2,0:0:0:0:
97,106,114208,1,0,3:2:0:0:
187,47,114551,2,0,L|199:190,2,120,2|2|6,3:2|3:3|3:2,0:0:0:0:
345,194,115922,5,8,0:2:0:0:
196,316,116608,2,0,P|170:297|133:276,2,60,0|2|2,1:2|0:2|3:3,0:0:0:0:
229,350,117122,1,0,3:2:0:0:
229,350,117294,2,0,P|257:362|285:357,1,60,2|10,0:0|0:0,0:0:0:0:
329,337,117637,2,0,L|342:185,1,120,10|0,0:2|3:2,0:0:0:0:
333,170,118151,2,0,P|268:160|222:204,1,120,2|0,0:2|0:0,0:0:0:0:
205,234,118665,2,0,B|171:255|171:255|64:246,2,120,2|0|2,0:2|3:2|1:2,0:0:0:0:
168,144,119694,1,2,0:2:0:0:
252,98,120037,2,0,L|332:104,1,60,2|8,3:2|0:2,0:0:0:0:
350,142,120379,2,0,L|410:136,1,60,2|2,3:3|0:2,0:0:0:0:
453,103,120722,5,6,3:2:0:0:
277,182,121408,1,10,0:2:0:0:
290,346,122094,2,0,B|265:362|265:362|170:362|170:362|155:350,2,144,2|2|2,3:2|3:2|3:2,0:0:0:0:
273,261,123465,1,6,3:2:0:0:
255,176,123808,1,2,0:2:0:0:
170,194,124151,1,2,0:2:0:0:
188,279,124494,2,0,L|124:293,1,48,2|0,3:2|3:2,0:0:0:0:
89,300,124837,2,0,P|52:239|13:195,1,120,2|2,1:2|0:2,0:0:0:0:
50,98,125522,2,0,P|112:106|127:157,2,120,2|2|6,3:2|0:3|3:2,0:0:0:0:
262,13,126894,5,10,0:2:0:0:
142,241,127579,6,0,P|63:208|-7:192,1,120,6|2,1:2|0:3,0:0:0:0:
2,94,128265,1,0,3:2:0:0:
90,31,128608,2,0,B|183:4|170:67|269:34,2,180,2|2|0,3:2|0:2|0:0,0:0:0:0:
144,124,129979,1,0,3:2:0:0:
96,220,130322,1,0,1:2:0:0:
152,312,130665,2,0,P|186:317|225:325,1,60,2|0,0:2|3:2,0:0:0:0:
249,360,131008,2,0,L|344:351,1,60,2|10,3:2|3:2,0:0:0:0:
349,318,131351,2,0,L|408:323,1,60,2|2,3:3|3:3,0:0:0:0:
442,365,131694,1,6,3:2:0:0:
188,77,142665,6,0,P|175:130|267:102,1,192,4|2,0:1|0:0,0:0:0:0:
409,51,144037,1,10,0:2:0:0:
464,194,144722,2,0,P|441:272|415:385,2,192,2|2|2,0:0|0:0|0:0,0:0:0:0:
356,84,146779,1,10,0:2:0:0:
265,208,147465,1,2,0:0:0:0:
151,104,148151,6,0,P|100:84|46:131,1,128,2|2,0:0|0:0,0:0:0:0:
27,202,148837,2,0,P|44:243|62:296,2,96,2|2|10,0:0|0:0|0:2,0:0:0:0:
0,101,149865,2,0,P|8:68|16:30,1,64,2|0,0:0|0:0,0:0:0:0:
53,13,150265,1,2,0:0:0:0:
153,147,150951,1,2,0:0:0:0:
292,41,151579,1,2,0:0:0:0:
399,176,152265,6,0,P|411:219|421:261,2,64,10|2|2,1:2|0:0|0:0,0:0:0:0:
423,100,152951,2,0,P|432:73|450:20,2,64,2|2|2,0:0|0:0|0:0,0:0:0:0:
480,155,153637,1,2,3:2:0:0:
317,190,154094,6,0,P|297:239|272:314,1,128,2|2,0:2|0:2,0:0:0:0:
120,384,155008,2,0,P|133:347|87:260,1,144,10|0,0:2|0:0,0:0:0:0:
47,242,155694,1,2,3:2:0:0:
186,91,156379,2,0,B|160:69|160:69|174:228,1,192,2|2,0:2|3:2,0:0:0:0:
304,373,157751,2,0,B|408:399|392:322|494:350,1,192,10|2,0:2|0:2,0:0:0:0:
452,157,159122,1,2,3:2:0:0:
322,188,159637,6,0,B|271:185|271:185|256:196|256:196|192:192,1,128,2|2,0:2|0:0,0:0:0:0:
109,138,160494,2,0,P|94:53|171:83,1,192,10|2,0:2|3:2,0:0:0:0:
24,208,161922,2,0,P|14:258|10:284,2,64,2|2|2,0:0|0:0|0:0,0:0:0:0:
61,186,162551,2,0,B|85:168|85:168|209:183,1,144,2|8,3:2|0:0,0:0:0:0:
217,221,163237,2,0,P|232:254|246:296,2,72,10|2|2,0:2|0:2|0:2,0:0:0:0:
257,207,163922,2,0,P|268:178|283:133,2,72,2|2|2,0:2|0:2|0:2,0:0:0:0:
290,234,164608,6,0,B|446:223,1,144,6|2,3:2|0:2,0:0:0:0:
475,212,165294,2,0,L|462:61,1,144,2|2,3:2|0:2,0:0:0:0:
455,26,165979,1,10,0:2:0:0:
379,68,166322,1,10,0:2:0:0:
301,28,166665,1,10,0:2:0:0:
229,75,167008,1,10,0:2:0:0:
155,30,167351,2,0,B|58:19|58:19|14:62|46:119,1,192,14|2,0:2|3:2,0:0:0:0:
94,172,168379,1,0,1:0:0:0:
54,248,168722,6,0,L|45:344,1,96,10|10,0:2|0:2,0:0:0:0:
121,383,169408,2,0,P|165:360|220:369,2,96,10|8|6,0:2|0:2|3:2,0:0:0:0:
45,343,170437,1,2,0:3:0:0:
87,268,170779,1,2,3:2:0:0:
31,201,171122,1,10,0:2:0:0:
79,129,171465,6,0,P|89:87|98:46,2,72,10|2|2,0:2|0:2|0:2,0:0:0:0:
114,153,172151,2,0,P|130:205|139:236,2,72,6|2|2,3:2|0:2|0:2,0:0:0:0:
153,134,172837,2,0,L|356:108,2,192,10|2|12,0:2|3:2|0:2,0:0:0:0:
153,134,174894,1,6,3:2:0:0:
315,276,175579,6,0,P|378:260|392:258,1,60,6|0,3:2|0:0,0:0:0:0:
401,299,175922,2,0,B|437:325|437:325|528:315,1,120,2|0,0:3|3:0,0:0:0:0:
504,199,176608,1,0,0:0:0:0:
445,108,176951,2,0,P|403:88|376:88,1,60,2|2,1:2|1:3,0:0:0:0:
336,95,177294,1,2,0:3:0:0:
257,169,177637,2,0,L|244:25,1,120,2|0,3:2|0:0,0:0:0:0:
172,128,178322,2,0,L|162:247,1,120,2|0,3:2|0:0,0:0:0:0:
87,326,179008,2,0,L|76:207,1,120,2|2,3:2|1:2,0:0:0:0:
3,125,179694,6,0,P|48:80|122:88,2,120,0|0|2,1:0|0:0|0:2,0:0:0:0:
92,186,180722,1,2,0:3:0:0:
32,276,181065,2,0,P|18:303|-7:369,2,90,6|2|2,3:2|0:2|0:2,0:0:0:0:
85,265,181751,1,2,3:2:0:0:
171,329,182094,1,0,0:0:0:0:
271,289,182437,1,0,1:0:0:0:
365,340,182779,2,0,L|436:346,1,60,2|2,0:3|0:0,0:0:0:0:
478,343,183122,6,0,B|502:308|502:308|488:209,1,120,2|0,3:2|0:0,0:0:0:0:
415,153,183808,2,0,B|391:118|391:118|405:19,1,120,2|0,3:2|0:0,0:0:0:0:
495,95,184494,1,2,3:2:0:0:
323,253,185179,6,0,P|279:217|224:234,1,120,10|0,1:2|0:0,0:0:0:0:
183,271,185694,1,2,0:0:0:0:
183,271,185865,2,0,L|169:210,2,60,10|8|2,0:0|0:2|0:3,0:0:0:0:
90,324,186551,6,0,P|75:251|69:223,1,96,6|2,3:2|0:3,0:0:0:0:
1,172,187237,2,0,P|13:111|23:68,1,96,2|0,0:2|0:0,0:0:0:0:
90,128,187922,2,0,L|138:136,2,48,8|0|0,0:2|0:0|0:0,0:0:0:0:
124,48,188608,2,0,B|220:36|220:36|214:91,1,144,2|2,0:2|0:2,0:0:0:0:
208,125,189294,5,2,0:2:0:0:
293,94,189637,1,0,3:0:0:0:
378,71,189979,1,2,3:2:0:0:
469,60,190322,1,0,0:0:0:0:
485,147,190665,2,0,P|502:197|517:259,2,96,10|0|2,0:2|0:0|0:0,0:0:0:0:
419,210,191694,1,0,0:0:0:0:
344,161,192037,6,0,P|292:153|246:145,1,96,6|2,3:2|0:3,0:0:0:0:
158,146,192722,2,0,L|97:165,2,48,2|0|0,0:2|0:0|0:0,0:0:0:0:
180,229,193408,1,8,0:2:0:0:
253,274,193751,1,2,0:2:0:0:
338,260,194094,1,2,0:2:0:0:
388,189,194437,1,6,3:2:0:0:
256,192,194608,12,0,197522,0:0:0:0:
