osu file format v14

[General]
AudioFilename: audio.ogg
AudioLeadIn: 0
PreviewTime: 56065
Countdown: 0
SampleSet: Soft
StackLeniency: 0.4
Mode: 0
LetterboxInBreaks: 0
WidescreenStoryboard: 0

[Editor]
Bookmarks: 14076,28091,42105,56120,84149,98164,119186,133200,140207,161229,182251
DistanceSpacing: 0.4
BeatDivisor: 4
GridSize: 32
TimelineZoom: 2.999999

[Metadata]
Title:Playing God
TitleUnicode:Playing God
Artist:Polyphia
ArtistUnicode:Polyphia
Creator:Mir
Version:Nirvana
Source:
Tags:rhythm guitar instrumental rock metal prog godchamp akeruyri icekalt nekroman4ik scuba gragas remember that you will die andada math mathrock
BeatmapID:3641172
BeatmapSetID:1777892

[Difficulty]
HPDrainRate:5
CircleSize:4
OverallDifficulty:9
ApproachRate:9.5
SliderMultiplier:2.4
SliderTickRate:1

[Events]
//Background and Video events
0,0,"menu-background.jpg",0,0
//Break Periods
2,84334,97624
//Storyboard Layer 0 (Background)
//Storyboard Layer 1 (Fail)
//Storyboard Layer 2 (Pass)
//Storyboard Layer 3 (Foreground)
//Storyboard Layer 4 (Overlay)
//Storyboard Sound Samples

[TimingPoints]
47,437.956204379562,4,2,0,70,1,0
14061,-200,4,2,0,50,0,0
15813,-133.333333333333,4,2,0,50,0,0
17346,-200,4,2,0,50,0,0
18441,-100,4,2,0,50,0,0
18769,-133.333333333333,4,2,0,50,0,0
21068,-100,4,2,0,50,0,0
23258,-133.333333333333,4,2,0,50,0,0
24025,-100,4,2,0,50,0,0
24572,-133.333333333333,4,2,0,50,0,0
26543,-200,4,2,0,50,0,0
27200,-100,4,2,0,50,0,0
27857,-50,4,2,0,50,0,0
28076,-133.333333333333,4,2,0,60,0,0
28514,-66.6666666666667,4,2,0,70,0,0
31579,-100,4,2,0,70,0,0
32455,-133.333333333333,4,2,0,70,0,0
32674,-100,4,2,0,70,0,0
33331,-133.333333333333,4,2,0,70,0,0
34207,-100,4,2,0,70,0,0
35083,-66.6666666666667,4,2,0,70,0,0
35959,-133.333333333333,4,2,0,70,0,0
36178,-100,4,2,0,70,0,0
38587,-66.6666666666667,4,2,0,70,0,0
40776,-100,4,2,0,70,0,0
42090,-400,4,2,0,70,0,0
42966,-100,4,2,0,70,0,0
43842,-200,4,2,0,70,0,0
48222,-100,4,2,0,70,0,0
49536,-66.6666666666667,4,2,0,70,0,0
51506,-133.333333333333,4,2,0,70,0,0
52601,-100,4,2,0,70,0,0
53039,-133.333333333333,4,2,0,70,0,0
53696,-100,4,2,0,70,0,0
56105,-200,4,2,0,50,0,0
57857,-133.333333333333,4,2,0,50,0,0
59390,-200,4,2,0,50,0,0
60484,-100,4,2,0,50,0,0
60813,-133.333333333333,4,2,0,50,0,0
61579,-200,4,2,0,50,0,0
61798,-100,4,2,0,50,0,0
63112,-83.3333333333333,4,2,0,60,0,0
63550,-100,4,2,0,60,0,0
64864,-66.6666666666667,4,2,0,60,0,0
65521,-100,4,2,0,60,0,0
69244,-66.6666666666667,4,2,0,60,0,0
69901,-133.333333333333,4,2,0,60,0,0
70119,-33.3333333333333,4,2,0,60,0,0
70557,-100,4,2,0,60,0,0
70995,-500,4,2,0,60,0,0
71871,-100,4,2,0,60,0,0
78003,-133.333333333333,4,2,0,60,0,0
78222,-100,4,2,0,60,0,0
99134,-100,4,2,0,5,0,0
99244,-100,4,2,0,40,0,0
99463,-100,4,2,0,5,0,0
99573,-100,4,2,0,40,0,0
100010,-100,4,2,0,5,0,0
100120,-100,4,2,0,40,0,0
100338,-100,4,2,0,5,0,0
100448,-100,4,2,0,40,0,0
101214,-133.333333333333,4,2,0,40,0,0
101652,-100,4,2,0,40,0,0
102638,-100,4,2,0,5,0,0
102748,-100,4,2,0,40,0,0
102966,-100,4,2,0,5,0,0
103076,-100,4,2,0,40,0,0
103404,-200,4,2,0,40,0,0
103733,-100,4,2,0,40,0,0
103842,-100,4,2,0,5,0,0
103952,-100,4,2,0,40,0,0
106141,-100,4,2,0,5,0,0
106251,-100,4,2,0,40,0,0
106470,-100,4,2,0,5,0,0
106580,-100,4,2,0,40,0,0
107017,-100,4,2,0,5,0,0
107127,-100,4,2,0,40,0,0
107346,-100,4,2,0,5,0,0
107456,-100,4,2,0,40,0,0
108222,-133.333333333333,4,2,0,40,0,0
108441,-100,4,2,0,40,0,0
109645,-100,4,2,0,5,0,0
109755,-100,4,2,0,40,0,0
109974,-100,4,2,0,5,0,0
110084,-100,4,2,0,40,0,0
110192,-133.333333333333,4,2,0,40,0,0
111287,-100,4,2,0,40,0,0
111397,-100,4,2,0,5,0,0
111507,-100,4,2,0,40,0,0
112163,-100,4,2,0,55,0,0
119171,-100,4,2,0,60,0,0
135813,-133.333333333333,4,2,0,60,0,0
140192,-83.3333333333333,4,2,0,70,0,0
140630,-100,4,2,0,70,0,0
142820,-133.333333333333,4,2,0,70,0,0
143477,-66.6666666666667,4,2,0,70,0,0
143696,-83.3333333333333,4,2,0,70,0,0
144298,-83.3333333333333,4,2,0,5,0,0
144353,-83.3333333333333,4,2,0,70,0,0
151360,-133.333333333333,4,2,0,70,0,0
153550,-100,4,2,0,70,0,0
161433,-133.333333333333,4,2,0,70,0,0
173587,-200,4,2,0,70,0,0
173806,-133.333333333333,4,2,0,70,0,0
180484,-83.3333333333333,4,2,0,70,0,0

[Colours]
Combo1 : 243,245,139
Combo2 : 232,139,108

[HitObjects]
254,368,14061,6,0,L|267:264,1,90,2|0,0:2|0:2,0:2:0:0:
258,265,14499,5,0,0:2:0:0:
290,192,14718,1,0,0:2:0:0:
222,31,14937,5,2,0:2:0:0:
146,43,15156,1,0,0:2:0:0:
76,152,15375,5,2,0:2:0:0:
0,140,15594,1,0,0:2:0:0:
332,48,15813,6,0,P|335:72|338:101,1,45.0000017166139,2|0,0:2|0:2,0:2:0:0:
347,106,16032,1,0,0:2:0:0:
419,162,16141,5,2,0:2:0:0:
439,115,16251,2,0,P|436:138|433:167,1,45.0000017166139,2|0,0:2|0:2,0:2:0:0:
354,214,16470,6,0,P|356:237|363:316,1,90.0000034332277,2|0,0:2|0:2,0:2:0:0:
442,378,16798,2,0,P|446:333|450:288,1,90.0000034332277,2|0,0:2|0:2,0:2:0:0:
292,147,17127,6,0,P|242:159|221:163,1,45.0000017166139,2|0,0:2|0:2,0:2:0:0:
60,269,17346,2,0,P|30:261|8:256,1,30,2|0,0:2|0:2,0:2:0:0:
136,141,17565,6,0,P|150:200|160:250,1,90,2|0,0:2|0:2,0:2:0:0:
168,237,18003,6,0,P|161:280|159:302,1,60,2|0,0:2|0:2,0:2:0:0:
360,380,18441,6,0,P|424:347|417:309,1,120,2|0,0:2|0:2,0:2:0:0:
512,255,18769,2,0,P|461:242|430:233,1,45.0000017166139,2|0,0:2|0:2,0:2:0:0:
415,186,18988,5,0,0:2:0:0:
362,211,19098,1,0,0:2:0:0:
325,171,19207,1,2,0:2:0:0:
246,188,19317,6,0,P|229:231|274:258,1,90.0000034332277,2|0,0:2|0:2,0:2:0:0:
260,271,19645,2,0,P|277:276|305:256,1,45.0000017166138,0|0,0:2|0:2,0:2:0:0:
378,111,19864,5,2,0:2:0:0:
447,92,19974,1,2,0:2:0:0:
373,94,20083,1,2,0:2:0:0:
446,78,20192,2,0,B|457:26|511:22|511:22|475:43|470:66,1,135.000005149842,0|0,0:2|0:2,0:2:0:0:
475,62,20630,5,0,0:2:0:0:
475,62,20740,1,0,0:2:0:0:
337,7,20849,2,0,P|384:17|409:26,1,45.0000017166139,2|0,0:2|0:2,0:2:0:0:
512,235,21068,6,0,B|499:249|480:263|480:263|420:242|327:225,1,180,2|0,0:2|0:2,0:2:0:0:
334,210,21506,5,2,0:2:0:0:
268,243,21725,1,0,0:2:0:0:
53,68,21944,5,2,0:2:0:0:
108,122,22163,1,0,0:2:0:0:
325,98,22382,5,2,0:2:0:0:
373,39,22601,1,0,0:2:0:0:
4,164,22820,6,0,P|85:164|129:251,1,180,2|0,0:2|0:2,0:2:0:0:
340,292,23258,2,0,P|299:289|255:376,1,135.000005149842,2|0,0:2|0:2,0:2:0:0:
260,371,23696,5,2,0:2:0:0:
286,344,23806,1,0,0:2:0:0:
258,291,23915,1,0,0:2:0:0:
183,305,24025,2,0,B|120:324|146:360|83:374,1,120,2|0,0:2|0:2,0:2:0:0:
13,236,24353,5,2,0:2:0:0:
43,281,24463,1,2,0:2:0:0:
98,263,24572,2,0,P|116:183|141:96,1,135.000005149842,2|0,0:2|0:2,0:2:0:0:
143,124,25010,5,2,0:2:0:0:
101,62,25229,1,0,0:2:0:0:
327,39,25448,5,2,0:2:0:0:
338,46,25557,2,0,P|392:31|408:29,1,45.0000017166139,2|0,0:2|0:2,0:2:0:0:
461,28,25776,2,0,P|439:76|418:85,1,45.0000017166139,2|0,0:2|0:2,0:2:0:0:
313,172,25995,5,2,0:2:0:0:
335,129,26105,1,2,0:2:0:0:
382,122,26214,1,2,0:2:0:0:
394,131,26324,1,0,0:2:0:0:
394,131,26543,6,0,P|389:152|384:177,1,30,2|0,0:2|0:2,0:2:0:0:
381,175,26762,2,0,P|385:196|390:221,1,30,2|0,0:2|0:2,0:2:0:0:
457,237,26981,5,2,0:2:0:0:
402,287,27090,1,2,0:2:0:0:
459,374,27200,2,0,P|480:301|486:289,1,60,2|0,0:2|0:2,0:2:0:0:
316,315,27419,2,0,P|295:242|289:230,1,60,2|0,0:2|0:2,0:2:0:0:
456,153,27638,5,0,0:2:0:0:
456,153,27747,1,0,0:2:0:0:
377,97,27857,2,0,P|315:118|299:180,1,120,2|0,0:2|0:2,0:2:0:0:
288,245,28076,6,0,B|231:258|231:258|218:278|218:278|141:295,1,135.000005149842,4|0,0:3|0:2,0:2:0:0:
39,36,28514,6,0,B|-7:17|-7:17|25:40,1,90.0000034332277,2|0,0:2|0:2,0:2:0:0:
59,116,28733,5,2,0:2:0:0:
94,99,28805,1,2,0:2:0:0:
115,65,28878,1,2,0:2:0:0:
114,26,28952,5,0,1:2:0:0:
187,57,29061,1,2,0:2:0:0:
213,128,29171,5,2,0:2:0:0:
241,120,29280,1,2,0:2:0:0:
296,68,29390,5,4,0:3:0:0:
357,115,29499,1,2,0:2:0:0:
432,132,29609,1,2,0:2:0:0:
512,120,29718,2,0,P|489:32|482:6,1,90.0000034332277,2|4,0:2|0:3,0:2:0:0:
408,53,29937,5,2,0:2:0:0:
360,110,30046,1,2,0:2:0:0:
289,83,30156,1,2,0:2:0:0:
243,141,30265,5,4,0:3:0:0:
227,127,30375,1,2,0:2:0:0:
150,102,30484,5,2,0:2:0:0:
73,118,30594,1,2,0:2:0:0:
64,195,30703,1,2,1:2:0:0:
125,247,30813,5,2,0:2:0:0:
56,274,30922,1,2,0:2:0:0:
124,262,31032,1,2,0:2:0:0:
74,346,31141,5,0,3:2:0:0:
143,373,31250,1,0,3:2:0:0:
72,362,31360,2,0,L|53:261,1,90.0000034332277,6|0,0:3|0:2,0:2:0:0:
285,8,31579,6,0,P|269:126|259:214,1,180,4|0,0:1|0:2,0:2:0:0:
241,270,32017,5,0,3:2:0:0:
264,273,32089,1,0,3:2:0:0:
288,269,32162,1,0,3:2:0:0:
309,257,32235,1,0,3:2:0:0:
325,240,32308,1,0,3:2:0:0:
335,218,32381,1,0,3:2:0:0:
260,186,32455,6,0,P|216:193|185:198,1,45.0000017166139,2|0,1:2|0:2,0:2:0:0:
0,151,32674,2,0,L|94:168,1,60,2|0,0:3|0:2,0:2:0:0:
261,107,32893,5,4,3:3:0:0:
261,107,33003,1,0,3:2:0:0:
261,107,33112,2,0,L|167:124,1,60,2|0,0:3|0:2,0:2:0:0:
146,210,33331,6,0,L|134:157,1,45.0000017166139,4|0,0:3|0:2,0:2:0:0:
338,208,33550,2,0,L|354:156,1,45.0000017166139,4|0,0:3|0:2,0:2:0:0:
488,338,33769,2,0,L|516:292,1,45.0000017166139,4|0,0:3|0:2,0:2:0:0:
494,223,33988,2,0,L|490:190,2,22.5000008583069,0|0|0,3:2|3:2|3:2,3:2:0:0:
131,345,34207,6,0,P|97:289|30:247,1,120,4|0,0:3|0:2,0:2:0:0:
414,288,34536,2,0,P|448:232|515:190,1,120,4|0,0:1|0:2,0:2:0:0:
233,27,34864,2,0,P|216:10|219:30,1,60,4|0,0:1|0:2,0:2:0:0:
133,52,35083,6,0,P|200:70|314:105,1,180.000006866455,4|0,0:3|0:2,0:2:0:0:
325,106,35375,2,0,L|408:82,1,60.0000022888184,0|0,1:2|1:2,1:2:0:0:
342,6,35521,5,0,1:2:0:0:
210,107,35630,1,0,1:2:0:0:
374,172,35740,1,0,1:2:0:0:
374,172,35959,6,0,P|366:203|362:223,1,45.0000017166139,0|0,1:2|0:2,0:2:0:0:
177,368,36178,2,0,P|170:338|162:309,1,60,2|0,0:3|0:2,0:2:0:0:
62,156,36397,5,0,3:2:0:0:
35,156,36469,1,0,3:2:0:0:
13,170,36542,1,0,3:2:0:0:
0,193,36616,2,0,P|58:214|94:233,1,60,2|0,0:3|0:2,0:2:0:0:
124,243,36835,5,4,0:3:0:0:
186,206,36944,1,2,0:2:0:0:
252,236,37054,1,2,0:2:0:0:
274,306,37163,1,2,0:2:0:0:
335,254,37273,5,4,0:3:0:0:
334,242,37382,1,2,0:2:0:0:
388,314,37492,5,2,0:2:0:0:
449,360,37601,1,2,0:2:0:0:
512,319,37711,5,2,1:2:0:0:
504,304,37820,1,2,0:2:0:0:
498,286,37930,1,2,0:2:0:0:
496,268,38039,1,2,0:2:0:0:
455,207,38149,5,2,3:2:0:0:
454,201,38258,1,2,3:2:0:0:
451,195,38368,1,2,3:2:0:0:
448,189,38477,1,2,3:2:0:0:
508,135,38587,6,0,P|470:106|401:131,1,90.0000034332277,4|0,0:3|0:2,0:2:0:0:
234,52,38806,5,2,0:2:0:0:
205,73,38878,1,2,0:2:0:0:
194,106,38951,1,2,0:2:0:0:
205,140,39024,5,2,0:2:0:0:
268,204,39134,1,2,0:2:0:0:
343,162,39244,5,4,3:3:0:0:
328,135,39316,1,2,3:2:0:0:
303,119,39389,1,2,3:2:0:0:
273,117,39462,5,2,1:2:0:0:
208,152,39572,1,2,0:2:0:0:
148,202,39682,5,2,0:2:0:0:
102,177,39792,1,2,0:2:0:0:
69,107,39901,5,4,0:3:0:0:
58,113,40011,1,2,0:2:0:0:
8,174,40119,5,2,0:2:0:0:
0,170,40229,1,2,0:2:0:0:
208,152,40338,5,4,0:1:0:0:
379,22,40557,5,0,1:0:0:0:
417,20,40629,1,0,1:0:0:0:
446,46,40702,1,0,1:0:0:0:
449,85,40776,2,0,P|421:145|416:169,1,60,4|0,1:3|0:0,0:0:0:0:
420,152,40995,1,0,3:0:0:0:
503,217,41105,5,4,0:3:0:0:
503,217,41214,2,0,P|438:236|398:253,1,60,6|0,0:3|1:0,0:0:0:0:
219,186,41433,5,0,3:0:0:0:
305,226,41543,1,4,0:3:0:0:
289,135,41652,5,0,1:0:0:0:
217,205,41762,1,4,0:3:0:0:
265,295,41871,1,4,0:3:0:0:
240,342,41981,1,4,0:3:0:0:
253,365,42090,6,0,P|247:333|243:314,1,45,4|0,0:3|0:0,0:0:0:0:
241,308,42528,5,2,0:0:0:0:
258,285,42638,1,2,0:0:0:0:
231,241,42747,1,2,0:0:0:0:
266,182,42857,1,2,0:0:0:0:
213,122,42966,6,0,P|200:47|197:29,1,60,2|0,0:2|0:2,0:2:0:0:
314,0,43185,2,0,P|308:29|303:59,1,60,2|0,0:2|0:2,0:2:0:0:
266,182,43404,5,2,0:2:0:0:
228,206,43513,1,2,0:2:0:0:
184,206,43622,1,2,0:2:0:0:
147,182,43732,1,2,0:2:0:0:
129,141,43842,2,0,P|85:129|76:128,3,30,2|0|0|0,0:2|0:2|0:2|0:2,0:2:0:0:
15,266,44280,5,4,0:3:0:0:
53,290,44389,1,0,0:2:0:0:
97,290,44498,1,0,0:2:0:0:
134,266,44608,1,0,0:2:0:0:
152,225,44718,2,0,P|196:213|205:212,3,30,0|0|0|0,1:2|1:2|1:2|1:2,1:2:0:0:
257,229,45156,5,0,3:2:0:0:
276,261,45265,1,0,3:2:0:0:
340,260,45375,1,4,3:3:0:0:
389,321,45484,1,0,3:2:0:0:
470,297,45594,6,0,B|509:343|509:343|448:371,1,120,6|2,0:3|0:3,0:2:0:0:
389,321,46251,5,4,1:3:0:0:
379,282,46323,1,0,1:2:0:0:
369,243,46396,1,0,1:2:0:0:
360,204,46470,1,0,1:2:0:0:
360,204,46798,5,2,0:3:0:0:
389,212,46907,1,2,0:2:0:0:
433,204,47016,1,2,0:2:0:0:
465,157,47126,1,2,0:2:0:0:
449,91,47235,1,2,0:2:0:0:
379,63,47346,1,2,0:2:0:0:
318,113,47455,5,2,0:2:0:0:
308,110,47565,1,0,0:2:0:0:
223,148,47674,5,2,0:2:0:0:
230,140,47784,1,4,0:3:0:0:
239,43,47893,5,2,0:2:0:0:
242,53,48003,1,0,0:2:0:0:
244,62,48112,1,0,0:2:0:0:
241,147,48222,6,0,P|194:156|153:166,1,60,2|0,1:3|0:2,0:2:0:0:
0,158,48441,5,2,0:2:0:0:
7,151,48550,1,0,0:2:0:0:
59,211,48660,5,2,0:2:0:0:
67,206,48769,1,0,0:2:0:0:
90,283,48879,5,2,0:2:0:0:
99,280,48988,1,0,0:2:0:0:
111,361,49098,6,0,P|53:362|9:286,1,120,4|0,0:1|0:2,0:2:0:0:
9,307,49390,2,0,P|4:277|-3:253,1,40,0|0,1:2|1:2,1:2:0:0:
90,283,49536,5,0,1:2:0:0:
259,176,49645,1,0,1:2:0:0:
103,89,49755,2,0,B|88:71|83:57|83:57|78:89|102:102,1,90.0000034332277,0|0,1:2|0:2,0:2:0:0:
163,228,49974,5,2,1:2:0:0:
171,183,50083,1,2,0:0:0:0:
180,139,50192,1,2,0:0:0:0:
189,95,50302,1,2,0:0:0:0:
256,26,50411,5,4,3:3:0:0:
261,45,50483,1,0,3:0:0:0:
267,65,50556,1,0,3:0:0:0:
272,85,50630,2,0,P|316:96|384:116,1,90.0000034332277,0|0,3:0|0:0,0:0:0:0:
495,161,50849,5,2,0:2:0:0:
442,141,50959,1,2,0:2:0:0:
404,190,51068,1,2,0:2:0:0:
355,195,51178,1,2,0:2:0:0:
457,253,51287,5,4,0:3:0:0:
348,215,51397,1,4,0:3:0:0:
239,176,51506,2,0,B|231:153|231:153|252:186,1,45.0000017166138,4|0,0:3|0:2,0:2:0:0:
1,168,51725,5,0,1:2:0:0:
80,155,51835,1,2,0:2:0:0:
140,208,51944,1,2,0:2:0:0:
125,285,52054,1,2,0:2:0:0:
205,349,52163,5,4,0:3:0:0:
258,369,52273,1,2,0:2:0:0:
307,337,52382,1,2,0:2:0:0:
307,282,52492,1,2,0:2:0:0:
223,269,52601,6,0,P|124:253|14:245,1,180,6|0,0:3|0:2,0:2:0:0:
35,241,53039,6,0,P|46:277|52:303,1,45.0000017166138,2|0,0:2|0:2,0:2:0:0:
119,384,53258,5,2,3:2:0:0:
123,354,53330,1,2,3:2:0:0:
130,325,53403,1,2,3:2:0:0:
138,296,53477,6,0,P|144:273|152:235,1,45.0000017166138,0|0,1:2|0:2,0:2:0:0:
233,23,53696,2,0,P|317:46|346:55,1,60,2|0,0:3|0:2,0:2:0:0:
512,171,53915,5,4,0:3:0:0:
512,171,54025,1,2,0:2:0:0:
512,171,54134,2,0,P|428:194|399:203,1,60,2|0,0:3|0:2,0:2:0:0:
221,123,54353,6,0,B|285:142|285:142|297:183|297:183|383:213,1,180,2|0,0:2|0:2,0:2:0:0:
364,216,54791,5,0,3:2:0:0:
395,213,54863,1,0,3:2:0:0:
421,194,54936,1,0,3:2:0:0:
434,165,55009,1,0,3:2:0:0:
431,134,55082,1,0,3:2:0:0:
412,109,55155,1,0,3:2:0:0:
341,79,55229,5,0,1:2:0:0:
293,141,55338,1,2,0:2:0:0:
273,217,55448,1,2,0:2:0:0:
271,296,55557,1,2,0:2:0:0:
299,370,55667,5,2,0:2:0:0:
256,302,55776,1,2,0:3:0:0:
193,253,55886,1,2,0:2:0:0:
118,228,55995,1,4,0:3:0:0:
40,232,56105,5,4,0:1:0:0:
40,232,56543,5,0,0:0:0:0:
52,308,56762,1,0,0:0:0:0:
244,378,56981,5,2,0:0:0:0:
256,302,57200,1,0,0:0:0:0:
456,189,57419,5,2,0:0:0:0:
468,265,57638,1,0,0:0:0:0:
194,217,57857,6,0,L|253:205,1,45.0000017166138,2|0,0:0|0:0,0:0:0:0:
248,216,58076,1,0,0:0:0:0:
308,130,58185,5,2,0:0:0:0:
346,148,58295,2,0,L|287:136,1,45.0000017166138,2|0,0:0|0:0,0:0:0:0:
155,92,58514,6,0,L|248:76,1,90.0000034332277,2|0,0:0|0:0,0:0:0:0:
348,17,58842,2,0,L|255:1,1,90.0000034332277,2|0,0:0|0:0,0:0:0:0:
411,95,59171,5,2,0:0:0:0:
411,95,59225,2,0,L|420:48,1,45.0000017166138
429,44,59390,2,0,L|454:38,2,15,0|0|0,3:0|3:0|3:0,3:0:0:0:
191,199,59609,6,0,L|94:177,1,90,2|0,0:3|0:0,0:0:0:0:
91,185,60046,5,2,0:0:0:0:
23,206,60265,1,0,0:0:0:0:
134,373,60484,6,0,P|145:330|148:303,1,60,2|0,0:0|0:0,0:0:0:0:
144,301,60703,1,0,0:0:0:0:
222,280,60813,6,0,P|234:331|237:357,1,45.0000017166138,2|0,0:0|0:0,0:0:0:0:
292,373,61032,5,0,0:0:0:0:
325,329,61141,1,0,0:0:0:0:
379,334,61251,1,0,0:0:0:0:
450,384,61360,6,0,P|460:330|467:303,1,45.0000017166138,2|0,0:0|0:0,0:0:0:0:
505,254,61579,2,0,L|514:299,1,30
428,263,61798,5,2,3:3:0:0:
374,236,61907,1,2,3:3:0:0:
342,186,62016,1,2,3:3:0:0:
340,127,62126,1,2,3:3:0:0:
369,75,62235,1,2,3:3:0:0:
369,75,62455,5,0,3:0:0:0:
408,76,62527,1,0,3:0:0:0:
438,51,62600,1,0,3:0:0:0:
443,13,62673,5,0,1:0:0:0:
367,59,62784,1,0,1:0:0:0:
444,102,62893,1,0,1:0:0:0:
25,120,63112,6,0,B|100:146|100:146|113:195|113:195|212:229,1,215.999993408203,4|0,0:1|0:0,0:0:0:0:
246,286,63550,5,2,0:0:0:0:
313,249,63769,1,2,0:0:0:0:
130,43,63988,5,2,1:2:0:0:
264,177,64207,2,0,P|271:143|288:89,1,60,2|0,0:3|0:2,0:2:0:0:
260,42,64426,5,4,3:3:0:0:
285,33,64498,1,0,3:2:0:0:
310,39,64571,1,0,3:2:0:0:
328,59,64644,1,0,3:2:0:0:
476,360,64864,6,0,B|301:377|413:230|191:273,1,270.000010299683,4|0,0:3|0:2,0:2:0:0:
171,292,65302,5,4,0:3:0:0:
276,353,65411,1,4,0:3:0:0:
363,210,65521,2,0,B|378:200|393:200|393:200|376:215|369:234,1,60,4|0,0:3|0:2,0:2:0:0:
250,253,65740,5,2,1:2:0:0:
296,257,65849,1,2,0:2:0:0:
326,288,65959,1,2,0:2:0:0:
399,308,66068,5,2,0:3:0:0:
409,317,66178,2,0,P|429:295|478:256,1,60,4|0,0:3|0:2,0:2:0:0:
377,66,66397,5,2,0:2:0:0:
436,14,66506,1,2,0:3:0:0:
494,63,66616,2,0,P|415:81|299:137,1,180,4|0,0:1|0:2,0:2:0:0:
317,134,67054,5,2,0:2:0:0:
78,174,67273,1,0,3:2:0:0:
50,166,67345,1,0,3:2:0:0:
33,145,67418,1,0,3:2:0:0:
33,117,67492,6,0,P|42:90|51:46,1,60,2|0,1:2|0:2,0:2:0:0:
231,4,67711,5,2,0:3:0:0:
243,9,67820,2,0,P|257:85|260:111,1,60,2|4,0:2|0:3,0:2:0:0:
121,101,68039,5,2,0:2:0:0:
183,113,68149,1,2,0:3:0:0:
203,172,68258,1,2,0:2:0:0:
158,252,68368,5,4,3:3:0:0:
157,257,68477,1,2,3:2:0:0:
156,262,68587,1,2,3:2:0:0:
155,267,68696,1,2,3:2:0:0:
35,318,68806,5,4,3:3:0:0:
134,343,68915,1,4,3:3:0:0:
233,368,69025,2,0,L|273:380,2,30,4|0|0,3:3|3:2|3:2,3:2:0:0:
39,193,69244,6,0,L|167:175,1,90.0000034332277,0|0,1:2|0:2,0:2:0:0:
212,157,69463,5,0,1:2:0:0:
244,162,69572,1,0,1:2:0:0:
278,234,69682,5,0,3:2:0:0:
304,230,69791,1,4,3:3:0:0:
375,205,69901,6,0,L|407:218,1,22.5000008583069,0|0,1:2|1:2,1:2:0:0:
406,141,70010,2,0,L|438:154,1,22.5000008583069,0|0,1:2|1:2,1:2:0:0:
441,57,70119,6,0,P|354:75|321:166,1,180.000006866455,4|0,1:2|0:2,0:2:0:0:
492,375,70338,2,0,P|520:289|458:216,1,180.000006866455,4|0,1:2|0:2,0:2:0:0:
191,260,70557,2,0,P|252:326|346:309,1,180.000006866455,4|0,1:2|0:2,0:2:0:0:
391,197,70995,6,0,L|379:244,1,48,0|4,1:2|0:3,0:2:0:0:
394,186,71652,1,2,0:3:0:0:
124,194,71871,6,0,P|95:202|66:211,1,60,6|0,0:3|0:2,0:2:0:0:
19,155,72090,5,2,0:2:0:0:
75,217,72200,1,2,0:2:0:0:
148,176,72309,2,0,P|155:146|161:117,1,60,4|0,0:3|0:2,0:2:0:0:
159,209,72528,2,0,P|180:230|202:250,1,60,2|0,0:2|0:2,0:2:0:0:
233,338,72747,5,0,1:2:0:0:
161,314,72857,2,0,P|253:279|324:270,1,120,2|0,0:2|0:2,0:2:0:0:
261,191,73185,6,0,B|275:164|275:164|256:221,1,60,2|0,0:2|0:2,0:2:0:0:
325,336,73404,2,0,B|339:362|339:362|320:306,1,60,4|0,0:3|0:2,0:2:0:0:
44,205,73623,6,0,P|151:232|320:294,1,240,4|0,0:1|0:2,0:2:0:0:
435,370,74280,1,4,3:3:0:0:
472,357,74352,1,0,3:2:0:0:
495,325,74425,1,0,3:2:0:0:
493,286,74499,2,0,P|475:216|475:211,1,60,0|0,1:2|0:2,0:2:0:0:
491,140,74718,5,2,0:3:0:0:
427,117,74828,2,0,P|484:146|505:168,1,60,2|4,0:2|0:3,0:2:0:0:
411,196,75047,5,2,0:2:0:0:
361,184,75156,1,2,0:3:0:0:
343,139,75265,1,2,0:2:0:0:
364,66,75375,5,4,3:3:0:0:
366,60,75484,1,2,3:2:0:0:
368,54,75594,1,2,3:2:0:0:
370,48,75703,1,2,3:2:0:0:
298,15,75813,5,4,3:3:0:0:
243,20,75922,1,2,3:2:0:0:
220,68,76032,1,2,3:2:0:0:
245,117,76141,1,2,3:2:0:0:
442,120,76251,5,4,0:2:0:0:
242,128,76579,5,0,1:2:0:0:
265,207,76689,1,4,0:3:0:0:
212,266,76798,1,0,1:2:0:0:
132,257,76908,2,0,P|101:241|99:183,1,60,0|0,1:2|0:2,0:2:0:0:
25,105,77127,6,0,P|101:120|197:226,1,180,4|0,0:1|0:2,0:2:0:0:
184,201,77565,5,0,1:2:0:0:
122,40,77674,1,0,1:2:0:0:
16,188,77784,1,0,1:2:0:0:
271,118,78003,6,0,P|264:139|260:161,1,45.0000017166138,0|0,1:2|0:2,0:2:0:0:
48,326,78222,2,0,P|41:294|32:263,1,60,2|0,0:3|0:2,0:2:0:0:
331,200,78441,5,0,3:2:0:0:
335,219,78513,1,0,3:2:0:0:
339,239,78586,1,0,3:2:0:0:
343,258,78660,2,0,P|405:279|444:299,1,60,2|0,0:3|0:2,0:2:0:0:
115,376,78879,5,8,0:3:0:0:
509,272,79317,6,0,B|380:293|499:358|311:377,1,180,4|0,0:3|0:2,0:2:0:0:
296,353,79755,5,2,1:2:0:0:
256,288,79864,1,2,0:2:0:0:
184,260,79974,1,2,0:2:0:0:
107,280,80083,2,0,B|98:247|86:204,1,60,2|0,0:3|0:2,0:2:0:0:
70,355,80302,5,2,0:2:0:0:
148,345,80411,1,2,0:3:0:0:
184,276,80521,1,2,0:2:0:0:
99,214,80630,6,0,B|-20:181|-20:181|28:201|42:245,1,180,4|0,0:1|0:2,0:2:0:0:
110,210,81068,6,0,L|185:191,1,60,2|0,0:2|0:2,0:2:0:0:
241,177,81287,1,4,0:3:0:0:
463,0,81506,6,0,P|452:28|444:56,1,60,0|0,1:2|0:2,0:2:0:0:
469,151,81725,5,2,0:2:0:0:
459,144,81835,2,0,P|514:116|558:98,1,60,2|4,0:2|0:3,0:2:0:0:
288,0,82054,5,2,3:2:0:0:
268,50,82163,1,2,3:2:0:0:
300,89,82273,1,2,3:2:0:0:
343,82,82382,2,0,P|373:99|391:159,1,60,2|0,3:2|0:2,0:2:0:0:
371,190,82601,5,4,3:3:0:0:
369,198,82711,1,2,3:2:0:0:
192,232,82820,5,4,3:3:0:0:
191,223,82930,2,0,B|141:216|141:216|130:201|130:201|47:188,1,120,2|4,3:2|3:3,0:2:0:0:
8,156,83258,5,2,1:2:0:0:
11,166,83368,1,4,3:3:0:0:
84,285,83477,5,2,1:2:0:0:
87,275,83587,1,2,1:2:0:0:
179,138,83696,5,4,3:3:0:0:
233,140,83806,1,2,3:2:0:0:
269,188,83915,1,2,3:2:0:0:
268,196,84025,1,2,1:2:0:0:
326,245,84134,5,4,3:3:0:0:
34,206,98149,6,0,P|132:221|263:244,1,180,4|0,0:3|0:2,0:2:0:0:
216,243,98587,1,0,0:2:0:0:
370,98,99025,6,0,P|364:66|363:23,1,60,2|0,0:2|0:2,0:2:0:0:
446,92,99353,2,0,P|444:62|438:32,1,60,2|0,0:2|0:2,0:2:0:0:
370,98,99901,6,0,P|364:66|363:23,1,60,2|0,0:2|0:2,0:2:0:0:
446,92,100229,2,0,P|444:62|438:32,1,60,2|0,0:2|0:2,0:2:0:0:
464,183,100557,6,0,P|388:159|236:137,1,180,2|0,0:2|0:2,0:2:0:0:
285,150,100995,2,0,P|262:130|283:62,1,60,0|0,0:2|0:2,0:2:0:0:
262,26,101214,6,0,P|273:11|278:29,1,45.0000017166138,4|0,0:3|0:2,0:2:0:0:
145,172,101433,5,0,3:2:0:0:
145,172,101543,1,0,3:2:0:0:
145,172,101652,2,0,B|22:201|22:201|72:196|101:242,1,180,2|0,0:2|0:2,0:2:0:0:
86,217,102090,1,0,0:2:0:0:
188,366,102528,6,0,P|194:334|195:291,1,60,2|0,0:2|0:2,0:2:0:0:
112,360,102856,2,0,P|113:330|119:300,1,60,2|0,0:2|0:2,0:2:0:0:
188,366,103404,6,0,P|194:334|195:291,1,60,2|0,0:2|0:2,0:2:0:0:
112,360,103733,2,0,P|113:330|119:300,1,60,2|0,0:2|0:2,0:2:0:0:
264,151,104061,5,2,0:2:0:0:
471,66,104280,2,0,P|448:135|365:126,1,120,2|0,0:3|0:2,0:2:0:0:
335,119,104609,5,2,0:3:0:0:
402,154,104718,2,0,P|338:183|366:238,1,120,4|2,0:3|0:3,0:2:0:0:
457,266,105156,6,0,B|433:277|433:277|332:238|209:229,1,240,4|0,0:3|0:2,0:2:0:0:
35,91,106032,6,0,P|118:75|135:69,1,60,2|0,0:2|0:2,0:2:0:0:
50,168,106360,2,0,P|79:162|109:158,1,60,2|0,0:2|0:2,0:2:0:0:
35,91,106908,6,0,P|118:75|135:69,1,60,2|0,0:2|0:2,0:2:0:0:
50,168,107236,2,0,P|79:162|109:158,1,60,2|0,0:2|0:2,0:2:0:0:
250,52,107565,6,0,P|235:140|223:254,1,180,2|0,0:2|0:2,0:2:0:0:
215,234,108003,2,0,P|230:303|236:324,1,60,2|0,0:2|0:2,0:2:0:0:
153,384,108222,6,0,P|158:363|165:325,1,45.0000017166138,4|0,0:3|0:2,0:2:0:0:
325,261,108441,2,0,P|314:229|306:189,1,60,2|0,0:3|0:2,0:2:0:0:
10,203,108660,6,0,P|107:220|249:314,1,240,4|0,0:3|0:2,0:2:0:0:
497,90,109536,6,0,P|419:105|385:106,1,60,2|0,0:2|0:2,0:2:0:0:
511,168,109864,2,0,P|481:173|452:180,1,60,2|0,0:2|0:2,0:2:0:0:
511,254,110192,6,0,P|414:271|258:378,1,270.000010299683,2|0,0:2|0:2,0:2:0:0:
337,283,111287,6,0,P|367:350|372:371,1,60,2|0,0:2|0:2,0:2:0:0:
408,252,111616,2,0,P|419:279|433:306,1,60,2|4,0:2|0:3,0:2:0:0:
29,215,112163,5,4,3:3:0:0:
29,215,112273,1,0,3:2:0:0:
29,215,112382,2,0,P|99:205|131:202,1,60,2|0,3:3|3:2,3:2:0:0:
114,223,112601,5,0,3:2:0:0:
114,223,112711,1,0,3:2:0:0:
114,223,112820,2,0,P|184:213|216:210,1,60,2|0,3:3|3:2,3:2:0:0:
199,230,113039,5,0,3:2:0:0:
199,230,113149,1,0,3:2:0:0:
199,230,113258,2,0,P|269:220|301:217,1,60,2|0,3:3|3:2,3:2:0:0:
181,69,113477,5,4,3:3:0:0:
181,69,113587,1,0,3:2:0:0:
181,69,113696,2,0,P|171:139|168:171,1,60,2|0,3:3|3:2,3:2:0:0:
453,134,113915,5,4,3:3:0:0:
453,134,114025,1,0,3:2:0:0:
453,134,114134,2,0,P|383:124|351:121,1,60,2|0,3:3|3:2,3:2:0:0:
383,136,114353,5,0,3:2:0:0:
383,136,114463,1,0,3:2:0:0:
383,136,114572,2,0,P|313:126|281:123,1,60,2|0,3:3|3:2,3:2:0:0:
313,138,114791,5,0,3:2:0:0:
313,138,114901,1,0,3:2:0:0:
313,138,115010,2,0,P|243:128|211:125,1,60,2|0,3:3|3:2,3:2:0:0:
172,9,115229,5,4,3:3:0:0:
172,9,115339,1,0,3:2:0:0:
172,9,115448,2,0,P|182:79|185:111,1,60,2|0,3:3|3:2,3:2:0:0:
323,216,115667,5,6,3:3:0:0:
353,234,115776,1,2,3:3:0:0:
353,274,115886,2,0,P|284:300|269:309,1,60,2|0,3:3|3:2,3:2:0:0:
195,263,116105,5,2,3:3:0:0:
165,281,116214,1,2,3:3:0:0:
165,321,116324,2,0,P|234:347|249:356,1,60,2|0,3:3|3:2,3:2:0:0:
413,334,116543,5,6,3:3:0:0:
447,313,116652,1,2,3:3:0:0:
449,275,116762,2,0,P|425:203|423:192,1,60,2|0,3:3|3:2,3:2:0:0:
109,380,116981,5,2,3:3:0:0:
75,359,117090,1,2,3:3:0:0:
73,321,117200,2,0,P|97:249|99:238,1,60,2|0,3:3|3:2,3:2:0:0:
319,5,117419,5,6,3:3:0:0:
358,3,117528,1,2,3:3:0:0:
379,37,117638,2,0,P|347:85|320:86,1,60,2|0,3:3|3:2,3:2:0:0:
473,40,117857,5,6,3:3:0:0:
501,66,117966,1,2,3:3:0:0:
492,105,118076,2,0,P|435:116|415:97,1,60,2|0,3:3|3:2,3:2:0:0:
193,5,118295,5,6,3:3:0:0:
154,3,118404,1,2,3:3:0:0:
133,37,118514,2,0,P|165:85|192:86,1,60,2|0,3:3|3:2,3:2:0:0:
39,40,118733,5,6,3:3:0:0:
11,66,118842,1,2,3:3:0:0:
20,105,118952,2,0,P|76:116|96:97,1,60,2|0,3:3|3:2,3:2:0:0:
260,80,119171,6,0,P|249:146|240:290,1,180,4|0,0:1|0:2,0:2:0:0:
175,338,119609,2,0,P|270:353|343:374,1,120,2|8,0:2|0:3,0:2:0:0:
382,363,119937,5,0,0:2:0:0:
382,363,120046,2,0,P|383:336|295:283,1,120,8|0,0:2|0:2,0:2:0:0:
146,190,120375,5,8,0:3:0:0:
139,192,120484,2,0,P|159:262|162:279,1,60,2|0,0:2|0:2,0:2:0:0:
329,194,120703,2,0,P|336:164|346:136,2,60,8|0|2,0:3|0:2|0:2,0:2:0:0:
38,312,121141,5,0,3:2:0:0:
38,312,121251,1,0,3:2:0:0:
37,312,121360,2,0,P|65:301|94:293,1,60,2|0,0:2|0:2,0:2:0:0:
239,275,121579,5,4,0:3:0:0:
140,31,121798,2,0,P|60:87|92:125,1,120,10|0,0:2|0:2,0:2:0:0:
4,151,122127,5,2,0:3:0:0:
4,151,122236,2,0,P|72:171|96:189,1,60,2|0,0:2|0:2,0:2:0:0:
0,0,122455,5,4,0:3:0:0:
138,113,122674,2,0,B|208:137|208:137|224:182|224:182|305:210,1,180,4|0,0:1|0:1,0:1:0:0:
435,262,123112,2,0,P|495:246|500:174,1,120,2|8,0:2|0:3,0:2:0:0:
512,56,123441,5,0,0:2:0:0:
512,56,123550,2,0,P|447:85|427:199,1,180,10|2,0:2|0:2,0:2:0:0:
421,183,123933,1,2,0:2:0:0:
421,183,123988,1,2,0:2:0:0:
293,80,124207,6,0,P|320:91|342:115,1,60,8|0,0:3|0:2,0:2:0:0:
344,121,124426,1,2,0:2:0:0:
399,13,124645,6,0,P|397:42|407:72,1,60,0|0,0:2|0:2,0:2:0:0:
412,77,124864,1,2,0:2:0:0:
508,195,125083,5,4,0:3:0:0:
293,183,125302,2,0,P|231:197|184:216,1,60,10|0,0:2|0:2,0:2:0:0:
66,243,125521,5,2,0:3:0:0:
20,257,125630,1,2,0:3:0:0:
8,304,125740,2,0,P|17:331|46:347,1,60,2|0,3:2|0:2,0:2:0:0:
45,359,125959,2,0,P|107:326|139:321,1,60,4|0,0:3|0:2,0:2:0:0:
36,158,126178,6,0,B|135:194|54:246|183:280,1,180,4|0,0:1|0:2,0:2:0:0:
165,286,126616,1,2,0:2:0:0:
286,170,126835,5,8,0:3:0:0:
200,15,127054,2,0,P|211:78|214:117,1,60,8|0,0:2|0:2,0:2:0:0:
375,108,127273,1,0,0:2:0:0:
379,117,127382,2,0,P|366:186|358:246,1,120,8|0,0:3|0:2,0:2:0:0:
286,170,127711,1,8,0:3:0:0:
512,256,127930,6,0,P|443:278|382:319,1,120,2|0,0:2|0:2,0:2:0:0:
402,380,128258,2,0,P|372:376|349:358,1,60,0|2,0:2|0:2,0:2:0:0:
453,187,128587,5,4,0:3:0:0:
185,215,128806,2,0,P|112:199|24:185,1,120,10|0,0:2|0:2,0:2:0:0:
29,124,129134,5,2,0:3:0:0:
22,136,129244,2,0,P|2:70|-12:45,1,60,2|0,0:2|0:2,0:2:0:0:
108,123,129463,1,4,0:3:0:0:
252,379,129682,6,0,P|266:286|296:125,1,240,4|2,0:1|0:2,0:2:0:0:
185,298,130338,1,8,0:3:0:0:
284,62,130557,6,0,P|347:75|373:147,1,120,10|0,0:2|0:2,0:2:0:0:
372,197,130886,2,0,P|350:255|344:281,1,60,8|2,0:3|0:2,0:2:0:0:
509,51,131214,2,0,P|393:79|292:142,1,240,8|0,0:3|0:2,0:2:0:0:
287,153,131762,1,0,0:2:0:0:
283,164,131871,5,2,0:2:0:0:
379,0,132090,1,4,0:3:0:0:
486,157,132309,2,0,P|414:127|345:117,1,120,10|0,0:2|0:2,0:2:0:0:
202,188,132638,1,2,0:3:0:0:
191,197,132747,2,0,P|149:183|149:128,1,60,0|0,3:2|0:2,0:2:0:0:
1,35,132966,2,0,P|66:19|84:14,1,60,6|0,0:3|0:2,0:2:0:0:
252,0,133185,5,0,3:2:0:0:
259,10,133295,1,0,3:2:0:0:
253,21,133404,1,0,3:2:0:0:
263,31,133514,1,0,3:2:0:0:
250,52,133623,1,0,3:2:0:0:
260,61,133733,1,0,3:2:0:0:
252,85,133842,1,0,3:2:0:0:
261,94,133952,1,0,3:2:0:0:
307,155,134061,5,0,1:2:0:0:
296,165,134171,1,0,1:2:0:0:
280,170,134280,1,0,3:2:0:0:
284,20,134390,5,0,1:2:0:0:
297,25,134500,1,0,1:2:0:0:
309,37,134609,1,0,3:2:0:0:
180,109,134718,5,0,1:2:0:0:
176,93,134828,1,0,1:2:0:0:
181,77,134937,1,0,3:2:0:0:
261,94,135047,5,4,3:3:0:0:
261,94,135156,1,4,3:3:0:0:
252,242,135375,5,8,3:3:0:0:
261,255,135484,1,0,3:2:0:0:
253,271,135594,1,0,3:2:0:0:
257,290,135703,1,4,3:3:0:0:
400,285,135813,5,0,1:2:0:0:
333,328,135922,2,0,P|318:376|318:388,1,45.0000017166138,0|0,1:2|3:2,3:2:0:0:
111,217,136141,5,0,1:2:0:0:
161,271,136250,2,0,P|176:319|176:331,1,45.0000017166138,0|0,1:2|3:2,3:2:0:0:
396,124,136470,5,0,1:2:0:0:
346,179,136579,2,0,P|331:227|331:239,3,45.0000017166138,0|4|0|0,3:2|3:3|3:2|3:2,3:2:0:0:
262,0,137017,5,8,3:3:0:0:
262,0,137072,1,8,3:3:0:0:
262,0,137127,2,0,P|212:19|203:24,1,45.0000017166138,8|0,3:3|3:2,3:2:0:0:
142,66,137346,5,4,3:3:0:0:
163,87,137455,2,0,P|213:106|222:111,1,45.0000017166138,0|0,3:2|3:2,3:2:0:0:
302,90,137674,5,8,3:3:0:0:
302,90,137729,1,8,3:3:0:0:
302,90,137784,2,0,P|280:138|277:148,1,45.0000017166138,8|0,3:3|3:2,3:2:0:0:
216,178,138003,5,4,3:3:0:0:
232,193,138112,2,0,P|254:241|262:262,2,45.0000017166138,0|0|4,3:2|3:2|3:3,3:2:0:0:
67,177,138441,5,0,1:2:0:0:
38,187,138513,1,0,1:2:0:0:
15,206,138586,1,0,1:2:0:0:
2,233,138659,1,0,1:2:0:0:
0,262,138732,1,0,1:2:0:0:
9,291,138805,1,0,1:2:0:0:
29,316,138879,5,4,3:3:0:0:
54,326,138952,2,4,L|104:310,1,30.0000011444092,4|4,3:3|3:3,3:3:0:0:
155,334,139098,5,4,3:3:0:0:
178,343,139171,2,4,L|228:327,1,30.0000011444092,4|4,3:3|3:3,3:3:0:0:
238,258,139317,5,8,3:3:0:0:
208,227,139390,1,8,3:3:0:0:
227,190,139463,1,4,3:3:0:0:
270,198,139536,5,8,3:3:0:0:
291,161,139609,1,8,3:3:0:0:
263,130,139682,1,4,3:3:0:0:
224,150,139755,5,8,3:3:0:0:
195,120,139828,1,8,3:3:0:0:
214,83,139901,1,4,3:3:0:0:
257,90,139974,5,8,3:3:0:0:
277,53,140047,1,8,3:3:0:0:
249,22,140120,1,4,3:3:0:0:
207,42,140192,6,0,P|231:147|254:252,1,215.999993408203,4|0,0:1|0:2,0:2:0:0:
182,282,140630,2,0,P|234:328|247:327,1,60,2|0,0:2|0:2,0:2:0:0:
326,200,140849,1,4,0:3:0:0:
11,183,141068,5,0,1:2:0:0:
51,249,141287,1,2,0:2:0:0:
123,223,141506,1,2,0:3:0:0:
471,137,141725,6,0,B|405:111|405:111|388:67|388:67|307:39,1,180,2|0,0:3|0:2,0:2:0:0:
324,37,142163,2,0,L|263:48,1,60,2|0,0:2|0:2,0:2:0:0:
450,67,142382,5,4,3:3:0:0:
429,74,142454,1,0,3:2:0:0:
410,83,142527,1,0,3:2:0:0:
391,94,142600,1,0,3:2:0:0:
373,107,142673,1,0,3:2:0:0:
357,121,142746,1,0,3:2:0:0:
340,138,142820,6,0,P|329:162|317:207,1,45.0000017166138,0|0,1:2|0:2,0:2:0:0:
256,222,143039,2,0,P|266:246|279:291,1,45.0000017166138,0|0,0:2|0:2,0:2:0:0:
353,253,143258,5,4,0:3:0:0:
353,253,143368,1,2,0:2:0:0:
323,327,143477,2,0,P|280:345|231:376,1,90.0000034332277,2|0,0:2|0:2,0:2:0:0:
3,210,143696,6,0,P|97:242|214:308,1,215.999993408203,4|0,0:3|0:2,0:2:0:0:
423,377,144134,6,0,P|476:353|484:304,1,107.999996704102,2|0,0:3|0:2,0:2:0:0:
475,306,144353,2,0,P|452:237|447:223,1,71.9999978027344,4|0,0:3|0:2,0:2:0:0:
272,264,144572,2,0,P|295:194|300:180,1,71.9999978027344,0|0,1:2|0:2,0:2:0:0:
433,35,144791,5,0,3:2:0:0:
465,35,144863,1,0,3:2:0:0:
487,59,144936,1,0,3:2:0:0:
484,91,145009,5,2,3:3:0:0:
419,131,145119,1,2,3:3:0:0:
365,78,145229,1,2,3:3:0:0:
352,85,145338,1,0,3:2:0:0:
288,44,145448,5,2,0:2:0:0:
247,42,145557,1,2,0:2:0:0:
191,72,145667,1,2,1:2:0:0:
162,140,145776,2,0,P|177:174|185:209,1,71.9999978027344,2|4,0:2|0:3,0:2:0:0:
137,351,145995,5,0,0:2:0:0:
94,381,146105,1,0,0:2:0:0:
43,367,146214,1,0,0:2:0:0:
23,321,146324,2,0,P|35:289|43:251,1,71.9999978027344,0|0,1:2|0:2,0:2:0:0:
121,252,146543,5,4,0:3:0:0:
130,265,146652,1,0,0:2:0:0:
184,207,146762,5,4,0:3:0:0:
189,221,146871,1,0,1:2:0:0:
262,195,146981,5,8,0:3:0:0:
305,213,147090,1,8,0:3:0:0:
312,258,147200,2,0,B|427:270|353:370|516:367,1,215.999993408203,4|0,0:1|0:2,0:2:0:0:
454,162,147638,6,0,P|359:206|332:222,1,71.9999978027344,2|0,0:2|0:2,0:2:0:0:
235,288,147857,1,4,0:3:0:0:
452,254,148076,1,0,1:2:0:0:
309,177,148295,5,0,3:2:0:0:
307,170,148349,1,0,3:2:0:0:
305,162,148404,1,0,3:2:0:0:
303,154,148459,1,0,3:2:0:0:
302,146,148514,6,0,L|284:52,1,71.9999978027344,0|0,3:2|0:2,0:2:0:0:
3,300,148733,2,0,L|21:206,1,71.9999978027344,2|0,0:2|0:2,0:2:0:0:
16,229,149171,6,0,P|93:212|199:187,1,143.999995605469,2|4,0:2|0:3,0:2:0:0:
162,209,149463,1,0,3:2:0:0:
195,198,149535,1,0,3:2:0:0:
217,170,149608,1,0,3:2:0:0:
219,135,149681,1,0,3:2:0:0:
200,105,149754,1,0,3:2:0:0:
165,92,149828,1,0,1:2:0:0:
488,376,150047,6,0,P|471:305|463:274,1,71.9999978027344,2|0,0:2|0:2,0:2:0:0:
448,211,150265,5,2,0:2:0:0:
448,211,150375,1,2,0:2:0:0:
470,294,150484,2,0,P|382:279|361:275,1,71.9999978027344,4|0,0:3|0:2,0:2:0:0:
266,384,150703,6,0,P|288:272|319:137,1,215.999993408203,4|0,0:3|0:2,0:2:0:0:
389,149,151141,2,0,P|381:119|367:54,1,71.9999978027344,2|0,0:3|0:2,0:2:0:0:
180,53,151360,2,0,P|187:28|193:-15,1,45.0000017166138,2|0,0:2|0:2,0:2:0:0:
275,76,151579,5,2,1:2:0:0:
249,111,151689,1,2,0:2:0:0:
204,127,151798,1,2,0:2:0:0:
184,170,151908,1,2,0:2:0:0:
40,259,152127,5,2,0:2:0:0:
76,263,152236,1,2,0:2:0:0:
106,300,152346,1,2,0:2:0:0:
115,357,152455,5,2,0:2:0:0:
150,287,152565,1,2,0:2:0:0:
226,280,152674,1,2,0:2:0:0:
258,204,152784,5,2,0:2:0:0:
297,220,152893,1,4,0:3:0:0:
309,265,153003,1,2,0:2:0:0:
283,337,153112,6,0,P|289:362|297:389,2,30.0000011444092,0|0|0,3:2|3:2|3:2,3:2:0:0:
176,199,153331,2,0,P|180:184|184:169,2,30.0000011444092,0|0|0,1:2|3:2|3:2,3:2:0:0:
25,313,153550,6,0,P|58:300|112:285,1,60,4|0,3:3|3:2,3:2:0:0:
259,120,153769,2,0,P|292:133|346:148,1,60,4|0,3:3|3:2,3:2:0:0:
469,231,153988,5,2,0:2:0:0:
469,231,154098,1,2,0:2:0:0:
454,145,154207,6,0,B|389:169|389:169|381:210|381:210|263:252,1,180,6|0,0:3|0:2,0:2:0:0:
183,93,154645,2,0,L|162:15,1,60,2|0,0:3|0:2,0:2:0:0:
234,2,154864,1,4,0:3:0:0:
111,128,155083,1,0,1:2:0:0:
314,144,155302,5,0,3:2:0:0:
318,120,155374,1,0,3:2:0:0:
325,97,155447,1,0,3:2:0:0:
333,74,155520,1,0,3:2:0:0:
454,290,155740,2,0,P|469:226|476:203,1,60,2|0,0:2|0:2,0:2:0:0:
467,231,156178,6,0,P|399:219|308:216,1,120,2|4,0:2|0:3,0:2:0:0:
335,236,156470,1,0,3:2:0:0:
311,250,156542,1,0,3:2:0:0:
283,250,156615,1,0,3:2:0:0:
260,235,156688,1,0,3:2:0:0:
249,210,156761,1,0,3:2:0:0:
252,183,156834,1,0,1:2:0:0:
343,80,157054,6,0,P|327:123|317:172,1,60,2|0,0:2|0:2,0:2:0:0:
178,252,157273,5,4,0:3:0:0:
128,193,157382,1,0,0:2:0:0:
55,212,157492,2,0,P|74:273|86:330,1,120,2|4,0:2|0:3,0:2:0:0:
21,373,157930,5,2,0:2:0:0:
167,261,158149,1,2,0:3:0:0:
7,146,158368,1,2,0:2:0:0:
212,3,158587,6,0,P|205:32|199:61,1,60,0|0,1:2|0:2,0:2:0:0:
167,261,158806,5,0,3:2:0:0:
177,286,158878,1,0,3:2:0:0:
201,299,158951,1,0,3:2:0:0:
228,292,159024,5,2,3:3:0:0:
277,235,159134,1,2,3:3:0:0:
352,250,159244,1,2,3:3:0:0:
354,265,159353,1,2,0:2:0:0:
388,332,159463,5,2,0:2:0:0:
464,334,159572,1,2,0:2:0:0:
505,267,159682,1,2,1:2:0:0:
481,193,159791,2,0,P|446:187|398:173,1,60,0|4,0:0|0:3,0:0:0:0:
213,48,160010,5,0,1:2:0:0:
248,0,160120,1,2,0:2:0:0:
302,23,160229,1,4,0:3:0:0:
277,100,160338,5,2,1:2:0:0:
281,108,160448,1,2,0:2:0:0:
285,116,160557,2,0,P|272:180|272:192,1,60,4|2,0:3|0:2,0:2:0:0:
144,360,160776,5,2,0:2:0:0:
148,352,160886,1,2,1:2:0:0:
182,278,160995,5,8,0:3:0:0:
131,261,161105,1,8,0:3:0:0:
88,298,161214,2,0,P|52:314|27:325,1,60,4|0,0:3|0:2,0:2:0:0:
50,174,161433,5,2,0:2:0:0:
55,185,161543,2,0,L|48:234,2,45.0000017166138,2|2|0,0:2|0:3|0:2,0:2:0:0:
135,20,161871,5,4,0:3:0:0:
190,7,161981,1,2,0:2:0:0:
226,47,162090,1,2,1:2:0:0:
222,61,162200,1,2,0:2:0:0:
256,98,162309,1,2,0:2:0:0:
251,112,162419,2,0,P|282:106|318:99,1,45.0000017166138,2|2,0:2|0:3,0:2:0:0:
356,27,162638,1,2,0:2:0:0:
349,34,162747,2,0,P|318:28|282:21,1,45.0000017166138,2|0,0:3|0:2,0:2:0:0:
157,112,162966,6,0,P|151:141|142:186,2,45.0000017166138,2|0|0,0:2|0:2|0:2,0:2:0:0:
408,268,163295,2,0,L|393:199,1,45.0000017166138,2|4,0:2|0:3,0:2:0:0:
437,137,163514,5,2,0:2:0:0:
447,132,163623,1,2,0:2:0:0:
454,143,163733,1,2,0:2:0:0:
408,210,163842,5,2,1:2:0:0:
412,123,163952,5,2,0:2:0:0:
458,116,164061,1,0,0:2:0:0:
478,161,164171,1,0,0:2:0:0:
400,219,164280,5,6,0:3:0:0:
357,217,164390,1,2,0:2:0:0:
329,256,164499,1,2,0:2:0:0:
283,251,164609,1,2,0:2:0:0:
229,312,164718,5,4,3:1:0:0:
227,320,164828,1,0,3:2:0:0:
225,328,164937,1,0,3:2:0:0:
223,336,165046,1,0,3:2:0:0:
221,344,165156,5,2,0:3:0:0:
171,367,165265,1,2,0:2:0:0:
116,353,165375,1,2,0:2:0:0:
94,300,165484,1,2,0:2:0:0:
118,250,165594,5,2,1:2:0:0:
133,251,165703,1,0,0:2:0:0:
140,265,165813,1,0,0:2:0:0:
207,215,165922,5,2,0:2:0:0:
209,224,166032,1,0,0:2:0:0:
289,189,166141,5,2,0:2:0:0:
298,200,166250,1,0,0:2:0:0:
293,215,166360,1,0,0:2:0:0:
194,230,166470,5,2,0:2:0:0:
186,187,166579,1,2,0:2:0:0:
203,151,166689,1,2,0:2:0:0:
178,114,166798,2,0,L|164:53,1,45.0000017166138,0|6,0:2|0:3,0:2:0:0:
369,173,167017,2,0,L|383:112,1,45.0000017166138,0|0,0:2|0:2,0:2:0:0:
217,244,167236,5,2,0:2:0:0:
194,230,167346,1,2,1:2:0:0:
167,231,167455,1,2,0:2:0:0:
147,249,167564,1,4,0:3:0:0:
143,275,167674,1,2,0:2:0:0:
119,361,167784,5,0,1:2:0:0:
55,356,167893,1,8,3:3:0:0:
11,314,168002,1,8,3:3:0:0:
1,254,168112,1,4,3:3:0:0:
31,200,168222,6,0,P|84:223|98:230,1,45.0000017166138,4|0,0:2|0:2,0:2:0:0:
209,302,168441,1,2,0:2:0:0:
223,310,168550,2,0,P|276:296|283:295,1,45.0000017166138,2|2,0:2|0:3,0:2:0:0:
204,152,168769,5,2,0:2:0:0:
174,141,168879,1,2,0:2:0:0:
149,168,168988,2,0,P|162:192|179:241,1,45.0000017166138,2|0,0:2|1:2,0:2:0:0:
318,223,169207,5,2,0:2:0:0:
348,212,169317,1,2,0:2:0:0:
373,239,169426,2,0,P|360:263|343:312,1,45.0000017166138,2|0,0:2|0:2,0:2:0:0:
353,288,169645,5,2,0:2:0:0:
384,321,169755,1,2,0:3:0:0:
436,304,169864,1,2,0:2:0:0:
457,243,169974,1,2,0:2:0:0:
427,185,170083,1,2,0:2:0:0:
492,143,170192,2,0,L|505:92,1,45.0000017166138,2|0,0:3|0:2,0:2:0:0:
353,214,170411,6,0,L|340:182,2,30.0000011444092,4|0|0,3:3|3:2|3:2,3:2:0:0:
512,334,170630,2,0,L|499:366,2,30.0000011444092,0|0|0,3:2|3:2|3:2,3:2:0:0:
357,229,170849,5,0,1:2:0:0:
414,278,170959,2,0,P|481:258|505:252,1,90.0000034332277,2|0,0:2|0:2,0:2:0:0:
410,297,171287,5,2,0:2:0:0:
377,348,171397,1,2,0:2:0:0:
319,343,171506,2,0,P|312:321|300:297,1,45.0000017166138,4|0,0:3|0:2,0:2:0:0:
417,151,171725,6,0,P|407:171|400:192,2,45.0000017166138,6|0|0,0:3|0:2|0:2,0:2:0:0:
321,211,172054,2,0,P|288:179|257:158,1,45.0000017166138,2|2,0:2|0:3,3:2:0:0:
307,72,172273,5,2,3:2:0:0:
317,68,172382,1,2,3:2:0:0:
327,76,172492,2,0,P|335:102|344:138,1,45.0000017166138,2|0,0:3|1:2,0:0:0:0:
446,13,172711,5,2,3:2:0:0:
436,9,172820,1,2,3:2:0:0:
426,17,172930,2,0,P|417:43|409:79,1,45.0000017166138,2|0,0:3|0:0,0:0:0:0:
230,31,173149,5,2,0:2:0:0:
175,14,173258,1,2,0:2:0:0:
140,63,173368,1,2,0:2:0:0:
71,34,173477,5,2,0:2:0:0:
62,42,173587,2,0,L|20:57,1,30,2|2,0:0|0:3,0:0:0:0:
5,147,173806,6,0,L|68:130,1,45.0000017166138,2|4,0:2|0:3,0:2:0:0:
57,146,173988,2,0,L|100:153,4,30.0000011444092,0|0|0|0|0,3:2|3:2|3:2|3:2|3:2,3:2:0:0:
134,212,174353,5,0,1:2:0:0:
145,221,174426,2,0,L|161:174,1,30.0000011444092,0|0,3:2|3:2,3:2:0:0:
207,134,174572,5,4,3:3:0:0:
218,125,174645,2,0,L|234:172,1,30.0000011444092,0|0,3:0|3:0,3:0:0:0:
312,149,174791,5,0,1:2:0:0:
323,158,174864,2,0,L|339:111,1,30.0000011444092,0|0,3:2|3:2,3:2:0:0:
396,96,175010,5,2,3:3:0:0:
254,381,175229,5,6,0:2:0:0:
239,331,175338,1,2,0:2:0:0:
265,288,175448,1,2,0:2:0:0:
254,277,175557,2,0,L|245:228,1,45.0000017166138,2|2,0:2|0:3,0:2:0:0:
332,165,175776,2,0,L|320:218,1,45.0000017166138,2|4,0:2|0:3,0:2:0:0:
167,233,175995,2,0,L|146:193,1,45.0000017166138,2|0,0:2|1:2,0:2:0:0:
264,122,176214,5,2,0:2:0:0:
237,148,176324,1,2,0:2:0:0:
203,132,176433,1,2,0:2:0:0:
218,53,176543,6,0,B|218:33|218:33|227:56,1,45.0000017166138,2|0,0:3|0:2,0:2:0:0:
471,177,176762,2,0,B|462:200|462:200|462:168,1,45.0000017166138,2|0,0:3|0:2,0:2:0:0:
428,11,176981,5,2,0:2:0:0:
474,8,177090,1,2,0:2:0:0:
500,53,177200,1,2,0:2:0:0:
474,94,177309,1,2,0:2:0:0:
402,121,177419,5,4,3:3:0:0:
375,122,177491,1,0,3:2:0:0:
351,134,177564,1,0,3:2:0:0:
334,155,177637,1,0,3:2:0:0:
328,181,177710,1,0,3:2:0:0:
334,207,177783,1,0,3:2:0:0:
353,226,177857,6,0,P|396:244|406:252,1,45.0000017166138,0|0,1:2|0:2,0:2:0:0:
492,378,178076,5,2,0:2:0:0:
492,378,178185,1,2,0:2:0:0:
494,299,178295,5,6,0:3:0:0:
443,303,178404,1,2,0:3:0:0:
414,350,178514,1,2,0:3:0:0:
181,325,178733,5,2,0:3:0:0:
181,325,178842,1,2,0:2:0:0:
120,269,178952,5,2,0:2:0:0:
72,290,179061,1,2,0:2:0:0:
38,255,179171,1,2,0:3:0:0:
59,204,179280,1,2,0:2:0:0:
137,184,179390,6,0,P|161:193|183:198,1,45.0000017166138,4|0,0:3|0:2,0:2:0:0:
447,169,179609,5,0,1:2:0:0:
451,178,179718,2,0,L|464:220,2,45.0000017166138,0|0|0,0:2|0:2|0:2,0:2:0:0:
412,72,180046,5,2,0:3:0:0:
483,52,180156,1,2,0:3:0:0:
415,83,180265,2,0,L|346:66,1,45.0000017166138,2|0,0:3|0:2,0:2:0:0:
184,44,180484,5,0,1:2:0:0:
184,44,180539,1,0,1:2:0:0:
184,44,180594,2,0,P|195:82|205:129,1,71.9999978027344,0|4,1:2|0:3,0:2:0:0:
369,154,180813,5,0,1:2:0:0:
369,154,180868,1,0,1:2:0:0:
369,154,180923,2,0,P|358:192|348:239,1,71.9999978027344,0|4,1:2|0:3,0:2:0:0:
209,246,181141,5,8,0:3:0:0:
287,283,181251,1,8,0:3:0:0:
220,327,181360,1,8,0:3:0:0:
138,322,181470,5,4,0:3:0:0:
136,335,181579,1,4,0:3:0:0:
294,371,181689,5,4,0:3:0:0:
296,384,181798,1,4,0:3:0:0:
364,322,181908,5,8,0:3:0:0:
240,284,182017,1,8,0:3:0:0:
116,246,182127,1,8,0:3:0:0:
246,274,182236,1,4,0:3:0:0:
