osu file format v14

[General]
AudioFilename: audio.mp3
AudioLeadIn: 0
PreviewTime: 29085
Countdown: 0
SampleSet: Soft
StackLeniency: 0.7
Mode: 3
LetterboxInBreaks: 0
SpecialStyle: 0
WidescreenStoryboard: 0

[Editor]
Bookmarks: 14210,28115,98188,140231,161225,168233,175240,182275
DistanceSpacing: 0.7
BeatDivisor: 4
GridSize: 8
TimelineZoom: 2.099999

[Metadata]
Title:Playing God
TitleUnicode:Playing God
Artist:Polyphia
ArtistUnicode:Polyphia
Creator:Alptraum
Version:Artificial Genesis
Source:
Tags:Remember That You Will Die Tim Henson Scott LePage Clay Gober Clay Aeschliman Progressive Rock progrock prog rock math rock Rise Records Euthanasia Pack Memento Mori Instrumental hard Rock djent
BeatmapID:4288947
BeatmapSetID:2053357

[Difficulty]
HPDrainRate:8
CircleSize:4
OverallDifficulty:8
ApproachRate:5
SliderMultiplier:1.4
SliderTickRate:1

[Events]
//Background and Video events
0,0,"bg.jpg",0,0
//Break Periods
//Storyboard Layer 0 (Background)
//Storyboard Layer 1 (Fail)
//Storyboard Layer 2 (Pass)
//Storyboard Layer 3 (Foreground)
//Storyboard Layer 4 (Overlay)
//Storyboard Sound Samples

[TimingPoints]
1056,437.956204379562,4,2,1,79,1,0
141201,-100,4,2,1,79,0,1
162223,-100,4,2,1,79,0,0

[HitObjects]
192,192,1056,5,0,0:0:0:0:
320,192,1466,1,0,0:0:0:0:
64,192,1712,1,0,0:0:0:0:
448,192,1931,1,0,0:0:0:0:
320,192,2150,1,0,0:0:0:0:
192,192,2369,1,0,0:0:0:0:
320,192,2588,1,0,0:0:0:0:
448,192,2807,1,0,0:0:0:0:
64,192,3026,1,0,0:0:0:0:
320,192,3108,1,0,0:0:0:0:
448,192,3218,1,0,0:0:0:0:
64,192,3355,1,0,0:0:0:0:
192,192,3464,1,0,0:0:0:0:
192,192,3793,1,0,0:0:0:0:
192,192,4121,1,0,0:0:0:0:
320,192,4149,1,0,0:0:0:0:
448,192,4176,1,0,0:0:0:0:
320,192,4340,1,0,0:0:0:0:
192,192,4559,1,0,0:0:0:0:
192,192,4997,1,0,0:0:0:0:
64,192,5216,1,0,0:0:0:0:
64,192,5435,1,0,0:0:0:0:
320,192,5484,1,0,0:0:0:0:
448,192,5532,1,0,0:0:0:0:
192,192,5654,1,0,0:0:0:0:
320,192,5764,1,0,0:0:0:0:
320,192,5983,1,0,0:0:0:0:
64,192,6092,1,0,0:0:0:0:
192,192,6201,1,0,0:0:0:0:
448,192,6311,1,0,0:0:0:0:
448,192,6530,1,0,0:0:0:0:
192,192,6639,1,0,0:0:0:0:
448,192,6858,1,0,0:0:0:0:
320,192,6968,1,0,0:0:0:0:
64,192,7077,1,0,0:0:0:0:
64,192,7187,1,0,0:0:0:0:
320,192,7406,128,0,7461:0:0:0:0:
448,192,7406,128,0,7461:0:0:0:0:
192,192,7625,128,0,7680:0:0:0:0:
320,192,7625,128,0,7680:0:0:0:0:
192,192,7844,128,0,7899:0:0:0:0:
64,192,8063,128,0,8282:0:0:0:0:
192,192,8111,128,0,8282:0:0:0:0:
320,192,8282,1,0,0:0:0:0:
448,192,8501,1,0,0:0:0:0:
64,192,8720,1,0,0:0:0:0:
320,192,8939,1,0,0:0:0:0:
448,192,9158,1,0,0:0:0:0:
64,192,9377,1,0,0:0:0:0:
448,192,9596,1,0,0:0:0:0:
320,192,9815,128,0,9979:0:0:0:0:
448,192,9815,128,0,9979:0:0:0:0:
64,192,9815,1,0,0:0:0:0:
320,192,10253,1,0,0:0:0:0:
64,192,10253,128,0,10581:0:0:0:0:
192,192,10253,128,0,10636:0:0:0:0:
320,192,10581,128,0,10691:0:0:0:0:
448,192,10691,1,0,0:0:0:0:
320,192,10778,1,0,0:0:0:0:
192,192,10866,1,0,0:0:0:0:
192,192,11019,128,0,11238:0:0:0:0:
64,192,11238,1,0,0:0:0:0:
192,192,11347,1,0,0:0:0:0:
448,192,11457,1,0,0:0:0:0:
64,192,11566,1,0,0:0:0:0:
320,192,11566,128,0,12223:0:0:0:0:
192,192,12004,1,0,0:0:0:0:
64,192,12223,1,0,0:0:0:0:
192,192,12442,1,0,0:0:0:0:
320,192,12497,1,0,0:0:0:0:
448,192,12552,128,0,12661:0:0:0:0:
64,192,12661,1,0,0:0:0:0:
320,192,12771,128,0,12880:0:0:0:0:
192,192,12880,1,0,0:0:0:0:
320,192,12990,128,0,13264:0:0:0:0:
64,192,13099,1,0,0:0:0:0:
192,192,13209,1,0,0:0:0:0:
64,192,13291,1,0,0:0:0:0:
448,192,13318,1,0,0:0:0:0:
320,192,13346,1,0,0:0:0:0:
192,192,13373,128,0,13756:0:0:0:0:
448,192,13537,1,0,0:0:0:0:
320,192,13647,128,0,13866:0:0:0:0:
64,192,13866,128,0,13975:0:0:0:0:
320,192,13975,128,0,14030:0:0:0:0:
192,192,13975,128,0,14030:0:0:0:0:
320,192,14085,128,0,14139:0:0:0:0:
448,192,14085,128,0,14139:0:0:0:0:
448,192,14194,1,0,0:0:0:0:
192,192,14413,1,0,0:0:0:0:
64,192,14468,128,0,14632:0:0:0:0:
192,192,14632,1,0,0:0:0:0:
320,192,14742,1,0,0:0:0:0:
448,192,14851,128,0,14961:0:0:0:0:
320,192,15070,128,0,15508:0:0:0:0:
64,192,15070,128,0,16822:0:0:0:0:
448,192,15508,1,0,0:0:0:0:
192,192,15727,1,0,0:0:0:0:
448,192,15946,1,0,0:0:0:0:
320,192,16165,1,0,0:0:0:0:
192,192,16384,1,0,0:0:0:0:
320,192,16603,1,0,0:0:0:0:
448,192,16822,1,0,0:0:0:0:
192,192,17041,128,0,17260:0:0:0:0:
320,192,17128,1,0,0:0:0:0:
448,192,17216,1,0,0:0:0:0:
192,192,17369,128,0,17588:0:0:0:0:
448,192,17479,1,0,0:0:0:0:
192,192,17698,128,0,17917:0:0:0:0:
448,192,17807,1,0,0:0:0:0:
320,192,17807,1,0,0:0:0:0:
192,192,18026,128,0,18081:0:0:0:0:
320,192,18136,1,0,0:0:0:0:
448,192,18180,128,0,18442:0:0:0:0:
192,192,18355,1,0,0:0:0:0:
320,192,18355,128,0,18464:0:0:0:0:
192,192,18574,128,0,19450:0:0:0:0:
64,192,18574,1,0,0:0:0:0:
448,192,19012,1,0,0:0:0:0:
320,192,19231,1,0,0:0:0:0:
64,192,19450,1,0,0:0:0:0:
320,192,19504,1,0,0:0:0:0:
448,192,19559,128,0,19669:0:0:0:0:
64,192,19669,1,0,0:0:0:0:
448,192,19778,128,0,19942:0:0:0:0:
320,192,19888,128,0,19970:0:0:0:0:
192,192,19997,1,0,0:0:0:0:
320,192,20107,1,0,0:0:0:0:
448,192,20216,1,0,0:0:0:0:
192,192,20326,128,0,20435:0:0:0:0:
64,192,20326,128,0,20435:0:0:0:0:
320,192,20545,1,0,0:0:0:0:
64,192,20654,128,0,20764:0:0:0:0:
448,192,20873,1,0,0:0:0:0:
320,192,20983,1,0,0:0:0:0:
192,192,21092,1,0,0:0:0:0:
64,192,21201,128,0,21475:0:0:0:0:
192,192,21201,1,0,0:0:0:0:
192,192,21420,128,0,21530:0:0:0:0:
320,192,21530,1,0,0:0:0:0:
448,192,21585,1,0,0:0:0:0:
192,192,21639,1,0,0:0:0:0:
64,192,21749,1,0,0:0:0:0:
192,192,21831,128,0,21913:0:0:0:0:
320,192,21858,128,0,21968:0:0:0:0:
448,192,21886,128,0,22077:0:0:0:0:
64,192,22077,128,0,22214:0:0:0:0:
192,192,22077,128,0,22242:0:0:0:0:
320,192,22269,1,0,0:0:0:0:
448,192,22296,1,0,0:0:0:0:
448,192,22515,1,0,0:0:0:0:
320,192,22734,1,0,0:0:0:0:
64,192,22953,1,0,0:0:0:0:
320,192,23172,1,0,0:0:0:0:
192,192,23391,1,0,0:0:0:0:
448,192,23610,1,0,0:0:0:0:
64,192,23829,128,0,23993:0:0:0:0:
448,192,23829,128,0,23884:0:0:0:0:
320,192,23829,128,0,23884:0:0:0:0:
320,192,24267,128,0,24377:0:0:0:0:
64,192,24267,128,0,24541:0:0:0:0:
192,192,24267,128,0,24596:0:0:0:0:
320,192,24541,128,0,24650:0:0:0:0:
448,192,24705,1,0,0:0:0:0:
320,192,24793,1,0,0:0:0:0:
192,192,24880,1,0,0:0:0:0:
192,192,25034,128,0,25253:0:0:0:0:
64,192,25253,1,0,0:0:0:0:
320,192,25362,1,0,0:0:0:0:
448,192,25472,1,0,0:0:0:0:
64,192,25581,128,0,26019:0:0:0:0:
192,192,25581,1,0,0:0:0:0:
320,192,25618,1,0,0:0:0:0:
320,192,26019,128,0,26238:0:0:0:0:
192,192,26238,128,0,26347:0:0:0:0:
192,192,26457,1,0,0:0:0:0:
320,192,26512,1,0,0:0:0:0:
448,192,26566,128,0,26676:0:0:0:0:
64,192,26676,1,0,0:0:0:0:
448,192,26785,128,0,26895:0:0:0:0:
192,192,26895,1,0,0:0:0:0:
320,192,27004,128,0,27223:0:0:0:0:
64,192,27114,1,0,0:0:0:0:
192,192,27223,1,0,0:0:0:0:
64,192,27305,1,0,0:0:0:0:
448,192,27333,1,0,0:0:0:0:
320,192,27360,1,0,0:0:0:0:
192,192,27388,128,0,27771:0:0:0:0:
448,192,27552,128,0,27661:0:0:0:0:
320,192,27661,128,0,27880:0:0:0:0:
64,192,27880,1,0,0:0:0:0:
192,192,27990,5,0,0:0:0:0:
320,192,28099,1,0,0:0:0:0:
448,192,28209,1,0,0:0:0:0:
64,192,28209,1,0,0:0:0:0:
192,192,28428,1,0,0:0:0:0:
448,192,28428,1,0,0:0:0:0:
320,192,28647,1,0,0:0:0:0:
192,192,28756,1,0,0:0:0:0:
448,192,28866,1,0,0:0:0:0:
64,192,28866,1,0,0:0:0:0:
320,192,28975,1,0,0:0:0:0:
448,192,29085,128,0,29304:0:0:0:0:
64,192,29085,128,0,29888:0:0:0:0:
192,192,29085,128,0,29413:0:0:0:0:
320,192,29523,128,0,29705:0:0:0:0:
448,192,29742,1,0,0:0:0:0:
320,192,29815,1,0,0:0:0:0:
192,192,29888,1,0,0:0:0:0:
448,192,29961,1,0,0:0:0:0:
64,192,29961,1,0,0:0:0:0:
448,192,30070,1,0,0:0:0:0:
320,192,30180,1,0,0:0:0:0:
192,192,30289,1,0,0:0:0:0:
448,192,30399,1,0,0:0:0:0:
320,192,30399,1,0,0:0:0:0:
192,192,30508,1,0,0:0:0:0:
64,192,30618,1,0,0:0:0:0:
320,192,30727,1,0,0:0:0:0:
448,192,30837,128,0,31274:0:0:0:0:
192,192,30837,1,0,0:0:0:0:
320,192,30946,1,0,0:0:0:0:
64,192,31055,1,0,0:0:0:0:
192,192,31165,1,0,0:0:0:0:
320,192,31274,1,0,0:0:0:0:
64,192,31274,128,0,31603:0:0:0:0:
192,192,31384,1,0,0:0:0:0:
448,192,31493,1,0,0:0:0:0:
320,192,31603,1,0,0:0:0:0:
192,192,31712,1,0,0:0:0:0:
64,192,31712,1,0,0:0:0:0:
448,192,31822,1,0,0:0:0:0:
320,192,31931,1,0,0:0:0:0:
192,192,32041,1,0,0:0:0:0:
320,192,32150,1,0,0:0:0:0:
192,192,32260,1,0,0:0:0:0:
448,192,32369,128,0,32479:0:0:0:0:
64,192,32369,1,0,0:0:0:0:
320,192,32479,1,0,0:0:0:0:
448,192,32588,128,0,33136:0:0:0:0:
64,192,32588,128,0,33026:0:0:0:0:
192,192,32588,128,0,32972:0:0:0:0:
320,192,33026,1,0,0:0:0:0:
192,192,33081,1,0,0:0:0:0:
64,192,33136,1,0,0:0:0:0:
320,192,33245,1,0,0:0:0:0:
448,192,33245,1,0,0:0:0:0:
192,192,33318,1,0,0:0:0:0:
320,192,33391,1,0,0:0:0:0:
64,192,33464,1,0,0:0:0:0:
448,192,33464,1,0,0:0:0:0:
192,192,33519,1,0,0:0:0:0:
448,192,33793,1,0,0:0:0:0:
192,192,33902,1,0,0:0:0:0:
64,192,33902,1,0,0:0:0:0:
320,192,34066,1,0,0:0:0:0:
64,192,34340,128,0,34486:0:0:0:0:
192,192,34340,128,0,34486:0:0:0:0:
448,192,34428,1,0,0:0:0:0:
64,192,34559,128,0,34705:0:0:0:0:
192,192,34559,128,0,34705:0:0:0:0:
448,192,34705,1,0,0:0:0:0:
64,192,34778,128,0,34997:0:0:0:0:
192,192,34778,128,0,34924:0:0:0:0:
320,192,34961,1,0,0:0:0:0:
64,192,35216,128,0,35435:0:0:0:0:
192,192,35216,128,0,35435:0:0:0:0:
320,192,35216,128,0,35435:0:0:0:0:
320,192,35545,128,0,35764:0:0:0:0:
448,192,35545,128,0,35764:0:0:0:0:
64,192,35545,128,0,35764:0:0:0:0:
448,192,35873,128,0,35983:0:0:0:0:
320,192,35873,128,0,35983:0:0:0:0:
192,192,35873,128,0,35983:0:0:0:0:
64,192,36092,128,0,36256:0:0:0:0:
192,192,36092,128,0,36311:0:0:0:0:
448,192,36092,1,0,0:0:0:0:
320,192,36201,128,0,36530:0:0:0:0:
448,192,36256,128,0,36895:0:0:0:0:
64,192,36384,1,0,0:0:0:0:
192,192,36457,1,0,0:0:0:0:
64,192,36530,1,0,0:0:0:0:
192,192,36639,1,0,0:0:0:0:
192,192,36749,1,0,0:0:0:0:
320,192,36822,128,0,36931:0:0:0:0:
192,192,36895,128,0,36968:0:0:0:0:
64,192,36968,1,0,0:0:0:0:
448,192,36968,1,0,0:0:0:0:
448,192,37077,1,0,0:0:0:0:
192,192,37187,1,0,0:0:0:0:
320,192,37296,1,0,0:0:0:0:
192,192,37406,1,0,0:0:0:0:
64,192,37406,1,0,0:0:0:0:
448,192,37479,1,0,0:0:0:0:
64,192,37552,1,0,0:0:0:0:
320,192,37625,1,0,0:0:0:0:
192,192,37734,1,0,0:0:0:0:
448,192,37844,128,0,38063:0:0:0:0:
64,192,37844,1,0,0:0:0:0:
320,192,37892,128,0,38063:0:0:0:0:
192,192,38063,1,0,0:0:0:0:
64,192,38118,1,0,0:0:0:0:
320,192,38172,1,0,0:0:0:0:
192,192,38282,128,0,38610:0:0:0:0:
448,192,38282,1,0,0:0:0:0:
448,192,38391,1,0,0:0:0:0:
320,192,38501,1,0,0:0:0:0:
64,192,38610,1,0,0:0:0:0:
448,192,38720,1,0,0:0:0:0:
192,192,38720,1,0,0:0:0:0:
192,192,38829,1,0,0:0:0:0:
320,192,38939,1,0,0:0:0:0:
448,192,39048,1,0,0:0:0:0:
64,192,39158,1,0,0:0:0:0:
320,192,39267,1,0,0:0:0:0:
192,192,39377,1,0,0:0:0:0:
448,192,39486,1,0,0:0:0:0:
320,192,39486,1,0,0:0:0:0:
192,192,39596,128,0,39815:0:0:0:0:
64,192,39596,128,0,39888:0:0:0:0:
448,192,39650,1,0,0:0:0:0:
320,192,39705,1,0,0:0:0:0:
448,192,39815,1,0,0:0:0:0:
320,192,39888,1,0,0:0:0:0:
192,192,39961,1,0,0:0:0:0:
64,192,40034,1,0,0:0:0:0:
192,192,40143,1,0,0:0:0:0:
448,192,40253,1,0,0:0:0:0:
320,192,40253,1,0,0:0:0:0:
64,192,40326,1,0,0:0:0:0:
192,192,40326,1,0,0:0:0:0:
448,192,40399,1,0,0:0:0:0:
320,192,40399,1,0,0:0:0:0:
64,192,40472,1,0,0:0:0:0:
192,192,40581,1,0,0:0:0:0:
320,192,40691,1,0,0:0:0:0:
192,192,40800,1,0,0:0:0:0:
448,192,40910,1,0,0:0:0:0:
320,192,40910,1,0,0:0:0:0:
320,192,41019,1,0,0:0:0:0:
192,192,41128,1,0,0:0:0:0:
64,192,41238,1,0,0:0:0:0:
192,192,41311,1,0,0:0:0:0:
320,192,41347,1,0,0:0:0:0:
448,192,41347,128,0,41566:0:0:0:0:
64,192,41566,1,0,0:0:0:0:
192,192,41566,1,0,0:0:0:0:
448,192,41639,1,0,0:0:0:0:
320,192,41639,1,0,0:0:0:0:
64,192,41712,1,0,0:0:0:0:
192,192,41712,1,0,0:0:0:0:
448,192,41785,1,0,0:0:0:0:
192,192,41895,1,0,0:0:0:0:
320,192,42004,1,0,0:0:0:0:
448,192,42114,1,0,0:0:0:0:
192,192,42114,1,0,0:0:0:0:
448,192,42223,1,0,0:0:0:0:
320,192,42223,1,0,0:0:0:0:
64,192,42333,1,0,0:0:0:0:
192,192,42333,1,0,0:0:0:0:
448,192,42442,1,0,0:0:0:0:
320,192,42552,1,0,0:0:0:0:
64,192,42552,1,0,0:0:0:0:
64,192,42661,1,0,0:0:0:0:
192,192,42661,1,0,0:0:0:0:
448,192,42771,1,0,0:0:0:0:
320,192,42771,1,0,0:0:0:0:
448,192,42880,1,0,0:0:0:0:
192,192,42880,1,0,0:0:0:0:
64,192,42990,1,0,0:0:0:0:
320,192,42990,1,0,0:0:0:0:
64,192,43099,128,0,44851:0:0:0:0:
192,192,43099,1,0,0:0:0:0:
320,192,43537,1,0,0:0:0:0:
192,192,43647,1,0,0:0:0:0:
448,192,43756,1,0,0:0:0:0:
192,192,43866,1,0,0:0:0:0:
320,192,43975,1,0,0:0:0:0:
448,192,44048,128,0,44194:0:0:0:0:
320,192,44194,1,0,0:0:0:0:
192,192,44304,1,0,0:0:0:0:
448,192,44413,1,0,0:0:0:0:
320,192,44523,1,0,0:0:0:0:
192,192,44632,1,0,0:0:0:0:
448,192,44742,1,0,0:0:0:0:
448,192,44851,1,0,0:0:0:0:
64,192,44961,1,0,0:0:0:0:
192,192,45070,1,0,0:0:0:0:
320,192,45180,1,0,0:0:0:0:
448,192,45289,1,0,0:0:0:0:
64,192,45289,1,0,0:0:0:0:
320,192,45399,1,0,0:0:0:0:
64,192,45508,1,0,0:0:0:0:
448,192,45618,1,0,0:0:0:0:
192,192,45727,1,0,0:0:0:0:
192,192,45837,1,0,0:0:0:0:
320,192,45946,1,0,0:0:0:0:
192,192,46055,1,0,0:0:0:0:
320,192,46165,1,0,0:0:0:0:
320,192,46274,1,0,0:0:0:0:
448,192,46384,1,0,0:0:0:0:
64,192,46384,1,0,0:0:0:0:
192,192,46493,1,0,0:0:0:0:
448,192,46603,128,0,47260:0:0:0:0:
64,192,46603,128,0,47041:0:0:0:0:
320,192,46603,128,0,47041:0:0:0:0:
192,192,47041,128,0,47260:0:0:0:0:
320,192,47260,1,0,0:0:0:0:
64,192,47260,1,0,0:0:0:0:
448,192,47333,1,0,0:0:0:0:
192,192,47406,1,0,0:0:0:0:
64,192,47479,1,0,0:0:0:0:
448,192,47479,1,0,0:0:0:0:
320,192,47479,1,0,0:0:0:0:
448,192,47807,1,0,0:0:0:0:
64,192,47807,1,0,0:0:0:0:
64,192,47917,1,0,0:0:0:0:
192,192,48026,1,0,0:0:0:0:
320,192,48136,1,0,0:0:0:0:
448,192,48245,1,0,0:0:0:0:
192,192,48355,1,0,0:0:0:0:
320,192,48464,128,0,48574:0:0:0:0:
64,192,48574,1,0,0:0:0:0:
320,192,48683,128,0,48793:0:0:0:0:
192,192,48793,1,0,0:0:0:0:
64,192,48793,1,0,0:0:0:0:
320,192,48902,128,0,49012:0:0:0:0:
64,192,49012,1,0,0:0:0:0:
192,192,49066,1,0,0:0:0:0:
320,192,49121,1,0,0:0:0:0:
448,192,49176,1,0,0:0:0:0:
192,192,49231,1,0,0:0:0:0:
320,192,49340,1,0,0:0:0:0:
64,192,49450,1,0,0:0:0:0:
192,192,49559,128,0,49669:0:0:0:0:
448,192,49669,128,0,49888:0:0:0:0:
192,192,49778,128,0,49888:0:0:0:0:
64,192,49888,1,0,0:0:0:0:
320,192,49997,128,0,50107:0:0:0:0:
192,192,50107,1,0,0:0:0:0:
64,192,50107,128,0,50545:0:0:0:0:
448,192,50326,1,0,0:0:0:0:
192,192,50399,1,0,0:0:0:0:
448,192,50472,1,0,0:0:0:0:
320,192,50545,1,0,0:0:0:0:
192,192,50545,1,0,0:0:0:0:
320,192,50654,1,0,0:0:0:0:
448,192,50764,1,0,0:0:0:0:
192,192,50873,1,0,0:0:0:0:
320,192,50983,1,0,0:0:0:0:
64,192,50983,1,0,0:0:0:0:
448,192,51092,1,0,0:0:0:0:
320,192,51201,1,0,0:0:0:0:
192,192,51311,1,0,0:0:0:0:
320,192,51420,1,0,0:0:0:0:
64,192,51420,1,0,0:0:0:0:
448,192,51493,1,0,0:0:0:0:
320,192,51566,1,0,0:0:0:0:
192,192,51639,1,0,0:0:0:0:
64,192,51749,1,0,0:0:0:0:
448,192,51858,1,0,0:0:0:0:
64,192,51968,1,0,0:0:0:0:
192,192,52023,1,0,0:0:0:0:
320,192,52077,1,0,0:0:0:0:
192,192,52187,1,0,0:0:0:0:
320,192,52296,1,0,0:0:0:0:
64,192,52296,1,0,0:0:0:0:
64,192,52406,1,0,0:0:0:0:
448,192,52406,1,0,0:0:0:0:
192,192,52515,1,0,0:0:0:0:
448,192,52515,1,0,0:0:0:0:
320,192,52625,1,0,0:0:0:0:
64,192,52734,1,0,0:0:0:0:
192,192,52734,1,0,0:0:0:0:
448,192,52844,1,0,0:0:0:0:
192,192,52953,1,0,0:0:0:0:
320,192,53063,1,0,0:0:0:0:
64,192,53172,1,0,0:0:0:0:
448,192,53172,1,0,0:0:0:0:
320,192,53227,1,0,0:0:0:0:
192,192,53282,1,0,0:0:0:0:
320,192,53391,1,0,0:0:0:0:
64,192,53501,1,0,0:0:0:0:
448,192,53610,128,0,54340:0:0:0:0:
192,192,53610,128,0,53774:0:0:0:0:
320,192,53610,128,0,53829:0:0:0:0:
64,192,53829,128,0,53939:0:0:0:0:
192,192,53866,128,0,53975:0:0:0:0:
320,192,53902,128,0,54048:0:0:0:0:
64,192,54048,1,0,0:0:0:0:
192,192,54121,1,0,0:0:0:0:
320,192,54194,1,0,0:0:0:0:
192,192,54267,1,0,0:0:0:0:
64,192,54267,1,0,0:0:0:0:
320,192,54340,1,0,0:0:0:0:
64,192,54413,1,0,0:0:0:0:
192,192,54486,128,0,54869:0:0:0:0:
448,192,54486,1,0,0:0:0:0:
448,192,54705,1,0,0:0:0:0:
448,192,54924,1,0,0:0:0:0:
320,192,54924,1,0,0:0:0:0:
192,192,54987,1,0,0:0:0:0:
64,192,55049,1,0,0:0:0:0:
64,192,55143,1,0,0:0:0:0:
192,192,55198,1,0,0:0:0:0:
448,192,55265,1,0,0:0:0:0:
320,192,55362,128,0,55800:0:0:0:0:
64,192,55800,1,0,0:0:0:0:
448,192,55800,1,0,0:0:0:0:
192,192,55873,1,0,0:0:0:0:
320,192,55946,5,0,0:0:0:0:
192,192,56019,1,0,0:0:0:0:
320,192,56092,1,0,0:0:0:0:
448,192,56165,1,0,0:0:0:0:
192,192,56238,128,0,56347:0:0:0:0:
64,192,56238,1,0,0:0:0:0:
320,192,56274,128,0,56420:0:0:0:0:
448,192,56347,128,0,56512:0:0:0:0:
192,192,56457,128,0,56621:0:0:0:0:
64,192,56566,128,0,56731:0:0:0:0:
448,192,56676,128,0,56895:0:0:0:0:
320,192,56785,128,0,57004:0:0:0:0:
192,192,56895,128,0,57004:0:0:0:0:
64,192,57004,1,0,0:0:0:0:
448,192,57004,1,0,0:0:0:0:
64,192,57114,128,0,57169:0:0:0:0:
192,192,57114,128,0,57169:0:0:0:0:
320,192,57114,128,0,57169:0:0:0:0:
448,192,57114,128,0,57169:0:0:0:0:
320,192,57552,1,0,0:0:0:0:
192,192,57771,1,0,0:0:0:0:
448,192,57990,1,0,0:0:0:0:
320,192,58209,1,0,0:0:0:0:
192,192,58428,1,0,0:0:0:0:
320,192,58647,1,0,0:0:0:0:
448,192,58866,1,0,0:0:0:0:
192,192,59085,128,0,59304:0:0:0:0:
320,192,59172,1,0,0:0:0:0:
448,192,59260,1,0,0:0:0:0:
192,192,59413,128,0,59632:0:0:0:0:
448,192,59523,1,0,0:0:0:0:
192,192,59742,128,0,59961:0:0:0:0:
448,192,59851,1,0,0:0:0:0:
320,192,59851,1,0,0:0:0:0:
192,192,60070,128,0,60125:0:0:0:0:
192,192,60180,1,0,0:0:0:0:
448,192,60223,128,0,60486:0:0:0:0:
192,192,60399,1,0,0:0:0:0:
320,192,60399,128,0,60508:0:0:0:0:
64,192,60618,1,0,0:0:0:0:
448,192,61055,1,0,0:0:0:0:
320,192,61274,1,0,0:0:0:0:
64,192,61493,1,0,0:0:0:0:
320,192,61548,1,0,0:0:0:0:
448,192,61603,128,0,61712:0:0:0:0:
64,192,61712,1,0,0:0:0:0:
448,192,61822,128,0,61968:0:0:0:0:
320,192,61931,128,0,62004:0:0:0:0:
192,192,62041,1,0,0:0:0:0:
320,192,62150,1,0,0:0:0:0:
448,192,62260,1,0,0:0:0:0:
64,192,62369,128,0,62479:0:0:0:0:
192,192,62369,1,0,0:0:0:0:
192,192,62588,1,0,0:0:0:0:
64,192,62698,1,0,0:0:0:0:
448,192,62807,1,0,0:0:0:0:
320,192,62807,1,0,0:0:0:0:
448,192,62917,128,0,63191:0:0:0:0:
320,192,63026,128,0,63218:0:0:0:0:
192,192,63136,128,0,63245:0:0:0:0:
64,192,63245,1,0,0:0:0:0:
448,192,63464,1,0,0:0:0:0:
320,192,63537,1,0,0:0:0:0:
192,192,63610,1,0,0:0:0:0:
320,192,63683,1,0,0:0:0:0:
320,192,63793,1,0,0:0:0:0:
448,192,63902,1,0,0:0:0:0:
64,192,64121,128,0,64915:0:0:0:0:
192,192,64121,128,0,64942:0:0:0:0:
320,192,64313,1,0,0:0:0:0:
448,192,64340,1,0,0:0:0:0:
448,192,64559,1,0,0:0:0:0:
320,192,64778,1,0,0:0:0:0:
64,192,64997,1,0,0:0:0:0:
320,192,64997,1,0,0:0:0:0:
448,192,65216,1,0,0:0:0:0:
448,192,65435,1,0,0:0:0:0:
192,192,65435,128,0,65873:0:0:0:0:
320,192,65508,1,0,0:0:0:0:
64,192,65581,1,0,0:0:0:0:
448,192,65654,1,0,0:0:0:0:
64,192,65873,128,0,66092:0:0:0:0:
448,192,65873,128,0,65928:0:0:0:0:
320,192,65873,128,0,65928:0:0:0:0:
448,192,66311,1,0,0:0:0:0:
192,192,66311,128,0,66639:0:0:0:0:
64,192,66311,128,0,66585:0:0:0:0:
448,192,66420,1,0,0:0:0:0:
448,192,66530,1,0,0:0:0:0:
320,192,66530,128,0,66694:0:0:0:0:
64,192,66749,1,0,0:0:0:0:
448,192,66749,1,0,0:0:0:0:
320,192,66858,1,0,0:0:0:0:
192,192,66968,1,0,0:0:0:0:
64,192,67077,128,0,67187:0:0:0:0:
448,192,67187,128,0,67406:0:0:0:0:
192,192,67187,128,0,67570:0:0:0:0:
64,192,67296,1,0,0:0:0:0:
320,192,67406,1,0,0:0:0:0:
448,192,67515,128,0,67625:0:0:0:0:
320,192,67625,1,0,0:0:0:0:
64,192,67625,128,0,68063:0:0:0:0:
192,192,67674,1,0,0:0:0:0:
320,192,68063,128,0,68282:0:0:0:0:
64,192,68282,1,0,0:0:0:0:
448,192,68282,1,0,0:0:0:0:
192,192,68355,1,0,0:0:0:0:
320,192,68428,1,0,0:0:0:0:
64,192,68501,1,0,0:0:0:0:
192,192,68501,1,0,0:0:0:0:
320,192,68555,1,0,0:0:0:0:
448,192,68610,128,0,68720:0:0:0:0:
64,192,68720,5,0,0:0:0:0:
448,192,68829,128,0,68939:0:0:0:0:
64,192,68939,128,0,69048:0:0:0:0:
192,192,68939,128,0,69377:0:0:0:0:
320,192,69048,1,0,0:0:0:0:
64,192,69158,1,0,0:0:0:0:
320,192,69267,1,0,0:0:0:0:
448,192,69377,128,0,70034:0:0:0:0:
320,192,69404,128,0,69596:0:0:0:0:
64,192,69486,1,0,0:0:0:0:
192,192,69596,128,0,69705:0:0:0:0:
320,192,69705,1,0,0:0:0:0:
64,192,69815,1,0,0:0:0:0:
64,192,69924,1,0,0:0:0:0:
192,192,70034,1,0,0:0:0:0:
64,192,70034,1,0,0:0:0:0:
448,192,70143,1,0,0:0:0:0:
64,192,70253,1,0,0:0:0:0:
448,192,70253,1,0,0:0:0:0:
320,192,70253,1,0,0:0:0:0:
192,192,70472,1,0,0:0:0:0:
448,192,70472,1,0,0:0:0:0:
320,192,70472,1,0,0:0:0:0:
192,192,70581,1,0,0:0:0:0:
320,192,70581,1,0,0:0:0:0:
64,192,70691,1,0,0:0:0:0:
320,192,70800,1,0,0:0:0:0:
448,192,70910,1,0,0:0:0:0:
192,192,70953,1,0,0:0:0:0:
64,192,70997,1,0,0:0:0:0:
320,192,71041,1,0,0:0:0:0:
192,192,71085,1,0,0:0:0:0:
320,192,71128,128,0,71238:0:0:0:0:
448,192,71128,128,0,71238:0:0:0:0:
64,192,71128,128,0,71457:0:0:0:0:
192,192,71347,128,0,71457:0:0:0:0:
320,192,71347,128,0,71457:0:0:0:0:
448,192,71347,128,0,71895:0:0:0:0:
320,192,71566,128,0,71895:0:0:0:0:
192,192,71566,128,0,71895:0:0:0:0:
64,192,71566,128,0,71895:0:0:0:0:
448,192,72004,1,0,0:0:0:0:
64,192,72004,1,0,0:0:0:0:
320,192,72442,128,0,72661:0:0:0:0:
192,192,72442,1,0,0:0:0:0:
64,192,72515,1,0,0:0:0:0:
192,192,72588,1,0,0:0:0:0:
448,192,72661,128,0,72880:0:0:0:0:
64,192,72880,128,0,73209:0:0:0:0:
320,192,72880,1,0,0:0:0:0:
192,192,73099,1,0,0:0:0:0:
320,192,73209,1,0,0:0:0:0:
448,192,73300,128,0,73428:0:0:0:0:
64,192,73318,128,0,73647:0:0:0:0:
192,192,73428,1,0,0:0:0:0:
448,192,73537,128,0,73756:0:0:0:0:
320,192,73537,128,0,73756:0:0:0:0:
64,192,73756,1,0,0:0:0:0:
192,192,73756,1,0,0:0:0:0:
448,192,73866,128,0,74139:0:0:0:0:
320,192,73866,128,0,74085:0:0:0:0:
64,192,73975,1,0,0:0:0:0:
192,192,74085,128,0,74139:0:0:0:0:
192,192,74194,1,0,0:0:0:0:
448,192,74249,128,0,74523:0:0:0:0:
64,192,74304,1,0,0:0:0:0:
320,192,74413,128,0,74632:0:0:0:0:
192,192,74413,128,0,74523:0:0:0:0:
192,192,74632,128,0,75399:0:0:0:0:
64,192,74632,128,0,75070:0:0:0:0:
448,192,75070,1,0,0:0:0:0:
320,192,75289,1,0,0:0:0:0:
64,192,75289,128,0,75399:0:0:0:0:
448,192,75362,1,0,0:0:0:0:
320,192,75435,1,0,0:0:0:0:
64,192,75508,1,0,0:0:0:0:
192,192,75508,1,0,0:0:0:0:
320,192,75563,1,0,0:0:0:0:
448,192,75618,128,0,75727:0:0:0:0:
64,192,75727,1,0,0:0:0:0:
448,192,75837,128,0,76001:0:0:0:0:
192,192,75946,128,0,76274:0:0:0:0:
320,192,75946,128,0,76055:0:0:0:0:
64,192,76055,1,0,0:0:0:0:
320,192,76165,1,0,0:0:0:0:
448,192,76274,1,0,0:0:0:0:
64,192,76384,128,0,76712:0:0:0:0:
192,192,76384,128,0,76493:0:0:0:0:
320,192,76603,1,0,0:0:0:0:
192,192,76712,1,0,0:0:0:0:
64,192,76822,128,0,77150:0:0:0:0:
448,192,76931,1,0,0:0:0:0:
320,192,77041,1,0,0:0:0:0:
448,192,77096,1,0,0:0:0:0:
192,192,77150,1,0,0:0:0:0:
64,192,77260,128,0,77552:0:0:0:0:
192,192,77260,1,0,0:0:0:0:
192,192,77479,128,0,77588:0:0:0:0:
448,192,77588,1,0,0:0:0:0:
320,192,77588,1,0,0:0:0:0:
192,192,77698,1,0,0:0:0:0:
320,192,77698,1,0,0:0:0:0:
64,192,77807,1,0,0:0:0:0:
192,192,77889,128,0,77972:0:0:0:0:
320,192,77917,128,0,78026:0:0:0:0:
448,192,77944,128,0,78136:0:0:0:0:
192,192,78136,128,0,78300:0:0:0:0:
64,192,78136,128,0,78273:0:0:0:0:
320,192,78327,1,0,0:0:0:0:
448,192,78355,1,0,0:0:0:0:
64,192,78410,1,0,0:0:0:0:
192,192,78464,1,0,0:0:0:0:
320,192,78574,1,0,0:0:0:0:
448,192,78574,1,0,0:0:0:0:
192,192,78683,1,0,0:0:0:0:
192,192,78793,1,0,0:0:0:0:
320,192,78793,1,0,0:0:0:0:
448,192,79012,1,0,0:0:0:0:
64,192,79012,1,0,0:0:0:0:
320,192,79231,1,0,0:0:0:0:
448,192,79450,1,0,0:0:0:0:
192,192,79450,1,0,0:0:0:0:
64,192,79523,1,0,0:0:0:0:
192,192,79596,1,0,0:0:0:0:
448,192,79669,1,0,0:0:0:0:
320,192,79888,128,0,79942:0:0:0:0:
448,192,79888,128,0,79942:0:0:0:0:
64,192,79888,128,0,80034:0:0:0:0:
192,192,80326,128,0,80654:0:0:0:0:
320,192,80326,128,0,80435:0:0:0:0:
64,192,80326,128,0,80599:0:0:0:0:
320,192,80599,128,0,80709:0:0:0:0:
64,192,80764,1,0,0:0:0:0:
448,192,80764,1,0,0:0:0:0:
320,192,80873,1,0,0:0:0:0:
192,192,80983,1,0,0:0:0:0:
64,192,81092,128,0,81201:0:0:0:0:
448,192,81201,128,0,81420:0:0:0:0:
192,192,81201,128,0,81530:0:0:0:0:
64,192,81311,1,0,0:0:0:0:
320,192,81420,1,0,0:0:0:0:
448,192,81530,1,0,0:0:0:0:
192,192,81639,1,0,0:0:0:0:
64,192,81639,128,0,82077:0:0:0:0:
320,192,81688,1,0,0:0:0:0:
320,192,82077,128,0,82296:0:0:0:0:
448,192,82296,1,0,0:0:0:0:
192,192,82296,128,0,82406:0:0:0:0:
192,192,82515,1,0,0:0:0:0:
64,192,82515,1,0,0:0:0:0:
320,192,82570,1,0,0:0:0:0:
448,192,82625,128,0,82734:0:0:0:0:
192,192,82734,1,0,0:0:0:0:
448,192,82844,128,0,82953:0:0:0:0:
64,192,82953,1,0,0:0:0:0:
192,192,82953,128,0,83391:0:0:0:0:
320,192,83063,1,0,0:0:0:0:
448,192,83172,1,0,0:0:0:0:
64,192,83282,1,0,0:0:0:0:
448,192,83391,1,0,0:0:0:0:
320,192,83419,1,0,0:0:0:0:
192,192,83501,1,0,0:0:0:0:
448,192,83610,1,0,0:0:0:0:
192,192,83610,1,0,0:0:0:0:
448,192,83720,1,0,0:0:0:0:
192,192,83829,1,0,0:0:0:0:
64,192,83829,1,0,0:0:0:0:
320,192,83939,1,0,0:0:0:0:
320,192,84048,1,0,0:0:0:0:
192,192,84158,1,0,0:0:0:0:
64,192,84158,1,0,0:0:0:0:
448,192,84267,1,0,0:0:0:0:
320,192,84267,1,0,0:0:0:0:
64,192,84377,1,0,0:0:0:0:
192,192,84377,1,0,0:0:0:0:
448,192,84486,1,0,0:0:0:0:
448,192,84596,1,0,0:0:0:0:
320,192,84596,1,0,0:0:0:0:
64,192,84705,1,0,0:0:0:0:
192,192,84705,1,0,0:0:0:0:
320,192,84815,1,0,0:0:0:0:
448,192,84924,1,0,0:0:0:0:
448,192,85034,1,0,0:0:0:0:
320,192,85034,1,0,0:0:0:0:
64,192,85143,128,0,86895:0:0:0:0:
448,192,85362,1,0,0:0:0:0:
192,192,85581,1,0,0:0:0:0:
320,192,86019,1,0,0:0:0:0:
192,192,86238,1,0,0:0:0:0:
320,192,86457,1,0,0:0:0:0:
448,192,86676,1,0,0:0:0:0:
192,192,87114,1,0,0:0:0:0:
448,192,87333,1,0,0:0:0:0:
320,192,87771,1,0,0:0:0:0:
192,192,87990,1,0,0:0:0:0:
320,192,88209,1,0,0:0:0:0:
448,192,88428,1,0,0:0:0:0:
448,192,88647,1,0,0:0:0:0:
192,192,88647,128,0,90399:0:0:0:0:
64,192,88866,1,0,0:0:0:0:
448,192,89085,1,0,0:0:0:0:
320,192,89523,1,0,0:0:0:0:
64,192,89742,1,0,0:0:0:0:
320,192,89961,1,0,0:0:0:0:
448,192,90180,1,0,0:0:0:0:
448,192,90399,1,0,0:0:0:0:
320,192,90399,128,0,92150:0:0:0:0:
64,192,90618,1,0,0:0:0:0:
448,192,90837,1,0,0:0:0:0:
192,192,91274,1,0,0:0:0:0:
64,192,91493,1,0,0:0:0:0:
192,192,91712,1,0,0:0:0:0:
448,192,91931,1,0,0:0:0:0:
192,192,92150,128,0,93026:0:0:0:0:
64,192,92150,128,0,95654:0:0:0:0:
320,192,92369,1,0,0:0:0:0:
448,192,92588,1,0,0:0:0:0:
320,192,93026,1,0,0:0:0:0:
192,192,93245,1,0,0:0:0:0:
320,192,93464,1,0,0:0:0:0:
448,192,93683,1,0,0:0:0:0:
192,192,94121,1,0,0:0:0:0:
448,192,94340,1,0,0:0:0:0:
320,192,94778,1,0,0:0:0:0:
192,192,94997,1,0,0:0:0:0:
320,192,95216,1,0,0:0:0:0:
448,192,95435,1,0,0:0:0:0:
320,192,95654,128,0,96530:0:0:0:0:
448,192,95654,128,0,97625:0:0:0:0:
64,192,95873,1,0,0:0:0:0:
192,192,96092,1,0,0:0:0:0:
192,192,96530,1,0,0:0:0:0:
64,192,96749,1,0,0:0:0:0:
192,192,96968,1,0,0:0:0:0:
320,192,97187,1,0,0:0:0:0:
320,192,97406,128,0,97844:0:0:0:0:
64,192,97406,128,0,98665:0:0:0:0:
192,192,97625,128,0,98610:0:0:0:0:
448,192,97844,128,0,98172:0:0:0:0:
320,192,98063,128,0,98555:0:0:0:0:
448,192,98282,128,0,98501:0:0:0:0:
64,192,99158,128,0,99267:0:0:0:0:
192,192,99158,128,0,99340:0:0:0:0:
320,192,99194,128,0,99450:0:0:0:0:
448,192,99231,128,0,99815:0:0:0:0:
320,192,99596,1,0,0:0:0:0:
320,192,100034,1,0,0:0:0:0:
320,192,100362,1,0,0:0:0:0:
320,192,100910,1,0,0:0:0:0:
320,192,101238,1,0,0:0:0:0:
448,192,101566,128,0,101895:0:0:0:0:
448,192,102004,1,0,0:0:0:0:
192,192,102223,128,0,102552:0:0:0:0:
320,192,102223,128,0,102552:0:0:0:0:
320,192,102661,1,0,0:0:0:0:
64,192,102661,128,0,103318:0:0:0:0:
192,192,102661,128,0,102990:0:0:0:0:
192,192,103099,1,0,0:0:0:0:
192,192,103537,1,0,0:0:0:0:
192,192,103866,1,0,0:0:0:0:
64,192,104413,128,0,104632:0:0:0:0:
64,192,104742,1,0,0:0:0:0:
448,192,105070,128,0,105399:0:0:0:0:
64,192,105289,1,0,0:0:0:0:
192,192,105289,1,0,0:0:0:0:
448,192,105508,1,0,0:0:0:0:
64,192,105618,1,0,0:0:0:0:
192,192,105618,1,0,0:0:0:0:
448,192,105727,128,0,106128:0:0:0:0:
320,192,105727,128,0,106092:0:0:0:0:
64,192,105946,1,0,0:0:0:0:
192,192,105946,1,0,0:0:0:0:
64,192,106165,128,0,106347:0:0:0:0:
192,192,106201,128,0,106457:0:0:0:0:
448,192,106238,128,0,106603:0:0:0:0:
320,192,106603,1,0,0:0:0:0:
320,192,107041,1,0,0:0:0:0:
320,192,107369,1,0,0:0:0:0:
192,192,107917,1,0,0:0:0:0:
192,192,108245,1,0,0:0:0:0:
320,192,108574,1,0,0:0:0:0:
448,192,108601,128,0,108930:0:0:0:0:
448,192,109012,1,0,0:0:0:0:
320,192,109231,128,0,109450:0:0:0:0:
192,192,109231,128,0,109596:0:0:0:0:
448,192,109450,1,0,0:0:0:0:
320,192,109669,1,0,0:0:0:0:
64,192,109669,128,0,110326:0:0:0:0:
192,192,109705,128,0,109961:0:0:0:0:
192,192,110107,1,0,0:0:0:0:
320,192,110545,1,0,0:0:0:0:
320,192,110873,1,0,0:0:0:0:
192,192,111201,128,0,111804:0:0:0:0:
192,192,112296,1,0,0:0:0:0:
192,192,112625,1,0,0:0:0:0:
448,192,112734,128,0,113172:0:0:0:0:
320,192,112734,128,0,113063:0:0:0:0:
64,192,112953,1,0,0:0:0:0:
320,192,113172,128,0,113829:0:0:0:0:
192,192,113172,1,0,0:0:0:0:
192,192,113282,1,0,0:0:0:0:
448,192,113391,1,0,0:0:0:0:
192,192,113610,1,0,0:0:0:0:
192,192,113720,1,0,0:0:0:0:
448,192,113829,1,0,0:0:0:0:
192,192,114048,1,0,0:0:0:0:
192,192,114158,1,0,0:0:0:0:
448,192,114267,1,0,0:0:0:0:
64,192,114486,128,0,114924:0:0:0:0:
192,192,114486,1,0,0:0:0:0:
192,192,114596,1,0,0:0:0:0:
448,192,114705,1,0,0:0:0:0:
320,192,114924,1,0,0:0:0:0:
192,192,114924,128,0,115581:0:0:0:0:
320,192,115034,1,0,0:0:0:0:
64,192,115143,1,0,0:0:0:0:
320,192,115362,1,0,0:0:0:0:
320,192,115472,1,0,0:0:0:0:
64,192,115581,1,0,0:0:0:0:
320,192,115800,1,0,0:0:0:0:
320,192,115910,1,0,0:0:0:0:
64,192,116019,1,0,0:0:0:0:
448,192,116238,128,0,116676:0:0:0:0:
320,192,116238,1,0,0:0:0:0:
320,192,116347,1,0,0:0:0:0:
192,192,116457,1,0,0:0:0:0:
64,192,116676,128,0,117114:0:0:0:0:
192,192,116676,1,0,0:0:0:0:
192,192,116785,1,0,0:0:0:0:
448,192,116895,1,0,0:0:0:0:
320,192,116895,1,0,0:0:0:0:
192,192,117114,1,0,0:0:0:0:
192,192,117223,1,0,0:0:0:0:
448,192,117333,1,0,0:0:0:0:
320,192,117333,1,0,0:0:0:0:
64,192,117552,128,0,117990:0:0:0:0:
448,192,117552,1,0,0:0:0:0:
448,192,117661,1,0,0:0:0:0:
192,192,117771,1,0,0:0:0:0:
320,192,117771,1,0,0:0:0:0:
448,192,117990,1,0,0:0:0:0:
448,192,118099,1,0,0:0:0:0:
192,192,118209,128,0,118318:0:0:0:0:
64,192,118209,1,0,0:0:0:0:
320,192,118245,128,0,118428:0:0:0:0:
64,192,118428,1,0,0:0:0:0:
448,192,118428,128,0,118866:0:0:0:0:
64,192,118537,1,0,0:0:0:0:
320,192,118647,1,0,0:0:0:0:
192,192,118647,1,0,0:0:0:0:
192,192,118866,1,0,0:0:0:0:
320,192,118866,128,0,119304:0:0:0:0:
192,192,118975,1,0,0:0:0:0:
448,192,119085,1,0,0:0:0:0:
64,192,119085,1,0,0:0:0:0:
448,192,119304,1,0,0:0:0:0:
192,192,119304,128,0,119742:0:0:0:0:
448,192,119413,1,0,0:0:0:0:
64,192,119523,1,0,0:0:0:0:
320,192,119523,1,0,0:0:0:0:
320,192,119742,1,0,0:0:0:0:
64,192,119742,128,0,120070:0:0:0:0:
320,192,119851,1,0,0:0:0:0:
192,192,119961,128,0,120070:0:0:0:0:
448,192,119961,128,0,120070:0:0:0:0:
192,192,120180,128,0,120362:0:0:0:0:
64,192,120180,128,0,120289:0:0:0:0:
320,192,120216,128,0,120472:0:0:0:0:
448,192,120253,128,0,120399:0:0:0:0:
64,192,120508,1,0,0:0:0:0:
320,192,120618,1,0,0:0:0:0:
64,192,120837,1,0,0:0:0:0:
192,192,120837,1,0,0:0:0:0:
192,192,121055,1,0,0:0:0:0:
320,192,121055,128,0,121165:0:0:0:0:
320,192,121384,128,0,121493:0:0:0:0:
448,192,121493,1,0,0:0:0:0:
64,192,121493,1,0,0:0:0:0:
192,192,121712,1,0,0:0:0:0:
64,192,121712,1,0,0:0:0:0:
320,192,121822,1,0,0:0:0:0:
448,192,121931,1,0,0:0:0:0:
192,192,121931,128,0,122041:0:0:0:0:
320,192,122150,1,0,0:0:0:0:
192,192,122260,128,0,122369:0:0:0:0:
64,192,122369,1,0,0:0:0:0:
320,192,122588,1,0,0:0:0:0:
448,192,122588,128,0,122917:0:0:0:0:
192,192,122807,1,0,0:0:0:0:
64,192,122807,1,0,0:0:0:0:
64,192,123026,1,0,0:0:0:0:
448,192,123026,128,0,123136:0:0:0:0:
192,192,123136,1,0,0:0:0:0:
320,192,123245,128,0,123574:0:0:0:0:
64,192,123464,128,0,123683:0:0:0:0:
192,192,123464,128,0,123574:0:0:0:0:
192,192,123683,128,0,124012:0:0:0:0:
320,192,123683,128,0,123866:0:0:0:0:
448,192,123683,128,0,123793:0:0:0:0:
448,192,124012,1,0,0:0:0:0:
192,192,124121,1,0,0:0:0:0:
448,192,124340,1,0,0:0:0:0:
320,192,124340,1,0,0:0:0:0:
448,192,124559,1,0,0:0:0:0:
192,192,124559,128,0,124669:0:0:0:0:
192,192,124888,128,0,124997:0:0:0:0:
64,192,124888,1,0,0:0:0:0:
320,192,124942,1,0,0:0:0:0:
448,192,124997,1,0,0:0:0:0:
192,192,125216,1,0,0:0:0:0:
320,192,125216,1,0,0:0:0:0:
64,192,125435,128,0,125654:0:0:0:0:
448,192,125508,1,0,0:0:0:0:
320,192,125654,1,0,0:0:0:0:
448,192,125764,1,0,0:0:0:0:
64,192,125764,128,0,125873:0:0:0:0:
320,192,125873,1,0,0:0:0:0:
192,192,125910,1,0,0:0:0:0:
64,192,125946,1,0,0:0:0:0:
320,192,126092,1,0,0:0:0:0:
448,192,126092,128,0,126420:0:0:0:0:
64,192,126274,1,0,0:0:0:0:
192,192,126311,1,0,0:0:0:0:
320,192,126347,1,0,0:0:0:0:
64,192,126530,1,0,0:0:0:0:
448,192,126530,128,0,126639:0:0:0:0:
192,192,126639,1,0,0:0:0:0:
448,192,126749,1,0,0:0:0:0:
320,192,126776,1,0,0:0:0:0:
192,192,126804,1,0,0:0:0:0:
64,192,126831,1,0,0:0:0:0:
320,192,126968,1,0,0:0:0:0:
448,192,126968,1,0,0:0:0:0:
192,192,127187,128,0,127369:0:0:0:0:
64,192,127187,128,0,127296:0:0:0:0:
320,192,127223,128,0,127479:0:0:0:0:
448,192,127260,128,0,127625:0:0:0:0:
64,192,127515,1,0,0:0:0:0:
320,192,127625,128,0,127734:0:0:0:0:
64,192,127844,1,0,0:0:0:0:
192,192,127844,1,0,0:0:0:0:
192,192,128063,1,0,0:0:0:0:
448,192,128063,128,0,128172:0:0:0:0:
448,192,128391,128,0,128501:0:0:0:0:
320,192,128501,1,0,0:0:0:0:
64,192,128501,1,0,0:0:0:0:
192,192,128720,1,0,0:0:0:0:
64,192,128720,1,0,0:0:0:0:
448,192,128829,1,0,0:0:0:0:
320,192,128939,1,0,0:0:0:0:
192,192,128939,128,0,129048:0:0:0:0:
448,192,129158,1,0,0:0:0:0:
192,192,129267,128,0,129377:0:0:0:0:
64,192,129377,1,0,0:0:0:0:
320,192,129596,128,0,129924:0:0:0:0:
448,192,129596,1,0,0:0:0:0:
64,192,129815,1,0,0:0:0:0:
192,192,129815,1,0,0:0:0:0:
320,192,130034,128,0,130143:0:0:0:0:
192,192,130143,1,0,0:0:0:0:
448,192,130253,128,0,130581:0:0:0:0:
192,192,130472,128,0,130636:0:0:0:0:
64,192,130472,128,0,130691:0:0:0:0:
320,192,130691,128,0,130873:0:0:0:0:
448,192,130691,128,0,130800:0:0:0:0:
192,192,130727,128,0,131566:0:0:0:0:
448,192,131019,1,0,0:0:0:0:
320,192,131128,1,0,0:0:0:0:
320,192,131347,1,0,0:0:0:0:
448,192,131347,1,0,0:0:0:0:
64,192,131566,1,0,0:0:0:0:
320,192,131566,128,0,131676:0:0:0:0:
192,192,131895,1,0,0:0:0:0:
320,192,131895,128,0,132004:0:0:0:0:
64,192,132004,1,0,0:0:0:0:
64,192,132223,128,0,133026:0:0:0:0:
448,192,132442,1,0,0:0:0:0:
320,192,132661,1,0,0:0:0:0:
192,192,132771,1,0,0:0:0:0:
448,192,132880,1,0,0:0:0:0:
192,192,133099,1,0,0:0:0:0:
64,192,133099,1,0,0:0:0:0:
448,192,133318,128,0,133428:0:0:0:0:
320,192,133355,1,0,0:0:0:0:
192,192,133391,1,0,0:0:0:0:
320,192,133537,1,0,0:0:0:0:
448,192,133647,128,0,133756:0:0:0:0:
64,192,133756,1,0,0:0:0:0:
64,192,133975,1,0,0:0:0:0:
192,192,133975,1,0,0:0:0:0:
320,192,134194,1,0,0:0:0:0:
192,192,134194,1,0,0:0:0:0:
448,192,134194,1,0,0:0:0:0:
64,192,134304,1,0,0:0:0:0:
320,192,134413,1,0,0:0:0:0:
192,192,134523,1,0,0:0:0:0:
192,192,134632,1,0,0:0:0:0:
64,192,134632,1,0,0:0:0:0:
448,192,134742,1,0,0:0:0:0:
320,192,134851,1,0,0:0:0:0:
64,192,134961,1,0,0:0:0:0:
64,192,135070,1,0,0:0:0:0:
192,192,135070,1,0,0:0:0:0:
448,192,135070,1,0,0:0:0:0:
448,192,135180,1,0,0:0:0:0:
192,192,135289,1,0,0:0:0:0:
64,192,135399,1,0,0:0:0:0:
192,192,135399,1,0,0:0:0:0:
448,192,135399,1,0,0:0:0:0:
448,192,135508,1,0,0:0:0:0:
192,192,135618,1,0,0:0:0:0:
64,192,135727,1,0,0:0:0:0:
192,192,135727,1,0,0:0:0:0:
448,192,135727,1,0,0:0:0:0:
448,192,135837,1,0,0:0:0:0:
320,192,135946,1,0,0:0:0:0:
64,192,136056,1,0,0:0:0:0:
192,192,136056,1,0,0:0:0:0:
320,192,136165,1,0,0:0:0:0:
64,192,136165,1,0,0:0:0:0:
192,192,136274,1,0,0:0:0:0:
448,192,136384,1,0,0:0:0:0:
320,192,136384,1,0,0:0:0:0:
320,192,136493,1,0,0:0:0:0:
192,192,136603,1,0,0:0:0:0:
320,192,136712,1,0,0:0:0:0:
448,192,136712,1,0,0:0:0:0:
64,192,136822,1,0,0:0:0:0:
192,192,136822,1,0,0:0:0:0:
64,192,136931,1,0,0:0:0:0:
192,192,136931,1,0,0:0:0:0:
320,192,137041,1,0,0:0:0:0:
448,192,137041,1,0,0:0:0:0:
320,192,137150,1,0,0:0:0:0:
192,192,137260,1,0,0:0:0:0:
320,192,137369,1,0,0:0:0:0:
448,192,137369,1,0,0:0:0:0:
64,192,137479,1,0,0:0:0:0:
192,192,137479,1,0,0:0:0:0:
64,192,137588,5,0,0:0:0:0:
192,192,137588,1,0,0:0:0:0:
64,192,137698,1,0,0:0:0:0:
320,192,137698,1,0,0:0:0:0:
320,192,137807,1,0,0:0:0:0:
192,192,137917,1,0,0:0:0:0:
448,192,138026,1,0,0:0:0:0:
320,192,138026,1,0,0:0:0:0:
192,192,138081,1,0,0:0:0:0:
448,192,138136,1,0,0:0:0:0:
64,192,138136,1,0,0:0:0:0:
64,192,138245,1,0,0:0:0:0:
448,192,138355,1,0,0:0:0:0:
320,192,138355,1,0,0:0:0:0:
320,192,138464,1,0,0:0:0:0:
64,192,138574,1,0,0:0:0:0:
320,192,138683,1,0,0:0:0:0:
448,192,138683,1,0,0:0:0:0:
192,192,138738,1,0,0:0:0:0:
64,192,138793,1,0,0:0:0:0:
448,192,138793,1,0,0:0:0:0:
64,192,138902,1,0,0:0:0:0:
320,192,139012,1,0,0:0:0:0:
192,192,139012,1,0,0:0:0:0:
320,192,139121,1,0,0:0:0:0:
64,192,139231,1,0,0:0:0:0:
448,192,139340,1,0,0:0:0:0:
64,192,139340,1,0,0:0:0:0:
320,192,139450,1,0,0:0:0:0:
448,192,139450,1,0,0:0:0:0:
192,192,139523,1,0,0:0:0:0:
320,192,139596,1,0,0:0:0:0:
192,192,139669,1,0,0:0:0:0:
448,192,139742,1,0,0:0:0:0:
192,192,139815,1,0,0:0:0:0:
448,192,139888,1,0,0:0:0:0:
320,192,139888,1,0,0:0:0:0:
64,192,139961,1,0,0:0:0:0:
192,192,140034,1,0,0:0:0:0:
320,192,140107,1,0,0:0:0:0:
192,192,140180,1,0,0:0:0:0:
64,192,140180,1,0,0:0:0:0:
320,192,140253,1,0,0:0:0:0:
448,192,140253,1,0,0:0:0:0:
64,192,140326,1,0,0:0:0:0:
320,192,140399,1,0,0:0:0:0:
192,192,140472,1,0,0:0:0:0:
64,192,140472,1,0,0:0:0:0:
448,192,140545,1,0,0:0:0:0:
192,192,140618,1,0,0:0:0:0:
320,192,140691,1,0,0:0:0:0:
448,192,140691,1,0,0:0:0:0:
192,192,140764,1,0,0:0:0:0:
320,192,140837,1,0,0:0:0:0:
64,192,140910,1,0,0:0:0:0:
320,192,140983,1,0,0:0:0:0:
192,192,141056,1,0,0:0:0:0:
448,192,141128,1,0,0:0:0:0:
64,192,141201,128,0,142004:0:0:0:0:
192,192,141201,128,0,142004:0:0:0:0:
320,192,141201,128,0,141639:0:0:0:0:
448,192,141639,1,0,0:0:0:0:
320,192,141858,1,0,0:0:0:0:
448,192,141858,1,0,0:0:0:0:
64,192,142077,1,0,0:0:0:0:
192,192,142077,1,0,0:0:0:0:
320,192,142296,1,0,0:0:0:0:
448,192,142515,1,0,0:0:0:0:
64,192,142515,1,0,0:0:0:0:
64,192,142734,1,0,0:0:0:0:
448,192,142734,128,0,142844:0:0:0:0:
320,192,142771,128,0,142953:0:0:0:0:
192,192,142807,128,0,143391:0:0:0:0:
64,192,143172,1,0,0:0:0:0:
448,192,143391,128,0,143756:0:0:0:0:
320,192,143391,1,0,0:0:0:0:
64,192,143464,1,0,0:0:0:0:
192,192,143537,1,0,0:0:0:0:
320,192,143610,1,0,0:0:0:0:
64,192,143683,1,0,0:0:0:0:
192,192,143756,1,0,0:0:0:0:
64,192,143829,1,0,0:0:0:0:
320,192,143829,1,0,0:0:0:0:
448,192,143829,1,0,0:0:0:0:
192,192,144048,1,0,0:0:0:0:
320,192,144267,1,0,0:0:0:0:
192,192,144267,1,0,0:0:0:0:
448,192,144377,1,0,0:0:0:0:
64,192,144486,1,0,0:0:0:0:
192,192,144514,1,0,0:0:0:0:
448,192,144541,128,0,144705:0:0:0:0:
64,192,144705,128,0,145508:0:0:0:0:
192,192,144705,128,0,145508:0:0:0:0:
320,192,144705,128,0,145143:0:0:0:0:
448,192,145143,128,0,145253:0:0:0:0:
320,192,145362,1,0,0:0:0:0:
448,192,145362,1,0,0:0:0:0:
64,192,145581,1,0,0:0:0:0:
192,192,145581,1,0,0:0:0:0:
64,192,145800,1,0,0:0:0:0:
192,192,145873,1,0,0:0:0:0:
320,192,145946,1,0,0:0:0:0:
448,192,146019,1,0,0:0:0:0:
448,192,146128,1,0,0:0:0:0:
192,192,146238,1,0,0:0:0:0:
448,192,146238,1,0,0:0:0:0:
64,192,146347,1,0,0:0:0:0:
64,192,146457,1,0,0:0:0:0:
192,192,146566,1,0,0:0:0:0:
448,192,146676,1,0,0:0:0:0:
320,192,146676,1,0,0:0:0:0:
320,192,146785,1,0,0:0:0:0:
64,192,146895,1,0,0:0:0:0:
192,192,146895,1,0,0:0:0:0:
320,192,147004,1,0,0:0:0:0:
448,192,147004,1,0,0:0:0:0:
448,192,147114,1,0,0:0:0:0:
64,192,147223,1,0,0:0:0:0:
192,192,147223,1,0,0:0:0:0:
64,192,147333,1,0,0:0:0:0:
448,192,147333,1,0,0:0:0:0:
320,192,147442,1,0,0:0:0:0:
192,192,147552,1,0,0:0:0:0:
320,192,147552,1,0,0:0:0:0:
64,192,147661,1,0,0:0:0:0:
448,192,147771,1,0,0:0:0:0:
320,192,147771,1,0,0:0:0:0:
192,192,147880,1,0,0:0:0:0:
64,192,147880,1,0,0:0:0:0:
448,192,147990,1,0,0:0:0:0:
64,192,147990,1,0,0:0:0:0:
192,192,148099,1,0,0:0:0:0:
320,192,148099,1,0,0:0:0:0:
64,192,148209,128,0,148647:0:0:0:0:
448,192,148209,128,0,149012:0:0:0:0:
320,192,148209,128,0,149012:0:0:0:0:
192,192,148647,128,0,148756:0:0:0:0:
64,192,148866,1,0,0:0:0:0:
192,192,148866,1,0,0:0:0:0:
320,192,149085,1,0,0:0:0:0:
448,192,149085,1,0,0:0:0:0:
448,192,149304,1,0,0:0:0:0:
320,192,149377,1,0,0:0:0:0:
192,192,149450,1,0,0:0:0:0:
64,192,149523,1,0,0:0:0:0:
448,192,149523,128,0,149961:0:0:0:0:
320,192,149742,128,0,149961:0:0:0:0:
64,192,149742,128,0,149961:0:0:0:0:
192,192,150180,128,0,150399:0:0:0:0:
448,192,150399,1,0,0:0:0:0:
320,192,150399,1,0,0:0:0:0:
64,192,150472,1,0,0:0:0:0:
192,192,150545,1,0,0:0:0:0:
64,192,150618,128,0,151274:0:0:0:0:
320,192,150618,1,0,0:0:0:0:
448,192,150691,1,0,0:0:0:0:
192,192,150764,1,0,0:0:0:0:
448,192,150837,1,0,0:0:0:0:
320,192,150837,1,0,0:0:0:0:
192,192,151056,128,0,151274:0:0:0:0:
448,192,151056,128,0,151274:0:0:0:0:
320,192,151274,1,0,0:0:0:0:
192,192,151493,128,0,151603:0:0:0:0:
320,192,151493,128,0,151712:0:0:0:0:
192,192,151712,1,0,0:0:0:0:
64,192,151712,128,0,152150:0:0:0:0:
448,192,151712,128,0,152150:0:0:0:0:
320,192,151931,128,0,152150:0:0:0:0:
192,192,152150,128,0,152369:0:0:0:0:
448,192,152260,1,0,0:0:0:0:
64,192,152369,1,0,0:0:0:0:
192,192,152479,1,0,0:0:0:0:
320,192,152588,1,0,0:0:0:0:
448,192,152588,1,0,0:0:0:0:
64,192,152588,1,0,0:0:0:0:
192,192,152698,1,0,0:0:0:0:
320,192,152807,1,0,0:0:0:0:
448,192,152807,1,0,0:0:0:0:
192,192,152917,1,0,0:0:0:0:
320,192,152917,1,0,0:0:0:0:
64,192,153136,1,0,0:0:0:0:
448,192,153136,1,0,0:0:0:0:
320,192,153245,1,0,0:0:0:0:
448,192,153355,1,0,0:0:0:0:
192,192,153355,1,0,0:0:0:0:
64,192,153464,1,0,0:0:0:0:
320,192,153464,1,0,0:0:0:0:
192,192,153574,1,0,0:0:0:0:
192,192,153683,1,0,0:0:0:0:
448,192,153793,1,0,0:0:0:0:
320,192,153793,1,0,0:0:0:0:
192,192,153902,1,0,0:0:0:0:
64,192,154012,1,0,0:0:0:0:
320,192,154012,1,0,0:0:0:0:
448,192,154121,1,0,0:0:0:0:
64,192,154121,1,0,0:0:0:0:
192,192,154231,1,0,0:0:0:0:
448,192,154231,1,0,0:0:0:0:
320,192,154340,1,0,0:0:0:0:
192,192,154340,1,0,0:0:0:0:
64,192,154450,1,0,0:0:0:0:
320,192,154450,1,0,0:0:0:0:
448,192,154559,1,0,0:0:0:0:
192,192,154669,1,0,0:0:0:0:
64,192,154669,1,0,0:0:0:0:
448,192,154778,1,0,0:0:0:0:
192,192,154888,1,0,0:0:0:0:
64,192,154888,1,0,0:0:0:0:
64,192,154997,1,0,0:0:0:0:
320,192,154997,1,0,0:0:0:0:
448,192,155107,1,0,0:0:0:0:
192,192,155107,1,0,0:0:0:0:
320,192,155216,128,0,156019:0:0:0:0:
448,192,155216,128,0,156019:0:0:0:0:
64,192,155216,128,0,155654:0:0:0:0:
192,192,155654,128,0,155764:0:0:0:0:
64,192,155873,128,0,156311:0:0:0:0:
192,192,155873,1,0,0:0:0:0:
320,192,156092,1,0,0:0:0:0:
448,192,156092,1,0,0:0:0:0:
320,192,156311,1,0,0:0:0:0:
64,192,156384,1,0,0:0:0:0:
448,192,156457,1,0,0:0:0:0:
192,192,156530,1,0,0:0:0:0:
320,192,156530,128,0,156968:0:0:0:0:
64,192,156749,128,0,156968:0:0:0:0:
192,192,156749,128,0,156968:0:0:0:0:
448,192,156968,1,0,0:0:0:0:
320,192,157160,1,0,0:0:0:0:
64,192,157187,1,0,0:0:0:0:
448,192,157214,128,0,157406:0:0:0:0:
192,192,157406,1,0,0:0:0:0:
64,192,157406,1,0,0:0:0:0:
320,192,157479,1,0,0:0:0:0:
448,192,157552,1,0,0:0:0:0:
320,192,157625,128,0,158209:0:0:0:0:
64,192,157698,1,0,0:0:0:0:
448,192,157771,1,0,0:0:0:0:
64,192,157844,1,0,0:0:0:0:
192,192,157844,1,0,0:0:0:0:
448,192,158063,128,0,158391:0:0:0:0:
192,192,158063,128,0,158172:0:0:0:0:
64,192,158282,1,0,0:0:0:0:
192,192,158282,1,0,0:0:0:0:
64,192,158391,1,0,0:0:0:0:
320,192,158501,128,0,159377:0:0:0:0:
448,192,158501,128,0,159158:0:0:0:0:
64,192,158720,1,0,0:0:0:0:
192,192,158720,1,0,0:0:0:0:
64,192,158939,1,0,0:0:0:0:
192,192,159158,128,0,159523:0:0:0:0:
64,192,159377,128,0,159815:0:0:0:0:
448,192,159377,128,0,159523:0:0:0:0:
192,192,159596,1,0,0:0:0:0:
448,192,159596,1,0,0:0:0:0:
320,192,159815,1,0,0:0:0:0:
192,192,159888,1,0,0:0:0:0:
448,192,159961,1,0,0:0:0:0:
64,192,160034,1,0,0:0:0:0:
64,192,160143,1,0,0:0:0:0:
448,192,160253,1,0,0:0:0:0:
192,192,160253,1,0,0:0:0:0:
448,192,160362,1,0,0:0:0:0:
192,192,160472,1,0,0:0:0:0:
64,192,160581,1,0,0:0:0:0:
448,192,160691,1,0,0:0:0:0:
320,192,160691,1,0,0:0:0:0:
320,192,160800,1,0,0:0:0:0:
64,192,160910,1,0,0:0:0:0:
192,192,160910,1,0,0:0:0:0:
320,192,161019,1,0,0:0:0:0:
448,192,161019,1,0,0:0:0:0:
192,192,161128,1,0,0:0:0:0:
192,192,161238,1,0,0:0:0:0:
64,192,161238,1,0,0:0:0:0:
320,192,161347,1,0,0:0:0:0:
448,192,161347,1,0,0:0:0:0:
448,192,161457,1,0,0:0:0:0:
320,192,161566,1,0,0:0:0:0:
192,192,161566,1,0,0:0:0:0:
448,192,161676,1,0,0:0:0:0:
64,192,161785,1,0,0:0:0:0:
192,192,161785,1,0,0:0:0:0:
320,192,161895,1,0,0:0:0:0:
448,192,161895,1,0,0:0:0:0:
448,192,162004,1,0,0:0:0:0:
64,192,162004,1,0,0:0:0:0:
320,192,162114,1,0,0:0:0:0:
192,192,162114,1,0,0:0:0:0:
64,192,162223,128,0,162990:0:0:0:0:
448,192,162223,128,0,162333:0:0:0:0:
320,192,162223,128,0,162333:0:0:0:0:
192,192,162333,1,0,0:0:0:0:
320,192,162442,1,0,0:0:0:0:
320,192,162552,1,0,0:0:0:0:
448,192,162579,1,0,0:0:0:0:
448,192,162771,1,0,0:0:0:0:
320,192,162880,1,0,0:0:0:0:
192,192,162880,1,0,0:0:0:0:
192,192,162990,1,0,0:0:0:0:
64,192,163099,1,0,0:0:0:0:
448,192,163099,1,0,0:0:0:0:
448,192,163209,1,0,0:0:0:0:
64,192,163318,1,0,0:0:0:0:
192,192,163428,1,0,0:0:0:0:
448,192,163537,1,0,0:0:0:0:
192,192,163647,128,0,163866:0:0:0:0:
448,192,163756,1,0,0:0:0:0:
64,192,163866,1,0,0:0:0:0:
192,192,163975,1,0,0:0:0:0:
64,192,164194,1,0,0:0:0:0:
64,192,164304,1,0,0:0:0:0:
192,192,164331,1,0,0:0:0:0:
448,192,164413,128,0,165207:0:0:0:0:
320,192,164413,1,0,0:0:0:0:
64,192,164523,1,0,0:0:0:0:
64,192,164742,1,0,0:0:0:0:
192,192,164851,1,0,0:0:0:0:
192,192,164961,1,0,0:0:0:0:
320,192,164988,1,0,0:0:0:0:
64,192,165180,1,0,0:0:0:0:
320,192,165289,1,0,0:0:0:0:
448,192,165289,128,0,165837:0:0:0:0:
64,192,165399,1,0,0:0:0:0:
64,192,165508,1,0,0:0:0:0:
192,192,165535,1,0,0:0:0:0:
64,192,165727,128,0,166384:0:0:0:0:
320,192,165727,128,0,165837:0:0:0:0:
192,192,165837,1,0,0:0:0:0:
320,192,165946,1,0,0:0:0:0:
448,192,166056,1,0,0:0:0:0:
192,192,166274,1,0,0:0:0:0:
320,192,166384,1,0,0:0:0:0:
448,192,166384,1,0,0:0:0:0:
192,192,166493,1,0,0:0:0:0:
64,192,166603,1,0,0:0:0:0:
192,192,166603,1,0,0:0:0:0:
320,192,166630,1,0,0:0:0:0:
448,192,166712,1,0,0:0:0:0:
320,192,166822,1,0,0:0:0:0:
320,192,166931,1,0,0:0:0:0:
192,192,166959,1,0,0:0:0:0:
192,192,167150,1,0,0:0:0:0:
320,192,167178,1,0,0:0:0:0:
192,192,167260,1,0,0:0:0:0:
448,192,167369,1,0,0:0:0:0:
64,192,167479,1,0,0:0:0:0:
64,192,167588,1,0,0:0:0:0:
192,192,167616,1,0,0:0:0:0:
448,192,167698,1,0,0:0:0:0:
448,192,167807,1,0,0:0:0:0:
320,192,167835,1,0,0:0:0:0:
64,192,167917,128,0,168492:0:0:0:0:
192,192,167917,1,0,0:0:0:0:
320,192,168026,1,0,0:0:0:0:
192,192,168136,1,0,0:0:0:0:
448,192,168245,1,0,0:0:0:0:
448,192,168355,1,0,0:0:0:0:
192,192,168355,1,0,0:0:0:0:
192,192,168464,1,0,0:0:0:0:
64,192,168574,128,0,168793:0:0:0:0:
320,192,168574,1,0,0:0:0:0:
320,192,168683,1,0,0:0:0:0:
192,192,168793,1,0,0:0:0:0:
448,192,168793,1,0,0:0:0:0:
64,192,168902,1,0,0:0:0:0:
448,192,168902,1,0,0:0:0:0:
320,192,169012,1,0,0:0:0:0:
192,192,169012,1,0,0:0:0:0:
448,192,169121,1,0,0:0:0:0:
320,192,169121,1,0,0:0:0:0:
448,192,169231,128,0,170024:0:0:0:0:
192,192,169231,128,0,169340:0:0:0:0:
64,192,169231,128,0,169340:0:0:0:0:
320,192,169340,1,0,0:0:0:0:
192,192,169450,1,0,0:0:0:0:
192,192,169559,1,0,0:0:0:0:
64,192,169587,1,0,0:0:0:0:
192,192,169778,1,0,0:0:0:0:
320,192,169888,1,0,0:0:0:0:
192,192,169997,1,0,0:0:0:0:
64,192,170024,1,0,0:0:0:0:
448,192,170107,1,0,0:0:0:0:
320,192,170107,1,0,0:0:0:0:
192,192,170216,1,0,0:0:0:0:
320,192,170326,1,0,0:0:0:0:
320,192,170435,1,0,0:0:0:0:
448,192,170462,1,0,0:0:0:0:
320,192,170654,128,0,170873:0:0:0:0:
64,192,170764,1,0,0:0:0:0:
192,192,170764,1,0,0:0:0:0:
448,192,170873,1,0,0:0:0:0:
192,192,170983,1,0,0:0:0:0:
448,192,171092,1,0,0:0:0:0:
192,192,171201,1,0,0:0:0:0:
448,192,171201,1,0,0:0:0:0:
192,192,171311,1,0,0:0:0:0:
64,192,171338,1,0,0:0:0:0:
448,192,171420,128,0,172296:0:0:0:0:
320,192,171420,1,0,0:0:0:0:
64,192,171530,128,0,171749:0:0:0:0:
192,192,171639,1,0,0:0:0:0:
320,192,171749,1,0,0:0:0:0:
192,192,171858,1,0,0:0:0:0:
64,192,171858,1,0,0:0:0:0:
64,192,171968,1,0,0:0:0:0:
192,192,171995,1,0,0:0:0:0:
320,192,172187,1,0,0:0:0:0:
192,192,172296,1,0,0:0:0:0:
192,192,172406,1,0,0:0:0:0:
320,192,172433,1,0,0:0:0:0:
448,192,172515,1,0,0:0:0:0:
64,192,172515,128,0,172844:0:0:0:0:
320,192,172625,1,0,0:0:0:0:
448,192,172734,128,0,173528:0:0:0:0:
192,192,172734,128,0,172844:0:0:0:0:
320,192,172844,1,0,0:0:0:0:
192,192,172953,1,0,0:0:0:0:
192,192,173063,1,0,0:0:0:0:
320,192,173090,1,0,0:0:0:0:
64,192,173282,1,0,0:0:0:0:
320,192,173391,1,0,0:0:0:0:
192,192,173501,128,0,173610:0:0:0:0:
448,192,173610,1,0,0:0:0:0:
320,192,173610,1,0,0:0:0:0:
448,192,173720,1,0,0:0:0:0:
320,192,173829,1,0,0:0:0:0:
192,192,173939,128,0,174021:0:0:0:0:
320,192,174158,1,0,0:0:0:0:
448,192,174185,1,0,0:0:0:0:
192,192,174267,128,0,174377:0:0:0:0:
64,192,174267,1,0,0:0:0:0:
320,192,174377,1,0,0:0:0:0:
320,192,174486,1,0,0:0:0:0:
448,192,174514,1,0,0:0:0:0:
64,192,174596,1,0,0:0:0:0:
448,192,174705,1,0,0:0:0:0:
192,192,174815,128,0,174869:0:0:0:0:
64,192,174924,1,0,0:0:0:0:
320,192,174924,128,0,175307:0:0:0:0:
64,192,175034,1,0,0:0:0:0:
192,192,175061,1,0,0:0:0:0:
448,192,175143,1,0,0:0:0:0:
192,192,175253,1,0,0:0:0:0:
320,192,175362,1,0,0:0:0:0:
448,192,175362,1,0,0:0:0:0:
64,192,175472,128,0,175581:0:0:0:0:
448,192,175581,128,0,175745:0:0:0:0:
192,192,175581,1,0,0:0:0:0:
320,192,175691,128,0,176074:0:0:0:0:
64,192,175800,128,0,175910:0:0:0:0:
448,192,175800,1,0,0:0:0:0:
448,192,176019,1,0,0:0:0:0:
64,192,176019,1,0,0:0:0:0:
192,192,176046,1,0,0:0:0:0:
64,192,176238,128,0,177333:0:0:0:0:
320,192,176238,128,0,176347:0:0:0:0:
448,192,176238,128,0,176347:0:0:0:0:
192,192,176347,1,0,0:0:0:0:
320,192,176457,1,0,0:0:0:0:
320,192,176566,1,0,0:0:0:0:
192,192,176594,1,0,0:0:0:0:
448,192,176785,1,0,0:0:0:0:
192,192,176895,1,0,0:0:0:0:
320,192,176895,1,0,0:0:0:0:
192,192,177004,1,0,0:0:0:0:
448,192,177114,1,0,0:0:0:0:
320,192,177114,1,0,0:0:0:0:
192,192,177223,1,0,0:0:0:0:
320,192,177333,1,0,0:0:0:0:
320,192,177442,1,0,0:0:0:0:
448,192,177470,1,0,0:0:0:0:
64,192,177552,1,0,0:0:0:0:
448,192,177661,128,0,177880:0:0:0:0:
64,192,177771,1,0,0:0:0:0:
320,192,177880,1,0,0:0:0:0:
64,192,177990,1,0,0:0:0:0:
64,192,178099,1,0,0:0:0:0:
192,192,178127,1,0,0:0:0:0:
320,192,178209,1,0,0:0:0:0:
320,192,178318,1,0,0:0:0:0:
448,192,178346,1,0,0:0:0:0:
64,192,178428,128,0,179222:0:0:0:0:
192,192,178428,1,0,0:0:0:0:
448,192,178537,1,0,0:0:0:0:
192,192,178647,1,0,0:0:0:0:
320,192,178756,1,0,0:0:0:0:
320,192,178866,1,0,0:0:0:0:
448,192,178866,1,0,0:0:0:0:
192,192,178975,1,0,0:0:0:0:
320,192,179085,1,0,0:0:0:0:
448,192,179194,1,0,0:0:0:0:
64,192,179304,128,0,179851:0:0:0:0:
192,192,179304,1,0,0:0:0:0:
320,192,179413,1,0,0:0:0:0:
448,192,179441,1,0,0:0:0:0:
192,192,179523,1,0,0:0:0:0:
448,192,179632,1,0,0:0:0:0:
192,192,179742,128,0,180289:0:0:0:0:
320,192,179742,1,0,0:0:0:0:
448,192,179851,1,0,0:0:0:0:
320,192,179961,1,0,0:0:0:0:
448,192,179961,128,0,180180:0:0:0:0:
64,192,180180,1,0,0:0:0:0:
448,192,180289,1,0,0:0:0:0:
192,192,180399,1,0,0:0:0:0:
64,192,180399,1,0,0:0:0:0:
320,192,180508,1,0,0:0:0:0:
64,192,180618,1,0,0:0:0:0:
448,192,180618,1,0,0:0:0:0:
448,192,180727,1,0,0:0:0:0:
192,192,180837,1,0,0:0:0:0:
320,192,180946,1,0,0:0:0:0:
448,192,180973,1,0,0:0:0:0:
192,192,181056,1,0,0:0:0:0:
192,192,181165,1,0,0:0:0:0:
192,192,181274,1,0,0:0:0:0:
64,192,181384,1,0,0:0:0:0:
448,192,181493,1,0,0:0:0:0:
320,192,181493,1,0,0:0:0:0:
192,192,181548,1,0,0:0:0:0:
64,192,181548,1,0,0:0:0:0:
320,192,181603,1,0,0:0:0:0:
448,192,181603,1,0,0:0:0:0:
192,192,181712,1,0,0:0:0:0:
320,192,181740,1,0,0:0:0:0:
64,192,181822,1,0,0:0:0:0:
192,192,181822,1,0,0:0:0:0:
320,192,181877,1,0,0:0:0:0:
448,192,181877,1,0,0:0:0:0:
64,192,181931,1,0,0:0:0:0:
192,192,181931,1,0,0:0:0:0:
320,192,182041,1,0,0:0:0:0:
448,192,182041,1,0,0:0:0:0:
64,192,182150,1,0,0:0:0:0:
448,192,182150,1,0,0:0:0:0:
320,192,182260,1,0,0:0:0:0:
192,192,182260,1,0,0:0:0:0:
192,192,182369,1,0,0:0:0:0:
64,192,182369,1,0,0:0:0:0:
320,192,182479,1,0,0:0:0:0:
448,192,182479,1,0,0:0:0:0:
64,192,182479,1,0,0:0:0:0:
192,192,182588,1,0,0:0:0:0:
64,192,182698,1,0,0:0:0:0:
320,192,182698,1,0,0:0:0:0:
448,192,182698,1,0,0:0:0:0:
192,192,182807,1,0,0:0:0:0:
64,192,182917,1,0,0:0:0:0:
320,192,182917,1,0,0:0:0:0:
64,192,183026,1,0,0:0:0:0:
448,192,183026,1,0,0:0:0:0:
448,192,183136,1,0,0:0:0:0:
192,192,183136,1,0,0:0:0:0:
320,192,183245,5,0,0:0:0:0:
64,192,183245,1,0,0:0:0:0:
448,192,183273,1,0,0:0:0:0:
192,192,183683,1,0,0:0:0:0:
64,192,184121,1,0,0:0:0:0:
448,192,184559,1,0,0:0:0:0:
320,192,184778,1,0,0:0:0:0:
64,192,185216,1,0,0:0:0:0:
192,192,185654,1,0,0:0:0:0:
448,192,186092,1,0,0:0:0:0:
320,192,186311,1,0,0:0:0:0:
192,192,186530,1,0,0:0:0:0:
448,192,186749,1,0,0:0:0:0:
192,192,187187,1,0,0:0:0:0:
64,192,187625,1,0,0:0:0:0:
64,192,190034,1,0,0:0:0:0:
320,192,190253,1,0,0:0:0:0:
448,192,190280,128,0,190691:0:0:0:0:
320,192,190691,1,0,0:0:0:0:
192,192,191128,1,0,0:0:0:0:
320,192,191347,1,0,0:0:0:0:
448,192,191566,1,0,0:0:0:0:
192,192,191785,1,0,0:0:0:0:
320,192,191813,128,0,192004:0:0:0:0:
192,192,192223,128,0,192442:0:0:0:0:
64,192,192661,128,0,192880:0:0:0:0:
192,192,193318,1,0,0:0:0:0:
320,192,193537,1,0,0:0:0:0:
448,192,193565,128,0,193701:0:0:0:0:
320,192,193975,1,0,0:0:0:0:
64,192,197041,1,0,0:0:0:0:
192,192,197260,1,0,0:0:0:0:
320,192,197287,128,0,197698:0:0:0:0:
448,192,197698,1,0,0:0:0:0:
64,192,198136,1,0,0:0:0:0:
192,192,198355,1,0,0:0:0:0:
320,192,198574,1,0,0:0:0:0:
192,192,198793,128,0,199231:0:0:0:0:
448,192,199231,1,0,0:0:0:0:
320,192,199669,128,0,200107:0:0:0:0:
64,192,200326,1,0,0:0:0:0:
320,192,200545,1,0,0:0:0:0:
448,192,200572,1,0,0:0:0:0:
320,192,200983,1,0,0:0:0:0:
64,192,201201,1,0,0:0:0:0:
320,192,201420,1,0,0:0:0:0:
448,192,201448,1,0,0:0:0:0:
320,192,201858,1,0,0:0:0:0:
64,192,202077,1,0,0:0:0:0:
192,192,202296,1,0,0:0:0:0:
320,192,202324,128,0,202734:0:0:0:0:
448,192,202734,1,0,0:0:0:0:
64,192,203172,1,0,0:0:0:0:
192,192,203200,128,0,203610:0:0:0:0:
64,192,203610,1,0,0:0:0:0:
