osu file format v14

[General]
AudioFilename: OD.mp3
AudioLeadIn: 0
PreviewTime: 140792
Countdown: 0
SampleSet: Drum
StackLeniency: 0.2
Mode: 0
LetterboxInBreaks: 0
WidescreenStoryboard: 0

[Editor]
Bookmarks: 14615,15057,28292,41527,42410,56527,69763,70645,71527,71968,98880,105939,112998,127115,141233,144763,169468
DistanceSpacing: 0.7
BeatDivisor: 6
GridSize: 32
TimelineZoom: 3.699999

[Metadata]
Title:O.D.
TitleUnicode:O.D.
Artist:Polyphia
ArtistUnicode:Polyphia
Creator:Melwoine
Version:Overly Difficult
Source:
Tags:New Levels New Devils od instrumental Progressive Metal Math corsace grandfinals gf hard rock hr1 Vinxis
BeatmapID:2651794
BeatmapSetID:1276327

[Difficulty]
HPDrainRate:4
CircleSize:4
OverallDifficulty:9
ApproachRate:9.1
SliderMultiplier:1.9
SliderTickRate:1

[Events]
//Background and Video events
0,0,"13637062_p0_master1200_waifu2x_art_noise3_scale_tta_1.png",0,0
//Break Periods
2,99080,105355
//Storyboard Layer 0 (Background)
//Storyboard Layer 1 (Fail)
//Storyboard Layer 2 (Pass)
//Storyboard Layer 3 (Foreground)
//Storyboard Layer 4 (Overlay)
//Storyboard Sound Samples

[TimingPoints]
58,428.571428571429,4,3,0,70,1,0
486,454.545454545455,4,3,0,70,1,8
940,441.176470588235,4,3,0,70,1,8
1822,441.176470588235,4,3,0,70,1,0
3476,-41.6666666666667,4,3,0,70,0,0
3586,428.571428571429,4,3,0,70,1,0
3907,-40,4,3,0,70,0,0
4014,455.235204855842,4,3,0,70,1,8
4469,441.176470588235,4,3,0,70,1,0
5461,-40,4,3,0,70,0,0
5792,-66.6666666666667,4,3,0,70,0,0
6454,-66.6666666666667,4,3,0,70,0,0
7116,441.176470588235,4,3,0,70,1,0
7998,-66.6666666666667,4,3,0,70,0,0
8218,-40,4,3,0,70,0,0
8660,-100,4,3,0,70,0,0
8880,-66.6666666666667,4,3,0,70,0,0
11527,-45.4545454545455,4,3,0,70,0,0
13733,-100,4,3,0,70,0,0
14615,-500,4,3,0,70,0,0
15057,-50,4,3,0,70,0,0
16270,-66.6666666666667,4,3,0,70,0,0
17263,-250,4,3,0,70,0,0
17704,-50,4,3,0,70,0,0
18145,-100,4,3,0,70,0,0
18365,-66.6666666666667,4,3,0,70,0,0
19027,-40,4,3,0,70,0,0
19358,-50,4,3,0,70,0,0
19689,-100,4,3,0,70,0,0
20351,-50,4,3,0,70,0,0
21233,-166.666666666667,4,3,0,70,0,0
21564,-66.6666666666667,4,3,0,70,0,0
21785,-50,4,3,0,70,0,0
23715,-100,4,3,0,70,0,0
24763,-50,4,3,0,70,0,0
25259,-100,4,3,0,70,0,0
25424,-66.6666666666667,4,3,0,70,0,0
25645,-40,4,3,0,70,0,0
26527,-66.6666666666667,4,3,0,70,0,0
27244,-100,4,3,0,70,0,0
27410,-66.6666666666667,4,3,0,70,0,0
28292,-100,4,3,0,60,0,0
42410,-58.8235294117647,4,3,0,70,0,0
44671,-58.8235294117647,4,3,0,70,0,0
45057,-58.8235294117647,4,3,0,70,0,0
49138,-100,4,3,0,70,0,0
49468,-58.8235294117647,4,3,0,70,0,0
55314,-100,4,3,0,70,0,0
55645,-58.8235294117647,4,3,0,70,0,0
69763,-1000,4,3,0,70,0,0
71527,-40,4,3,0,80,0,1
72520,-50,4,3,0,80,0,1
72851,-40,4,3,0,80,0,1
73733,-50,4,3,0,80,0,1
75057,-40,4,3,0,80,0,1
77042,-66.6666666666667,4,3,0,80,0,1
77593,-100,4,3,0,80,0,1
78255,-40,4,3,0,80,0,1
78421,-100,4,3,0,80,0,1
78586,-40,4,3,0,80,0,1
79910,-100,4,3,0,80,0,1
81233,-50,4,3,0,80,0,1
82336,-40,4,3,0,80,0,1
83549,-55.5555555555556,4,3,0,80,0,1
85424,-100,4,3,0,80,0,1
85645,-40,4,3,0,80,0,1
87042,-83.3333333333333,4,3,0,80,0,1
88733,-66.6666666666667,4,3,0,80,0,1
89174,-40,4,3,0,80,0,1
89946,-50,4,3,0,80,0,1
90167,-50,4,3,0,80,0,1
90608,-100,4,3,0,80,0,1
90939,-50,4,3,0,80,0,1
91821,-40,4,3,0,80,0,1
93145,-37.037037037037,4,3,0,80,0,1
93586,-50,4,3,0,80,0,1
93807,-40,4,3,0,80,0,1
94027,-100,4,3,0,80,0,1
95792,-40,4,3,0,80,0,1
97115,-50,4,3,0,80,0,1
97722,-100,4,3,0,80,0,1
97998,-50,4,3,0,80,0,1
98439,-100,4,3,0,80,0,1
98660,-50,4,3,0,80,0,1
98880,-100,4,3,0,70,0,0
105939,-66.6666666666667,4,3,0,60,0,0
127115,-66.6666666666667,4,3,0,70,0,0
140792,-83.3333333333333,4,3,0,70,0,0
142115,-43.4782608695652,4,3,0,70,0,0
142888,-66.6666666666667,4,3,0,70,0,0
144101,-43.4782608695652,4,3,0,70,0,0
144763,-200,4,3,0,80,0,1
146086,-40,4,3,0,80,0,1
147410,-50,4,3,0,80,0,1
147740,-100,4,3,0,80,0,1
149174,-50,4,3,0,80,0,1
149395,-40,4,3,0,80,0,1
152152,-100,4,3,0,80,0,1
152704,-40,4,3,0,80,0,1
154248,-66.6666666666667,4,3,0,80,0,1
154468,-50,4,3,0,80,0,1
155682,-100,4,3,0,80,0,1
156233,-40,4,3,0,80,0,1
158549,-100,4,3,0,80,0,1
159321,-40,4,3,0,80,0,1
161252,-100,4,3,0,80,0,1
161527,-40,4,3,0,80,0,1
161968,-100,4,3,0,80,0,1
163292,-40,4,3,0,80,0,1
165718,-62.5,4,3,0,80,0,1
166380,-40,4,3,0,80,0,1
168586,-100,4,3,0,80,0,1
169027,-40,4,3,0,80,0,1
169468,-200,4,3,0,70,0,0

[Colours]
Combo1 : 140,83,83
Combo2 : 192,185,160
Combo3 : 131,129,84
Combo4 : 154,98,41

[HitObjects]
44,258,58,5,0,0:0:0:0:
78,249,165,1,0,0:0:0:0:
110,238,272,1,0,0:0:0:0:
180,267,379,1,2,0:0:0:0:
419,383,940,1,0,0:0:0:0:
388,377,1050,1,0,0:0:0:0:
424,355,1160,6,0,L|410:309,1,47.5,2|0,0:0|0:0,0:0:0:0:
337,155,1381,1,0,0:0:0:0:
295,135,1491,1,0,0:0:0:0:
250,163,1602,1,0,0:0:0:0:
249,173,1712,2,0,L|229:129,1,47.5,2|0,0:0|0:0,0:0:0:0:
375,29,1932,1,0,0:0:0:0:
339,58,2042,1,0,0:0:0:0:
296,51,2152,1,0,0:0:0:0:
280,35,2263,2,0,L|212:22,2,47.5,2|0|0,0:0|0:0|0:0,0:0:0:0:
377,165,2594,1,0,0:0:0:0:
420,232,2704,6,0,P|428:251|435:277,3,31.6666666666667,2|2|2|2,0:2|0:2|0:2|0:2,0:2:0:0:
356,278,3035,5,0,0:0:0:0:
307,277,3145,1,0,0:0:0:0:
274,314,3255,1,0,0:0:0:0:
290,363,3366,1,0,0:0:0:0:
338,379,3476,6,0,P|355:321|301:269,1,113.999996520996,2|0,0:1|0:0,0:0:0:0:
118,148,3693,1,0,0:0:0:0:
167,188,3800,1,0,0:0:0:0:
224,149,3907,1,2,0:0:0:0:
16,25,4469,1,0,0:0:0:0:
46,43,4579,1,0,0:0:0:0:
43,102,4689,6,0,L|36:178,1,47.5,2|0,0:0|0:0,0:0:0:0:
151,42,4910,1,0,0:0:0:0:
194,31,5020,1,0,0:0:0:0:
232,39,5130,1,0,0:0:0:0:
269,63,5241,2,0,L|342:55,1,47.5,2|0,0:0|0:0,0:0:0:0:
283,224,5461,1,2,0:0:0:0:
224,205,5571,1,0,0:0:0:0:
181,250,5682,1,0,0:0:0:0:
205,304,5792,1,0,0:0:0:0:
247,314,5902,6,0,P|254:345|256:389,2,71.2500027179719,2|2|2,0:0|0:0|0:0,0:0:0:0:
379,231,6233,2,0,P|419:231|482:222,1,71.2500027179719
499,76,6454,1,2,0:0:0:0:
455,56,6564,2,0,P|396:114|396:149,1,71.2500027179719,2|0,0:0|0:0,0:0:0:0:
261,149,6785,1,0,0:0:0:0:
217,155,6895,2,0,P|158:97|158:62,1,71.2500027179719
3,231,7116,5,0,1:0:0:0:
49,195,7226,1,0,0:0:0:0:
67,139,7336,1,0,0:0:0:0:
43,71,7446,1,2,0:1:0:0:
99,286,7777,6,0,L|89:323,2,23.75,0|0|0,1:0|1:0|1:0,1:0:0:0:
124,291,7998,6,0,L|204:297,1,71.2500027179719,2|0,0:0|0:0,0:0:0:0:
293,378,8218,2,0,P|329:312|305:255,1,118.75
386,93,8439,1,0,1:0:0:0:
382,160,8549,1,2,0:0:0:0:
435,201,8660,2,0,L|430:243,2,23.75,2|2|2,1:2|1:2|0:2,0:0:0:0:
476,152,8880,5,0,1:0:0:0:
459,112,8990,2,0,P|478:88|519:66,1,71.2500027179719,2|0,0:0|0:0,0:0:0:0:
265,142,9211,2,0,L|258:212,1,71.2500027179719,2|0,0:1|1:0,0:0:0:0:
212,65,9432,1,2,0:0:0:0:
153,73,9542,6,0,P|158:51|165:13,2,35.625001358986,2|2|2,1:2|1:2|1:2,1:2:0:0:
65,55,9763,6,0,L|33:103,3,47.5000018119813,2|2|2|2,1:3|0:0|0:0|1:2,0:0:0:0:
78,159,10093,5,0,0:0:0:0:
110,207,10204,1,0,1:3:0:0:
143,248,10314,1,0,1:3:0:0:
182,287,10424,1,0,1:3:0:0:
219,326,10535,1,0,0:0:0:0:
261,359,10645,5,2,1:3:0:0:
277,287,10755,1,2,0:0:0:0:
254,218,10865,1,2,0:0:0:0:
194,176,10976,1,2,0:1:0:0:
446,38,11307,6,0,L|460:-8,2,35.625001358986,0|0|0,1:2|1:2|1:2,1:2:0:0:
431,82,11527,6,0,L|322:70,1,104.500003189087,2|0,0:0|0:0,0:0:0:0:
253,118,11748,2,0,P|239:172|282:248,1,104.500003189087,2|0,0:1|0:0,0:0:0:0:
490,350,11968,1,0,1:0:0:0:
493,295,12078,1,0,0:0:0:0:
462,248,12188,1,0,1:0:0:0:
410,227,12299,1,2,0:0:0:0:
418,251,12410,6,0,P|387:264|345:273,1,69.6666687927247,4|0,0:0|0:0,0:0:0:0:
333,302,12557,5,8,0:0:0:0:
343,311,12630,1,8,0:0:0:0:
350,321,12704,1,8,0:0:0:0:
354,334,12777,1,8,0:0:0:0:
355,345,12851,2,0,P|313:316|235:316,1,104.500003189087,8|2,0:0|0:0,0:0:0:0:
84,279,13071,1,4,0:0:0:0:
144,272,13182,1,4,0:0:0:0:
199,261,13292,6,0,P|202:201|174:134,1,104.500003189087,8|4,0:0|0:0,0:0:0:0:
326,21,13513,2,0,P|310:85|266:153,1,104.500003189087,8|2,0:0|0:0,0:0:0:0:
60,139,13733,6,0,L|20:137,1,23.75,4|0,0:0|0:0,0:0:0:0:
52,114,13843,2,0,L|8:112,1,23.75,8|0,0:0|0:0,0:0:0:0:
39,89,13954,5,2,0:2:0:0:
39,89,14009,1,2,0:2:0:0:
39,89,14064,1,2,0:2:0:0:
81,73,14174,1,4,0:0:0:0:
220,146,14615,6,0,L|245:140,1,19,2|4,0:0|0:0,0:0:0:0:
295,205,14910,5,4,0:0:0:0:
276,207,14983,1,4,0:0:0:0:
256,212,15057,2,0,L|276:336,1,95,10|0,0:0|0:0,0:0:0:0:
304,83,15277,1,10,0:0:0:0:
302,36,15388,1,2,0:0:0:0:
254,10,15498,6,0,L|122:29,1,95,4|0,1:0|0:0,0:0:0:0:
8,159,15718,1,8,0:0:0:0:
33,115,15829,2,0,P|89:107|118:150,1,95,2|0,0:0|0:0,0:0:0:0:
102,289,16049,2,0,P|111:332|134:391,1,95,2|0,0:0|0:0,0:0:0:0:
362,345,16270,1,0,0:0:0:0:
307,300,16380,2,0,P|271:307|197:313,1,71.2500027179719,4|0,0:0|0:0,0:0:0:0:
422,198,16601,5,2,0:2:0:0:
422,198,16656,1,2,0:2:0:0:
422,198,16711,1,2,0:2:0:0:
446,148,16821,5,8,0:0:0:0:
442,126,16895,1,0,0:0:0:0:
428,108,16968,1,0,0:0:0:0:
404,102,17042,1,2,0:0:0:0:
344,135,17152,1,2,0:0:0:0:
275,151,17263,2,0,L|269:113,1,38,2|4,0:0|0:0,0:0:0:0:
124,46,17593,5,2,0:2:0:0:
124,46,17649,1,2,0:2:0:0:
124,46,17704,5,4,0:1:0:0:
145,104,17814,1,2,0:0:0:0:
123,167,17924,1,2,0:0:0:0:
66,204,18035,1,0,0:0:0:0:
28,254,18145,6,0,P|4:241|-3:225,2,23.75,2|2|2,0:0|0:2|0:2,0:0:0:0:
56,327,18310,1,2,0:2:0:0:
56,327,18365,2,0,L|148:294,1,71.2500027179719,2|0,0:2|0:0,0:0:0:0:
365,376,18586,5,8,0:0:0:0:
305,367,18696,1,0,0:0:0:0:
246,382,18807,2,0,P|237:354|226:296,1,71.2500027179719,2|0,0:0|0:0,0:0:0:0:
512,311,19027,6,0,P|453:314|400:289,1,118.75,4|0,1:0|0:0,0:0:0:0:
242,238,19248,1,2,0:0:0:0:
291,264,19358,2,0,L|300:170,1,95,2|0,0:0|0:0,0:0:0:0:
404,79,19578,1,2,0:0:0:0:
434,25,19689,6,0,L|473:29,2,23.75,8|2|2,0:0|0:2|0:2,0:0:0:0:
362,5,19854,5,2,0:0:0:0:
362,5,19910,1,4,1:0:0:0:
309,36,20020,1,0,0:0:0:0:
260,55,20130,2,0,L|237:57,1,23.75,2|0,0:0|0:0,0:0:0:0:
169,27,20240,5,2,0:2:0:0:
169,27,20296,1,2,0:2:0:0:
169,27,20351,2,0,P|162:63|167:133,1,95,8|0,0:0|0:0,0:0:0:0:
71,209,20571,5,4,0:0:0:0:
71,209,20627,1,4,0:0:0:0:
71,209,20682,2,0,P|89:258|102:315,1,95,4|2,0:0|0:0,0:0:0:0:
214,377,20902,1,4,0:0:0:0:
194,309,21013,1,4,0:0:0:0:
234,258,21123,1,4,0:0:0:0:
279,257,21233,6,0,P|283:228|286:194,1,56.9999982604981,6|2,0:0|0:2,0:0:0:0:
233,76,21564,1,2,0:1:0:0:
233,76,21785,5,6,0:0:0:0:
248,76,21895,1,4,0:0:0:0:
264,76,22005,1,4,0:0:0:0:
280,75,22115,6,0,P|341:96|360:131,1,95,4|0,0:1|0:0,0:0:0:0:
412,361,22336,2,0,P|369:312|385:252,1,95,4|0,0:0|0:0,0:0:0:0:
466,188,22557,6,0,L|459:123,1,47.5,6|2,0:0|0:2,0:0:0:0:
451,63,22667,5,2,0:2:0:0:
391,54,22777,1,2,0:2:0:0:
331,45,22888,1,2,0:0:0:0:
278,108,22998,6,0,L|185:123,1,95,2|0,0:1|0:0,0:0:0:0:
116,163,23218,1,4,0:1:0:0:
127,225,23329,1,2,0:0:0:0:
87,256,23439,1,4,0:0:0:0:
95,301,23549,1,2,0:0:0:0:
107,376,23660,5,2,0:2:0:0:
107,376,23715,2,0,P|81:384|68:385,2,23.75,2|2|2,0:2|0:2|0:2,0:2:0:0:
189,325,23880,5,8,0:0:0:0:
196,308,23954,1,2,0:0:0:0:
201,292,24027,1,2,0:0:0:0:
207,279,24101,1,2,0:2:0:0:
215,213,24211,1,2,0:0:0:0:
178,162,24321,5,4,0:0:0:0:
74,165,24468,1,4,0:0:0:0:
0,242,24615,1,4,0:0:0:0:
78,0,24763,6,0,L|97:93,1,95,4|0,1:0|0:0,0:0:0:0:
176,198,24983,1,0,1:0:0:0:
204,149,25093,1,2,0:1:0:0:
237,97,25204,5,2,0:0:0:0:
237,97,25259,2,0,L|221:66,2,23.75,2|2|2,0:2|0:2|0:2,0:0:0:0:
295,142,25424,2,0,L|378:133,1,71.2500027179719,2|0,0:2|0:0,0:0:0:0:
512,261,25645,6,0,P|452:262|378:236,1,118.75,10|0,0:0|0:0,0:0:0:0:
203,274,25865,2,0,P|242:330|321:349,1,118.75,6|0,0:0|0:0,0:0:0:0:
397,302,26086,1,4,0:1:0:0:
398,240,26196,1,2,0:0:0:0:
420,188,26307,1,0,1:0:0:0:
473,154,26417,1,2,0:0:0:0:
490,94,26527,6,0,L|395:70,1,71.2500027179719,2|0,0:0|0:0,0:0:0:0:
235,61,26748,1,6,0:0:0:0:
262,122,26858,5,2,0:2:0:0:
262,122,26913,1,2,0:2:0:0:
262,122,26968,1,2,0:2:0:0:
202,140,27079,1,2,0:0:0:0:
145,172,27189,5,2,0:2:0:0:
145,172,27244,2,0,P|132:146|129:134,2,23.75,2|2|2,0:2|0:2|0:2,0:0:0:0:
111,239,27410,2,0,P|76:233|28:216,1,71.2500027179719,8|2,0:0|0:0,0:0:0:0:
213,266,27630,5,8,0:0:0:0:
213,266,27685,1,8,0:0:0:0:
213,266,27740,1,8,0:0:0:0:
196,314,27851,1,2,0:0:0:0:
224,364,27961,1,0,0:0:0:0:
276,368,28071,5,0,1:0:0:0:
276,368,28127,1,0,1:0:0:0:
276,368,28182,1,0,1:0:0:0:
318,376,28292,6,0,B|375:372|413:340|420:282,1,142.5,2|0,0:0|0:0,0:0:0:0:
356,215,28733,2,0,B|305:196|291:137|329:94,1,142.5,2|0,0:2|0:0,0:0:0:0:
412,93,29174,1,2,0:0:0:0:
241,38,29395,1,2,0:0:0:0:
432,201,29615,1,4,0:2:0:0:
178,312,29836,1,2,0:0:0:0:
146,141,30057,6,0,B|163:187|167:199|152:271,1,95,2|0,0:0|0:0,0:0:0:0:
87,194,30332,1,2,0:2:0:0:
87,194,30388,1,2,0:2:0:0:
87,194,30443,1,2,0:2:0:0:
87,194,30498,2,0,B|44:221|42:230|-19:221,1,95,2|0,0:0|0:0,0:0:0:0:
188,0,30939,1,0,0:0:0:0:
239,156,31160,1,0,0:0:0:0:
345,48,31380,1,2,0:0:0:0:
279,230,31601,1,0,0:0:0:0:
421,320,31821,6,0,B|436:272|426:216|355:192,1,142.5,2|0,0:0|0:0,0:0:0:0:
328,146,32263,2,0,B|347:165|413:178|462:135,1,142.5,2|0,0:0|0:0,0:0:0:0:
333,321,32704,2,0,B|289:322|256:379|289:420,1,95,2|0,0:0|0:0,0:0:0:0:
0,252,33145,2,0,B|32:296|103:305|146:225,1,142.5,4|0,0:2|0:0,0:0:0:0:
116,175,33586,6,0,B|132:134|171:114|221:127,1,118.75,2|0,0:0|0:0,0:0:0:0:
233,152,33917,1,2,0:2:0:0:
233,152,33972,1,2,0:2:0:0:
233,152,34027,2,0,P|245:199|249:217,1,47.5,2|0,0:0|0:0,0:0:0:0:
305,40,34248,2,0,L|285:97,1,47.5,2|0,0:0|0:0,0:0:0:0:
110,67,34468,2,0,L|47:50,1,47.5,2|0,0:0|0:0,0:0:0:0:
0,55,34689,2,0,L|45:67,1,47.5
181,1,34910,1,2,0:0:0:0:
311,299,35130,1,2,0:0:0:0:
149,182,35351,6,0,B|85:211|73:272|131:335,1,142.5,2|0,0:0|0:0,0:0:0:0:
211,377,35792,2,0,B|202:311|218:275|261:227,1,142.5,2|0,0:0|0:0,0:0:0:0:
327,206,36233,2,0,B|366:256|430:258|471:219,1,142.5,2|0,0:0|0:0,0:0:0:0:
476,188,36674,5,4,0:2:0:0:
435,157,36821,1,0,0:0:0:0:
466,84,36968,1,0,0:0:0:0:
304,0,37115,1,4,0:2:0:0:
354,84,37263,1,0,0:0:0:0:
448,59,37410,1,0,0:0:0:0:
233,34,37557,1,4,0:2:0:0:
213,104,37704,1,0,0:0:0:0:
232,149,37851,1,0,0:0:0:0:
259,162,37998,5,2,0:0:0:0:
383,189,38145,1,2,0:0:0:0:
301,266,38292,1,2,0:0:0:0:
406,298,38439,1,2,0:0:0:0:
294,75,38660,1,4,0:2:0:0:
166,185,38880,6,0,B|100:191|67:153|61:90,1,142.5,2|0,0:0|0:0,0:0:0:0:
27,123,39321,2,0,B|84:165|78:217|56:255,1,142.5,2|0,0:0|0:0,0:0:0:0:
129,320,39763,1,2,0:0:0:0:
76,330,39873,1,2,0:0:0:0:
19,329,39983,1,2,0:0:0:0:
241,187,40204,6,0,B|234:212|233:222|227:271,1,47.5,4|0,0:2|0:0,0:0:0:0:
219,50,40424,2,0,B|230:75|236:78|265:119,1,47.5,2|0,0:0|0:0,0:0:0:0:
346,117,40645,1,0,0:0:0:0:
344,104,40718,1,0,0:0:0:0:
355,89,40792,1,0,0:0:0:0:
370,84,40865,1,0,0:0:0:0:
388,87,40939,1,0,0:0:0:0:
401,98,41013,1,0,0:0:0:0:
406,114,41086,6,2,L|442:114,1,31.6666666666667,2|2,0:2|0:2,0:2:0:0:
444,190,41233,2,2,L|470:162,1,31.6666666666667,2|2,0:2|0:2,0:2:0:0:
509,229,41380,2,2,L|513:195,1,31.6666666666667,2|2,0:2|0:2,0:2:0:0:
448,363,41527,6,0,L|341:351,1,95,8|0,0:0|0:0,0:0:0:0:
204,307,41968,1,0,1:0:0:0:
135,293,42115,1,0,1:0:0:0:
91,350,42263,1,0,1:0:0:0:
252,243,42410,6,0,P|244:152|220:61,1,161.500003080368,4|0,1:0|0:0,0:0:0:0:
146,52,42740,1,2,2:0:0:0:
146,52,42796,1,2,2:0:0:0:
146,52,42851,1,2,2:0:0:0:
80,163,43071,1,2,0:0:0:0:
81,112,43182,5,0,0:0:0:0:
81,112,43237,1,0,0:0:0:0:
81,112,43292,1,8,0:0:0:0:
49,197,43513,1,2,0:0:0:0:
400,182,43733,5,4,0:0:0:0:
339,352,43954,1,2,0:0:0:0:
483,178,44174,5,2,0:2:0:0:
480,104,44285,1,2,0:2:0:0:
415,73,44395,1,2,0:2:0:0:
356,109,44505,1,2,0:2:0:0:
286,123,44615,5,4,0:0:0:0:
286,123,44671,1,0,0:0:0:0:
286,123,44726,2,0,L|273:75,2,40.375000770092,2|2|2,0:2|0:2|0:2,0:2:0:0:
168,179,44946,6,0,L|208:182,1,40.375000770092,2|2,0:2|0:2,0:0:0:0:
227,180,45057,2,0,L|237:278,1,80.750001540184,8|0,0:0|0:0,0:0:0:0:
246,380,45277,1,2,0:0:0:0:
116,113,45498,6,0,L|51:98,2,40.375000770092,2|2|2,0:2|0:2|0:2,0:0:0:0:
61,230,45718,1,2,0:0:0:0:
61,230,45774,2,0,L|62:291,1,40.375000770092,2|2,0:2|0:2,0:0:0:0:
127,313,45939,6,0,B|247:319|226:232|322:214|361:278,1,242.250004620552,6|0,0:0|0:0,0:0:0:0:
381,334,46380,2,0,B|368:312|327:231|404:158,1,161.500003080368,2|0,0:0|0:0,0:0:0:0:
284,384,46821,1,8,0:0:0:0:
46,333,47042,1,4,0:0:0:0:
232,181,47263,2,0,B|112:187|133:100|37:82|-2:146,1,242.250004620552,6|0,0:0|0:0,0:0:0:0:
197,53,47704,5,2,0:0:0:0:
221,52,47777,1,2,0:0:0:0:
243,39,47851,1,2,0:0:0:0:
250,25,47924,1,8,0:0:0:0:
246,9,47998,1,2,0:0:0:0:
229,1,48071,1,2,0:0:0:0:
213,7,48145,5,4,0:0:0:0:
262,55,48255,1,2,0:0:0:0:
335,70,48365,1,2,0:0:0:0:
383,127,48476,1,2,0:0:0:0:
351,195,48586,2,0,L|276:161,1,80.750001540184,8|0,0:0|0:0,0:0:0:0:
259,180,48752,5,2,0:2:0:0:
259,180,48807,1,2,0:2:0:0:
237,249,48917,1,2,0:0:0:0:
306,293,49027,5,2,0:2:0:0:
306,293,49082,1,2,0:2:0:0:
306,293,49138,2,0,L|341:296,1,23.75,2|0,0:0|0:0,0:0:0:0:
397,339,49248,6,0,L|432:331,2,23.75,2|2|2,0:0|0:2|0:2,0:0:0:0:
369,366,49413,1,2,0:2:0:0:
369,366,49468,6,0,P|279:370|210:325,1,161.500003080368,4|0,0:1|0:0,0:0:0:0:
131,278,49763,5,2,0:2:0:0:
121,295,49836,1,2,0:2:0:0:
113,310,49910,1,2,0:2:0:0:
45,133,50130,1,2,0:0:0:0:
200,199,50351,1,8,0:0:0:0:
1,236,50571,1,4,0:0:0:0:
0,41,50792,2,0,B|135:8|176:106|163:165|71:191,1,242.250004620552,6|0,0:0|0:0,0:0:0:0:
110,180,51233,6,0,P|111:220|165:264,1,80.750001540184,2|0,0:0|0:0,0:0:0:0:
259,374,51454,1,4,0:0:0:0:
308,372,51564,1,0,0:0:0:0:
349,319,51674,1,6,0:0:0:0:
413,339,51785,1,0,0:0:0:0:
476,364,51895,1,0,0:0:0:0:
395,172,52115,5,8,0:0:0:0:
395,172,52171,1,2,0:2:0:0:
395,172,52226,1,2,0:2:0:0:
442,199,52336,1,4,0:0:0:0:
370,40,52557,6,0,L|420:30,2,40.375000770092,2|2|2,0:2|0:2|0:2,0:0:0:0:
280,85,52777,1,2,0:0:0:0:
280,85,52832,2,0,L|280:44,1,40.375000770092,2|2,0:2|0:2,0:0:0:0:
301,19,52998,6,0,P|377:34|443:105,1,161.500003080368,4|0,0:1|0:0,0:0:0:0:
314,273,53439,1,2,0:0:0:0:
299,203,53549,1,2,0:0:0:0:
233,170,53660,1,2,0:0:0:0:
201,108,53770,1,2,0:0:0:0:
218,33,53880,2,0,L|111:18,1,80.750001540184,8|0,0:0|0:0,0:0:0:0:
183,232,54101,2,0,L|160:339,1,80.750001540184,0|0,1:0|0:0,0:0:0:0:
21,130,54321,2,0,L|208:116,1,161.500003080368,6|0,0:0|0:0,0:0:0:0:
414,238,54652,1,0,0:0:0:0:
393,256,54763,5,6,0:0:0:0:
428,289,54873,1,0,0:0:0:0:
494,276,54983,1,0,0:0:0:0:
505,206,55093,1,0,0:0:0:0:
463,145,55204,5,2,0:0:0:0:
463,145,55259,1,2,0:0:0:0:
463,145,55314,2,0,L|469:120,1,23.75,2|0,0:0|0:0,0:0:0:0:
453,77,55424,1,2,0:0:0:0:
384,93,55535,1,2,0:0:0:0:
318,124,55645,2,0,P|308:58|331:14,1,80.750001540184,8|0,0:0|0:0,0:0:0:0:
265,192,55865,1,2,0:0:0:0:
288,258,55976,1,2,0:0:0:0:
248,318,56086,2,0,P|178:308|145:287,1,80.750001540184,4|0,0:0|0:0,0:0:0:0:
46,319,56307,5,8,0:0:0:0:
46,319,56362,1,8,0:0:0:0:
46,319,56417,1,8,0:0:0:0:
92,295,56527,6,0,P|88:260|72:214,1,80.750001540184,4|8,0:2|0:0,0:0:0:0:
96,106,56748,1,4,0:0:0:0:
46,135,56858,1,6,0:0:0:0:
102,148,56968,2,0,L|199:131,1,80.750001540184,4|0,1:2|0:0,0:0:0:0:
240,0,57189,1,4,0:0:0:0:
198,60,57299,1,6,0:0:0:0:
255,79,57410,1,8,0:0:0:0:
318,53,57520,1,2,1:0:0:0:
355,114,57630,1,6,0:0:0:0:
326,99,57740,1,4,0:0:0:0:
377,73,57851,1,4,0:2:0:0:
441,81,57961,1,6,0:0:0:0:
473,154,58071,1,6,0:0:0:0:
451,227,58182,1,6,0:0:0:0:
376,269,58292,6,0,L|250:227,1,80.750001540184,4|0,0:2|0:0,0:0:0:0:
118,375,58513,1,2,0:0:0:0:
163,316,58623,1,4,0:0:0:0:
220,324,58733,1,4,0:2:0:0:
280,281,58843,1,4,0:0:0:0:
251,207,58954,2,0,L|149:236,1,80.750001540184,10|4,0:0|0:0,0:0:0:0:
11,131,59174,1,8,0:0:0:0:
88,142,59285,1,8,0:0:0:0:
146,86,59395,1,8,0:0:0:0:
221,115,59505,1,8,0:0:0:0:
291,78,59615,1,4,0:2:0:0:
284,2,59726,1,8,0:0:0:0:
215,5,59836,1,4,0:0:0:0:
253,62,59946,1,4,0:0:0:0:
275,45,60057,5,8,0:0:0:0:
345,70,60167,1,8,0:0:0:0:
347,146,60277,1,0,0:0:0:0:
302,205,60388,1,4,0:0:0:0:
339,268,60498,2,0,P|374:270|421:211,1,80.750001540184,4|0,0:2|0:0,0:0:0:0:
158,277,60718,1,2,0:0:0:0:
138,294,60829,1,2,0:1:0:0:
196,317,60939,2,0,L|204:229,1,80.750001540184,10|2,0:0|0:0,0:0:0:0:
117,33,61160,1,2,0:0:0:0:
91,7,61270,1,0,1:0:0:0:
47,34,61380,1,4,0:2:0:0:
50,114,61490,1,4,0:0:0:0:
122,139,61601,1,4,0:0:0:0:
99,217,61711,1,4,0:0:0:0:
43,152,61821,6,0,P|74:141|133:140,1,80.750001540184,4|0,0:2|0:0,0:0:0:0:
322,87,62042,1,2,0:2:0:0:
247,78,62152,1,2,0:0:0:0:
222,153,62263,2,0,L|311:159,1,80.750001540184,4|0,0:2|0:0,0:0:0:0:
337,239,62483,1,2,0:1:0:0:
333,297,62593,1,4,0:0:0:0:
408,320,62704,1,8,0:0:0:0:
463,263,62814,1,8,0:0:0:0:
428,203,62924,1,2,1:0:0:0:
420,249,63035,1,8,0:0:0:0:
490,211,63145,1,4,0:2:0:0:
478,134,63255,1,8,0:0:0:0:
461,53,63365,1,8,0:0:0:0:
499,62,63476,1,8,0:0:0:0:
464,89,63586,5,4,0:1:0:0:
391,116,63696,2,0,L|277:95,1,80.750001540184,4|0,0:2|0:0,0:0:0:0:
111,62,63917,1,2,0:0:0:0:
186,78,64027,1,4,0:2:0:0:
215,47,64138,1,6,0:0:0:0:
181,36,64248,1,2,0:0:0:0:
168,65,64358,1,8,0:0:0:0:
206,131,64468,1,8,0:0:0:0:
141,175,64579,2,0,P|117:203|124:281,1,80.750001540184,6|0,0:0|0:0,0:0:0:0:
335,338,64799,1,4,0:0:0:0:
380,328,64910,1,4,0:2:0:0:
454,307,65020,2,0,L|485:409,1,80.750001540184,4|4,0:0|0:0,0:0:0:0:
341,217,65240,1,8,0:0:0:0:
283,263,65351,6,0,P|241:251|182:247,1,80.750001540184,10|0,0:0|0:0,0:0:0:0:
90,321,65571,2,0,P|51:312|-3:283,1,80.750001540184,2|4,0:0|0:0,0:0:0:0:
167,374,65792,1,2,0:2:0:0:
198,330,65902,1,2,0:0:0:0:
149,282,66013,1,10,0:0:0:0:
133,235,66123,1,6,0:0:0:0:
163,168,66233,1,4,1:2:0:0:
122,108,66343,1,8,0:0:0:0:
52,110,66454,1,10,0:0:0:0:
100,125,66564,1,8,0:0:0:0:
121,74,66674,1,4,0:2:0:0:
189,32,66785,1,6,0:0:0:0:
246,82,66895,1,6,0:0:0:0:
218,82,67005,1,6,0:0:0:0:
262,48,67115,5,4,0:2:0:0:
276,104,67226,2,0,L|406:122,1,80.750001540184,10|4,0:0|0:0,0:0:0:0:
451,170,67446,1,4,0:0:0:0:
439,197,67557,1,4,0:2:0:0:
487,141,67667,1,6,0:0:0:0:
458,71,67777,1,6,0:0:0:0:
512,17,67888,1,6,0:0:0:0:
504,81,67998,1,10,0:0:0:0:
433,94,68108,1,10,0:0:0:0:
389,47,68218,1,6,0:0:0:0:
353,56,68329,1,10,0:0:0:0:
319,46,68439,1,4,0:2:0:0:
290,63,68549,1,6,0:0:0:0:
282,27,68660,1,10,0:0:0:0:
251,31,68770,1,10,0:0:0:0:
227,15,68880,6,0,P|230:47|229:103,1,53.8333343601227,4|4,0:1|0:0,0:0:0:0:
183,135,69027,5,4,0:0:0:0:
174,145,69101,2,0,L|101:162,1,53.8333343601227,8|8,0:0|0:0,0:0:0:0:
19,179,69248,5,2,0:0:0:0:
26,193,69321,1,2,0:2:0:0:
35,207,69395,1,2,1:2:0:0:
42,223,69468,1,2,0:2:0:0:
51,238,69542,2,0,L|127:255,1,53.8333343601227,2|0,0:2|0:2,0:0:0:0:
179,260,69689,5,2,1:2:0:0:
189,263,69763,1,10,0:3:0:0:
319,364,70645,5,4,0:0:0:0:
276,307,70755,1,4,0:0:0:0:
280,236,70865,1,6,0:0:0:0:
332,184,70976,6,0,L|329:163,1,19,6|6,0:0|0:0,0:0:0:0:
332,85,71527,6,0,P|388:103|415:154,1,118.75,8|0,0:0|0:0,0:0:0:0:
451,294,71748,2,0,P|504:172|467:122,1,118.75,12|0,0:0|0:0,0:0:0:0:
323,2,71968,6,0,P|207:62|192:147,1,178.125,4|0,1:0|0:0,0:0:0:0:
197,137,72189,1,2,0:0:0:0:
168,207,72299,2,0,P|92:205|53:152,1,118.75,2|2,0:0|0:2,0:0:0:0:
101,0,72520,1,2,0:0:0:0:
34,30,72630,1,2,0:0:0:0:
81,83,72740,1,2,0:0:0:0:
74,94,72851,2,0,L|248:92,1,118.75,4|0,0:1|0:0,0:0:0:0:
411,167,73071,1,2,0:0:0:0:
370,195,73182,1,2,0:0:0:0:
331,224,73292,5,10,0:0:0:0:
319,209,73365,1,2,0:2:0:0:
307,196,73439,1,2,0:2:0:0:
296,184,73513,1,2,0:2:0:0:
230,221,73623,5,2,0:0:0:0:
168,263,73733,2,0,L|195:376,1,95,2|0,1:2|0:0,0:0:0:0:
232,130,73954,1,2,0:0:0:0:
247,69,74064,1,2,0:1:0:0:
248,15,74174,5,12,0:0:0:0:
324,8,74285,1,8,0:0:0:0:
401,25,74395,1,6,0:0:0:0:
460,72,74505,1,6,0:0:0:0:
460,72,75057,6,0,P|402:102|407:206,1,118.75,4|0,1:0|0:0,0:0:0:0:
431,334,75277,1,2,0:0:0:0:
476,336,75388,1,2,0:0:0:0:
498,255,75498,6,0,P|441:236|377:291,1,118.75,4|0,1:0|0:0,0:0:0:0:
203,326,75718,1,2,0:0:0:0:
138,355,75829,2,0,P|80:318|76:249,1,118.75,2|2,0:0|0:2,0:0:0:0:
158,134,76049,1,0,0:0:0:0:
125,157,76160,1,0,0:0:0:0:
121,203,76270,1,0,0:0:0:0:
148,239,76380,5,6,0:0:0:0:
221,250,76490,1,2,0:0:0:0:
285,214,76601,1,2,0:0:0:0:
300,143,76711,1,0,0:0:0:0:
270,74,76821,2,0,P|234:50|155:47,1,118.75,12|0,0:3|0:0,0:0:0:0:
111,132,77042,1,0,0:0:0:0:
111,132,77152,2,0,P|152:129|200:119,1,71.2500027179719
396,147,77373,1,2,0:0:0:0:
367,215,77483,1,2,0:1:0:0:
378,291,77593,6,0,P|363:315|337:307,2,47.5,2|4|0,0:0|0:0|0:0,0:0:0:0:
481,211,77924,1,0,1:0:0:0:
437,148,78035,1,0,1:0:0:0:
465,98,78145,1,0,1:0:0:0:
489,83,78255,6,0,P|430:59|371:-5,1,118.75,4|0,0:1|0:0,0:0:0:0:
375,25,78421,6,0,L|350:31,1,23.75,0|0,1:0|1:0,0:0:0:0:
272,84,78531,1,0,1:0:0:0:
272,84,78586,2,0,P|179:58|107:63,1,118.75,8|0,0:0|0:0,0:0:0:0:
0,219,78807,2,0,P|83:196|143:201,1,118.75,6|0,0:0|0:0,0:0:0:0:
303,157,79027,6,0,P|235:222|250:374,1,237.5,4|0,1:0|0:0,0:0:0:0:
366,383,79358,1,2,0:0:0:0:
356,305,79468,2,0,P|359:253|375:179,1,118.75,2|0,1:0|0:0,0:0:0:0:
488,47,79689,1,4,0:0:0:0:
506,117,79799,1,2,0:1:0:0:
508,191,79910,2,0,P|492:211|465:216,2,47.5,4|2|0,0:1|0:0|0:0,0:0:0:0:
366,98,80240,1,2,0:0:0:0:
313,109,80351,5,10,0:0:0:0:
310,90,80424,1,2,0:2:0:0:
315,67,80498,1,2,0:2:0:0:
326,54,80571,1,2,0:2:0:0:
276,19,80682,5,2,0:0:0:0:
216,32,80792,1,6,0:0:0:0:
193,85,80902,1,2,0:0:0:0:
210,131,81013,1,2,0:1:0:0:
258,162,81123,1,2,0:0:0:0:
276,218,81233,5,4,0:1:0:0:
237,281,81343,1,0,1:0:0:0:
159,287,81454,1,0,1:0:0:0:
97,246,81564,2,0,L|123:131,1,95,2|4,1:0|0:0,0:0:0:0:
77,0,81785,5,2,0:0:0:0:
77,35,81895,1,8,0:0:0:0:
67,74,82005,1,8,0:0:0:0:
10,130,82115,2,0,P|47:158|103:157,1,95,12|0,0:0|0:0,0:0:0:0:
237,119,82336,2,0,P|297:110|377:176,1,118.75,8|0,1:3|0:0,0:0:0:0:
456,378,82557,2,0,P|362:325|392:199,1,237.5,4|0,1:0|0:0,0:0:0:0:
413,66,82888,1,2,0:0:0:0:
476,107,82998,5,0,1:0:0:0:
484,147,83108,1,2,0:0:0:0:
447,190,83218,1,4,0:0:0:0:
439,248,83329,1,4,0:0:0:0:
365,265,83439,1,6,0:0:0:0:
300,225,83549,2,0,P|218:245|178:326,1,170.999994781494,2|0,0:0|0:0,0:0:0:0:
394,356,83880,2,0,L|310:346,1,85.4999973907472,8|0,0:0|0:0,0:0:0:0:
43,269,84101,5,4,0:0:0:0:
103,259,84211,1,4,0:0:0:0:
131,206,84321,1,8,0:0:0:0:
125,144,84432,1,4,0:0:0:0:
71,118,84542,1,10,0:0:0:0:
99,175,84652,1,8,0:0:0:0:
177,165,84763,1,4,0:0:0:0:
204,93,84873,1,4,0:0:0:0:
271,115,84983,1,8,0:0:0:0:
325,63,85093,1,10,0:0:0:0:
346,72,85204,5,4,0:0:0:0:
346,72,85424,6,2,L|360:9,1,47.5,2|0,1:0|0:0,1:0:0:0:
392,16,85645,6,0,L|226:-8,1,118.75,4|0,0:2|0:0,0:0:0:0:
404,208,85865,2,0,L|512:159,1,118.75,14|0,0:0|0:0,0:0:0:0:
176,151,86086,2,0,P|78:252|84:332,1,178.125,4|0,0:1|0:0,0:0:0:0:
83,311,86307,1,2,0:0:0:0:
158,328,86417,2,0,L|274:352,1,118.75,2|0,0:0|0:0,0:0:0:0:
361,363,86638,1,2,0:0:0:0:
365,305,86748,1,2,0:0:0:0:
332,264,86858,1,2,0:0:0:0:
262,253,86968,5,12,0:0:0:0:
262,253,87024,1,0,0:0:0:0:
262,253,87079,2,0,P|237:269|221:274,2,28.4999991302491,2|2|2,0:2|0:2|0:2,0:0:0:0:
308,189,87299,6,0,L|304:143,1,28.4999991302491,2|0,0:0|0:0,0:0:0:0:
242,128,87410,5,2,0:0:0:0:
229,144,87483,1,2,0:0:0:0:
210,155,87557,1,2,0:0:0:0:
189,160,87630,1,2,0:0:0:0:
176,91,87740,1,2,0:0:0:0:
179,22,87851,5,0,1:0:0:0:
179,22,87906,1,2,0:2:0:0:
179,22,87961,1,2,0:2:0:0:
125,41,88071,1,2,0:2:0:0:
71,61,88182,1,2,1:0:0:0:
22,87,88292,5,12,0:0:0:0:
80,129,88402,1,2,1:2:0:0:
109,192,88513,1,2,1:2:0:0:
104,268,88623,1,2,1:2:0:0:
67,334,88733,2,0,L|161:322,1,71.2500027179719,12|0,0:0|0:0,0:0:0:0:
313,289,88954,2,0,L|384:280,1,71.2500027179719,2|0,0:0|0:0,0:0:0:0:
500,181,89174,6,0,P|430:156|356:202,1,118.75,4|0,1:2|0:0,0:0:0:0:
262,370,89395,2,0,P|225:323|216:265,1,118.75,2|0,0:0|0:0,0:0:0:0:
111,173,89615,6,0,P|202:150|321:212,1,178.125,4|0,1:0|0:0,0:0:0:0:
300,202,89836,1,2,0:0:0:0:
304,279,89946,2,0,P|360:267|368:215,1,95,2|0,0:1|0:0,0:0:0:0:
350,104,90167,1,2,0:0:0:0:
364,58,90277,1,2,0:0:0:0:
412,43,90388,1,2,0:0:0:0:
486,60,90498,5,4,0:0:0:0:
486,60,90553,1,2,0:2:0:0:
486,60,90608,2,0,L|492:97,1,23.75,2|2,0:1|0:2,0:0:0:0:
466,172,90718,1,2,0:0:0:0:
469,234,90829,1,2,0:0:0:0:
512,283,90939,2,0,P|474:332|413:341,1,95,8|0,0:0|0:0,0:0:0:0:
229,384,91160,1,2,0:0:0:0:
273,343,91270,1,2,0:0:0:0:
289,301,91380,5,2,0:2:0:0:
289,301,91435,1,2,0:2:0:0:
289,301,91490,1,2,0:2:0:0:
227,274,91601,1,2,0:1:0:0:
227,214,91711,1,2,0:0:0:0:
294,188,91821,6,0,P|291:93|254:59,1,118.75,12|0,0:0|0:0,0:0:0:0:
89,11,92042,1,4,0:1:0:0:
132,34,92152,2,0,P|144:88|138:178,1,118.75,2|12,0:0|0:0,0:0:0:0:
29,235,92373,1,2,0:2:0:0:
51,198,92483,5,12,0:0:0:0:
70,210,92557,1,12,0:0:0:0:
89,219,92630,1,12,1:3:0:0:
104,228,92704,1,12,1:3:0:0:
130,297,92814,1,2,0:0:0:0:
156,368,92924,2,0,P|224:344|307:327,1,118.75,2|0,1:3|0:0,0:0:0:0:
436,370,93145,6,0,P|422:307|387:214,1,128.250000489235,4|0,1:0|0:0,0:0:0:0:
342,104,93365,1,2,0:2:0:0:
405,108,93476,1,2,0:0:0:0:
465,90,93586,2,0,P|380:18|338:24,1,95,2|0,0:0|0:0,0:0:0:0:
224,34,93807,1,4,0:0:0:0:
233,100,93917,1,2,0:1:0:0:
184,145,94027,6,2,L|145:138,1,23.75,6|2,0:2|0:2,0:2:0:0:
79,153,94138,5,2,0:2:0:0:
79,153,94193,1,0,0:2:0:0:
95,260,94358,1,2,0:0:0:0:
109,297,94468,5,8,0:0:0:0:
123,308,94542,1,2,0:2:0:0:
137,318,94615,1,2,0:2:0:0:
151,327,94689,1,2,0:2:0:0:
222,331,94799,1,2,0:0:0:0:
300,327,94910,5,2,0:2:0:0:
300,327,94965,1,2,0:2:0:0:
300,327,95020,1,2,0:2:0:0:
306,259,95130,1,2,0:0:0:0:
363,230,95240,1,2,0:0:0:0:
419,244,95351,5,12,0:0:0:0:
378,187,95461,1,0,1:0:0:0:
375,117,95571,1,0,1:0:0:0:
429,71,95682,1,2,1:0:0:0:
499,68,95792,2,0,P|431:94|351:96,1,118.75,12|0,0:0|0:0,0:0:0:0:
213,30,96013,1,8,0:0:0:0:
254,91,96123,1,8,0:0:0:0:
215,152,96233,6,0,L|224:33,1,118.75,8|0,1:3|0:0,0:0:0:0:
0,68,96454,2,0,L|120:84,1,118.75,4|0,0:1|0:0,0:0:0:0:
377,0,96674,6,0,P|325:26|302:79,1,118.75,4|0,1:0|0:0,0:0:0:0:
341,244,96895,1,2,0:0:0:0:
399,261,97005,1,2,0:0:0:0:
466,231,97115,1,2,0:2:0:0:
480,157,97226,1,2,0:0:0:0:
438,95,97336,2,0,L|455:-1,1,95,12|0,0:0|0:0,0:0:0:0:
309,186,97557,5,12,0:0:0:0:
309,186,97612,1,2,0:2:0:0:
309,186,97667,1,2,0:2:0:0:
309,186,97722,2,0,L|311:212,1,23.75,2|2,0:2|0:2,0:0:0:0:
261,303,97888,1,2,0:0:0:0:
192,294,97998,6,0,P|192:215|178:104,1,190,8|0,0:0|0:0,0:0:0:0:
108,22,98292,2,0,P|106:54|98:91,1,63.3333333333333
29,154,98439,5,2,0:2:0:0:
66,169,98513,1,2,0:2:0:0:
115,160,98586,1,2,0:2:0:0:
156,121,98660,1,2,0:2:0:0:
193,84,98733,1,2,0:2:0:0:
246,71,98807,1,2,0:2:0:0:
291,86,98880,1,4,0:2:0:0:
380,294,105939,6,0,B|422:223|369:127|284:147,1,213.750008153916,4|0,0:2|0:0,0:0:0:0:
274,158,106325,1,0,0:0:0:0:
274,158,106380,2,0,L|194:118,1,71.2500027179719,2|0,0:0|0:0,0:0:0:0:
140,93,106601,1,0,0:0:0:0:
297,305,106821,1,0,1:0:0:0:
256,71,107042,1,0,1:0:0:0:
0,286,107263,2,0,B|80:243|159:289|160:378,1,213.750008153916,10|0,0:0|0:0,0:0:0:0:
221,321,107704,6,0,B|179:351|139:370|70:364,1,142.500005435944,2|0,0:0|0:0,0:0:0:0:
398,243,108145,2,0,L|420:420,1,142.500005435944,4|0,0:2|0:0,0:0:0:0:
269,235,108586,1,0,1:0:0:0:
269,235,108641,1,0,0:0:0:0:
269,235,108696,1,0,0:0:0:0:
301,223,108807,2,0,B|313:198|305:160|258:163,1,71.2500027179719,2|0,0:0|0:0,0:0:0:0:
161,74,109027,2,0,B|124:113|138:182|222:194,1,142.500005435944,2|2,0:0|0:0,0:0:0:0:
338,62,109468,5,4,0:2:0:0:
105,18,109689,1,2,0:0:0:0:
250,62,109854,1,0,0:0:0:0:
250,62,109910,1,2,0:0:0:0:
201,0,110130,1,2,0:0:0:0:
0,244,110351,2,0,L|133:223,1,106.875004076958,0|0,1:0|0:0,0:0:0:0:
120,236,110571,1,0,1:0:0:0:
314,225,110792,2,0,B|303:283|257:296|216:284,1,106.875004076958,8|0,0:0|0:0,0:0:0:0:
226,278,111013,1,2,0:0:0:0:
456,216,111233,6,0,B|403:193|388:165|377:83,1,142.500005435944,2|0,0:0|0:0,0:0:0:0:
302,382,111674,2,0,B|417:395|454:341|417:237|356:293,1,213.750008153916,4|0,0:2|0:0,0:0:0:0:
369,307,112115,2,0,L|424:264,1,35.625001358986,2|0,1:2|0:0,0:0:0:0:
384,278,112336,2,0,L|355:299,1,35.625001358986,2|0,1:2|0:0,0:0:0:0:
314,225,112557,2,0,L|259:182,1,35.625001358986,2|0,1:2|0:0,0:0:0:0:
299,196,112778,2,0,L|327:217,1,35.625001358986,2|0,1:2|0:0,0:0:0:0:
240,66,112998,6,0,B|169:82|142:185|219:233,1,213.750008153916,2|0,0:0|0:0,0:0:0:0:
217,257,113439,2,0,B|218:327|166:357|106:350,1,142.500005435944,6|0,0:0|0:0,0:0:0:0:
25,139,113880,1,0,1:0:0:0:
25,139,113935,2,0,B|33:201|25:232|9:267,1,106.875004076958,8|0,0:0|0:0,0:0:0:0:
121,21,114321,2,0,B|206:-2|286:26|334:85,1,213.750008153916,6|0,0:0|0:0,0:0:0:0:
350,142,114763,6,0,B|413:110|423:54|407:-2,1,142.500005435944,2|0,0:0|0:0,0:0:0:0:
512,194,115204,2,0,B|492:217|447:232|375:220,1,142.500005435944,4|0,0:2|0:0,0:0:0:0:
292,369,115645,1,0,1:0:0:0:
292,369,115700,2,0,B|293:318|292:306|273:246,1,106.875004076958,8|0,0:0|0:0,0:0:0:0:
264,259,115921,1,2,0:0:0:0:
488,330,116086,1,2,0:0:0:0:
410,341,116307,1,2,0:0:0:0:
175,222,116527,6,0,B|159:242|146:252|97:268,1,71.2500027179719,4|0,0:2|0:0,0:0:0:0:
64,310,116748,1,2,0:0:0:0:
166,95,116913,1,0,0:0:0:0:
166,95,116968,2,0,B|228:117|235:144|254:150,1,71.2500027179719,2|0,0:0|0:0,0:0:0:0:
312,139,117189,1,2,0:0:0:0:
49,17,117410,1,0,1:0:0:0:
49,17,117465,2,0,B|66:64|66:96|58:145,1,106.875004076958,8|0,0:0|0:0,0:0:0:0:
331,54,117851,2,0,L|488:31,1,142.500005435944,4|0,0:2|0:0,0:0:0:0:
362,212,118292,6,0,B|367:244|372:252|384:279,1,71.2500027179719,2|0,0:0|0:0,0:0:0:0:
314,314,118513,2,0,B|302:287|297:279|292:247,1,71.2500027179719,2|0,0:0|0:0,0:0:0:0:
441,144,118733,2,0,B|518:192|512:303|455:326,1,213.750008153916,4|0,0:2|0:0,0:0:0:0:
222,291,119174,1,0,1:0:0:0:
222,291,119229,2,0,L|126:321,1,71.2500027179719,8|0,0:0|0:0,0:0:0:0:
135,320,119395,1,0,1:0:0:0:
207,163,119615,2,0,B|209:99|208:83|197:-9,1,142.500005435944,4|0,0:0|0:0,0:0:0:0:
107,21,119946,1,2,0:0:0:0:
69,83,120057,6,0,B|86:132|88:167|68:256,1,142.500005435944,4|0,0:2|0:0,0:0:0:0:
295,87,120498,2,0,L|442:64,1,142.500005435944,4|0,0:0|0:0,0:0:0:0:
310,186,120939,1,0,1:0:0:0:
310,186,120994,2,0,B|277:187|242:182|202:160,1,106.875004076958,8|0,0:0|0:0,0:0:0:0:
508,191,121380,2,0,B|523:252|495:295|436:316,1,142.500005435944,6|0,0:0|0:0,0:0:0:0:
130,242,121821,6,0,B|183:246|195:299|163:350|218:386,1,178.12500679493,2|0,0:0|0:0,0:0:0:0:
8,188,122263,1,2,1:2:0:0:
118,101,122410,1,2,1:2:0:0:
13,25,122557,1,2,1:2:0:0:
97,88,122704,1,0,1:0:0:0:
97,88,122759,2,0,L|220:63,1,106.875004076958,8|0,0:0|0:0,0:0:0:0:
233,59,122979,1,2,0:0:0:0:
285,235,123145,2,0,L|278:321,1,71.2500027179719,2|0,0:0|0:0,0:0:0:0:
164,157,123365,2,0,P|190:182|210:227,1,71.2500027179719,2|0,0:0|0:0,0:0:0:0:
215,380,123586,6,0,B|158:378|125:326|146:263,1,142.500005435944,6|0,0:0|0:0,0:0:0:0:
365,283,124027,2,0,B|422:285|455:337|434:400,1,142.500005435944,2|0,0:0|0:0,0:0:0:0:
385,183,124468,1,0,1:0:0:0:
385,183,124524,1,8,0:0:0:0:
434,68,124689,1,2,1:3:0:0:
296,131,124910,2,0,L|217:117,1,71.2500027179719,4|0,0:2|0:0,0:0:0:0:
212,87,125130,2,0,L|283:100,1,71.2500027179719,2|0,0:0|0:0,0:0:0:0:
122,67,125351,5,0,1:0:0:0:
177,187,125571,1,0,1:0:0:0:
0,358,125792,1,4,1:3:0:0:
53,305,126013,1,2,0:0:0:0:
245,321,126233,2,0,B|192:305|158:287|111:242,1,142.500005435944,8|2,0:0|0:0,0:0:0:0:
428,213,126674,1,4,0:2:0:0:
247,232,126895,1,2,0:0:0:0:
18,83,127115,5,10,0:0:0:0:
52,94,127226,1,0,0:0:0:0:
71,127,127336,1,0,0:0:0:0:
53,17,127557,1,0,0:0:0:0:
85,49,127667,1,0,0:0:0:0:
91,86,127777,1,0,0:0:0:0:
71,127,127888,1,0,0:0:0:0:
27,153,127998,1,8,0:0:0:0:
467,203,128329,1,8,0:0:0:0:
438,138,128439,2,0,P|451:104|461:70,1,71.2500027179719,4|0,0:0|0:0,0:0:0:0:
355,292,128660,2,0,P|359:326|377:384,1,71.2500027179719,4|0,0:0|0:0,0:0:0:0:
268,161,128880,5,2,0:0:0:0:
224,222,128990,1,0,0:0:0:0:
297,228,129101,1,2,0:0:0:0:
297,228,129321,1,4,0:2:0:0:
58,271,129542,1,0,0:0:0:0:
57,322,129652,1,2,0:0:0:0:
8,364,129763,5,0,1:0:0:0:
8,364,129818,1,0,1:0:0:0:
126,199,129983,2,0,P|140:231|153:265,1,71.2500027179719,2|0,0:0|0:0,0:0:0:0:
288,353,130204,1,2,0:0:0:0:
311,43,130424,1,8,0:0:0:0:
380,66,130535,1,8,0:0:0:0:
425,6,130645,6,0,L|523:-3,1,71.2500027179719,12|0,0:0|0:0,0:0:0:0:
217,18,130865,1,4,0:0:0:0:
146,24,130976,2,0,L|126:123,1,71.2500027179719,4|0,0:2|0:0,0:0:0:0:
391,264,131307,1,4,0:0:0:0:
325,233,131417,1,4,0:0:0:0:
325,308,131527,2,0,P|353:331|430:340,1,71.2500027179719,8|0,0:0|0:0,0:0:0:0:
512,280,131748,2,0,P|478:291|451:314,1,71.2500027179719,8|0,0:0|0:0,0:0:0:0:
234,319,131968,1,8,0:0:0:0:
234,319,132189,2,0,P|238:246|226:155,1,142.500005435944,8|0,0:0|0:0,0:0:0:0:
321,130,132520,5,4,0:0:0:0:
350,142,132630,1,4,0:0:0:0:
404,139,132740,1,8,0:0:0:0:
449,85,132851,1,12,0:0:0:0:
112,206,133182,1,4,0:2:0:0:
133,128,133292,1,4,0:0:0:0:
17,11,133513,5,8,0:0:0:0:
88,0,133623,1,8,0:0:0:0:
124,46,133733,1,8,0:0:0:0:
180,64,133843,1,8,0:0:0:0:
213,57,133954,1,8,0:0:0:0:
230,32,134064,1,4,0:0:0:0:
286,0,134174,6,0,P|347:36|363:85,1,71.2500027179719,4|0,0:2|0:0,0:0:0:0:
329,184,134395,1,8,0:0:0:0:
297,255,134505,1,8,0:0:0:0:
321,324,134615,1,4,0:0:0:0:
394,332,134726,1,4,0:0:0:0:
441,278,134836,1,4,0:2:0:0:
370,252,134946,1,4,0:0:0:0:
316,280,135057,1,8,0:0:0:0:
292,313,135167,1,4,0:0:0:0:
293,346,135277,1,4,0:0:0:0:
285,365,135388,1,4,0:0:0:0:
267,371,135498,2,0,P|215:317|222:236,1,142.500005435944,12|2,0:0|0:2,0:0:0:0:
72,364,135939,5,8,0:0:0:0:
47,310,136049,1,8,0:0:0:0:
72,273,136160,1,12,0:0:0:0:
76,210,136270,2,0,P|41:196|-2:166,2,71.2500027179719,12|2|4,0:0|0:2|0:0,0:0:0:0:
184,185,136601,1,4,0:0:0:0:
252,210,136711,1,4,0:0:0:0:
319,178,136821,5,8,1:3:0:0:
319,178,136877,1,0,1:0:0:0:
319,178,136932,1,4,0:0:0:0:
383,205,137042,1,8,0:0:0:0:
443,163,137152,1,8,0:0:0:0:
445,87,137263,2,0,P|421:53|362:42,1,71.2500027179719,10|0,0:0|0:0,0:0:0:0:
247,8,137483,1,8,0:0:0:0:
277,72,137593,1,8,0:0:0:0:
350,96,137704,5,8,0:0:0:0:
340,75,137777,1,8,0:0:0:0:
315,56,137851,1,8,0:0:0:0:
280,51,137924,1,8,0:0:0:0:
245,55,137998,1,8,0:0:0:0:
213,73,138071,1,8,0:0:0:0:
194,104,138145,2,0,L|127:99,1,47.5000018119813,8|0,0:0|0:0,0:0:0:0:
66,96,138292,1,8,0:0:0:0:
80,101,138365,2,8,L|60:33,2,47.5000018119813
37,184,138586,6,0,P|10:218|32:279,1,95.0000036239625,12|0,1:3|0:0,0:0:0:0:
106,297,138807,1,8,1:3:0:0:
134,287,138880,1,8,0:0:0:0:
164,294,138954,1,8,1:3:0:0:
195,285,139027,2,0,L|263:262,1,47.5000018119813,8|8,0:0|0:0,0:0:0:0:
278,190,139174,1,8,0:0:0:0:
274,156,139248,2,8,L|270:83,2,47.5000018119813
298,320,139468,2,0,L|304:390,1,47.5000018119813,10|0,0:0|0:0,0:0:0:0:
380,340,139615,1,8,0:0:0:0:
376,312,139689,2,0,L|365:245,1,47.5000018119813,8|0,0:0|0:0,0:0:0:0:
376,195,139836,1,2,1:2:0:0:
406,187,139910,1,2,1:2:0:0:
418,162,139983,1,2,1:2:0:0:
399,127,140057,1,2,1:2:0:0:
377,96,140130,1,2,1:2:0:0:
389,49,140204,1,2,1:2:0:0:
428,32,140277,1,2,1:2:0:0:
462,56,140351,1,2,1:2:0:0:
462,56,140792,6,0,L|470:87,6,28.4999991302491,2|2|0|2|0|2|0,0:0|0:0|0:0|0:0|0:0|0:0|0:0,0:0:0:0:
276,138,141233,5,4,0:0:0:0:
202,116,141343,1,4,0:0:0:0:
126,96,141454,1,4,0:0:0:0:
179,42,141564,1,6,0:0:0:0:
179,42,142115,2,0,L|164:183,1,109.250002083778,8|0,0:0|0:0,0:0:0:0:
102,186,142336,1,2,0:0:0:0:
61,186,142446,1,2,0:0:0:0:
26,214,142557,1,2,0:0:0:0:
34,241,142667,1,0,0:0:0:0:
47,265,142777,1,0,0:0:0:0:
57,290,142888,2,0,L|128:301,1,71.2500027179719,2|0,0:0|0:0,0:0:0:0:
358,328,143218,5,8,0:0:0:0:
354,299,143292,1,8,0:0:0:0:
338,275,143365,1,8,0:0:0:0:
313,263,143439,1,8,0:0:0:0:
358,328,143660,5,8,0:0:0:0:
354,299,143734,1,8,0:0:0:0:
338,275,143807,1,8,0:0:0:0:
313,263,143881,1,8,0:0:0:0:
266,213,143990,5,0,0:0:0:0:
316,162,144101,2,0,L|449:184,1,109.250002083778,8|0,1:3|0:0,0:0:0:0:
313,72,144321,5,2,1:2:0:0:
242,116,144468,1,2,1:2:0:0:
363,66,144615,1,2,1:2:0:0:
155,84,144763,6,0,P|151:119|167:162,1,71.25,4|0,1:0|0:0,0:0:0:0:
64,323,145204,2,0,P|100:327|134:317,1,71.25,4|0,0:2|0:0,0:0:0:0:
431,384,145645,2,0,P|435:349|419:306,1,71.25,4|0,0:1|0:0,0:0:0:0:
497,30,146086,6,0,P|438:22|381:37,1,118.75,4|0,0:2|0:3,0:3:0:0:
256,141,146307,1,2,0:0:0:0:
302,201,146417,6,0,L|451:167,1,118.75,2|0,0:1|0:0,0:0:0:0:
276,28,146638,1,2,0:0:0:0:
214,23,146748,1,2,0:0:0:0:
183,75,146858,1,2,0:0:0:0:
140,124,146968,1,12,0:0:0:0:
74,121,147079,1,2,0:1:0:0:
37,54,147189,1,2,0:0:0:0:
92,4,147299,1,2,0:0:0:0:
131,69,147410,6,0,P|116:125|101:204,1,95,8|0,0:0|0:0,0:0:0:0:
163,384,147630,1,4,0:0:0:0:
146,307,147740,2,0,P|114:280|102:282,2,47.5,2|2|2,0:0|0:2|0:0,0:0:0:0:
290,267,148071,1,2,0:1:0:0:
345,248,148182,1,2,0:0:0:0:
317,216,148292,5,8,0:0:0:0:
302,288,148402,1,0,1:0:0:0:
331,357,148513,1,0,1:0:0:0:
414,374,148623,1,0,1:0:0:0:
460,342,148733,5,2,0:2:0:0:
460,342,148788,1,2,0:2:0:0:
460,342,148843,2,0,L|469:305,1,23.75,10|0,0:0|0:0,0:0:0:0:
485,254,148954,5,0,1:0:0:0:
485,254,149009,2,0,L|522:259,2,23.75,0|0|0,1:0|1:0|1:0,1:0:0:0:
426,207,149174,2,0,P|404:135|437:90,1,95,10|0,1:3|0:0,0:0:0:0:
342,47,149395,2,0,P|286:63|248:108,1,118.75,6|0,0:0|0:0,0:0:0:0:
225,373,149615,6,0,P|216:302|195:213,1,118.75,4|0,0:1|0:0,0:0:0:0:
8,178,149836,1,2,0:0:0:0:
28,202,149946,2,0,P|85:203|173:173,1,118.75,2|2,0:0|0:0,0:0:0:0:
372,352,150167,1,2,0:0:0:0:
304,317,150277,2,0,P|308:264|373:166,1,118.75,6|0,0:0|0:0,0:0:0:0:
342,47,150498,1,6,0:0:0:0:
292,102,150608,1,0,0:0:0:0:
233,89,150718,1,0,0:0:0:0:
185,78,150829,1,2,0:1:0:0:
126,63,150939,5,2,0:2:0:0:
139,61,151013,1,2,0:2:0:0:
155,56,151086,1,2,0:2:0:0:
169,52,151160,5,2,0:2:0:0:
151,105,151270,1,2,0:0:0:0:
149,161,151380,1,2,0:0:0:0:
182,212,151490,1,2,0:0:0:0:
232,232,151601,1,2,0:0:0:0:
294,222,151711,1,2,0:0:0:0:
333,161,151821,5,12,0:0:0:0:
404,144,151932,1,0,1:0:0:0:
467,187,152042,1,0,1:0:0:0:
478,263,152152,2,0,P|508:226|501:213,2,47.5,0|12|0,1:0|0:0|0:0,0:0:0:0:
295,370,152483,1,8,0:0:0:0:
267,298,152593,1,4,0:0:0:0:
213,251,152704,2,0,L|70:291,1,118.75,12|0,0:0|0:0,0:0:0:0:
422,384,152924,2,0,L|437:210,1,118.75,4|0,0:2|0:0,0:0:0:0:
256,88,153145,5,12,0:0:0:0:
237,147,153255,1,2,0:0:0:0:
191,173,153365,2,0,P|131:163|88:85,1,118.75,2|0,0:0|0:0,0:0:0:0:
228,10,153586,1,0,1:0:0:0:
301,4,153696,1,2,0:0:0:0:
368,39,153807,1,12,0:0:0:0:
389,109,153917,1,2,0:0:0:0:
440,171,154027,2,0,P|485:135|505:44,1,118.75,4|0,0:2|0:0,0:0:0:0:
389,109,154248,2,0,L|312:99,1,71.2500027179719,2|0,0:0|0:0,0:0:0:0:
208,30,154468,6,0,P|209:82|197:124,1,95,8|0,0:0|0:0,0:0:0:0:
26,209,154689,1,4,0:0:0:0:
4,278,154799,1,4,0:0:0:0:
55,325,154910,2,0,P|58:283|74:187,1,95,6|0,0:0|0:0,0:0:0:0:
113,129,155130,1,0,1:0:0:0:
70,125,155240,1,0,1:0:0:0:
95,118,155351,5,4,0:0:0:0:
149,148,155461,1,0,0:0:0:0:
227,137,155571,1,4,0:0:0:0:
240,60,155682,2,0,P|226:42|201:29,2,47.5,2|4|0,0:1|0:0|0:0,0:0:0:0:
353,164,156013,5,2,0:1:0:0:
374,158,156086,1,0,0:0:0:0:
395,148,156160,1,0,0:0:0:0:
414,135,156233,6,0,P|438:82|422:4,1,118.75,12|0,0:0|0:0,0:0:0:0:
503,159,156454,1,10,0:0:0:0:
492,233,156564,1,0,0:0:0:0:
443,282,156674,6,0,P|400:280|335:219,1,118.75,4|0,0:1|0:0,0:0:0:0:
186,17,156895,1,2,0:0:0:0:
254,45,157005,1,2,0:0:0:0:
283,118,157115,2,0,P|220:186|166:201,1,118.75,2|2,0:1|0:0,0:0:0:0:
22,140,157336,1,2,0:0:0:0:
80,142,157446,1,2,0:0:0:0:
106,163,157557,2,0,P|105:219|99:314,1,118.75,4|0,1:0|0:0,0:0:0:0:
76,320,157722,5,2,0:2:0:0:
76,320,157777,1,2,0:2:0:0:
103,372,157888,1,2,0:0:0:0:
178,368,157998,5,2,0:2:0:0:
197,352,158071,1,2,0:2:0:0:
224,347,158145,1,2,0:2:0:0:
247,354,158218,1,2,0:2:0:0:
275,298,158329,1,2,0:0:0:0:
304,248,158439,5,2,0:2:0:0:
304,248,158494,1,2,0:2:0:0:
304,248,158549,2,0,L|371:239,1,47.5,2|2,0:2|0:2,0:0:0:0:
496,194,158770,1,2,0:1:0:0:
481,222,158880,5,12,0:0:0:0:
449,177,158990,1,0,1:0:0:0:
481,129,159101,1,0,1:0:0:0:
431,74,159211,1,0,1:0:0:0:
457,77,159321,2,0,P|394:105|320:128,1,118.75,12|0,0:0|0:0,0:0:0:0:
173,289,159542,2,0,P|199:205|311:173,1,178.125,2|0,0:0|0:0,0:0:0:0:
285,178,159763,6,0,P|289:253|242:277,1,118.75,12|0,0:0|0:0,0:0:0:0:
0,166,159983,1,6,0:0:0:0:
36,237,160093,1,2,0:0:0:0:
56,308,160204,2,0,P|127:291|185:288,1,118.75,4|0,1:0|0:0,0:0:0:0:
425,384,160424,1,2,0:0:0:0:
351,365,160535,2,0,P|373:310|379:251,1,118.75,2|2,0:1|0:0,0:0:0:0:
484,94,160755,1,2,0:0:0:0:
443,142,160865,1,2,0:0:0:0:
436,204,160976,1,2,0:0:0:0:
456,284,161086,5,2,0:2:0:0:
456,284,161141,1,2,0:2:0:0:
456,284,161196,1,2,0:2:0:0:
456,284,161252,1,2,0:2:0:0:
456,284,161307,1,2,0:2:0:0:
422,342,161417,1,2,0:0:0:0:
351,365,161527,2,0,P|298:306|311:241,1,118.75,8|0,0:0|0:0,0:0:0:0:
189,172,161748,1,2,0:0:0:0:
255,159,161858,1,2,0:0:0:0:
296,99,161968,6,0,L|256:79,1,23.75,2|0,1:3|0:0,0:0:0:0:
224,68,162079,5,2,0:2:0:0:
224,68,162134,1,2,0:2:0:0:
224,68,162189,1,2,0:0:0:0:
204,20,162299,1,2,0:0:0:0:
158,5,162410,5,4,0:1:0:0:
138,71,162520,1,0,1:0:0:0:
66,87,162630,1,0,1:0:0:0:
23,133,162740,1,0,1:0:0:0:
13,189,162851,6,0,L|55:198,1,23.75,0|0,1:0|1:0,1:0:0:0:
91,222,162961,5,0,1:0:0:0:
91,222,163016,1,2,1:2:0:0:
91,222,163071,1,2,1:2:0:0:
91,222,163127,2,0,L|124:214,2,23.75,2|2|2,1:2|1:2|1:2,1:2:0:0:
23,268,163292,2,0,P|11:322|2:393,1,118.75,12|0,0:0|0:0,0:0:0:0:
197,208,163513,2,0,L|311:174,1,118.75,4|0,0:1|0:0,0:0:0:0:
503,290,163733,6,0,L|422:83,1,178.125,4|0,1:0|0:0,0:0:0:0:
446,99,163954,1,2,0:0:0:0:
402,37,164064,1,2,0:0:0:0:
329,29,164174,2,0,P|308:139|321:193,1,118.75,2|0,0:1|0:0,0:0:0:0:
346,384,164395,1,6,0:0:0:0:
378,341,164505,1,2,0:1:0:0:
358,290,164615,1,4,0:1:0:0:
310,285,164726,5,2,0:2:0:0:
310,285,164781,1,2,0:2:0:0:
310,285,164836,1,2,0:2:0:0:
239,296,164946,1,2,0:0:0:0:
188,345,165057,5,8,0:0:0:0:
169,340,165130,1,2,0:2:0:0:
154,332,165204,1,2,0:2:0:0:
143,318,165277,1,2,0:2:0:0:
137,258,165388,1,2,0:0:0:0:
78,238,165498,1,2,0:1:0:0:
21,272,165608,5,2,0:2:0:0:
21,272,165663,1,2,0:2:0:0:
21,272,165718,2,0,P|29:239|36:190,1,76
41,102,165939,5,12,0:0:0:0:
98,93,166049,1,0,1:0:0:0:
145,142,166160,1,0,1:0:0:0:
219,131,166270,1,0,1:0:0:0:
278,179,166380,6,0,P|326:132|289:55,1,118.75,12|0,0:0|0:0,0:0:0:0:
159,4,166601,1,8,0:0:0:0:
232,19,166711,1,8,0:0:0:0:
302,62,166821,6,0,P|355:60|464:28,1,118.75,12|0,0:0|0:0,0:0:0:0:
440,179,167042,2,0,P|404:228|411:339,1,118.75,4|0,0:1|0:0,0:0:0:0:
501,263,167263,2,0,P|377:249|319:284,1,118.75,4|0,1:0|0:0,0:0:0:0:
205,283,167483,1,2,0:0:0:0:
220,330,167593,1,2,0:0:0:0:
285,347,167704,5,8,0:0:0:0:
321,288,167814,2,0,P|271:298|169:293,1,118.75,4|2,0:0|0:2,0:0:0:0:
13,262,168035,1,8,0:0:0:0:
72,226,168145,1,4,0:0:0:0:
65,153,168255,1,4,0:0:0:0:
101,111,168365,2,0,P|154:136|227:120,1,118.75,8|4,0:0|0:0,0:0:0:0:
333,30,168586,6,0,P|338:15|341:0,2,31.6666666666667,2|0|0,1:2|0:0|0:0,0:0:0:0:
414,35,168807,1,2,0:2:0:0:
446,38,168880,1,2,0:2:0:0:
468,55,168954,1,2,0:2:0:0:
471,83,169027,2,0,P|456:117|441:186,1,79.1666666666667,2|0,0:2|0:0,0:0:0:0:
381,259,169174,1,2,0:2:0:0:
381,236,169248,1,2,0:2:0:0:
359,214,169321,1,2,0:2:0:0:
329,214,169395,1,2,0:2:0:0:
305,240,169468,6,0,L|337:350,1,95
