osu file format v14

[General]
AudioFilename: OD.mp3
AudioLeadIn: 0
PreviewTime: 140792
Countdown: 0
SampleSet: Drum
StackLeniency: 0.2
Mode: 0
LetterboxInBreaks: 0
WidescreenStoryboard: 1

[Editor]
Bookmarks: 14615,15057,28292,41527,42410,56527,69763,70645,71527,71968,98880,105939,112998,127115,141233,144763,169468
DistanceSpacing: 1.6
BeatDivisor: 4
GridSize: 32
TimelineZoom: 2.7

[Metadata]
Title:O.D.
TitleUnicode:O.D.
Artist:Polyphia
ArtistUnicode:Polyphia
Creator:Melwoine
Version:Normal
Source:
Tags:New Levels New Devils od instrumental Progressive Metal Math corsace grandfinals gf hard rock hr1 Vinxis
BeatmapID:2753113
BeatmapSetID:1276327

[Difficulty]
HPDrainRate:3
CircleSize:2
OverallDifficulty:5
ApproachRate:6
SliderMultiplier:1.1
SliderTickRate:1

[Events]
//Background and Video events
0,0,"13637062_p0_master1200_waifu2x_art_noise3_scale_tta_1.png",0,0
//Break Periods
2,99080,104889
//Storyboard Layer 0 (Background)
//Storyboard Layer 1 (Fail)
//Storyboard Layer 2 (Pass)
//Storyboard Layer 3 (Foreground)
//Storyboard Layer 4 (Overlay)
//Storyboard Sound Samples

[TimingPoints]
58,428.571428571429,4,3,0,70,1,0
486,454.545454545455,4,3,0,70,1,8
940,441.176470588235,4,3,0,70,1,8
1822,441.176470588235,4,3,0,70,1,8
3586,428.571428571429,4,3,0,70,1,0
4014,455.235204855842,4,3,0,70,1,8
4469,441.176470588235,4,3,0,70,1,0
7116,441.176470588235,4,3,0,70,1,0
15498,-90.9090909090909,4,3,0,70,0,0
28292,-111.111111111111,4,3,0,70,0,0
42410,-100,4,3,0,70,0,0
71527,-90.9090909090909,4,3,0,80,0,0
71968,-90.9090909090909,4,3,0,80,0,1
98880,-90.9090909090909,4,3,0,70,0,0
105939,-125,4,3,0,60,0,0
112998,-111.111111111111,4,3,0,60,0,0
127115,-100,4,3,0,70,0,0
144763,-90.9090909090909,4,3,0,80,0,1
169468,-90.9090909090909,4,3,0,70,0,0

[Colours]
Combo1 : 140,83,83
Combo2 : 192,185,160
Combo3 : 131,129,84
Combo4 : 154,98,41

[HitObjects]
281,299,7116,6,0,L|281:354,2,55,0|0|0,1:0|0:0|0:0,0:0:0:0:
279,123,7998,2,0,P|255:104|210:89,1,55,2|0,0:0|0:0,0:0:0:0:
150,126,8439,1,0,1:0:0:0:
69,162,8660,2,0,P|63:215|66:318,1,137.5,2|2,1:2|0:1,0:0:0:0:
134,352,9432,1,2,0:0:0:0:
213,313,9652,2,0,P|279:290|351:281,1,137.5,2|0,1:2|1:3,0:0:0:0:
430,126,10645,6,0,P|425:101|421:66,2,55,2|2|0,1:3|0:0|0:0,0:0:0:0:
258,164,11527,1,2,0:0:0:0:
170,172,11748,2,0,P|124:162|105:159,1,55,2|0,0:1|1:0,0:0:0:0:
42,208,12189,1,0,1:0:0:0:
54,295,12410,5,4,0:0:0:0:
213,369,12851,2,0,L|272:340,1,55,8|4,0:0|0:0,0:0:0:0:
296,263,13292,1,8,0:0:0:0:
364,207,13513,2,0,L|435:213,1,55,8|4,0:0|0:0,0:0:0:0:
460,225,13843,2,0,P|493:155|496:130,1,82.5,8|4,0:0|0:0,0:0:0:0:
393,5,14615,1,2,0:0:0:0:
220,41,15057,1,10,0:0:0:0:
164,109,15277,1,10,0:0:0:0:
213,192,15498,6,0,P|221:258|234:324,1,121.000003692627,4|0,1:0|0:0,0:0:0:0:
325,335,16160,1,0,0:0:0:0:
418,359,16380,2,0,P|439:298|445:259,1,90.7500027694703,4|2,0:0|0:2,0:0:0:0:
429,225,16821,1,8,0:0:0:0:
272,111,17263,1,2,0:0:0:0:
194,168,17483,1,4,0:0:0:0:
97,168,17704,6,0,P|87:144|75:97,1,60.5000018463135,4|2,0:1|0:0,0:0:0:0:
109,19,18145,1,2,0:0:0:0:
302,18,18586,2,0,P|340:51|353:106,1,90.7500027694703,8|0,0:0|0:0,0:0:0:0:
394,113,19027,2,0,L|378:219,1,90.7500027694703,4|2,1:0|0:0,0:0:0:0:
356,346,19689,1,8,0:0:0:0:
261,322,19910,2,0,P|205:322|187:325,1,60.5000018463135,4|2,1:0|0:0,0:0:0:0:
103,329,20351,1,8,0:0:0:0:
11,158,20792,1,2,0:0:0:0:
62,75,21013,1,4,0:0:0:0:
151,39,21233,6,0,P|210:20|248:17,2,90.7500027694703,6|2|4,0:0|0:1|0:0,0:0:0:0:
141,135,22115,1,4,0:1:0:0:
216,196,22336,1,4,0:0:0:0:
308,224,22557,1,6,0:0:0:0:
412,60,22998,2,0,P|442:52|478:48,2,60.5000018463135,2|4|4,0:1|0:1|0:0,0:0:0:0:
316,44,23660,1,2,0:2:0:0:
220,27,23880,2,0,P|211:94|213:161,1,121.000003692627,8|4,0:0|0:0,0:0:0:0:
305,317,24763,6,0,P|348:311|418:297,1,90.7500027694703,4|2,1:0|0:1,0:0:0:0:
443,298,25204,1,2,0:0:0:0:
466,105,25645,1,10,0:0:0:0:
370,115,25865,1,6,0:0:0:0:
284,161,26086,1,4,0:1:0:0:
170,317,26527,6,0,L|189:402,2,60.5000018463135,2|6|2,0:0|0:0|0:2,0:0:0:0:
73,308,27189,1,2,0:2:0:0:
28,221,27410,2,0,P|37:154|49:98,1,121.000003692627,8|2,0:0|0:0,0:0:0:0:
226,27,28292,6,0,P|251:31|368:103,2,148.49999546814,2|0|4,0:0|0:0|0:2,0:0:0:0:
62,97,30057,2,0,P|64:155|70:210,1,98.9999969787599,2|2,0:0|0:0,0:0:0:0:
185,329,30939,2,0,L|249:321,1,49.4999984893799
297,260,31380,2,0,L|361:268,1,49.4999984893799,2|0,0:0|0:0,0:0:0:0:
432,287,31821,6,0,P|484:348|500:365,2,98.9999969787599,2|2|2,0:0|0:0|0:0,0:0:0:0:
366,121,33145,1,4,0:2:0:0:
208,37,33586,6,0,L|104:57,2,98.9999969787599,2|2|2,0:0|0:0|0:0,0:0:0:0:
379,86,34910,2,0,L|373:148,1,49.4999984893799,2|2,0:0|0:0,0:0:0:0:
310,197,35351,2,0,P|315:243|312:295,1,98.9999969787599,2|2,0:0|0:0,0:0:0:0:
146,361,36233,2,0,P|83:362|27:355,1,98.9999969787599,2|4,0:0|0:2,0:0:0:0:
27,181,37115,5,4,0:2:0:0:
204,163,37557,2,0,L|306:150,1,98.9999969787599,4|2,0:2|0:0,0:0:0:0:
477,118,38439,2,0,P|496:70|508:19,2,98.9999969787599,2|2|2,0:0|0:0|0:0,0:0:0:0:
349,243,39763,2,0,P|324:244|299:245,1,49.4999984893799,2|2,0:0|0:0,0:0:0:0:
210,244,40204,2,0,P|200:292|169:338,1,98.9999969787599,4|0,0:2|0:0,0:0:0:0:
2,282,41086,1,2,0:2:0:0:
38,107,41527,1,8,0:0:0:0:
376,10,42410,6,0,L|387:123,1,110,4|2,1:0|2:0,0:0:0:0:
360,203,43071,1,2,0:0:0:0:
339,288,43292,2,0,P|362:300|409:316,2,55,8|2|4,0:0|0:0|0:0,0:0:0:0:
211,196,44174,2,0,L|135:210,1,55,2|2,0:2|0:2,0:0:0:0:
74,174,44615,2,0,L|87:100,1,55,4|2,0:0|0:2,0:0:0:0:
101,33,45057,2,0,L|36:12,2,55,8|2|2,0:0|0:0|0:2,0:0:0:0:
187,49,45718,1,2,0:0:0:0:
273,67,45939,5,6,0:0:0:0:
327,234,46380,1,2,0:0:0:0:
190,345,46821,2,0,L|130:330,1,55,8|4,0:0|0:0,0:0:0:0:
58,290,47263,2,0,L|75:215,1,55,6|0,0:0|0:0,0:0:0:0:
137,179,47704,1,2,0:0:0:0:
310,147,48145,2,0,P|327:219|341:270,2,110,4|8|2,0:0|0:0|0:2,0:0:0:0:
326,60,49248,1,2,0:0:0:0:
406,26,49468,6,0,P|460:69|477:128,1,110,4|2,0:1|0:2,0:0:0:0:
441,278,50351,2,0,L|377:296,1,55,8|4,0:0|0:0,0:0:0:0:
315,342,50792,2,0,L|194:323,1,110,6|2,0:0|0:0,0:0:0:0:
119,341,51454,1,4,0:0:0:0:
66,270,51674,1,6,0:0:0:0:
137,109,52115,2,0,L|218:115,1,55,8|4,0:0|0:0,0:0:0:0:
280,120,52557,1,2,0:2:0:0:
315,292,52998,6,0,P|362:356|403:376,1,110,4|2,0:1|0:0,0:0:0:0:
505,240,53880,1,8,0:0:0:0:
465,161,54101,2,0,L|470:83,2,55,0|6|0,1:0|0:0|0:0,0:0:0:0:
391,209,54763,2,0,P|313:200|266:189,1,110,6|2,0:0|0:0,0:0:0:0:
153,73,55645,2,0,L|83:81,1,55,8|2,0:0|0:0,0:0:0:0:
22,124,56086,1,4,0:0:0:0:
72,292,56527,6,0,P|123:291|166:281,1,82.5,4|6,0:2|0:0,0:0:0:0:
197,285,56968,1,4,1:2:0:0:
359,302,57410,2,0,P|398:286|428:265,1,55,8|6,0:0|0:0,0:0:0:0:
432,194,57851,2,0,L|416:91,1,82.5,4|6,0:2|0:0,0:0:0:0:
400,72,58292,2,0,P|330:85|325:88,1,55,4|2,0:2|0:0,0:0:0:0:
276,132,58733,1,4,0:2:0:0:
151,256,59174,2,0,P|121:256|87:242,1,55,8|8,0:0|0:0,0:0:0:0:
28,193,59615,1,4,0:2:0:0:
116,40,60057,6,0,L|207:32,1,82.5,8|4,0:0|0:0,0:0:0:0:
241,21,60498,1,4,0:2:0:0:
252,196,60939,2,0,L|247:277,2,55,10|2|4,0:0|0:0|0:2,0:0:0:0:
331,158,61601,1,4,0:0:0:0:
411,121,61821,2,0,P|462:148|474:156,1,55,4|2,0:2|0:2,0:0:0:0:
491,229,62263,2,0,L|476:303,1,55,4|2,0:2|0:1,0:0:0:0:
456,367,62704,1,8,0:0:0:0:
281,347,63145,2,0,L|205:349,1,55,4|8,0:2|0:0,0:0:0:0:
158,291,63586,6,0,P|167:230|200:167,1,110,4|4,0:1|0:2,0:0:0:0:
158,12,64468,1,8,0:0:0:0:
3,97,64910,2,0,P|17:146|34:185,1,82.5,4|8,0:2|0:0,0:0:0:0:
69,194,65351,2,0,P|122:206|187:205,1,110,10|2,0:0|0:2,0:0:0:0:
338,276,66233,1,4,1:2:0:0:
420,245,66454,1,10,0:0:0:0:
470,173,66674,2,0,L|434:104,1,55,4|6,0:2|0:0,0:0:0:0:
421,39,67115,1,4,0:2:0:0:
246,65,67557,6,0,L|246:190,1,110,4|10,0:2|0:0,0:0:0:0:
242,262,68218,1,6,0:0:0:0:
253,349,68439,2,0,P|272:350|312:350,1,55,4|10,0:2|0:0,0:0:0:0:
394,333,68880,6,0,P|432:223|434:213,2,110,4|2|10,0:1|0:2|0:3,0:0:0:0:
130,98,70645,6,0,L|70:118,1,55,4|6,0:0|0:0,0:0:0:0:
53,152,70976,1,6,0:0:0:0:
177,359,71527,1,8,0:0:0:0:
267,323,71748,1,12,0:0:0:0:
355,284,71968,6,0,P|406:290|465:306,2,90.7500027694703,4|2|2,1:0|0:0|0:0,0:0:0:0:
272,232,72851,2,0,P|297:142|313:132,1,90.7500027694703,4|2,0:1|0:0,0:0:0:0:
308,102,73292,1,10,0:0:0:0:
493,156,73733,1,2,1:2:0:0:
373,308,74174,2,0,L|292:335,1,60.5000018463135,12|6,0:0|0:0,0:0:0:0:
269,343,74505,1,6,0:0:0:0:
233,102,75057,1,4,1:0:0:0:
39,113,75498,6,0,P|48:179|64:256,1,121.000003692627,4|2,1:0|0:2,0:0:0:0:
214,347,76380,2,0,P|248:340|289:327,1,60.5000018463135,6|2,0:0|0:0,0:0:0:0:
367,352,76821,1,8,0:0:0:0:
454,311,77042,1,4,0:0:0:0:
443,117,77483,1,2,0:1:0:0:
349,92,77704,2,0,L|313:189,1,90.7500027694703,4|0,0:0|1:0,0:0:0:0:
222,156,78255,2,0,L|128:189,1,90.7500027694703,4|8,0:1|0:0,0:0:0:0:
39,177,78807,1,6,0:0:0:0:
8,85,79027,5,4,1:0:0:0:
177,0,79468,1,2,1:0:0:0:
235,77,79689,2,0,L|217:158,2,60.5000018463135,4|4|0,0:0|0:1|0:0,0:0:0:0:
326,45,80351,1,10,0:0:0:0:
444,197,80792,1,6,0:0:0:0:
331,354,81233,2,0,L|231:330,1,90.7500027694703,4|2,0:1|1:0,0:0:0:0:
196,317,81674,2,0,L|184:257,1,60.5000018463135,4|8,0:0|0:0,0:0:0:0:
243,180,82115,1,12,0:0:0:0:
193,96,82336,1,8,1:3:0:0:
98,74,82557,5,4,1:0:0:0:
15,249,82998,2,0,L|94:267,1,60.5000018463135,0|4,1:0|0:0,0:0:0:0:
159,216,83439,2,0,L|235:202,1,60.5000018463135,6|0,0:0|0:0,0:0:0:0:
312,180,83880,2,0,P|321:235|322:289,1,90.7500027694703,8|4,0:0|0:0,0:0:0:0:
348,311,84321,1,8,0:0:0:0:
493,182,84763,2,0,P|482:136|465:80,2,90.7500027694703,4|10|2,0:0|0:0|1:0,0:0:0:0:
493,278,85645,5,4,0:2:0:0:
414,334,85865,1,14,0:0:0:0:
321,363,86086,2,0,P|310:316|271:219,1,151.250004615784,4|2,0:1|0:0,0:0:0:0:
173,113,86968,2,0,L|105:136,1,60.5000018463135,12|0,0:0|0:0,0:0:0:0:
22,161,87410,1,2,0:0:0:0:
67,349,87851,2,0,L|151:322,1,60.5000018463135,0|2,1:0|0:2,0:0:0:0:
221,327,88292,2,0,P|264:264|278:202,1,121.000003692627,12|12,0:0|0:0,0:0:0:0:
267,28,89174,5,4,1:2:0:0:
363,38,89395,1,2,0:0:0:0:
459,45,89615,2,0,P|457:77|441:147,1,90.7500027694703,4|2,1:0|0:1,0:0:0:0:
381,208,90167,2,0,L|392:284,1,60.5000018463135,2|2,0:0|0:0,0:0:0:0:
397,316,90498,1,4,0:0:0:0:
204,330,90939,2,0,L|121:308,1,60.5000018463135,8|2,0:0|0:0,0:0:0:0:
58,272,91380,1,2,0:2:0:0:
31,80,91821,5,12,0:0:0:0:
113,29,92042,1,4,0:1:0:0:
209,37,92263,2,0,L|238:112,1,60.5000018463135,12|12,0:0|0:0,0:0:0:0:
306,153,92704,2,0,P|363:151|391:142,1,60.5000018463135,12|2,0:0|1:3,0:0:0:0:
462,140,93145,2,0,P|458:197|444:244,2,90.7500027694703,4|2|4,1:0|0:0|0:0,0:0:0:0:
473,44,94027,1,6,0:2:0:0:
283,3,94468,1,8,0:0:0:0:
224,187,94910,1,2,0:2:0:0:
151,366,95351,6,0,L|76:369,1,60.5000018463135,12|0,0:0|1:0,0:0:0:0:
41,286,95792,1,12,0:0:0:0:
191,164,96233,1,8,1:3:0:0:
280,201,96454,1,4,0:1:0:0:
371,230,96674,2,0,P|389:167|394:125,1,90.7500027694703,4|2,1:0|0:0,0:0:0:0:
385,93,97115,2,0,L|311:69,1,60.5000018463135,2|12,0:2|0:0,0:0:0:0:
235,42,97557,1,12,0:0:0:0:
161,221,97998,2,0,P|175:283|207:346,2,121.000003692627,8|2|4,0:0|0:2|0:2,0:0:0:0:
253,364,105939,6,0,L|259:178,1,176,4|0,0:2|1:0,0:0:0:0:
249,47,107263,2,0,L|160:83,1,88,10|2,0:0|0:0,0:0:0:0:
41,142,108145,1,4,0:2:0:0:
70,279,108586,2,0,L|176:261,1,88,0|2,1:0|0:0,0:0:0:0:
295,243,109468,6,0,P|305:295|308:346,2,88,4|2|0,0:2|0:0|1:0,0:0:0:0:
295,101,110792,2,0,P|354:109|384:117,1,88,8|2,0:0|0:0,0:0:0:0:
455,235,111674,2,0,L|444:326,1,88,4|2,0:2|1:2,0:0:0:0:
305,347,112557,1,2,1:2:0:0:
165,325,112998,6,0,P|109:341|54:349,2,98.9999969787599,2|6|0,0:0|0:0|1:0,0:0:0:0:
228,180,114321,1,6,0:0:0:0:
102,83,114763,2,0,P|82:153|79:233,1,148.49999546814,2|0,0:0|0:0,0:0:0:0:
142,290,115645,1,0,1:0:0:0:
266,162,116086,6,0,P|308:140|368:131,2,98.9999969787599,2|4|2,0:0|0:2|0:0,0:0:0:0:
260,340,117410,1,0,1:0:0:0:
435,370,117851,2,0,L|442:311,1,49.4999984893799,4|0,0:2|0:0,0:0:0:0:
455,232,118292,1,2,0:0:0:0:
422,56,118733,2,0,L|322:45,1,98.9999969787599,4|0,0:2|1:0,0:0:0:0:
145,53,119615,1,4,0:0:0:0:
125,230,120057,6,0,L|15:244,2,98.9999969787599,4|4|0,0:2|0:0|1:0,0:0:0:0:
294,175,121380,1,6,0:0:0:0:
307,352,121821,6,0,P|229:374|190:380,1,98.9999969787599,2|2,0:0|1:2,0:0:0:0:
62,279,122704,2,0,L|63:219,1,49.4999984893799,0|0,1:0|0:0,0:0:0:0:
55,140,123145,1,2,0:0:0:0:
233,143,123586,2,0,P|278:147|337:157,1,98.9999969787599,6|2,0:0|0:0,0:0:0:0:
499,214,124468,1,0,1:0:0:0:
444,44,124910,2,0,L|382:54,1,49.4999984893799,4|2,0:2|0:0,0:0:0:0:
306,65,125351,1,0,1:0:0:0:
201,209,125792,6,0,L|206:266,1,49.4999984893799,4|2,1:3|0:0,0:0:0:0:
212,347,126233,2,0,L|157:362,2,49.4999984893799,8|2|4,0:0|0:0|0:2,0:0:0:0:
297,319,126895,1,2,0:0:0:0:
394,334,127115,5,10,0:0:0:0:
489,194,127557,1,0,0:0:0:0:
324,131,127998,2,0,P|313:207|314:233,1,82.5,8|8,0:0|0:0,0:0:0:0:
287,248,128439,1,4,0:0:0:0:
198,243,128660,1,4,0:0:0:0:
113,217,128880,2,0,P|97:148|106:101,1,110,2|4,0:0|0:2,0:0:0:0:
261,33,129763,1,0,1:0:0:0:
415,117,130204,1,2,0:0:0:0:
413,292,130645,6,0,P|388:307|344:323,1,55,12|4,0:0|0:0,0:0:0:0:
320,315,130976,1,4,0:2:0:0:
132,200,131527,5,8,0:0:0:0:
215,44,131968,2,0,L|284:61,1,55,8|8,0:0|0:0,0:0:0:0:
354,77,132410,2,0,P|352:104|346:131,1,55,0|4,0:0|0:0,0:0:0:0:
280,189,132851,2,0,P|278:231|285:286,1,82.5,12|4,0:0|0:2,0:0:0:0:
287,315,133292,2,0,P|230:332|172:343,1,110,4|8,0:0|0:0,0:0:0:0:
51,222,134174,5,4,0:2:0:0:
300,135,134836,2,0,L|317:197,2,55,4|8|4,0:2|0:0|0:0,0:0:0:0:
272,51,135498,1,12,0:0:0:0:
99,84,135939,6,0,L|48:143,1,55,8|12,0:0|0:0,0:0:0:0:
1,191,136380,1,2,0:2:0:0:
75,350,136821,2,0,P|121:334|182:295,1,110,8|10,1:3|0:0,0:0:0:0:
218,227,137483,1,8,0:0:0:0:
296,185,137704,2,0,P|352:194|422:217,2,110,8|8|12,0:0|0:0|1:3,0:0:0:0:
126,139,139027,1,8,0:0:0:0:
50,185,139248,1,8,0:0:0:0:
12,264,139468,2,0,P|30:329|72:370,1,110,10|2,0:0|0:2,0:0:0:0:
235,342,140351,5,2,0:2:0:0:
258,150,141233,6,0,L|327:139,1,55,4|4,0:0|0:0,0:0:0:0:
356,134,141564,1,6,0:0:0:0:
465,324,142115,2,0,P|451:341|422:365,2,55,8|2|2,0:0|0:0|0:0,0:0:0:0:
491,194,142888,6,0,P|479:149|460:108,1,82.5,2|8,0:0|0:0,0:0:0:0:
389,70,143439,1,8,0:0:0:0:
306,102,143660,1,8,0:0:0:0:
226,140,143880,2,0,L|232:216,2,55,8|8|2,0:0|1:3|1:2,0:0:0:0:
52,53,144763,6,0,P|40:107|42:130,1,60.5000018463135,4|0,1:0|0:0,0:0:0:0:
69,204,145204,2,0,P|80:258|79:281,1,60.5000018463135,4|0,0:2|0:0,0:0:0:0:
157,322,145645,2,0,P|211:333|234:332,1,60.5000018463135,4|0,0:1|0:0,0:0:0:0:
308,303,146086,6,0,P|341:263|338:181,1,121.000003692627,4|0,0:2|0:0,0:0:0:0:
276,14,146968,1,12,0:0:0:0:
102,99,147410,2,0,L|34:116,1,60.5000018463135,8|4,0:0|0:0,0:0:0:0:
2,201,147851,1,2,0:2:0:0:
142,333,148292,2,0,P|181:311|215:280,1,90.7500027694703,8|0,0:0|1:0,0:0:0:0:
236,186,148843,2,0,L|253:112,1,60.5000018463135,10|0,0:0|1:0,0:0:0:0:
258,79,149174,1,10,1:3:0:0:
353,63,149395,1,6,0:0:0:0:
449,62,149615,5,4,0:1:0:0:
484,252,150057,2,0,P|480:281|465:324,1,60.5000018463135,2|6,0:0|0:0,0:0:0:0:
389,363,150498,1,6,0:0:0:0:
225,259,150939,2,0,P|219:193|225:129,2,121.000003692627,2|2|12,0:2|0:0|0:0,0:0:0:0:
154,325,152042,1,0,1:0:0:0:
57,315,152263,1,12,0:0:0:0:
37,122,152704,2,0,L|116:102,1,60.5000018463135,12|4,0:0|0:2,0:0:0:0:
188,74,153145,6,0,P|239:97|258:113,1,60.5000018463135,12|2,0:0|0:0,0:0:0:0:
328,144,153586,2,0,P|349:146|404:148,1,60.5000018463135,0|12,1:0|0:0,0:0:0:0:
484,161,154027,1,4,0:2:0:0:
336,285,154468,2,0,P|342:317|347:362,1,60.5000018463135,8|4,0:0|0:0,0:0:0:0:
248,343,154910,1,6,0:0:0:0:
151,332,155130,1,0,1:0:0:0:
58,304,155351,2,0,P|70:248|85:197,1,90.7500027694703,4|2,0:0|0:1,0:0:0:0:
107,176,155792,1,4,0:0:0:0:
233,29,156233,5,12,0:0:0:0:
309,88,156454,1,10,0:0:0:0:
343,178,156674,2,0,P|397:191|482:202,2,121.000003692627,4|2|4,0:1|0:1|1:0,0:0:0:0:
166,97,157998,1,2,0:2:0:0:
82,271,158439,1,2,0:2:0:0:
254,358,158880,6,0,L|331:348,1,60.5000018463135,12|0,0:0|1:0,0:0:0:0:
409,334,159321,2,0,L|402:268,1,60.5000018463135,12|2,0:0|0:0,0:0:0:0:
393,176,159763,1,12,0:0:0:0:
296,183,159983,1,6,0:0:0:0:
199,195,160204,1,4,1:0:0:0:
162,5,160645,2,0,P|237:11|250:12,1,60.5000018463135,2|2,0:0|0:0,0:0:0:0:
300,66,161086,1,2,0:2:0:0:
289,259,161527,2,0,P|288:292|277:344,1,60.5000018463135,8|2,0:0|0:0,0:0:0:0:
198,365,161968,1,2,1:3:0:0:
45,245,162410,6,0,P|64:207|95:174,1,60.5000018463135,4|0,0:1|1:0,0:0:0:0:
111,161,162740,1,0,1:0:0:0:
346,218,163292,1,12,0:0:0:0:
398,136,163513,1,4,0:1:0:0:
398,39,163733,2,0,P|335:42|270:51,1,121.000003692627,4|2,1:0|0:1,0:0:0:0:
183,74,164395,2,0,P|158:52|123:35,2,60.5000018463135,6|4|2,0:0|0:1|0:2,0:0:0:0:
176,170,165057,1,8,0:0:0:0:
302,316,165498,1,2,0:1:0:0:
477,235,165939,6,0,P|477:205|458:142,1,90.7500027694703,12|0,0:0|1:0,0:0:0:0:
428,109,166380,1,12,0:0:0:0:
268,218,166821,1,12,0:0:0:0:
171,206,167042,1,4,0:1:0:0:
74,206,167263,2,0,P|73:243|100:346,1,121.000003692627,4|8,1:0|0:0,0:0:0:0:
184,347,167924,1,2,0:2:0:0:
279,330,168145,2,0,L|356:325,1,60.5000018463135,4|8,0:0|0:0,0:0:0:0:
410,260,168586,6,0,P|430:192|461:147,2,121.000003692627,2|2|0,1:2|0:2|0:0,0:0:0:0:
