osu file format v14

[General]
AudioFilename: OD.mp3
AudioLeadIn: 0
PreviewTime: 140792
Countdown: 0
SampleSet: Drum
StackLeniency: 0.2
Mode: 0
LetterboxInBreaks: 0
WidescreenStoryboard: 1

[Editor]
Bookmarks: 14615,15057,28292,41527,42410,56527,69763,70645,71527,71968,98880,105939,112998,127115,141233,144763,169468
DistanceSpacing: 0.7
BeatDivisor: 4
GridSize: 32
TimelineZoom: 2.7

[Metadata]
Title:O.D.
TitleUnicode:O.D.
Artist:Polyphia
ArtistUnicode:Polyphia
Creator:Melwoine
Version:Insane
Source:
Tags:New Levels New Devils od instrumental Progressive Metal Math corsace grandfinals gf hard rock hr1 Vinxis
BeatmapID:2651793
BeatmapSetID:1276327

[Difficulty]
HPDrainRate:5
CircleSize:3.6
OverallDifficulty:8
ApproachRate:8.9
SliderMultiplier:1.6
SliderTickRate:1

[Events]
//Background and Video events
0,0,"13637062_p0_master1200_waifu2x_art_noise3_scale_tta_1.png",0,0
//Break Periods
2,99080,105324
//Storyboard Layer 0 (Background)
//Storyboard Layer 1 (Fail)
//Storyboard Layer 2 (Pass)
//Storyboard Layer 3 (Foreground)
//Storyboard Layer 4 (Overlay)
//Storyboard Sound Samples

[TimingPoints]
58,428.571428571429,4,3,0,70,1,0
486,454.545454545455,4,3,0,70,1,8
940,441.176470588235,4,3,0,70,1,8
1822,441.176470588235,4,3,0,70,1,0
3586,428.571428571429,4,3,0,70,1,0
4014,455.235204855842,4,3,0,70,1,8
4469,441.176470588235,4,3,0,70,1,0
7116,441.176470588235,4,3,0,70,1,0
12410,-76.9230769230769,4,3,0,70,0,0
15057,-66.6666666666667,4,3,0,70,0,0
16380,-100,4,3,0,70,0,0
17704,-66.6666666666667,4,3,0,70,0,0
19027,-58.8235294117647,4,3,0,70,0,0
28292,-100,4,3,0,60,0,0
41086,-66.6666666666667,4,3,0,60,0,0
42410,-66.6666666666667,4,3,0,70,0,0
45939,-55.5555555555556,4,3,0,70,0,0
49468,-66.6666666666667,4,3,0,70,0,0
56527,-55.5555555555556,4,3,0,70,0,0
68880,-100,4,3,0,70,0,0
69321,-50,4,3,0,70,0,0
71527,-50,4,3,0,80,0,0
71968,-50,4,3,0,80,0,1
98880,-50,4,3,0,70,0,0
105939,-100,4,3,0,60,0,0
113439,-66.6666666666667,4,3,0,60,0,0
127115,-66.6666666666667,4,3,0,70,0,0
140792,-125,4,3,0,70,0,0
141233,-66.6666666666667,4,3,0,70,0,0
144763,-66.6666666666667,4,3,0,80,0,1
145204,-50,4,3,0,80,0,1
169468,-50,4,3,0,70,0,0

[Colours]
Combo1 : 140,83,83
Combo2 : 192,185,160
Combo3 : 131,129,84
Combo4 : 154,98,41

[HitObjects]
28,338,58,6,0,P|52:334|76:336,1,40
146,374,272,1,0,0:0:0:0:
146,374,379,1,2,0:0:0:0:
292,41,940,2,0,P|293:21|294:1,1,40
205,85,1160,6,0,P|212:153|213:172,1,80,2|0,0:0|0:0,0:0:0:0:
174,245,1491,1,0,0:0:0:0:
174,245,1601,1,0,0:0:0:0:
174,245,1712,2,0,L|122:244,1,40,2|0,0:0|0:0,0:0:0:0:
287,195,1932,1,0,0:0:0:0:
287,195,2042,2,0,L|342:191,1,40
386,258,2263,2,0,P|378:298|367:340,1,80,2|0,0:0|0:0,0:0:0:0:
369,45,2704,6,0,L|365:3,3,26.6666666666667,2|2|2|2,0:2|0:2|0:2|0:2,0:0:0:0:
382,135,3035,1,0,0:0:0:0:
382,135,3145,2,0,P|421:139|480:136,1,80
301,73,3476,6,0,P|278:73|239:83,1,40,2|0,0:1|0:0,0:0:0:0:
120,98,3693,1,0,0:0:0:0:
110,48,3800,1,0,0:0:0:0:
129,0,3907,1,2,0:0:0:0:
248,384,4469,6,0,P|251:362|253:334,1,40
205,279,4689,2,0,P|148:290|84:297,1,120,2|0,0:0|0:0,0:0:0:0:
11,210,5130,1,0,0:0:0:0:
11,210,5241,2,0,P|37:214|82:213,1,40,2|0,0:0|0:0,0:0:0:0:
153,160,5461,2,0,L|159:93,1,40,2|0,0:0|0:0,0:0:0:0:
164,38,5682,2,0,P|190:41|221:42,1,40
404,126,5902,5,2,0:0:0:0:
351,131,6013,1,2,0:0:0:0:
308,101,6123,1,2,0:0:0:0:
387,268,6343,1,0,0:0:0:0:
387,268,6454,2,0,P|420:265|463:249,1,80,2|0,0:0|0:0,0:0:0:0:
286,304,6895,6,0,P|292:364|291:415,1,80,0|0,0:0|1:0,0:0:0:0:
171,293,7226,1,0,0:0:0:0:
188,249,7336,1,0,0:0:0:0:
233,232,7446,1,2,0:1:0:0:
238,132,7777,6,0,L|240:113,4,20,0|0|0|0|2,1:0|1:0|1:0|0:0|0:0,0:0:0:0:
29,306,8218,1,0,0:0:0:0:
315,198,8439,1,0,1:0:0:0:
315,198,8549,1,2,0:0:0:0:
315,198,8660,1,2,1:2:0:0:
145,7,8880,5,0,1:0:0:0:
145,7,8990,2,0,P|147:45|146:60,1,40,2|0,0:0|0:0,0:0:0:0:
45,159,9211,2,0,P|57:143|68:127,1,40,2|0,0:1|1:0,0:0:0:0:
25,54,9432,2,0,L|15:35,6,20,2|0|2|2|2|0|2,0:0|0:0|1:2|1:2|1:2|0:0|1:3,0:0:0:0:
174,251,9983,2,0,L|221:260,1,40,2|0,1:2|0:0,0:0:0:0:
312,217,10204,5,0,1:3:0:0:
312,158,10314,1,0,1:3:0:0:
288,111,10424,1,0,1:3:0:0:
336,358,10645,2,0,P|316:358|297:356,2,40,2|2|2,1:3|0:0|0:0,0:0:0:0:
394,277,10976,5,2,0:1:0:0:
387,86,11307,2,0,L|380:53,2,20,0|0|0,1:2|1:2|1:2,0:0:0:0:
406,165,11527,5,2,0:0:0:0:
508,33,11748,1,2,0:1:0:0:
255,192,11968,1,0,1:0:0:0:
255,192,12079,1,0,0:0:0:0:
255,192,12189,1,0,1:0:0:0:
255,192,12299,1,2,0:0:0:0:
255,192,12410,6,0,P|188:191|166:197,1,69.3333301595054,4|8,0:0|0:0,0:0:0:0:
140,219,12630,2,0,L|134:278,2,34.6666650797527,8|8|8,0:0|0:0|0:0,0:0:0:0:
145,174,12851,1,8,0:0:0:0:
225,363,13071,1,4,0:0:0:0:
225,363,13182,1,4,0:0:0:0:
225,363,13292,2,0,P|231:329|239:277,1,51.999997619629,8|4,0:0|0:0,0:0:0:0:
246,140,13513,2,0,P|252:173|260:226,1,51.999997619629,8|2,0:0|0:0,0:0:0:0:
317,315,13733,6,0,P|329:324|355:318,8,25.9999988098145,4|0|8|0|2|2|2|0|4,0:0|0:0|0:0|0:0|0:2|0:2|0:2|0:0|0:0,0:0:0:0:
63,101,14615,5,2,0:0:0:0:
343,225,14836,2,0,L|340:133,1,69.3333301595054,4|4,0:0|0:0,0:0:0:0:
326,143,15057,6,0,P|272:147|236:168,1,60.0000022888184,10|0,0:0|0:0,0:0:0:0:
75,213,15277,1,10,0:0:0:0:
129,235,15388,1,2,0:0:0:0:
186,219,15498,2,0,L|181:115,1,60.0000022888184,4|0,1:0|0:0,0:0:0:0:
126,50,15718,1,8,0:0:0:0:
126,50,15829,1,2,0:0:0:0:
0,304,16049,1,2,0:0:0:0:
0,304,16160,2,0,P|29:321|64:311,1,60.0000022888184
191,266,16380,6,0,P|171:347|116:367,1,120,4|2,0:0|0:2,0:0:0:0:
75,213,16821,1,8,0:0:0:0:
280,280,17042,1,2,0:0:0:0:
419,122,17263,2,0,P|346:115|309:121,1,80,2|4,0:0|0:0,0:0:0:0:
350,57,17593,1,2,0:2:0:0:
350,57,17704,6,0,P|339:113|354:163,1,60.0000022888184,4|2,0:1|0:0,0:0:0:0:
459,222,17924,1,2,0:0:0:0:
459,222,18035,1,0,0:0:0:0:
459,222,18145,2,0,L|459:264,4,30.0000011444092,2|2|2|2|2,0:0|0:2|0:2|0:2|0:2,0:0:0:0:
101,141,18586,2,0,P|137:140|173:135,1,60.0000022888184,8|0,0:0|0:0,0:0:0:0:
254,10,18807,1,2,0:0:0:0:
256,360,19027,6,0,P|251:253|223:174,1,136.000002593994,4|2,1:0|0:0,0:0:0:0:
91,62,19358,2,0,P|92:95|78:139,1,68.0000012969971,2|0,0:0|0:0,0:0:0:0:
3,237,19579,1,2,0:0:0:0:
3,237,19689,2,0,P|37:225|59:215,2,34.0000006484985,8|2|2,0:0|0:2|0:2,0:0:0:0:
81,33,19910,6,0,P|140:83|161:169,1,136.000002593994,4|2,1:0|0:0,0:0:0:0:
136,286,20240,1,2,0:2:0:0:
175,252,20351,2,0,L|250:241,1,68.0000012969971,8|0,0:0|0:0,0:0:0:0:
360,237,20571,2,0,L|328:285,2,34.0000006484985,4|4|4,0:0|0:0|0:0,0:0:0:0:
455,192,20792,1,2,0:0:0:0:
443,135,20902,1,4,0:0:0:0:
416,112,21013,1,4,0:0:0:0:
384,109,21123,1,4,0:0:0:0:
366,115,21233,6,0,P|351:85|354:44,1,68.0000012969971,6|0,0:0|0:0,0:0:0:0:
429,0,21454,1,2,0:2:0:0:
429,0,21564,1,2,0:1:0:0:
129,18,21785,1,6,0:0:0:0:
202,213,22005,1,4,0:0:0:0:
202,213,22115,6,0,L|284:224,1,68.0000012969971,4|0,0:1|0:0,0:0:0:0:
171,123,22336,2,0,L|253:134,1,68.0000012969971,4|0,0:0|0:0,0:0:0:0:
305,309,22557,2,0,L|237:299,1,68.0000012969971,6|2,0:0|0:2,0:0:0:0:
110,193,22777,1,2,0:2:0:0:
367,88,22998,1,2,0:1:0:0:
367,88,23108,1,0,0:0:0:0:
367,88,23218,6,0,P|337:81|291:45,1,68.0000012969971,4|2,0:1|0:0,0:0:0:0:
460,155,23439,2,0,P|438:177|384:199,1,68.0000012969971,4|2,0:0|0:0,0:0:0:0:
450,46,23660,2,0,L|459:0,2,34.0000006484985,2|2|2,0:2|0:2|0:2,0:0:0:0:
512,240,23880,5,8,0:0:0:0:
237,300,24101,1,2,0:2:0:0:
202,26,24321,6,0,P|223:76|220:120,1,90.6666683959961,4|4,0:0|0:0,0:0:0:0:
127,275,24615,5,4,0:0:0:0:
28,204,24763,6,0,P|109:194|178:175,1,136.000002593994,4|0,1:0|1:0,0:0:0:0:
237,300,25093,2,0,P|227:338|228:374,2,68.0000012969971,2|2|2,0:1|0:0|0:2,0:0:0:0:
308,250,25424,1,2,0:2:0:0:
58,95,25645,6,0,P|95:72|161:78,1,68.0000012969971,10|0,0:0|0:0,0:0:0:0:
221,111,25865,2,0,P|258:134|324:128,1,68.0000012969971,6|0,0:0|0:0,0:0:0:0:
468,61,26086,1,4,0:1:0:0:
468,61,26196,2,0,P|355:62|318:90,1,136.000002593994,2|2,0:0|0:0,0:0:0:0:
409,176,26527,1,2,0:0:0:0:
222,12,26748,1,6,0:0:0:0:
65,192,26968,6,0,P|140:198|201:235,1,136.000002593994,2|2,0:2|0:2,0:0:0:0:
278,283,27299,1,2,0:2:0:0:
278,283,27410,2,0,P|253:323|246:372,1,68.0000012969971,8|2,0:0|0:0,0:0:0:0:
347,334,27630,2,0,L|403:327,2,34.0000006484985,8|8|8,0:0|0:0|0:0,0:0:0:0:
355,246,27851,1,2,0:0:0:0:
467,330,28071,2,0,L|445:381,2,34.0000006484985,0|0|0,1:0|1:0|1:0,0:0:0:0:
501,255,28292,6,0,P|465:223|465:131,1,120,2|0,0:0|0:0,0:0:0:0:
482,155,28733,2,0,P|495:113|483:68,1,80,2|0,0:2|0:0,0:0:0:0:
217,73,29174,1,2,0:0:0:0:
416,0,29395,1,2,0:0:0:0:
266,292,29615,6,0,P|266:252|249:216,1,80,4|2,0:2|0:0,0:0:0:0:
463,306,30057,2,0,P|414:271|356:264,1,120,2|2,0:0|0:2,0:0:0:0:
178,313,30498,2,0,P|164:337|80:385,1,120,2|0,0:0|0:0,0:0:0:0:
1,322,30939,5,0,0:0:0:0:
153,144,31160,1,0,0:0:0:0:
0,236,31380,6,0,P|72:236|139:225,1,120,2|0,0:0|0:0,0:0:0:0:
226,242,31821,2,0,P|224:183|259:136,1,120,2|0,0:0|0:0,0:0:0:0:
265,24,32263,1,2,0:0:0:0:
404,384,32704,2,0,P|372:346|378:263,1,120,2|0,0:0|0:0,0:0:0:0:
338,190,33145,2,0,L|416:172,1,80,4|0,0:2|0:0,0:0:0:0:
496,355,33586,5,2,0:0:0:0:
457,287,33807,1,0,0:0:0:0:
496,66,34027,1,2,0:0:0:0:
413,186,34248,1,2,0:0:0:0:
385,22,34468,5,2,0:0:0:0:
272,252,34689,1,0,0:0:0:0:
259,263,34910,2,0,L|177:246,1,80,2|2,0:0|0:0,0:0:0:0:
297,367,35351,6,0,P|271:274|272:240,1,120,2|0,0:0|0:0,0:0:0:0:
190,159,35792,2,0,L|230:73,1,80,2|0,0:0|0:0,0:0:0:0:
46,52,36233,2,0,P|89:20|170:-2,1,120,2|0,0:0|0:0,0:0:0:0:
220,70,36674,6,0,P|267:80|341:92,1,120,4|0,0:2|0:0,0:0:0:0:
407,38,37115,2,0,L|411:14,6,20,4|0|0|0|0|0|0,0:2|0:0|0:0|0:0|0:0|0:0|0:0,0:0:0:0:
410,146,37557,6,0,L|429:239,1,53.3333333333333,4|0,0:2|0:0,0:0:0:0:
455,269,37851,1,0,0:0:0:0:
377,321,37998,6,0,L|314:298,1,53.3333333333333,2|2,0:0|0:0,0:0:0:0:
210,332,38292,1,2,0:0:0:0:
205,249,38439,6,0,P|221:218|246:159,1,80,2|4,0:0|0:2,0:0:0:0:
133,377,38880,6,0,P|101:353|82:302,1,80,2|0,0:0|0:0,0:0:0:0:
150,90,39321,2,0,P|149:146|98:216,1,120,2|0,0:0|0:0,0:0:0:0:
14,193,39763,1,2,0:0:0:0:
14,193,39873,1,2,0:0:0:0:
14,193,39983,1,2,0:0:0:0:
142,0,40204,1,4,0:2:0:0:
290,168,40424,1,2,0:0:0:0:
380,103,40645,2,0,L|413:97,4,26.6666666666667
257,75,41086,2,0,L|205:58,4,40.000001525879,2|2|2|0|2,0:2|0:2|0:2|0:2|0:2,0:0:0:0:
387,17,41527,5,8,0:0:0:0:
242,330,41968,5,0,1:0:0:0:
309,288,42115,5,0,1:0:0:0:
389,284,42263,5,0,1:0:0:0:
483,368,42410,6,0,P|467:284|463:199,1,120.000004577637,4|0,1:0|0:0,0:0:0:0:
511,162,42740,1,2,2:0:0:0:
511,162,42851,2,0,L|372:132,1,120.000004577637,2|2,2:0|0:0,0:0:0:0:
268,54,43182,1,0,0:0:0:0:
268,54,43292,2,0,L|177:86,1,60.0000022888184,8|0,0:0|0:0,0:0:0:0:
125,107,43513,1,2,0:0:0:0:
383,0,43733,6,0,L|354:72,1,60.0000022888184,4|0,0:0|0:0,0:0:0:0:
314,158,43954,1,2,0:0:0:0:
16,72,44174,5,2,0:2:0:0:
68,77,44285,1,2,0:2:0:0:
120,98,44395,1,2,0:2:0:0:
162,126,44505,1,2,0:2:0:0:
192,167,44615,2,0,L|196:215,6,30.0000011444092,4|0|2|2|2|0|2,0:0|0:0|0:2|0:2|0:2|0:0|0:2,0:0:0:0:
263,53,45057,5,8,0:0:0:0:
309,380,45277,1,2,0:0:0:0:
475,235,45498,5,2,0:2:0:0:
192,308,45718,1,2,0:0:0:0:
419,384,45939,6,0,P|397:291|298:172,1,215.999993408203,6|0,0:0|0:0,0:0:0:0:
284,79,46380,2,0,L|112:116,1,143.999995605469,2|0,0:0|0:0,0:0:0:0:
376,111,46821,1,8,0:0:0:0:
115,19,47042,1,4,0:0:0:0:
222,284,47263,2,0,L|255:178,1,71.9999978027344,6|0,0:0|0:0,0:0:0:0:
280,89,47483,1,0,0:0:0:0:
322,381,47704,6,0,L|303:337,5,47.9999985351563,2|2|2|8|2|2,0:0|0:0|0:0|0:0|0:0|0:0,0:0:0:0:
391,267,48145,1,4,0:0:0:0:
391,267,48255,1,2,0:0:0:0:
391,267,48365,2,0,L|306:260,1,71.9999978027344,2|2,0:0|0:0,0:0:0:0:
177,187,48586,2,0,L|165:86,1,71.9999978027344,8|0,0:0|0:0,0:0:0:0:
86,0,48807,2,0,L|94:71,1,71.9999978027344,2|2,0:2|0:0,0:0:0:0:
35,183,49027,2,0,L|-8:195,6,35.9999989013672,2|2|2|0|2|2|2,0:2|0:2|0:0|0:0|0:0|0:2|0:2,0:0:0:0:
55,305,49468,6,0,P|149:247|180:149,1,180.000006866455,4|0,0:1|0:0,0:0:0:0:
274,121,49910,2,0,L|243:41,1,60.0000022888184,2|0,0:2|0:0,0:0:0:0:
262,206,50130,1,2,0:0:0:0:
407,0,50351,2,0,L|438:80,1,60.0000022888184,8|0,0:0|0:0,0:0:0:0:
331,263,50571,1,4,0:0:0:0:
506,102,50792,6,0,P|469:196|470:246,1,120.000004577637,6|0,0:0|0:0,0:0:0:0:
342,384,51233,1,2,0:0:0:0:
512,315,51454,1,4,0:0:0:0:
512,315,51564,1,0,0:0:0:0:
512,315,51674,2,0,L|412:303,1,60.0000022888184,6|0,0:0|0:0,0:0:0:0:
339,276,51895,1,0,0:0:0:0:
155,353,52115,6,0,L|154:390,2,30.0000011444092,8|2|2,0:0|0:2|0:2,0:0:0:0:
115,284,52336,1,4,0:0:0:0:
267,324,52557,1,2,0:2:0:0:
37,232,52777,2,0,L|-4:241,2,30.0000011444092,2|2|2,0:0|0:2|0:2,0:0:0:0:
171,120,52998,6,0,P|197:141|365:137,1,180.000006866455,4|0,0:1|0:0,0:0:0:0:
468,177,53439,1,2,0:0:0:0:
493,122,53549,1,2,0:0:0:0:
465,82,53660,1,2,0:0:0:0:
440,58,53770,1,2,0:0:0:0:
451,56,53880,2,0,L|481:-14,1,60.0000022888184,8|0,0:0|0:0,0:0:0:0:
317,47,54101,1,0,1:0:0:0:
439,372,54321,6,0,P|449:212|433:149,1,180.000006866455,6|0,0:0|0:0,0:0:0:0:
365,152,54763,5,6,0:0:0:0:
344,216,54873,1,0,0:0:0:0:
294,258,54983,1,0,0:0:0:0:
234,265,55093,1,0,0:0:0:0:
186,247,55204,2,0,L|154:251,4,30.0000011444092,2|2|2|0|2,0:0|0:0|0:0|0:0|0:0,0:0:0:0:
237,142,55535,1,2,0:0:0:0:
237,142,55645,2,0,L|221:63,1,60.0000022888184,8|0,0:0|0:0,0:0:0:0:
146,4,55865,1,2,0:0:0:0:
142,15,55976,1,2,0:0:0:0:
137,25,56086,2,0,L|-2:65,1,120.000004577637,4|8,0:0|0:0,0:0:0:0:
15,196,56417,1,8,0:0:0:0:
15,196,56527,6,0,P|59:186|127:181,2,71.9999978027344,4|8|4,0:2|0:0|0:0,0:0:0:0:
39,287,56858,1,6,0:0:0:0:
77,321,56968,2,0,P|166:298|191:210,1,143.999995605469,4|4,1:2|0:0,0:0:0:0:
237,142,57299,1,6,0:0:0:0:
237,142,57410,2,0,L|326:160,1,71.9999978027344,8|2,0:0|1:0,0:0:0:0:
483,202,57630,1,6,0:0:0:0:
443,176,57740,1,4,0:0:0:0:
409,149,57851,2,0,L|397:47,2,71.9999978027344,4|6|6,0:2|0:0|0:0,0:0:0:0:
413,330,58182,1,6,0:0:0:0:
413,330,58292,6,0,P|377:268|314:235,1,143.999995605469,4|2,0:2|0:0,0:0:0:0:
175,197,58623,1,4,0:0:0:0:
175,197,58733,2,0,L|191:306,1,71.9999978027344,4|4,0:2|0:0,0:0:0:0:
87,214,58954,1,10,0:0:0:0:
266,24,59174,5,8,0:0:0:0:
216,52,59285,1,8,0:0:0:0:
159,28,59395,1,8,0:0:0:0:
117,34,59505,1,8,0:0:0:0:
90,51,59615,1,4,0:2:0:0:
86,64,59726,2,0,L|9:88,1,71.9999978027344,8|4,0:0|0:0,0:0:0:0:
234,141,59946,1,4,0:0:0:0:
276,162,60057,6,0,L|443:111,1,143.999995605469,8|0,0:0|0:0,0:0:0:0:
463,242,60388,1,4,0:0:0:0:
512,225,60498,2,0,P|511:131|468:47,1,143.999995605469,4|2,0:2|0:0,0:0:0:0:
280,0,60829,1,2,0:1:0:0:
333,0,60939,2,0,L|306:66,2,71.9999978027344,10|2|2,0:0|0:0|0:0,0:0:0:0:
267,279,61380,1,4,0:2:0:0:
267,279,61490,1,4,0:0:0:0:
267,279,61601,2,0,L|161:246,1,71.9999978027344,4|4,0:0|0:0,0:0:0:0:
200,384,61821,6,0,P|113:300|53:284,1,143.999995605469,4|2,0:2|0:2,0:0:0:0:
0,203,62152,1,2,0:0:0:0:
1,249,62263,2,0,L|-2:365,1,71.9999978027344,4|0,0:2|0:0,0:0:0:0:
135,155,62483,2,0,L|88:36,1,71.9999978027344,2|4,0:1|0:0,0:0:0:0:
74,2,62704,1,8,0:0:0:0:
74,2,62814,1,8,0:0:0:0:
74,2,62924,1,2,1:0:0:0:
255,198,63145,1,4,0:2:0:0:
255,198,63255,2,0,L|359:218,2,71.9999978027344,8|8|8,0:0|0:0|0:0,0:0:0:0:
220,11,63586,5,4,0:1:0:0:
269,31,63696,2,0,P|260:84|261:154,1,71.9999978027344,4|0,0:2|0:0,0:0:0:0:
411,264,63917,2,0,P|406:99|398:52,2,143.999995605469,2|6|8,0:0|0:0|0:0,0:0:0:0:
280,366,64468,1,8,0:0:0:0:
359,345,64579,2,0,L|171:299,1,143.999995605469,6|4,0:0|0:0,0:0:0:0:
60,214,64910,1,4,0:2:0:0:
139,235,65021,2,0,L|7:268,1,71.9999978027344,4|4,0:0|0:0,0:0:0:0:
3,314,65240,1,8,0:0:0:0:
223,68,65461,2,0,L|263:262,1,143.999995605469,0|4,0:0|0:0,0:0:0:0:
388,202,65792,1,2,0:2:0:0:
411,157,65902,2,0,P|348:92|261:48,1,143.999995605469,2|6,0:0|0:0,0:0:0:0:
106,19,66233,5,4,1:2:0:0:
50,57,66343,1,8,0:0:0:0:
25,101,66454,1,10,0:0:0:0:
15,133,66564,1,8,0:0:0:0:
15,152,66674,2,0,L|117:135,1,71.9999978027344,4|6,0:2|0:0,0:0:0:0:
119,249,66895,2,0,L|221:266,1,71.9999978027344,6|6,0:0|0:0,0:0:0:0:
336,384,67115,1,4,0:2:0:0:
336,384,67226,2,0,L|145:347,1,143.999995605469,10|4,0:0|0:0,0:0:0:0:
250,175,67557,5,4,0:2:0:0:
305,207,67667,1,6,0:0:0:0:
333,241,67777,1,6,0:0:0:0:
351,272,67888,1,6,0:0:0:0:
355,294,67998,2,0,L|378:207,1,71.9999978027344,10|10,0:0|0:0,0:0:0:0:
337,76,68218,2,0,L|450:81,1,71.9999978027344,6|10,0:0|0:0,0:0:0:0:
506,84,68439,1,4,0:2:0:0:
506,84,68549,1,6,0:0:0:0:
506,84,68660,1,10,0:0:0:0:
176,129,68880,6,0,L|171:165,5,26.6666666666667,4|4|4|8|8|2,0:1|0:0|0:0|0:0|0:0|0:2,0:0:0:0:
258,78,69321,6,0,L|243:-1,6,53.3333333333333,2|8|2|2|2|2|10,0:2|0:0|0:2|0:2|0:0|0:2|0:3,0:0:0:0:
251,302,70645,5,4,0:0:0:0:
251,302,70755,1,4,0:0:0:0:
251,302,70865,1,6,0:0:0:0:
324,276,70976,1,6,0:0:0:0:
383,334,71527,5,8,0:0:0:0:
128,169,71748,1,12,0:0:0:0:
441,22,71968,6,0,P|364:88|308:167,1,160,4|2,1:0|0:0,0:0:0:0:
249,91,72299,2,0,L|137:85,1,80,2|2,0:0|0:2,0:0:0:0:
44,71,72520,1,2,0:0:0:0:
44,71,72630,1,2,0:0:0:0:
44,71,72740,1,2,0:0:0:0:
44,71,72851,2,0,P|137:4|235:22,1,160,4|2,0:1|0:0,0:0:0:0:
142,321,73292,2,0,L|117:260,3,53.3333333333333,10|2|2|2,0:0|0:2|0:2|0:2,0:0:0:0:
204,246,73623,1,2,0:0:0:0:
183,169,73733,2,0,P|52:191|-18:206,1,160,2|2,1:2|0:0,0:0:0:0:
287,338,74174,5,12,0:0:0:0:
282,271,74285,1,8,0:0:0:0:
306,209,74395,1,6,0:0:0:0:
377,173,74505,1,6,0:0:0:0:
394,174,75057,6,0,P|390:264|494:386,1,240,4|2,1:0|0:0,0:0:0:0:
482,241,75498,6,0,P|487:102|436:42,1,160,4|2,1:0|0:0,0:0:0:0:
398,47,75829,1,2,0:0:0:0:
398,47,75939,2,0,L|285:67,1,80,2|0,0:2|0:0,0:0:0:0:
189,131,76160,1,0,0:0:0:0:
189,131,76270,1,0,0:0:0:0:
189,131,76380,2,0,L|152:267,2,80,6|2|2,0:0|0:0|0:0,0:0:0:0:
163,49,76711,1,2,0:0:0:0:
239,28,76821,1,8,0:0:0:0:
203,352,77042,1,4,0:0:0:0:
203,352,77152,2,0,P|280:285|260:255,1,160,2|2,0:0|0:0,0:0:0:0:
94,246,77483,1,2,0:1:0:0:
94,246,77593,1,2,0:0:0:0:
94,246,77704,6,0,P|99:163|111:96,1,80,4|0,0:0|0:0,0:0:0:0:
246,242,77924,1,0,1:0:0:0:
246,242,78035,2,0,P|244:202|241:162,1,80,0|0,1:0|1:0,0:0:0:0:
376,241,78255,2,0,P|377:201|380:161,1,80,4|0,0:1|0:0,0:0:0:0:
478,230,78476,1,0,1:0:0:0:
478,230,78586,1,8,0:0:0:0:
357,325,78807,1,6,0:0:0:0:
292,25,79027,6,0,P|346:93|371:268,1,240,4|2,1:0|0:0,0:0:0:0:
270,316,79468,2,0,L|159:337,1,80,2|0,1:0|0:0,0:0:0:0:
361,197,79689,2,0,L|467:210,1,80,4|2,0:0|0:1,0:0:0:0:
505,37,79910,1,4,0:1:0:0:
505,37,80020,2,0,L|425:27,1,80,2|0,0:0|0:0,0:0:0:0:
228,64,80240,1,2,0:0:0:0:
174,112,80351,2,0,L|196:246,1,80,10|0,0:0|0:0,0:0:0:0:
116,284,80571,1,2,0:2:0:0:
116,284,80682,1,2,0:0:0:0:
116,284,80792,5,6,0:0:0:0:
338,275,81013,1,2,0:1:0:0:
19,241,81233,5,4,0:1:0:0:
6,182,81343,1,0,1:0:0:0:
30,125,81454,1,0,1:0:0:0:
85,95,81564,1,2,1:0:0:0:
108,107,81674,1,4,0:0:0:0:
32,364,81895,1,8,0:0:0:0:
32,364,82005,1,8,0:0:0:0:
32,364,82115,2,0,P|75:336|86:257,1,80,12|0,0:0|0:0,0:0:0:0:
196,274,82336,2,0,P|193:222|130:173,1,80,8|0,1:3|0:0,0:0:0:0:
163,77,82557,6,0,P|278:118|329:204,1,160,4|0,1:0|0:0,0:0:0:0:
412,199,82888,1,2,0:0:0:0:
412,199,82998,2,0,L|294:236,1,80,0|2,1:0|0:0,0:0:0:0:
463,109,83218,1,4,0:0:0:0:
378,384,83439,2,0,P|434:286|529:234,1,160,6|0,0:0|0:0,0:0:0:0:
112,41,83880,6,0,L|136:177,1,80,8|0,0:0|0:0,0:0:0:0:
172,301,84101,2,0,P|173:252|156:222,1,80,4|4,0:0|0:0,0:0:0:0:
29,168,84321,1,8,0:0:0:0:
14,200,84432,1,4,0:0:0:0:
3,229,84542,2,0,P|45:225|97:196,1,80,10|8,0:0|0:0,0:0:0:0:
282,142,84763,1,4,0:0:0:0:
282,142,84873,2,0,L|257:237,1,80,4|8,0:0|0:0,0:0:0:0:
292,374,85093,2,0,P|320:337|331:166,1,160,10|0,0:0|0:0,0:0:0:0:
345,228,85645,6,0,L|501:209,1,80,4|0,0:2|0:0,0:0:0:0:
501,347,85865,1,14,0:0:0:0:
508,92,86086,6,0,B|493:49|493:49|324:98,1,160,4|2,0:1|0:0,0:0:0:0:
305,29,86417,2,0,L|220:-2,1,80,2|0,0:0|0:0,0:0:0:0:
134,29,86638,1,2,0:0:0:0:
134,29,86748,1,2,0:0:0:0:
250,215,86968,6,0,L|262:285,4,40,12|0|2|0|0,0:0|0:0|0:2|0:0|0:0,0:0:0:0:
220,132,87299,1,2,0:0:0:0:
256,198,87410,1,2,0:0:0:0:
396,233,87630,1,2,0:0:0:0:
128,342,87851,6,0,L|114:379,4,40,0|2|2|0|2,1:0|0:2|0:2|0:0|0:2,0:0:0:0:
94,248,88182,1,2,1:0:0:0:
94,248,88292,2,0,L|64:140,1,80,12|2,0:0|1:2,0:0:0:0:
139,15,88513,1,2,1:2:0:0:
95,79,88623,1,2,1:2:0:0:
20,94,88733,5,12,0:0:0:0:
218,16,88954,1,2,0:0:0:0:
285,384,89174,6,0,P|278:256|245:174,1,160,4|2,1:2|0:0,0:0:0:0:
171,150,89505,1,0,0:0:0:0:
239,111,89615,2,0,P|286:116|378:117,1,80,4|0,1:0|0:0,0:0:0:0:
435,0,89836,1,2,0:0:0:0:
435,0,89946,2,0,P|359:59|364:95,1,80,2|0,0:1|0:0,0:0:0:0:
402,191,90167,2,0,P|397:236|372:312,2,80,2|2|2,0:0|0:0|0:0,0:0:0:0:
448,93,90498,6,0,P|508:170|497:276,1,160,4|2,0:0|0:0,0:0:0:0:
93,384,90939,6,0,P|123:294|225:230,1,160,8|2,0:0|0:0,0:0:0:0:
252,180,91270,1,2,0:0:0:0:
252,180,91380,2,0,P|246:144|233:115,2,40,2|2|2,0:2|0:2|0:2,0:0:0:0:
261,273,91601,2,0,P|271:315|308:353,1,80,2|2,0:1|0:0,0:0:0:0:
116,173,91821,6,0,L|178:50,1,80,12|0,0:0|0:0,0:0:0:0:
374,84,92042,2,0,L|312:-39,1,80,4|2,0:1|0:0,0:0:0:0:
255,0,92263,1,12,0:0:0:0:
293,343,92483,6,0,L|368:327,2,53.3333333333333,12|12|12,0:0|0:0|1:3,0:0:0:0:
218,383,92704,1,12,1:3:0:0:
405,273,92924,1,2,1:3:0:0:
66,383,93145,6,0,P|116:283|207:260,1,160,4|2,1:0|0:2,0:0:0:0:
216,144,93476,1,2,0:0:0:0:
216,144,93586,2,0,L|290:173,1,80,2|0,0:0|0:0,0:0:0:0:
102,138,93807,2,0,L|47:30,1,80,4|2,0:0|0:1,0:0:0:0:
107,241,94027,2,0,L|145:252,4,40,6|2|2|0|0,0:2|0:2|0:2|0:2|0:0,0:0:0:0:
11,206,94358,1,2,0:0:0:0:
11,206,94468,6,0,P|69:107|53:29,1,160,8|2,0:0|0:2,0:0:0:0:
202,58,94799,1,2,0:0:0:0:
202,58,94910,2,0,L|259:75,2,40,2|2|2,0:2|0:2|0:2,0:0:0:0:
202,154,95130,2,0,L|278:178,1,80,2|2,0:0|0:0,0:0:0:0:
457,237,95351,5,12,0:0:0:0:
422,198,95461,1,0,1:0:0:0:
410,141,95571,1,0,1:0:0:0:
429,89,95682,1,2,1:0:0:0:
479,63,95792,5,12,0:0:0:0:
334,274,96013,1,8,0:0:0:0:
346,283,96123,1,8,0:0:0:0:
356,289,96233,2,0,L|402:364,1,80,8|0,1:3|0:0,0:0:0:0:
210,220,96454,2,0,L|307:176,1,80,4|0,0:1|0:0,0:0:0:0:
319,33,96674,6,0,L|283:238,1,160,4|2,1:0|0:0,0:0:0:0:
170,317,97005,1,2,0:0:0:0:
170,317,97115,2,0,P|114:253|115:197,1,80,2|2,0:2|0:0,0:0:0:0:
122,168,97336,1,12,0:0:0:0:
260,345,97557,2,0,L|244:403,4,40,12|2|2|2|2,0:0|0:2|0:2|0:2|0:2,0:0:0:0:
0,87,97998,6,0,L|50:71,4,53.3333333333333,8|0|0|0|2,0:0|0:0|0:0|0:0|0:2,0:0:0:0:
110,9,98439,2,0,L|178:46,6,53.3333333333333,2|0|0|0|2|0|4,0:2|0:0|0:0|0:0|0:2|0:0|0:2,0:0:0:0:
244,356,105939,6,0,P|261:283|225:171,1,160,4|2,0:2|0:0,0:0:0:0:
151,137,106601,1,0,0:0:0:0:
328,177,106821,2,0,P|346:133|360:75,1,80,0|0,1:0|1:0,0:0:0:0:
342,4,107263,1,10,0:0:0:0:
113,311,107704,6,0,P|58:262|26:205,1,120,2|0,0:0|0:0,0:0:0:0:
27,191,108145,2,0,P|16:247|0:300,1,80,4|0,0:2|0:0,0:0:0:0:
7,371,108586,1,0,1:0:0:0:
117,160,108807,6,0,P|130:168|166:138,1,40,2|0,0:0|0:0,0:0:0:0:
171,146,109027,2,0,P|149:111|184:65,1,80,2|2,0:0|0:0,0:0:0:0:
330,102,109468,5,4,0:2:0:0:
213,218,109689,1,2,0:0:0:0:
361,268,109910,1,2,0:0:0:0:
295,352,110130,1,2,0:0:0:0:
476,279,110351,6,0,P|461:242|445:179,1,80,0|0,1:0|1:0,0:0:0:0:
331,81,110792,1,8,0:0:0:0:
405,43,111013,1,0,0:0:0:0:
197,235,111233,6,0,L|66:221,1,120,2|0,0:0|0:0,0:0:0:0:
63,209,111674,2,0,P|86:175|118:110,1,80,4|0,0:2|0:0,0:0:0:0:
67,0,112115,1,2,1:2:0:0:
183,98,112336,1,2,1:2:0:0:
183,98,112446,1,0,0:0:0:0:
183,98,112557,2,0,L|258:113,1,40,2|0,1:2|0:0,0:0:0:0:
299,125,112777,1,2,1:2:0:0:
129,384,112998,6,0,P|147:321|179:270,1,120,2|0,0:0|0:0,0:0:0:0:
253,345,113439,6,0,P|359:317|463:267,1,180.000006866455,6|0,0:0|0:0,0:0:0:0:
485,211,113880,1,0,1:0:0:0:
415,103,114101,1,0,0:0:0:0:
265,221,114321,2,0,P|316:130|336:79,1,120.000004577637,6|0,0:0|0:0,0:0:0:0:
42,1,114763,6,0,P|120:20|213:85,1,180.000006866455,2|0,0:0|0:0,0:0:0:0:
116,160,115204,2,0,L|0:188,1,120.000004577637,4|0,0:2|0:0,0:0:0:0:
280,32,115645,2,0,L|326:45,2,30.0000011444092,0|8|0,1:0|0:0|0:0,0:0:0:0:
211,96,115865,1,0,0:0:0:0:
279,331,116086,1,2,0:0:0:0:
280,215,116307,1,2,0:0:0:0:
68,321,116527,6,0,L|223:285,1,120.000004577637,4|2,0:2|0:0,0:0:0:0:
350,136,116968,2,0,L|466:163,1,120.000004577637,2|2,0:0|0:0,0:0:0:0:
267,384,117410,6,0,P|288:255|277:193,1,180.000006866455,0|0,1:0|0:0,0:0:0:0:
213,134,117851,2,0,P|262:208|303:196,1,120.000004577637,4|0,0:2|0:0,0:0:0:0:
406,34,118292,2,0,L|394:4,2,30.0000011444092,2|0|0,0:0|0:0|0:0,0:0:0:0:
489,66,118513,1,2,0:0:0:0:
97,58,118733,6,0,L|234:39,1,120.000004577637,4|0,0:2|0:0,0:0:0:0:
389,284,119174,2,0,L|383:337,4,30.0000011444092,0|8|0|0|0,1:0|0:0|0:0|0:0|1:0,0:0:0:0:
309,97,119615,2,0,P|306:164|289:259,1,120.000004577637,4|0,0:0|0:0,0:0:0:0:
0,384,120057,6,0,P|76:317|193:252,1,180.000006866455,4|0,0:2|0:0,0:0:0:0:
222,290,120498,1,4,0:0:0:0:
62,143,120718,2,0,P|57:173|49:202,1,60.0000022888184
159,154,120939,6,0,P|137:65|126:8,1,120.000004577637,0|0,1:0|0:0,0:0:0:0:
338,317,121380,2,0,P|268:303|212:286,1,120.000004577637,6|0,0:0|0:0,0:0:0:0:
63,32,121821,6,0,P|132:58|154:166,1,180.000006866455,2|0,0:0|0:0,0:0:0:0:
240,202,122263,6,0,L|364:174,1,80.0000030517579,2|2,1:2|1:2,0:0:0:0:
406,162,122557,1,2,1:2:0:0:
318,97,122704,6,0,L|452:131,1,120.000004577637,0|0,1:0|0:0,0:0:0:0:
499,230,123145,1,2,0:0:0:0:
452,35,123365,1,2,0:0:0:0:
277,346,123586,6,0,B|348:350|348:350|310:140,1,240.000009155274,6|2,0:0|0:0,0:0:0:0:
149,297,124248,1,0,0:0:0:0:
220,74,124468,2,0,L|206:133,1,60.0000022888184,0|0,1:0|0:0,0:0:0:0:
298,188,124689,1,2,1:3:0:0:
0,261,124910,2,0,P|38:216|184:232,1,180.000006866455,4|0,0:2|0:0,0:0:0:0:
203,274,125351,5,0,1:0:0:0:
130,382,125571,1,0,1:0:0:0:
266,203,125792,2,0,L|401:194,1,120.000004577637,4|2,1:3|0:0,0:0:0:0:
503,189,126233,5,8,0:0:0:0:
353,18,126454,1,2,0:0:0:0:
461,278,126674,5,4,0:2:0:0:
311,326,126895,1,2,0:0:0:0:
451,51,127115,6,0,L|442:114,1,60.0000022888184,10|0,0:0|0:0,0:0:0:0:
358,133,127336,2,0,L|367:196,1,60.0000022888184
252,141,127557,2,0,L|260:81,1,60.0000022888184
117,241,127778,2,0,L|108:181,1,60.0000022888184
61,303,127998,1,8,0:0:0:0:
182,12,128329,1,8,0:0:0:0:
182,12,128439,2,0,P|135:58|98:78,1,60.0000022888184,4|0,0:0|0:0,0:0:0:0:
45,79,128660,1,4,0:0:0:0:
293,340,128880,6,0,L|213:361,1,60.0000022888184,2|0,0:0|0:0,0:0:0:0:
346,262,129101,2,0,L|404:320,1,60.0000022888184,2|0,0:0|0:0,0:0:0:0:
269,197,129321,2,0,L|290:117,1,60.0000022888184,4|0,0:2|0:0,0:0:0:0:
316,52,129542,1,0,0:0:0:0:
316,52,129652,1,2,0:0:0:0:
316,52,129763,2,0,P|355:62|379:112,1,60.0000022888184,0|0,1:0|0:0,0:0:0:0:
442,35,129983,1,2,0:0:0:0:
161,235,130204,2,0,L|334:198,1,120.000004577637,2|8,0:0|0:0,0:0:0:0:
377,172,130535,1,8,0:0:0:0:
377,172,130645,6,0,P|405:179|458:233,1,60.0000022888184,12|0,0:0|0:0,0:0:0:0:
191,51,130976,2,0,P|211:30|284:11,1,60.0000022888184,4|0,0:2|0:0,0:0:0:0:
16,164,131307,1,4,0:0:0:0:
16,164,131417,1,4,0:0:0:0:
16,164,131527,2,0,P|74:108|70:25,1,120.000004577637,8|8,0:0|0:0,0:0:0:0:
161,235,131968,2,0,P|222:240|251:267,1,60.0000022888184,8|0,0:0|0:0,0:0:0:0:
286,303,132189,1,8,0:0:0:0:
70,254,132410,6,0,P|61:281|41:320,1,60.0000022888184,0|4,0:0|0:0,0:0:0:0:
183,148,132630,1,4,0:0:0:0:
183,148,132740,1,8,0:0:0:0:
183,148,132851,2,0,P|176:109|163:54,1,60.0000022888184,12|0,0:0|0:0,0:0:0:0:
292,316,133182,1,4,0:2:0:0:
292,316,133292,2,0,L|383:335,1,60.0000022888184,4|0,0:0|0:0,0:0:0:0:
422,283,133513,2,0,L|445:372,1,60.0000022888184,8|8,0:0|0:0,0:0:0:0:
326,161,133733,2,0,L|303:250,1,60.0000022888184,8|8,0:0|0:0,0:0:0:0:
406,49,133954,2,0,L|429:138,1,60.0000022888184,8|4,0:0|0:0,0:0:0:0:
229,255,134174,6,0,P|213:171|216:46,1,180.000006866455,4|8,0:2|0:0,0:0:0:0:
74,55,134615,1,4,0:0:0:0:
91,69,134726,1,4,0:0:0:0:
98,91,134836,2,0,P|101:206|98:234,2,120.000004577637,4|8|4,0:2|0:0|0:0,0:0:0:0:
0,312,135498,1,12,0:0:0:0:
0,312,135608,2,0,P|105:333|173:341,1,120.000004577637
252,318,135939,5,8,0:0:0:0:
252,318,136049,1,8,0:0:0:0:
252,318,136160,2,0,L|266:390,1,60.0000022888184,12|12,0:0|0:0,0:0:0:0:
280,240,136380,1,2,0:2:0:0:
390,369,136601,1,4,0:0:0:0:
390,369,136711,1,4,0:0:0:0:
390,369,136821,2,0,L|411:286,1,60.0000022888184,8|4,1:3|0:0,0:0:0:0:
382,145,137042,1,8,0:0:0:0:
382,145,137152,1,8,0:0:0:0:
382,145,137263,2,0,P|404:167|444:194,1,60.0000022888184,10|0,0:0|0:0,0:0:0:0:
512,144,137483,1,8,0:0:0:0:
505,82,137593,1,8,0:0:0:0:
472,39,137704,6,0,L|431:60,5,40.000001525879,8|8|8|8|8|8,0:0|0:0|0:0|0:0|0:0|0:0,0:0:0:0:
412,29,138145,6,0,L|371:8,5,40.000001525879,8|0|8|8|8|8,0:0|0:0|0:0|0:0|0:0|0:0,0:0:0:0:
295,68,138586,2,0,P|260:104|231:156,1,80.0000030517579,12|0,1:3|0:0,0:0:0:0:
257,209,138807,2,0,L|279:272,2,40.000001525879,8|8|8,1:3|0:0|1:3,0:0:0:0:
170,216,139027,2,0,L|103:210,5,40.000001525879,8|8|8|8|8|8,0:0|0:0|0:0|0:0|0:0|0:0,0:0:0:0:
201,302,139468,6,0,L|181:372,1,60.0000022888184,10|0,0:0|0:0,0:0:0:0:
15,232,139689,2,0,L|35:162,1,60.0000022888184,8|0,0:0|0:0,0:0:0:0:
122,104,139910,2,0,L|175:88,6,40.000001525879,2|2|2|2|2|2|2,1:2|1:2|1:2|1:2|1:2|1:2|1:2,0:0:0:0:
499,311,140792,6,0,P|508:299|519:281,5,21.3333333333333,2|0|0|0|0|0,0:0|0:0|0:0|0:0|0:0|0:0,0:0:0:0:
398,357,141233,5,4,0:0:0:0:
398,357,141343,2,0,P|364:344|336:324,1,60.0000022888184,4|4,0:0|0:0,0:0:0:0:
289,166,141564,1,6,0:0:0:0:
289,166,142115,6,0,P|254:222|258:347,1,180.000006866455,8|2,0:0|0:0,0:0:0:0:
144,329,142557,2,0,L|172:399,2,60.0000022888184,2|0|0,0:0|0:0|0:0,0:0:0:0:
40,316,142888,1,2,0:0:0:0:
365,127,143108,1,0,0:0:0:0:
365,127,143218,6,0,L|376:70,3,40.000001525879,8|8|8|8,0:0|0:0|0:0|0:0,0:0:0:0:
441,343,143660,2,0,L|433:382,2,40.000001525879,8|8|8,0:0|0:0|0:0,0:0:0:0:
507,294,143880,5,8,0:0:0:0:
230,248,144101,2,0,L|333:228,1,60.0000022888184,8|0,1:3|0:0,0:0:0:0:
484,205,144321,5,2,1:2:0:0:
408,240,144468,5,2,1:2:0:0:
358,166,144615,5,2,1:2:0:0:
240,138,144763,6,0,L|131:121,2,60.0000022888184,4|0|0,1:0|0:0|0:0,0:0:0:0:
338,319,145204,6,0,P|231:341|118:353,1,160,4|0,0:2|0:0,0:0:0:0:
478,49,145645,2,0,P|399:66|320:77,1,160,4|0,0:1|0:0,0:0:0:0:
0,191,146086,6,0,P|79:179|137:167,1,80,4|0,0:2|0:3,0:0:0:0:
341,242,146307,1,2,0:0:0:0:
262,233,146417,2,0,P|251:190|230:146,1,80,2|0,0:1|0:0,0:0:0:0:
175,44,146638,1,2,0:0:0:0:
175,44,146748,2,0,L|151:130,1,80,2|2,0:0|0:0,0:0:0:0:
107,296,146968,5,12,0:0:0:0:
107,296,147079,2,0,L|4:278,2,80,2|2|2,0:1|0:0|0:0,0:0:0:0:
202,379,147410,2,0,P|227:340|290:330,1,80,8|0,0:0|0:0,0:0:0:0:
439,255,147630,1,4,0:0:0:0:
439,255,147740,2,0,P|356:257|268:219,1,160,2|2,0:0|0:0,0:0:0:0:
301,69,148071,2,0,P|324:91|323:179,1,80,2|2,0:1|0:0,0:0:0:0:
159,280,148292,6,0,L|32:297,1,80,8|0,0:0|1:0,0:0:0:0:
341,370,148513,1,0,1:0:0:0:
341,370,148623,2,0,L|469:364,1,80,0|2,1:0|0:2,0:0:0:0:
178,179,148843,6,0,L|113:191,4,40,10|0|0|0|0,0:0|0:0|1:0|1:0|1:0,0:0:0:0:
301,69,149174,2,0,L|400:93,1,80,10|0,1:3|0:0,0:0:0:0:
255,197,149395,2,0,L|178:179,1,80,6|0,0:0|0:0,0:0:0:0:
215,383,149615,6,0,P|71:320|1:312,1,160,4|2,0:1|0:0,0:0:0:0:
0,188,149946,1,2,0:0:0:0:
0,188,150057,2,0,P|64:128|110:142,1,80,2|2,0:0|0:0,0:0:0:0:
78,57,150277,1,6,0:0:0:0:
284,321,150498,6,0,L|309:110,1,160,6|0,0:0|0:0,0:0:0:0:
204,0,150829,1,2,0:1:0:0:
243,68,150939,2,0,L|333:54,1,80,2|0,0:2|0:0,0:0:0:0:
428,17,151160,1,2,0:2:0:0:
428,17,151270,1,2,0:0:0:0:
428,17,151380,2,0,L|436:144,1,80,2|2,0:0|0:0,0:0:0:0:
464,190,151601,1,2,0:0:0:0:
464,190,151711,1,2,0:0:0:0:
464,190,151821,6,0,P|438:296|431:325,1,80,12|0,0:0|1:0,0:0:0:0:
240,176,152042,1,0,1:0:0:0:
240,176,152152,2,0,P|247:223|269:314,2,80,0|12|0,1:0|0:0|0:0,0:0:0:0:
141,87,152483,1,8,0:0:0:0:
158,58,152593,1,4,0:0:0:0:
165,25,152704,2,0,L|52:52,1,80,12|0,0:0|0:0,0:0:0:0:
224,186,152924,2,0,L|337:213,1,80,4|0,0:2|0:0,0:0:0:0:
25,220,153145,6,0,P|2:85|-1:-12,1,160,12|2,0:0|0:0,0:0:0:0:
112,185,153476,1,0,0:0:0:0:
112,185,153586,1,0,1:0:0:0:
289,26,153807,2,0,L|270:116,1,80,12|2,0:0|0:0,0:0:0:0:
220,266,154027,2,0,P|342:237|486:250,1,240,4|0,0:2|0:0,0:0:0:0:
370,127,154468,2,0,P|410:137|487:175,1,80,8|0,0:0|0:0,0:0:0:0:
477,319,154689,1,4,0:0:0:0:
477,319,154799,1,4,0:0:0:0:
477,319,154910,2,0,P|466:277|441:207,1,80,6|0,0:0|0:0,0:0:0:0:
433,50,155130,1,0,1:0:0:0:
433,50,155240,6,0,P|477:46|513:40,2,80,0|4|0,1:0|0:0|0:0,0:0:0:0:
180,55,155571,1,4,0:0:0:0:
253,26,155682,2,0,P|263:71|273:157,1,80,2|4,0:1|0:0,0:0:0:0:
342,0,156013,5,2,0:1:0:0:
180,356,156233,5,12,0:0:0:0:
271,187,156454,1,10,0:0:0:0:
271,187,156564,1,0,0:0:0:0:
271,187,156674,2,0,P|256:141|109:52,1,160,4|2,0:1|0:0,0:0:0:0:
138,193,157005,2,0,P|122:240|114:299,1,80,2|2,0:0|0:1,0:0:0:0:
22,169,157226,2,0,P|40:58|33:-8,1,160,2|2,0:0|0:0,0:0:0:0:
132,84,157557,2,0,L|172:73,4,40,4|0|0|2|2,1:0|0:0|0:0|0:2|0:2,0:0:0:0:
351,354,157998,6,0,P|338:275|457:160,1,240,2|2,0:2|0:0,0:0:0:0:
472,272,158439,2,0,L|434:286,4,40,2|2|2|0|2,0:2|0:2|0:2|0:0|0:2,0:0:0:0:
234,18,158880,5,12,0:0:0:0:
303,76,158990,1,0,1:0:0:0:
381,79,159101,1,0,1:0:0:0:
446,58,159211,1,0,1:0:0:0:
449,36,159321,2,0,P|327:100|242:135,1,160,12|2,0:0|0:0,0:0:0:0:
159,297,159763,6,0,L|178:391,1,80,12|0,0:0|0:0,0:0:0:0:
253,224,159983,2,0,L|170:139,1,80,6|2,0:0|0:0,0:0:0:0:
90,117,160204,1,4,1:0:0:0:
90,117,160314,1,0,0:0:0:0:
90,117,160424,2,0,L|125:5,2,80,2|2|2,0:0|0:1|0:0,0:0:0:0:
1,293,160755,2,0,P|82:293|178:273,1,160,2|2,0:0|0:0,0:0:0:0:
311,345,161086,6,0,L|304:400,4,40,2|2|2|2|2,0:2|0:2|0:2|0:2|0:2,0:0:0:0:
375,164,161417,1,2,0:0:0:0:
366,242,161527,2,0,L|347:147,1,80,8|0,0:0|0:0,0:0:0:0:
485,94,161748,1,2,0:0:0:0:
485,94,161858,1,2,0:0:0:0:
485,94,161968,2,0,L|464:156,4,40,2|0|2|2|2,1:3|0:0|0:2|0:2|0:0,0:0:0:0:
264,258,162410,5,4,0:1:0:0:
242,198,162520,1,0,1:0:0:0:
250,132,162630,1,0,1:0:0:0:
288,83,162740,2,0,L|334:68,8,40,0|0|0|0|0|2|2|2|2,1:0|0:0|1:0|1:0|1:0|1:2|1:2|1:2|1:2,0:0:0:0:
164,125,163292,5,12,0:0:0:0:
385,14,163513,1,4,0:1:0:0:
91,20,163733,6,0,L|350:75,1,240,4|2,1:0|0:0,0:0:0:0:
374,287,164174,2,0,L|359:209,1,80,2|0,0:1|0:0,0:0:0:0:
426,90,164395,1,6,0:0:0:0:
236,343,164615,2,0,L|249:406,4,40,4|0|2|2|2,0:1|0:0|0:2|0:2|0:2,0:0:0:0:
112,284,164946,1,2,0:0:0:0:
70,346,165057,2,0,L|162:324,1,80,8|0,0:0|0:0,0:0:0:0:
231,220,165277,1,2,0:2:0:0:
231,220,165388,2,0,L|200:134,1,80,2|2,0:0|0:1,0:0:0:0:
86,75,165608,1,2,0:2:0:0:
86,75,165718,1,0,0:0:0:0:
321,314,165939,6,0,L|349:229,1,80,12|0,0:0|1:0,0:0:0:0:
368,17,166160,1,0,1:0:0:0:
328,59,166270,1,0,1:0:0:0:
317,109,166380,2,0,L|442:129,1,80,12|0,0:0|0:0,0:0:0:0:
512,214,166601,1,8,0:0:0:0:
512,214,166711,1,8,0:0:0:0:
512,214,166821,1,12,0:0:0:0:
218,357,167042,1,4,0:1:0:0:
97,42,167263,6,0,P|197:89|213:248,1,240,4|2,1:0|0:0,0:0:0:0:
131,291,167704,1,8,0:0:0:0:
83,228,167814,2,0,L|201:272,1,80,4|2,0:0|0:2,0:0:0:0:
308,384,168035,1,8,0:0:0:0:
308,384,168145,2,0,L|415:361,1,80,4|4,0:0|0:0,0:0:0:0:
505,273,168365,1,8,0:0:0:0:
311,64,168586,2,0,L|321:168,1,80,2|0,1:2|0:0,0:0:0:0:
321,240,168807,6,0,L|303:305,9,53.3333333333333,2|2|2|2|0|2|2|2|2|0,0:2|0:2|0:2|0:2|0:0|0:2|0:2|0:2|0:2|0:0,0:0:0:0:
