osu file format v14

[General]
AudioFilename: OD.mp3
AudioLeadIn: 0
PreviewTime: 140792
Countdown: 0
SampleSet: Drum
StackLeniency: 0.2
Mode: 0
LetterboxInBreaks: 0
WidescreenStoryboard: 1

[Editor]
Bookmarks: 14615,15057,28292,41527,42410,56527,69763,70645,71527,71968,98880,105939,112998,127115,141233,144763,169468
DistanceSpacing: 0.7
BeatDivisor: 4
GridSize: 32
TimelineZoom: 2.7

[Metadata]
Title:O.D.
TitleUnicode:O.D.
Artist:Polyphia
ArtistUnicode:Polyphia
Creator:Melwoine
Version:Hard
Source:
Tags:New Levels New Devils od instrumental Progressive Metal Math corsace grandfinals gf hard rock hr1 Vinxis
BeatmapID:2681089
BeatmapSetID:1276327

[Difficulty]
HPDrainRate:4
CircleSize:3.2
OverallDifficulty:7
ApproachRate:8
SliderMultiplier:1.4
SliderTickRate:1

[Events]
//Background and Video events
0,0,"13637062_p0_master1200_waifu2x_art_noise3_scale_tta_1.png",0,0
//Break Periods
2,99080,105189
//Storyboard Layer 0 (Background)
//Storyboard Layer 1 (Fail)
//Storyboard Layer 2 (Pass)
//Storyboard Layer 3 (Foreground)
//Storyboard Layer 4 (Overlay)
//Storyboard Sound Samples

[TimingPoints]
58,428.571428571429,4,3,0,70,1,0
486,454.545454545455,4,3,0,70,1,8
940,441.176470588235,4,3,0,70,1,8
1160,-83.3333333333333,4,3,0,70,0,8
1822,441.176470588235,4,3,0,70,1,8
1822,-83.3333333333333,4,3,0,70,0,8
3586,428.571428571429,4,3,0,70,1,0
4014,455.235204855842,4,3,0,70,1,8
4469,441.176470588235,4,3,0,70,1,0
5902,-83.3333333333333,4,3,0,70,0,0
7116,441.176470588235,4,3,0,70,1,0
7116,-76.9230769230769,4,3,0,70,0,0
15057,-66.6666666666667,4,3,0,70,0,0
28292,-100,4,3,0,60,0,0
42410,-76.9230769230769,4,3,0,70,0,0
56527,-66.6666666666667,4,3,0,70,0,0
71527,-66.6666666666667,4,3,0,80,0,0
71968,-62.5,4,3,0,80,0,1
98880,-62.5,4,3,0,70,0,0
105939,-100,4,3,0,60,0,0
127115,-76.9230769230769,4,3,0,70,0,0
142336,-100,4,3,0,70,0,0
143218,-66.6666666666667,4,3,0,70,0,0
144763,-66.6666666666667,4,3,0,80,0,1
146417,-62.5,4,3,0,80,0,1
169468,-62.5,4,3,0,70,0,0

[Colours]
Combo1 : 140,83,83
Combo2 : 192,185,160
Combo3 : 131,129,84
Combo4 : 154,98,41

[HitObjects]
78,315,58,6,0,L|30:330,2,35
110,234,379,1,2,0:0:0:0:
293,308,940,2,0,L|258:300,1,35
211,287,1160,6,0,P|231:211|231:138,1,125.999996154785,2|0,0:0|0:0,0:0:0:0:
188,87,1601,1,0,0:0:0:0:
188,87,1712,1,2,0:0:0:0:
45,59,1932,2,0,L|-10:50,2,41.9999987182618
120,15,2263,1,2,0:0:0:0:
300,106,2594,1,0,0:0:0:0:
300,106,2704,2,0,P|400:106|507:110,1,167.999994873047,2|0,0:2|0:0,0:0:0:0:
479,142,3256,1,0,0:0:0:0:
416,271,3476,1,2,0:1:0:0:
416,271,3586,6,0,L|410:311,2,35
349,215,3907,1,2,0:0:0:0:
197,252,4469,1,0,0:0:0:0:
197,252,4579,1,0,0:0:0:0:
197,252,4689,6,0,P|205:285|212:339,1,70,2|0,0:0|0:0,0:0:0:0:
128,355,5020,2,0,L|65:344,1,35
38,282,5241,1,2,0:0:0:0:
108,191,5461,2,0,P|93:134|77:103,1,70,2|0,0:0|0:0,0:0:0:0:
148,30,5792,1,0,0:0:0:0:
148,30,5902,2,0,L|164:100,1,41.9999987182618,2|2,0:0|0:0,0:0:0:0:
217,136,6123,6,0,P|289:123|336:86,1,125.999996154785,2|2,0:0|0:0,0:0:0:0:
340,47,6564,1,2,0:0:0:0:
326,220,6895,1,0,0:0:0:0:
326,220,7005,1,0,0:0:0:0:
326,220,7116,6,0,L|339:282,2,45.4999979171754,0|0|0,1:0|0:0|0:0,0:0:0:0:
397,158,7446,1,2,0:1:0:0:
423,336,7777,2,0,P|421:310|426:273,1,45.4999979171754,0|0,1:0|1:0,0:0:0:0:
487,231,7998,2,0,P|484:155|477:106,1,90.9999958343508,2|0,0:0|0:0,0:0:0:0:
433,15,8439,1,0,1:0:0:0:
283,56,8660,6,0,L|164:42,1,90.9999958343508,2|0,1:2|1:0,0:0:0:0:
161,63,8990,1,2,0:0:0:0:
39,7,9211,1,2,0:1:0:0:
7,177,9432,1,2,0:0:0:0:
91,116,9652,6,0,P|102:190|102:255,1,136.499993751526,2|2,1:2|1:2,0:0:0:0:
216,340,10204,2,0,P|220:363|229:399,2,45.4999979171754,0|0|0,1:3|1:3|1:3,0:0:0:0:
283,252,10645,1,2,1:3:0:0:
283,252,10755,1,2,0:0:0:0:
283,252,10865,1,2,0:0:0:0:
283,252,10976,2,0,P|269:205|217:123,1,136.499993751526,2|0,0:1|1:2,0:0:0:0:
80,98,11527,1,2,0:0:0:0:
162,54,11748,1,2,0:1:0:0:
251,15,11968,1,0,1:0:0:0:
251,15,12079,2,0,P|302:22|371:23,1,90.9999958343508,0|2,0:0|0:0,0:0:0:0:
448,71,12410,5,4,0:0:0:0:
448,71,12520,1,4,0:0:0:0:
448,71,12630,2,0,L|465:148,1,45.4999979171754,8|0,0:0|0:0,0:0:0:0:
512,180,12851,1,8,0:0:0:0:
424,232,13071,1,4,0:0:0:0:
300,149,13292,5,8,0:0:0:0:
237,301,13513,1,8,0:0:0:0:
122,240,13733,2,0,L|72:230,3,45.4999979171754,4|8|2|2,0:0|0:0|0:2|0:2,0:0:0:0:
48,199,14174,1,4,0:0:0:0:
114,38,14615,5,2,0:0:0:0:
122,131,14836,1,4,0:0:0:0:
122,131,14946,1,0,0:0:0:0:
122,131,15057,2,0,L|189:121,1,52.5000020027161,10|0,0:0|0:0,0:0:0:0:
256,164,15277,2,0,L|323:154,1,52.5000020027161,10|2,0:0|0:0,0:0:0:0:
400,118,15498,6,0,P|416:232|411:266,1,105.000004005432,4|8,1:0|0:0,0:0:0:0:
469,280,15829,1,2,0:0:0:0:
390,344,16049,1,2,0:0:0:0:
390,344,16160,2,0,L|310:361,1,52.5000020027161
250,384,16380,6,0,P|230:328|267:227,1,157.500006008148,4|2,0:0|0:2,0:0:0:0:
254,150,16821,1,8,0:0:0:0:
168,166,17042,1,2,0:0:0:0:
168,166,17152,1,2,0:0:0:0:
168,166,17263,1,2,0:0:0:0:
150,53,17483,1,4,0:0:0:0:
79,180,17704,6,0,P|94:259|98:361,1,157.500006008148,4|0,0:1|0:0,0:0:0:0:
0,363,18145,2,0,P|58:320|165:328,1,157.500006008148,2|0,0:0|0:0,0:0:0:0:
211,379,18586,1,8,0:0:0:0:
252,297,18807,1,2,0:0:0:0:
252,297,18917,1,0,0:0:0:0:
252,297,19027,2,0,P|233:217|226:177,1,105.000004005432,4|2,1:0|0:0,0:0:0:0:
259,117,19358,1,2,0:0:0:0:
365,76,19579,6,0,L|427:84,2,52.5000020027161,2|8|2,0:0|0:0|0:2,0:0:0:0:
265,10,19910,2,0,P|217:25|118:38,1,105.000004005432,4|2,1:0|0:0,0:0:0:0:
4,159,20351,2,0,P|44:169|120:180,1,105.000004005432,8|4,0:0|0:0,0:0:0:0:
212,277,20792,1,2,0:0:0:0:
212,277,20902,1,4,0:0:0:0:
212,277,21013,2,0,L|225:343,1,52.5000020027161,4|4,0:0|0:0,0:0:0:0:
296,364,21233,6,0,P|318:309|316:230,1,105.000004005432,6|2,0:0|0:2,0:0:0:0:
282,171,21564,2,0,P|354:138|411:129,2,105.000004005432,2|6|4,0:1|0:0|0:0,0:0:0:0:
184,196,22115,6,0,P|140:188|113:176,1,52.5000020027161,4|0,0:1|0:0,0:0:0:0:
49,135,22336,1,4,0:0:0:0:
161,65,22557,2,0,P|234:88|282:162,1,157.500006008148,6|2,0:0|0:0,0:0:0:0:
266,253,22998,5,2,0:1:0:0:
395,171,23218,2,0,P|403:114|394:46,2,105.000004005432,4|4|2,0:1|0:0|0:2,0:0:0:0:
371,264,23770,1,2,0:2:0:0:
371,264,23880,2,0,L|454:283,1,52.5000020027161,8|0,0:0|0:0,0:0:0:0:
510,301,24101,1,2,0:2:0:0:
510,301,24211,1,2,0:0:0:0:
510,301,24321,2,0,P|504:343|485:380,2,70.0000026702882,4|4|4,0:0|0:0|0:0,0:0:0:0:
489,151,24763,6,0,L|358:169,1,105.000004005432,4|0,1:0|1:0,0:0:0:0:
287,230,25093,2,0,P|280:151|279:72,1,157.500006008148,2|2,0:1|0:2,0:0:0:0:
443,52,25645,1,10,0:0:0:0:
323,0,25865,1,6,0:0:0:0:
189,47,26086,1,4,0:1:0:0:
189,47,26196,2,0,P|134:68|61:78,1,105.000004005432,2|2,0:0|0:0,0:0:0:0:
62,61,26527,5,2,0:0:0:0:
62,197,26748,2,0,P|118:186|192:162,2,105.000004005432,6|2|2,0:0|0:2|0:2,0:0:0:0:
0,277,27299,1,2,0:2:0:0:
0,277,27410,1,8,0:0:0:0:
126,312,27630,2,0,L|206:298,1,52.5000020027161,8|8,0:0|0:0,0:0:0:0:
261,344,27851,2,0,P|275:268|277:193,1,105.000004005432,2|0,0:0|1:0,0:0:0:0:
277,152,28182,1,0,1:0:0:0:
277,152,28292,6,0,P|358:175|419:205,2,140,2|2|2,0:0|0:2|0:0,0:0:0:0:
191,90,29395,1,2,0:0:0:0:
138,157,29615,2,0,P|60:113|45:92,1,105,4|0,0:2|0:0,0:0:0:0:
53,81,30057,2,0,P|69:154|49:231,1,140,2|2,0:0|0:0,0:0:0:0:
187,384,30939,5,0,0:0:0:0:
228,300,31160,1,0,0:0:0:0:
133,262,31380,2,0,L|36:294,1,70,2|0,0:0|0:0,0:0:0:0:
227,193,31821,6,0,P|297:224|327:299,1,140,2|2,0:0|0:0,0:0:0:0:
416,333,32483,1,0,0:0:0:0:
405,218,32704,2,0,L|510:243,1,105,2|0,0:0|0:0,0:0:0:0:
510,221,33145,1,4,0:2:0:0:
387,70,33586,5,2,0:0:0:0:
355,106,33807,1,0,0:0:0:0:
280,28,34027,1,2,0:0:0:0:
208,123,34248,1,2,0:0:0:0:
130,22,34468,5,2,0:0:0:0:
60,129,34689,1,0,0:0:0:0:
0,231,34910,6,0,L|88:257,2,70,2|2|2,0:0|0:0|0:0,0:0:0:0:
134,166,35792,2,0,P|203:158|254:148,1,105,2|0,0:0|0:0,0:0:0:0:
264,166,36233,2,0,P|264:117|284:41,1,105,2|0,0:0|0:0,0:0:0:0:
360,21,36674,1,4,0:2:0:0:
332,224,37115,6,0,P|319:237|277:249,2,46.6666666666667,4|0|0,0:2|0:0|0:0,0:0:0:0:
424,197,37557,2,0,P|465:241|474:283,1,105,4|0,0:2|0:0,0:0:0:0:
440,363,37998,2,0,P|405:350|340:340,1,70,2|0,0:0|0:0,0:0:0:0:
211,215,38439,5,2,0:0:0:0:
293,248,38660,1,4,0:2:0:0:
199,320,38880,2,0,P|152:332|94:344,1,105,2|0,0:0|0:0,0:0:0:0:
66,338,39321,2,0,P|77:298|85:259,1,70,2|0,0:0|0:0,0:0:0:0:
65,175,39763,1,2,0:0:0:0:
65,175,39873,1,2,0:0:0:0:
65,175,39983,1,2,0:0:0:0:
181,105,40204,6,0,L|294:120,1,105,4|0,0:2|0:0,0:0:0:0:
297,99,40645,2,0,L|286:59,12,23.3333333333333,0|0|0|0|0|0|2|2|2|2|2|2|8,0:0|0:0|0:0|0:0|0:0|0:0|0:2|0:2|0:2|0:2|0:2|0:2|0:3,0:0:0:0:
403,320,41968,6,0,P|402:344|398:367,2,46.6666666666667,0|0|0,1:0|1:0|1:0,0:0:0:0:
465,233,42410,6,0,P|440:173|421:102,1,136.499993751526,4|2,1:0|2:0,0:0:0:0:
442,73,42851,1,2,2:0:0:0:
332,145,43071,1,2,0:0:0:0:
198,48,43292,2,0,P|206:89|210:146,1,90.9999958343508,8|2,0:0|0:0,0:0:0:0:
250,278,43733,1,4,0:0:0:0:
165,321,43954,1,2,0:0:0:0:
76,297,44174,5,2,0:2:0:0:
76,297,44285,1,2,0:2:0:0:
76,297,44395,1,2,0:2:0:0:
141,210,44615,1,4,0:0:0:0:
35,136,44836,1,2,0:2:0:0:
92,25,45057,2,0,L|-8:49,2,90.9999958343508,8|2|2,0:0|0:0|0:2,0:0:0:0:
167,154,45718,1,2,0:0:0:0:
167,154,45829,1,2,0:2:0:0:
167,154,45939,6,0,P|209:167|324:130,1,136.499993751526,6|0,0:0|0:0,0:0:0:0:
387,121,46380,2,0,P|454:41|494:38,1,136.499993751526,2|0,0:0|0:0,0:0:0:0:
512,116,46821,1,8,0:0:0:0:
451,201,47042,1,4,0:0:0:0:
343,220,47263,2,0,L|355:294,1,45.4999979171754,6|0,0:0|0:0,0:0:0:0:
415,329,47483,1,0,0:0:0:0:
265,336,47704,6,0,L|256:384,6,30.3333319447836,2|2|2|8|2|2|4,0:0|0:0|0:0|0:0|0:0|0:0|0:0,0:0:0:0:
207,257,48255,2,0,P|226:247|269:216,2,45.4999979171754,2|2|2,0:0|0:0|0:0,0:0:0:0:
101,272,48586,2,0,P|128:187|181:153,1,136.499993751526,8|2,0:0|0:0,0:0:0:0:
247,145,49027,2,0,L|256:85,1,45.4999979171754,2|2,0:2|0:0,0:0:0:0:
204,34,49248,1,2,0:0:0:0:
204,34,49358,1,2,0:2:0:0:
204,34,49468,6,0,P|301:71|371:75,1,136.499993751526,4|0,0:1|0:0,0:0:0:0:
398,17,49910,1,2,0:2:0:0:
499,115,50130,1,2,0:0:0:0:
394,178,50351,1,8,0:0:0:0:
360,285,50571,1,4,0:0:0:0:
439,360,50792,6,0,P|322:335|254:314,1,181.999991668702,6|2,0:0|0:0,0:0:0:0:
119,334,51454,1,4,0:0:0:0:
119,334,51564,1,0,0:0:0:0:
119,334,51674,2,0,P|132:283|140:246,1,90.9999958343508,6|0,0:0|0:0,0:0:0:0:
235,125,52115,2,0,P|246:170|255:220,2,90.9999958343508,8|4|2,0:0|0:0|0:2,0:0:0:0:
114,142,52777,1,2,0:0:0:0:
114,142,52888,1,2,0:2:0:0:
114,142,52998,6,0,L|12:122,1,90.9999958343508,4|0,0:1|0:0,0:0:0:0:
129,36,53439,1,2,0:0:0:0:
129,36,53549,1,2,0:0:0:0:
129,36,53660,2,0,L|193:46,1,45.4999979171754,2|2,0:0|0:0,0:0:0:0:
291,15,53880,1,8,0:0:0:0:
351,109,54101,1,0,1:0:0:0:
443,7,54321,2,0,P|454:74|451:174,1,136.499993751526,6|0,0:0|0:0,0:0:0:0:
506,215,54763,5,6,0:0:0:0:
403,283,54983,1,0,0:0:0:0:
291,327,55204,1,2,0:0:0:0:
291,327,55314,1,2,0:0:0:0:
291,327,55424,2,0,L|216:310,1,45.4999979171754,2|2,0:0|0:0,0:0:0:0:
211,190,55645,6,0,P|303:216|344:235,1,136.499993751526,8|2,0:0|0:0,0:0:0:0:
396,292,56086,1,4,0:0:0:0:
409,163,56307,1,8,0:0:0:0:
409,163,56417,1,8,0:0:0:0:
409,163,56527,6,0,P|355:96|312:103,1,105.000004005432,4|4,0:2|0:0,0:0:0:0:
275,33,56858,1,6,0:0:0:0:
275,33,56968,2,0,P|222:50|154:58,1,105.000004005432,4|4,1:2|0:0,0:0:0:0:
38,34,57410,1,8,0:0:0:0:
52,161,57630,1,6,0:0:0:0:
52,161,57740,1,4,0:0:0:0:
52,161,57851,2,0,L|0:155,2,52.5000020027161,4|6|6,0:2|0:0|0:0,0:0:0:0:
147,197,58182,1,6,0:0:0:0:
147,197,58292,6,0,P|227:281|212:335,1,157.500006008148,4|4,0:2|0:0,0:0:0:0:
250,341,58733,1,4,0:2:0:0:
348,287,58954,2,0,L|403:281,1,52.5000020027161,10|4,0:0|0:0,0:0:0:0:
421,297,59174,2,0,P|428:327|441:368,2,52.5000020027161,8|8|8,0:0|0:0|0:0,0:0:0:0:
471,210,59505,1,8,0:0:0:0:
471,210,59615,2,0,P|436:153|336:144,1,157.500006008148,4|4,0:2|0:0,0:0:0:0:
258,148,60057,5,8,0:0:0:0:
309,46,60277,1,0,0:0:0:0:
309,46,60388,1,4,0:0:0:0:
309,46,60498,2,0,P|210:66|173:71,1,105.000004005432,4|2,0:2|0:0,0:0:0:0:
152,0,60829,1,2,0:1:0:0:
16,37,61049,2,0,P|8:97|11:172,1,105.000004005432,2|0,0:0|1:0,0:0:0:0:
0,244,61380,2,0,P|28:235|79:227,1,52.5000020027161,4|4,0:2|0:0,0:0:0:0:
137,268,61601,1,4,0:0:0:0:
150,143,61821,6,0,P|201:152|251:170,1,105.000004005432,4|2,0:2|0:2,0:0:0:0:
302,247,62152,1,2,0:0:0:0:
302,247,62263,1,4,0:2:0:0:
402,143,62483,1,2,0:1:0:0:
512,258,62704,5,8,0:0:0:0:
512,258,62814,1,8,0:0:0:0:
512,258,62924,2,0,P|502:173|477:136,1,105.000004005432,2|4,1:0|0:2,0:0:0:0:
412,123,63255,1,8,0:0:0:0:
389,262,63476,1,8,0:0:0:0:
389,262,63586,6,0,P|402:291|414:340,2,52.5000020027161,4|4|0,0:1|0:2|0:0,0:0:0:0:
303,246,63917,1,2,0:0:0:0:
246,353,64138,1,6,0:0:0:0:
201,221,64358,1,8,0:0:0:0:
201,221,64468,2,0,P|252:154|293:117,1,105.000004005432,8|0,0:0|0:0,0:0:0:0:
409,42,64910,1,4,0:2:0:0:
409,42,65020,2,0,P|351:45|300:44,1,105.000004005432,4|8,0:0|0:0,0:0:0:0:
215,0,65351,1,10,0:0:0:0:
215,0,65461,1,0,0:0:0:0:
47,97,65792,6,0,P|99:103|145:129,1,105.000004005432,2|10,0:2|0:0,0:0:0:0:
60,280,66233,1,4,1:2:0:0:
60,280,66343,1,8,0:0:0:0:
60,280,66454,2,0,L|86:192,1,52.5000020027161,10|8,0:0|0:0,0:0:0:0:
159,243,66674,2,0,L|228:221,1,52.5000020027161,4|6,0:2|0:0,0:0:0:0:
288,256,66895,1,6,0:0:0:0:
370,349,67115,5,4,0:2:0:0:
370,349,67226,2,0,P|425:336|484:300,1,105.000004005432,10|4,0:0|0:0,0:0:0:0:
449,293,67557,2,0,P|426:199|362:140,1,157.500006008148,4|6,0:2|0:0,0:0:0:0:
304,132,67998,5,10,0:0:0:0:
243,3,68218,1,6,0:0:0:0:
106,73,68439,1,4,0:2:0:0:
106,73,68549,1,6,0:0:0:0:
106,73,68660,1,10,0:0:0:0:
106,73,68770,2,0,L|91:4,2,52.5000020027161,10|4|8,0:0|0:1|0:0,0:0:0:0:
150,164,69101,2,0,L|145:209,9,35.0000013351441,4|8|8|2|2|2|2|2|2|10,0:0|0:0|0:0|0:2|0:2|0:2|0:2|0:2|0:0|0:3,0:0:0:0:
395,35,70645,5,4,0:0:0:0:
395,35,70755,1,4,0:0:0:0:
395,35,70865,1,6,0:0:0:0:
395,35,70976,1,6,0:0:0:0:
242,212,71527,5,8,0:0:0:0:
178,72,71748,1,12,0:0:0:0:
123,265,71968,6,0,L|8:232,1,112,4|2,1:0|0:0,0:0:0:0:
47,158,72299,1,2,0:0:0:0:
47,158,72410,2,0,P|77:86|89:43,1,112,2|2,0:2|0:0,0:0:0:0:
214,230,72851,2,0,P|229:283|251:335,1,112,4|2,0:1|0:0,0:0:0:0:
393,364,73292,1,10,0:0:0:0:
393,364,73402,1,0,0:0:0:0:
393,364,73513,2,0,L|485:350,1,56,2|2,0:2|0:0,0:0:0:0:
500,293,73733,6,0,P|448:250|325:251,1,168,2|2,1:2|0:1,0:0:0:0:
292,172,74174,1,12,0:0:0:0:
292,172,74285,1,8,0:0:0:0:
292,172,74395,1,6,0:0:0:0:
292,172,74505,1,6,0:0:0:0:
70,368,75057,6,0,P|62:289|148:200,1,168,4|2,1:0|0:0,0:0:0:0:
195,189,75498,2,0,P|197:116|136:64,1,112,4|2,1:0|0:0,0:0:0:0:
101,43,75829,1,2,0:0:0:0:
248,3,76049,1,0,0:0:0:0:
344,105,76270,1,0,0:0:0:0:
344,105,76380,6,0,L|422:87,1,56,6|2,0:0|0:0,0:0:0:0:
478,118,76601,1,2,0:0:0:0:
341,193,76821,2,0,P|356:233|400:301,1,112,8|4,0:0|0:0,0:0:0:0:
453,360,77152,1,2,0:0:0:0:
453,360,77263,1,2,0:2:0:0:
309,330,77483,2,0,L|245:309,1,56,2|2,0:1|0:0,0:0:0:0:
164,320,77704,5,4,0:0:0:0:
164,320,77814,1,0,0:0:0:0:
164,320,77924,1,0,1:0:0:0:
164,320,78035,2,0,P|169:258|164:216,1,56,0|0,1:0|1:0,0:0:0:0:
158,211,78255,2,0,L|150:177,6,28,4|0|0|0|0|0|8,0:1|0:0|0:0|1:0|1:0|1:0|0:0,0:0:0:0:
27,207,78807,1,6,0:0:0:0:
65,73,79027,6,0,P|135:72|216:59,1,112,4|0,1:0|0:0,0:0:0:0:
328,122,79468,1,2,1:0:0:0:
328,122,79579,1,0,0:0:0:0:
328,122,79689,2,0,P|301:148|242:165,1,56,4|2,0:0|0:1,0:0:0:0:
249,243,79910,2,0,P|247:302|257:389,1,112,4|0,0:1|0:0,0:0:0:0:
95,325,80351,5,10,0:0:0:0:
95,325,80461,1,0,0:0:0:0:
95,325,80571,2,0,L|165:306,1,56,2|2,0:2|0:0,0:0:0:0:
156,205,80792,1,6,0:0:0:0:
53,150,81013,1,2,0:1:0:0:
144,47,81233,5,4,0:1:0:0:
144,47,81343,1,0,1:0:0:0:
144,47,81454,1,0,1:0:0:0:
144,47,81564,2,0,L|128:112,2,56,2|4|2,1:0|0:0|0:0,0:0:0:0:
220,4,81895,2,0,L|276:15,1,56,8|8,0:0|0:0,0:0:0:0:
363,31,82115,5,12,0:0:0:0:
289,120,82336,1,8,1:3:0:0:
374,237,82557,6,0,P|477:282|513:327,1,168,4|2,1:0|0:0,0:0:0:0:
435,352,82998,2,0,L|303:377,1,112,0|4,1:0|0:0,0:0:0:0:
248,210,83439,1,6,0:0:0:0:
248,210,83549,2,0,L|223:333,1,112,2|0,0:0|0:0,0:0:0:0:
156,365,83880,5,8,0:0:0:0:
34,277,84101,1,4,0:0:0:0:
34,277,84211,1,4,0:0:0:0:
34,277,84321,2,0,L|139:283,1,56,8|4,0:0|0:0,0:0:0:0:
162,175,84542,1,10,0:0:0:0:
162,175,84652,1,8,0:0:0:0:
162,175,84763,2,0,L|81:201,2,56,4|4|8,0:0|0:0|0:0,0:0:0:0:
223,94,85093,1,10,0:0:0:0:
274,358,85645,5,4,0:2:0:0:
388,266,85865,1,14,0:0:0:0:
311,112,86086,6,0,P|306:195|323:253,1,112,4|2,0:1|0:0,0:0:0:0:
238,272,86417,1,2,0:0:0:0:
238,272,86527,1,0,0:0:0:0:
238,272,86638,2,0,P|163:244|122:214,1,112,2|2,0:0|0:0,0:0:0:0:
44,201,86968,1,12,0:0:0:0:
213,10,87410,5,2,0:0:0:0:
213,10,87520,1,2,0:0:0:0:
213,10,87630,1,2,0:0:0:0:
213,10,87740,2,0,P|269:27|391:47,1,168,2|2,0:0|0:2,0:0:0:0:
443,112,88182,1,2,1:0:0:0:
443,112,88292,6,0,L|464:202,1,56,12|2,0:0|1:2,0:0:0:0:
512,260,88513,1,2,1:2:0:0:
512,260,88623,1,2,1:2:0:0:
512,260,88733,2,0,L|398:278,1,112,12|2,0:0|0:0,0:0:0:0:
279,327,89174,5,4,1:2:0:0:
170,241,89395,1,2,0:0:0:0:
170,241,89505,1,0,0:0:0:0:
170,241,89615,6,0,P|167:206|125:128,1,112,4|2,1:0|0:0,0:0:0:0:
52,93,89946,1,2,0:1:0:0:
199,0,90277,2,0,P|209:26|225:64,1,56,2|2,0:0|0:0,0:0:0:0:
287,120,90498,6,0,P|263:138|250:173,2,56,4|2|2,0:0|0:1|0:0,0:0:0:0:
373,152,90829,1,2,0:0:0:0:
373,152,90939,2,0,P|426:132|463:64,1,112,8|2,0:0|0:0,0:0:0:0:
443,10,91270,1,2,0:0:0:0:
510,172,91490,1,2,0:2:0:0:
510,172,91601,2,0,L|496:262,1,56,2|2,0:1|0:0,0:0:0:0:
504,312,91821,5,12,0:0:0:0:
389,214,92042,1,4,0:1:0:0:
337,329,92263,1,12,0:0:0:0:
264,228,92483,2,0,P|264:257|257:304,1,56,12|0,0:0|0:0,0:0:0:0:
188,334,92704,2,0,P|109:360|85:362,1,56,12|2,1:3|0:0,0:0:0:0:
54,317,92924,1,2,1:3:0:0:
163,225,93145,6,0,P|191:117|159:33,1,168,4|2,1:0|0:0,0:0:0:0:
271,14,93586,2,0,P|298:7|330:9,1,56,2|0,0:0|0:0,0:0:0:0:
398,58,93807,1,4,0:0:0:0:
326,170,94027,2,0,P|455:162|496:142,1,168,6|2,0:2|0:0,0:0:0:0:
504,65,94468,5,8,0:0:0:0:
493,250,94689,1,2,0:2:0:0:
493,250,94799,1,2,0:0:0:0:
493,250,94910,2,0,L|419:265,1,56,2|2,0:2|0:2,0:0:0:0:
387,324,95130,2,0,L|313:339,1,56,2|2,0:0|0:0,0:0:0:0:
249,280,95351,5,12,0:0:0:0:
249,280,95461,1,0,1:0:0:0:
249,280,95571,1,0,1:0:0:0:
249,280,95682,2,0,P|246:243|237:197,2,56,2|12|0,1:0|0:0|0:0,0:0:0:0:
187,353,96013,2,0,L|96:340,1,56,8|8,0:0|0:0,0:0:0:0:
50,367,96233,5,8,1:3:0:0:
146,240,96454,1,4,0:1:0:0:
4,145,96674,6,0,P|31:233|62:290,1,112,4|2,1:0|0:0,0:0:0:0:
130,107,97115,2,0,P|138:76|159:25,1,56,2|2,0:2|0:0,0:0:0:0:
223,4,97336,1,12,0:0:0:0:
282,124,97557,1,12,0:0:0:0:
282,124,97667,2,0,P|378:117|414:94,1,112,2|2,0:2|0:0,0:0:0:0:
419,30,97998,6,0,P|442:36|480:43,12,37.3333333333333,8|0|2|2|2|2|2|2|2|2|2|2|4,0:0|0:0|0:2|0:2|0:2|0:2|0:2|0:2|0:2|0:2|0:2|0:2|0:2,0:0:0:0:
253,369,105939,6,0,P|279:316|358:243,1,140,4|2,0:2|0:0,0:0:0:0:
424,259,106601,1,0,0:0:0:0:
468,261,106821,2,0,P|484:227|490:177,1,70,0|0,1:0|1:0,0:0:0:0:
399,88,107263,2,0,P|355:98|270:105,1,105,10|0,0:0|0:0,0:0:0:0:
284,139,107704,6,0,P|207:87|161:99,1,140,2|4,0:0|0:2,0:0:0:0:
7,232,108586,1,0,1:0:0:0:
7,232,108696,1,0,0:0:0:0:
7,232,108807,2,0,P|18:259|21:305,2,70,2|2|2,0:0|0:0|0:0,0:0:0:0:
26,126,109468,5,4,0:2:0:0:
94,177,109689,1,2,0:0:0:0:
143,276,109910,5,2,0:0:0:0:
233,284,110130,1,2,0:0:0:0:
305,350,110351,6,0,P|336:365|381:371,2,70,0|0|8,1:0|1:0|0:0,0:0:0:0:
312,238,111013,1,0,0:0:0:0:
342,209,111233,2,0,P|343:144|293:63,2,140,2|4|2,0:0|0:2|1:2,0:0:0:0:
177,177,112336,1,2,1:2:0:0:
177,177,112446,1,0,0:0:0:0:
177,177,112557,2,0,P|212:178|254:173,1,70,2|2,1:2|1:2,0:0:0:0:
210,56,112998,5,2,0:0:0:0:
66,211,113439,1,6,0:0:0:0:
6,41,113880,2,0,P|37:49|81:56,1,70,0|0,1:0|0:0,0:0:0:0:
129,120,114321,2,0,P|193:61|231:52,1,105,6|0,0:0|0:0,0:0:0:0:
294,81,114763,5,2,0:0:0:0:
286,202,114983,1,0,0:0:0:0:
176,243,115204,2,0,P|184:307|198:369,1,105,4|0,0:2|0:0,0:0:0:0:
222,368,115645,1,0,1:0:0:0:
321,358,115865,1,0,0:0:0:0:
391,282,116086,2,0,P|379:246|373:191,1,70,2|2,0:0|0:0,0:0:0:0:
457,90,116527,6,0,P|418:75|385:51,1,70,4|2,0:2|0:0,0:0:0:0:
215,87,116968,2,0,P|204:48|198:4,1,70,2|2,0:0|0:0,0:0:0:0:
305,30,117410,1,0,1:0:0:0:
299,142,117630,1,0,0:0:0:0:
192,192,117851,2,0,P|208:231|220:278,1,70,4|0,0:2|0:0,0:0:0:0:
139,317,118292,6,0,P|45:273|20:276,1,105,2|0,0:0|0:0,0:0:0:0:
14,246,118733,2,0,P|16:219|32:162,1,70,4|0,0:2|0:0,0:0:0:0:
130,105,119174,6,0,P|102:39|62:15,1,105,0|0,1:0|0:0,0:0:0:0:
26,29,119615,1,4,0:0:0:0:
176,195,120057,6,0,P|226:190|297:179,1,105,4|0,0:2|0:0,0:0:0:0:
321,166,120498,1,4,0:0:0:0:
361,273,120718,1,0,0:0:0:0:
397,133,120939,2,0,L|412:43,1,70,0|0,1:0|0:0,0:0:0:0:
467,201,121380,2,0,P|472:270|485:320,1,105,6|0,0:0|0:0,0:0:0:0:
432,369,121821,6,0,P|374:361|328:343,1,105,2|0,0:0|0:0,0:0:0:0:
245,326,122263,2,0,L|231:381,2,46.6666666666667,2|2|2,1:2|1:2|1:2,0:0:0:0:
279,237,122704,2,0,L|265:137,1,70,0|0,1:0|0:0,0:0:0:0:
180,74,123145,1,2,0:0:0:0:
244,13,123365,1,2,0:0:0:0:
346,87,123586,6,0,P|292:145|228:152,2,140,6|2|0,0:0|0:0|1:0,0:0:0:0:
392,8,124689,1,2,1:3:0:0:
438,124,124910,2,0,P|435:159|427:193,1,70,4|2,0:2|0:0,0:0:0:0:
363,308,125351,1,0,1:0:0:0:
302,240,125571,1,0,1:0:0:0:
234,285,125792,2,0,L|153:295,1,70,4|2,1:3|0:0,0:0:0:0:
64,306,126233,5,8,0:0:0:0:
114,220,126454,1,2,0:0:0:0:
20,160,126674,1,4,0:2:0:0:
134,93,126895,1,2,0:0:0:0:
70,18,127115,6,0,P|157:75|255:122,1,181.999991668702,10|0,0:0|0:0,0:0:0:0:
331,83,127777,1,0,0:0:0:0:
262,204,127998,2,0,P|261:249|263:294,1,90.9999958343508,8|0,0:0|0:0,0:0:0:0:
346,327,128329,1,8,0:0:0:0:
346,327,128439,2,0,P|402:342|456:350,1,90.9999958343508,4|4,0:0|0:0,0:0:0:0:
506,225,128880,5,2,0:0:0:0:
506,225,128990,1,0,0:0:0:0:
506,225,129101,2,0,P|459:240|416:247,2,90.9999958343508,2|4|0,0:0|0:2|0:0,0:0:0:0:
509,106,129763,1,0,1:0:0:0:
417,32,129983,1,2,0:0:0:0:
293,63,130204,2,0,P|296:101|299:164,1,90.9999958343508,2|8,0:0|0:0,0:0:0:0:
237,214,130535,1,8,0:0:0:0:
237,214,130645,6,0,L|119:202,1,90.9999958343508,12|4,0:0|0:0,0:0:0:0:
42,209,130976,2,0,P|76:263|72:354,1,136.499993751526,4|4,0:2|0:0,0:0:0:0:
233,384,131527,1,8,0:0:0:0:
308,283,131748,1,8,0:0:0:0:
266,173,131968,1,8,0:0:0:0:
266,173,132079,1,0,0:0:0:0:
266,173,132189,1,8,0:0:0:0:
366,212,132410,6,0,P|407:224|464:231,1,90.9999958343508,0|4,0:0|0:0,0:0:0:0:
511,175,132740,1,8,0:0:0:0:
511,175,132851,2,0,P|463:109|454:69,1,90.9999958343508,12|0,0:0|0:0,0:0:0:0:
481,23,133182,1,4,0:2:0:0:
344,92,133513,2,0,L|367:147,2,45.4999979171754,8|8|8,0:0|0:0|0:0,0:0:0:0:
262,66,133843,1,8,0:0:0:0:
262,66,133954,1,8,0:0:0:0:
213,191,134174,6,0,P|230:252|244:390,1,181.999991668702,4|4,0:2|0:0,0:0:0:0:
84,321,134836,2,0,P|105:250|132:201,1,90.9999958343508,4|8,0:2|0:0,0:0:0:0:
76,128,135277,1,4,0:0:0:0:
76,128,135388,1,4,0:0:0:0:
76,128,135498,1,12,0:0:0:0:
177,48,135718,1,2,0:2:0:0:
305,58,135939,6,0,L|342:16,2,45.4999979171754,8|8|12,0:0|0:0|0:0,0:0:0:0:
213,142,136380,2,0,L|227:261,1,90.9999958343508,2|4,0:2|0:0,0:0:0:0:
304,275,136711,1,4,0:0:0:0:
304,275,136821,1,8,1:3:0:0:
423,240,137042,1,8,0:0:0:0:
423,240,137152,2,0,P|439:288|446:335,1,90.9999958343508,8|0,0:0|0:0,0:0:0:0:
387,378,137483,1,8,0:0:0:0:
226,345,137704,6,0,L|220:374,4,30.3333319447836,8|8|8|8|8,0:0|0:0|0:0|0:0|0:0,0:0:0:0:
233,248,138145,1,8,0:0:0:0:
123,202,138365,1,8,0:0:0:0:
76,90,138586,6,0,L|95:48,6,30.3333319447836,12|0|0|8|8|8|8,1:3|0:0|0:0|1:3|0:0|1:3|0:0,0:0:0:0:
0,190,139248,1,8,0:0:0:0:
23,312,139468,2,0,L|27:362,12,30.3333319447836,10|0|8|8|0|2|2|2|2|2|2|2|2,0:0|0:0|0:0|0:0|0:0|1:2|1:2|1:2|1:2|1:2|1:2|1:2|1:2,0:0:0:0:
257,192,141233,5,4,0:0:0:0:
257,192,141343,1,4,0:0:0:0:
257,192,141454,1,4,0:0:0:0:
257,192,141564,1,6,0:0:0:0:
506,63,142115,5,8,0:0:0:0:
452,150,142336,2,0,P|395:129|332:115,1,105,2|0,0:0|0:0,0:0:0:0:
293,59,142777,1,0,0:0:0:0:
293,59,142888,1,2,0:0:0:0:
175,129,143108,5,0,0:0:0:0:
175,129,143218,2,0,L|119:116,3,35.0000013351441,8|8|8|8,0:0|0:0|0:0|0:0,0:0:0:0:
196,252,143660,2,0,L|140:239,3,35.0000013351441,8|8|8|8,0:0|0:0|0:0|0:0,0:0:0:0:
225,365,144101,1,8,1:3:0:0:
382,318,144321,6,0,L|471:329,2,70.0000026702882,2|2|2,1:2|1:2|1:2,0:0:0:0:
286,293,144763,2,0,P|294:220|300:129,1,157.500006008148,4|0,1:0|0:0,0:0:0:0:
215,96,145204,2,0,P|202:175|196:273,1,157.500006008148,4|0,0:2|0:0,0:0:0:0:
126,316,145645,2,0,P|36:292|1:288,1,105.000004005432,4|0,0:1|0:0,0:0:0:0:
7,129,146086,5,4,0:2:0:0:
7,129,146196,1,0,0:3:0:0:
7,129,146307,1,2,0:0:0:0:
7,129,146417,2,0,P|103:100|149:91,1,112,2|2,0:1|0:0,0:0:0:0:
184,24,146748,1,2,0:0:0:0:
251,177,146968,5,12,0:0:0:0:
251,177,147079,2,0,L|257:267,2,56,2|2|2,0:1|0:0|0:0,0:0:0:0:
277,92,147410,1,8,0:0:0:0:
393,152,147630,1,4,0:0:0:0:
393,152,147740,2,0,P|446:159|512:165,1,112,2|2,0:0|0:0,0:0:0:0:
512,248,148071,1,2,0:1:0:0:
407,329,148292,6,0,L|390:382,2,56,8|0|0,0:0|1:0|1:0,0:0:0:0:
356,255,148623,1,0,1:0:0:0:
225,314,148843,2,0,P|164:327|80:343,1,112,10|0,0:0|1:0,0:0:0:0:
31,365,149174,5,10,1:3:0:0:
91,244,149395,1,6,0:0:0:0:
231,215,149615,6,0,P|244:84|188:23,1,168,4|2,0:1|0:0,0:0:0:0:
147,67,150057,1,2,0:0:0:0:
147,67,150167,1,2,0:0:0:0:
147,67,150277,2,0,P|70:86|4:88,2,112,6|6|0,0:0|0:0|0:0,0:0:0:0:
299,0,150939,2,0,P|326:61|340:148,1,112,2|2,0:2|0:2,0:0:0:0:
330,201,151270,1,2,0:0:0:0:
330,201,151380,2,0,P|367:197|441:169,1,112,2|2,0:0|0:0,0:0:0:0:
496,51,151821,5,12,0:0:0:0:
496,51,151932,1,0,1:0:0:0:
496,51,152042,2,0,L|481:159,1,56,0|0,1:0|1:0,0:0:0:0:
512,203,152263,1,12,0:0:0:0:
402,287,152483,1,8,0:0:0:0:
402,287,152593,1,4,0:0:0:0:
402,287,152704,6,0,P|361:307|307:313,1,56,12|0,0:0|0:0,0:0:0:0:
268,268,152924,2,0,P|235:260|194:239,1,56,4|0,0:2|0:0,0:0:0:0:
178,162,153145,6,0,P|149:134|110:68,1,112,12|2,0:0|0:0,0:0:0:0:
237,0,153586,1,0,1:0:0:0:
287,119,153807,1,12,0:0:0:0:
287,119,153917,1,2,0:0:0:0:
287,119,154027,2,0,L|391:129,2,56,4|0|2,0:2|0:0|0:0,0:0:0:0:
81,57,154468,2,0,L|55:161,1,56,8|0,0:0|0:0,0:0:0:0:
16,184,154689,1,4,0:0:0:0:
16,184,154799,1,4,0:0:0:0:
16,184,154910,2,0,P|66:207|138:226,1,112,6|0,0:0|1:0,0:0:0:0:
269,276,155351,5,4,0:0:0:0:
269,276,155461,1,0,0:0:0:0:
269,276,155571,1,4,0:0:0:0:
269,276,155682,2,0,P|301:251|321:227,2,56,2|4|0,0:1|0:0|0:0,0:0:0:0:
208,201,156013,1,2,0:1:0:0:
271,61,156233,5,12,0:0:0:0:
414,114,156454,2,0,P|412:150|407:191,1,56,10|0,0:0|0:0,0:0:0:0:
458,258,156674,6,0,P|497:177|489:50,1,168,4|2,0:1|0:0,0:0:0:0:
453,22,157115,1,2,0:1:0:0:
453,22,157226,2,0,P|376:26|309:21,1,112,2|2,0:0|0:0,0:0:0:0:
262,0,157557,2,0,P|190:47|182:122,1,112,4|2,1:0|0:2,0:0:0:0:
131,228,157998,2,0,P|46:211|-27:184,1,112,2|2,0:2|0:2,0:0:0:0:
0,93,158439,2,0,P|57:108|122:129,1,112,2|2,0:2|0:2,0:0:0:0:
230,180,158880,5,12,0:0:0:0:
230,180,158990,1,0,1:0:0:0:
230,180,159101,1,0,1:0:0:0:
230,180,159211,2,0,P|226:217|217:249,2,56,0|12|0,1:0|0:0|0:0,0:0:0:0:
385,7,159763,6,0,P|376:44|373:106,1,56,12|0,0:0|0:0,0:0:0:0:
418,157,159983,1,6,0:0:0:0:
418,157,160093,1,2,0:0:0:0:
418,157,160204,6,0,P|330:135|274:98,1,112,4|2,1:0|0:0,0:0:0:0:
254,49,160535,1,2,0:1:0:0:
123,116,160755,2,0,P|134:161|143:234,1,112,2|2,0:0|0:0,0:0:0:0:
85,292,161086,2,0,P|58:309|21:321,2,56,2|2|2,0:2|0:2|0:2,0:0:0:0:
237,322,161527,1,8,0:0:0:0:
334,227,161748,1,2,0:0:0:0:
334,227,161858,2,0,P|390:330|388:358,1,112,2|2,0:0|0:2,0:0:0:0:
463,358,162189,1,2,0:0:0:0:
430,161,162410,6,0,P|458:150|505:133,2,56,4|0|0,0:1|1:0|1:0,0:0:0:0:
304,145,162740,2,0,P|314:85|332:22,1,112,0|0,1:0|1:0,0:0:0:0:
252,0,163071,1,2,1:2:0:0:
157,142,163292,6,0,P|174:162|193:192,1,56,12|0,0:0|0:0,0:0:0:0:
243,266,163513,2,0,P|235:302|230:335,1,56,4|0,0:1|0:0,0:0:0:0:
307,384,163733,6,0,P|344:334|353:197,1,168,4|2,1:0|0:0,0:0:0:0:
309,160,164174,1,2,0:1:0:0:
471,123,164395,2,0,P|432:109|401:91,1,56,6|2,0:0|0:1,0:0:0:0:
355,35,164615,2,0,P|277:32|220:53,1,112,4|2,0:1|0:2,0:0:0:0:
167,100,164946,1,2,0:0:0:0:
167,100,165057,2,0,P|166:134|140:209,1,112,8|2,0:0|0:2,0:0:0:0:
53,339,165498,2,0,L|-11:319,2,56,2|2|0,0:1|0:2|0:0,0:0:0:0:
205,278,165939,5,12,0:0:0:0:
205,278,166049,1,0,1:0:0:0:
205,278,166160,1,0,1:0:0:0:
205,278,166270,2,0,L|193:344,2,56,0|12|0,1:0|0:0|0:0,0:0:0:0:
260,211,166601,2,0,P|266:187|271:128,1,56,8|8,0:0|0:0,0:0:0:0:
316,72,166821,5,12,0:0:0:0:
162,123,167042,1,4,0:1:0:0:
3,127,167263,6,0,P|4:184|16:251,1,112,4|2,1:0|0:0,0:0:0:0:
130,334,167704,1,8,0:0:0:0:
130,334,167814,2,0,P|160:342|200:351,1,56,4|2,0:0|0:2,0:0:0:0:
266,306,168035,1,8,0:0:0:0:
266,306,168145,1,4,0:0:0:0:
412,256,168365,1,8,0:0:0:0:
506,379,168586,6,0,P|499:355|493:318,12,37.3333333333333,2|0|0|2|2|2|2|0|2|2|2|2|0,1:2|0:0|0:0|0:2|0:2|0:2|0:2|0:0|0:2|0:2|0:2|0:2|0:0,0:0:0:0:
