osu file format v14

[General]
AudioFilename: audio.mp3
AudioLeadIn: 0
PreviewTime: 220558
Countdown: 0
SampleSet: Soft
StackLeniency: 0.2
Mode: 0
LetterboxInBreaks: 0
WidescreenStoryboard: 0

[Editor]
Bookmarks: 14739,29508,44277,59046,88590,103359,118128,132898,147667,162436,177169,191948,203025,206735,208563,221477,228871,234410,236256,251025
DistanceSpacing: 1.6
BeatDivisor: 6
GridSize: 4
TimelineZoom: 2.2

[Metadata]
Title:Nasty feat. Jason Richardson
TitleUnicode:Nasty feat. Jason Richardson
Artist:Polyphia
ArtistUnicode:Polyphia
Creator:anna apple
Version:The Devil in your Nightmare
Source:
Tags:New Levels New Devils Mentai Blastthekidd blast the kid instrumental rock metal
BeatmapID:2129555
BeatmapSetID:1017505

[Difficulty]
HPDrainRate:5
CircleSize:4
OverallDifficulty:9.5
ApproachRate:9.5
SliderMultiplier:2.1
SliderTickRate:1

[Events]
//Background and Video events
0,0,"nastybg.jpg",0,0
//Break Periods
//Storyboard Layer 0 (Background)
//Storyboard Layer 1 (Fail)
//Storyboard Layer 2 (Pass)
//Storyboard Layer 3 (Foreground)
//Storyboard Layer 4 (Overlay)
//Storyboard Sound Samples

[TimingPoints]
-19,461.538461538462,4,2,1,25,1,0
442,-100,4,2,1,25,0,0
1827,-76.9230769230769,4,2,1,25,0,0
5173,-76.9230769230769,4,2,1,5,0,0
5288,-76.9230769230769,4,2,1,25,0,0
5404,-76.9230769230769,4,2,1,5,0,0
5519,-76.9230769230769,4,2,1,25,0,0
5865,-76.9230769230769,4,2,1,5,0,0
5981,-76.9230769230769,4,2,1,25,0,0
13019,-76.9230769230769,4,2,1,5,0,0
13134,-76.9230769230769,4,2,1,25,0,0
14404,-76.9230769230769,4,2,1,5,0,0
14519,-76.9230769230769,4,2,1,25,0,0
15557,-76.9230769230769,4,2,1,5,0,0
15673,-76.9230769230769,4,2,1,30,0,0
19942,-76.9230769230769,4,2,1,5,0,0
20057,-76.9230769230769,4,2,1,30,0,0
20173,-76.9230769230769,4,2,1,5,0,0
20288,-76.9230769230769,4,2,1,30,0,0
25827,-76.9230769230769,4,2,1,5,0,0
26288,-76.9230769230769,4,2,1,30,0,0
26404,-76.9230769230769,4,2,1,5,0,0
26519,-76.9230769230769,4,2,1,30,0,0
26634,-76.9230769230769,4,2,1,5,0,0
26749,-76.9230769230769,4,2,1,30,0,0
26865,-76.9230769230769,4,2,1,5,0,0
26980,-76.9230769230769,4,2,1,30,0,0
27096,-76.9230769230769,4,2,1,5,0,0
27211,-76.9230769230769,4,2,1,30,0,0
33211,-76.9230769230769,4,2,1,5,0,0
33326,-76.9230769230769,4,2,1,30,0,0
33673,-76.9230769230769,4,2,1,30,0,0
33788,-76.9230769230769,4,2,1,5,0,0
33903,-76.9230769230769,4,2,1,30,0,0
34019,-76.9230769230769,4,2,1,5,0,0
34134,-76.9230769230769,4,2,1,30,0,0
34250,-76.9230769230769,4,2,1,5,0,0
34365,-76.9230769230769,4,2,1,30,0,0
34481,-76.9230769230769,4,2,1,5,0,0
34596,-76.9230769230769,4,2,1,30,0,0
34711,-76.9230769230769,4,2,1,5,0,0
34826,-76.9230769230769,4,2,1,30,0,0
34942,-76.9230769230769,4,2,1,5,0,0
35057,-76.9230769230769,4,2,1,30,0,0
37711,-76.9230769230769,4,2,1,5,0,0
37826,-76.9230769230769,4,2,1,30,0,0
38865,-76.9230769230769,4,2,1,5,0,0
38980,-76.9230769230769,4,2,1,30,0,0
39211,-76.9230769230769,4,2,1,30,0,0
39327,-76.9230769230769,4,2,1,5,0,0
39442,-76.9230769230769,4,2,1,30,0,0
39788,-76.9230769230769,4,2,1,5,0,0
39903,-76.9230769230769,4,2,1,30,0,0
40019,-76.9230769230769,4,2,1,5,0,0
40134,-76.9230769230769,4,2,1,30,0,0
41173,-76.9230769230769,4,2,1,5,0,0
41288,-76.9230769230769,4,2,1,30,0,0
41404,-76.9230769230769,4,2,1,5,0,0
41519,-76.9230769230769,4,2,1,30,0,0
41634,-76.9230769230769,4,2,1,5,0,0
41749,-76.9230769230769,4,2,1,30,0,0
41865,-76.9230769230769,4,2,1,5,0,0
41980,-76.9230769230769,4,2,1,30,0,0
42096,-76.9230769230769,4,2,1,5,0,0
42211,-76.9230769230769,4,2,1,30,0,0
42327,-76.9230769230769,4,2,1,5,0,0
42442,-76.9230769230769,4,2,1,30,0,0
44173,-76.9230769230769,4,2,1,5,0,0
44288,-76.9230769230769,4,2,1,35,0,0
48557,-76.9230769230769,4,2,1,5,0,0
48672,-76.9230769230769,4,2,1,35,0,0
48788,-76.9230769230769,4,2,1,5,0,0
48903,-76.9230769230769,4,2,1,35,0,0
49019,-76.9230769230769,4,2,1,5,0,0
49134,-76.9230769230769,4,2,1,35,0,0
49250,-76.9230769230769,4,2,1,5,0,0
49365,-76.9230769230769,4,2,1,50,0,0
49481,-76.9230769230769,4,2,1,5,0,0
49596,-76.9230769230769,4,2,1,50,0,0
49711,-76.9230769230769,4,2,1,5,0,0
49826,-76.9230769230769,4,2,1,50,0,0
51327,-76.9230769230769,4,2,1,5,0,0
51442,-76.9230769230769,4,2,1,40,0,0
54557,-76.9230769230769,4,2,1,5,0,0
54672,-76.9230769230769,4,2,1,50,0,0
55942,-76.9230769230769,4,2,1,5,0,0
56057,-76.9230769230769,4,2,1,50,0,0
56173,-76.9230769230769,4,2,1,5,0,0
56288,-76.9230769230769,4,2,1,55,0,0
56404,-76.9230769230769,4,2,1,5,0,0
56519,-76.9230769230769,4,2,1,55,0,0
56634,-76.9230769230769,4,2,1,5,0,0
56749,-76.9230769230769,4,2,1,60,0,0
56865,-76.9230769230769,4,2,1,5,0,0
56980,-76.9230769230769,4,2,1,50,0,0
57096,-76.9230769230769,4,2,1,5,0,0
57211,-76.9230769230769,4,2,1,60,0,0
58250,-76.9230769230769,4,2,1,5,0,0
58365,-76.9230769230769,4,2,1,65,0,0
58481,-76.9230769230769,4,2,1,5,0,0
58596,-76.9230769230769,4,2,1,65,0,0
59057,-76.9230769230769,4,2,1,60,0,0
59404,-76.9230769230769,4,2,1,5,0,0
59461,-76.9230769230769,4,2,1,60,0,0
59923,-76.9230769230769,4,2,1,5,0,0
59980,-76.9230769230769,4,2,1,60,0,0
60154,-76.9230769230769,4,2,1,5,0,0
60211,-76.9230769230769,4,2,1,60,0,0
61307,-76.9230769230769,4,2,1,5,0,0
61364,-76.9230769230769,4,2,1,60,0,0
62173,-76.9230769230769,4,2,1,5,0,0
62230,-76.9230769230769,4,2,1,60,0,0
62288,-76.9230769230769,4,2,1,60,0,0
62923,-76.9230769230769,4,2,1,5,0,0
62980,-76.9230769230769,4,2,1,60,0,0
63154,-76.9230769230769,4,2,1,5,0,0
63211,-76.9230769230769,4,2,1,60,0,0
63731,-76.9230769230769,4,2,1,5,0,0
63788,-76.9230769230769,4,2,1,60,0,0
63904,-76.9230769230769,4,2,1,60,0,0
65173,-76.9230769230769,4,2,1,5,0,0
65211,-76.9230769230769,4,2,1,60,0,0
65404,-76.9230769230769,4,2,1,5,0,0
65519,-76.9230769230769,4,2,1,60,0,0
65634,-76.9230769230769,4,2,1,5,0,0
65749,-76.9230769230769,4,2,1,60,0,0
65865,-76.9230769230769,4,2,1,5,0,0
65980,-76.9230769230769,4,2,1,60,0,0
66096,-76.9230769230769,4,2,1,5,0,0
66211,-76.9230769230769,4,2,1,60,0,0
66327,-76.9230769230769,4,2,1,5,0,0
66442,-76.9230769230769,4,2,1,60,0,0
66788,-76.9230769230769,4,2,1,5,0,0
66846,-76.9230769230769,4,2,1,60,0,0
67307,-76.9230769230769,4,2,1,5,0,0
67365,-76.9230769230769,4,2,1,60,0,0
67423,-76.9230769230769,4,2,1,5,0,0
67481,-76.9230769230769,4,2,1,60,0,0
67596,-76.9230769230769,4,2,1,60,0,0
68692,-76.9230769230769,4,2,1,5,0,0
68750,-76.9230769230769,4,2,1,60,0,0
69557,-76.9230769230769,4,2,1,5,0,0
69673,-76.9230769230769,4,2,1,60,0,0
70019,-76.9230769230769,4,2,1,5,0,0
70135,-76.9230769230769,4,2,1,60,0,0
73827,-76.9230769230769,4,2,1,65,0,0
74404,-76.9230769230769,4,2,1,5,0,0
74520,-76.9230769230769,4,2,1,65,0,0
74634,-76.9230769230769,4,2,1,5,0,0
74750,-76.9230769230769,4,2,1,65,0,0
74923,-76.9230769230769,4,2,1,5,0,0
74981,-76.9230769230769,4,2,1,65,0,0
75557,-76.9230769230769,4,2,1,5,0,0
75673,-76.9230769230769,4,2,1,65,0,0
75788,-76.9230769230769,4,2,1,5,0,0
75904,-76.9230769230769,4,2,1,65,0,0
76019,-76.9230769230769,4,2,1,5,0,0
76135,-76.9230769230769,4,2,1,65,0,0
76711,-76.9230769230769,4,2,1,5,0,0
76827,-76.9230769230769,4,2,1,65,0,0
76942,-76.9230769230769,4,2,1,5,0,0
77058,-76.9230769230769,4,2,1,65,0,0
77173,-76.9230769230769,4,2,1,5,0,0
77289,-76.9230769230769,4,2,1,65,0,0
77404,-76.9230769230769,4,2,1,5,0,0
77520,-76.9230769230769,4,2,1,65,0,0
77865,-76.9230769230769,4,2,1,5,0,0
77981,-76.9230769230769,4,2,1,65,0,0
78096,-76.9230769230769,4,2,1,5,0,0
78212,-76.9230769230769,4,2,1,65,0,0
78327,-76.9230769230769,4,2,1,5,0,0
78443,-76.9230769230769,4,2,1,65,0,0
78615,-76.9230769230769,4,2,1,5,0,0
78673,-76.9230769230769,4,2,1,65,0,0
78788,-76.9230769230769,4,2,1,5,0,0
78904,-76.9230769230769,4,2,1,65,0,0
79250,-76.9230769230769,4,2,1,5,0,0
79366,-76.9230769230769,4,2,1,65,0,0
79481,-76.9230769230769,4,2,1,5,0,0
79597,-76.9230769230769,4,2,1,65,0,0
79711,-76.9230769230769,4,2,1,5,0,0
79827,-76.9230769230769,4,2,1,65,0,0
79942,-76.9230769230769,4,2,1,5,0,0
80058,-76.9230769230769,4,2,1,65,0,0
80173,-76.9230769230769,4,2,1,5,0,0
80289,-76.9230769230769,4,2,1,65,0,0
80404,-76.9230769230769,4,2,1,5,0,0
80520,-76.9230769230769,4,2,1,65,0,0
80634,-76.9230769230769,4,2,1,5,0,0
80750,-76.9230769230769,4,2,1,65,0,0
84096,-76.9230769230769,4,2,1,5,0,0
84212,-76.9230769230769,4,2,1,65,0,0
84327,-76.9230769230769,4,2,1,5,0,0
84443,-76.9230769230769,4,2,1,65,0,0
84557,-76.9230769230769,4,2,1,5,0,0
84673,-76.9230769230769,4,2,1,65,0,0
85481,-76.9230769230769,4,2,1,5,0,0
85597,-76.9230769230769,4,2,1,65,0,0
85711,-76.9230769230769,4,2,1,5,0,0
85827,-76.9230769230769,4,2,1,65,0,0
87788,-76.9230769230769,4,2,1,5,0,0
87904,-76.9230769230769,4,2,1,65,0,0
88019,-76.9230769230769,4,2,1,5,0,0
88135,-76.9230769230769,4,2,1,65,0,0
88596,-100,4,2,1,50,0,0
89211,-100,4,2,1,5,0,0
89288,-100,4,2,1,50,0,0
89673,-100,4,2,1,5,0,0
89750,-100,4,2,1,50,0,0
89904,-100,4,2,1,5,0,0
89981,-100,4,2,1,50,0,0
90615,-100,4,2,1,5,0,0
90673,-100,4,2,1,50,0,0
90961,-100,4,2,1,5,0,0
91019,-100,4,2,1,50,0,0
91538,-100,4,2,1,5,0,0
91596,-100,4,2,1,50,0,0
91769,-100,4,2,1,5,0,0
91827,-100,4,2,1,50,0,0
91981,-100,4,2,1,5,0,0
92039,-100,4,2,1,50,0,0
92057,-100,4,2,1,50,0,0
93096,-100,4,2,1,5,0,0
93154,-100,4,2,1,50,0,0
93211,-100,4,2,1,50,0,0
93442,-100,4,2,1,5,0,0
93500,-100,4,2,1,50,0,0
93557,-100,4,2,1,50,0,0
93788,-100,4,2,1,5,0,0
93846,-100,4,2,1,50,0,0
93904,-100,4,2,1,50,0,0
94481,-100,4,2,1,5,0,0
94539,-100,4,2,1,50,0,0
94596,-100,4,2,1,50,0,0
94942,-100,4,2,1,5,0,0
95000,-100,4,2,1,50,0,0
95057,-100,4,2,1,50,0,0
95634,-100,4,2,1,5,0,0
95692,-100,4,2,1,50,0,0
95750,-100,4,2,1,50,0,0
95865,-100,4,2,1,5,0,0
95923,-100,4,2,1,50,0,0
95981,-100,4,2,1,50,0,0
96557,-100,4,2,1,5,0,0
96615,-100,4,2,1,50,0,0
96673,-100,4,2,1,50,0,0
97250,-100,4,2,1,5,0,0
97308,-100,4,2,1,50,0,0
97365,-100,4,2,1,50,0,0
97942,-100,4,2,1,5,0,0
98000,-100,4,2,1,50,0,0
98057,-100,4,2,1,50,0,0
98173,-100,4,2,1,5,0,0
98231,-100,4,2,1,50,0,0
98288,-100,4,2,1,50,0,0
98404,-100,4,2,1,5,0,0
98462,-100,4,2,1,50,0,0
98519,-100,4,2,1,50,0,0
98634,-100,4,2,1,5,0,0
98692,-100,4,2,1,50,0,0
98750,-100,4,2,1,50,0,0
98981,-100,4,2,1,5,0,0
99039,-100,4,2,1,50,0,0
99096,-100,4,2,1,50,0,0
100711,-100,4,2,1,5,0,0
100769,-100,4,2,1,50,0,0
100827,-100,4,2,1,50,0,0
100942,-100,4,2,1,5,0,0
101000,-100,4,2,1,50,0,0
101057,-100,4,2,1,50,0,0
101173,-100,4,2,1,5,0,0
101231,-100,4,2,1,50,0,0
101288,-100,4,2,1,50,0,0
101865,-100,4,2,1,5,0,0
101923,-100,4,2,1,50,0,0
101981,-100,4,2,1,50,0,0
102788,-100,4,2,1,5,0,0
102846,-100,4,2,1,50,0,0
102904,-100,4,2,1,50,0,0
103019,-100,4,2,1,5,0,0
103077,-100,4,2,1,50,0,0
103134,-100,4,2,1,50,0,0
103250,-100,4,2,1,5,0,0
103308,-100,4,2,1,50,0,0
103365,-76.9230769230769,4,2,1,50,0,0
103827,-76.9230769230769,4,2,1,50,0,0
103884,-76.9230769230769,4,2,1,5,0,0
103942,-76.9230769230769,4,2,1,50,0,0
104288,-76.9230769230769,4,2,1,50,0,0
104346,-76.9230769230769,4,2,1,5,0,0
104404,-76.9230769230769,4,2,1,60,0,0
104519,-76.9230769230769,4,2,1,60,0,0
106250,-76.9230769230769,4,2,1,5,0,0
106308,-76.9230769230769,4,2,1,60,0,0
106365,-76.9230769230769,4,2,1,60,0,0
106481,-76.9230769230769,4,2,1,5,0,0
106539,-76.9230769230769,4,2,1,60,0,0
106596,-76.9230769230769,4,2,1,60,0,0
107404,-76.9230769230769,4,2,1,5,0,0
107462,-76.9230769230769,4,2,1,60,0,0
107519,-76.9230769230769,4,2,1,60,0,0
108327,-76.9230769230769,4,2,1,5,0,0
108385,-76.9230769230769,4,2,1,60,0,0
108442,-76.9230769230769,4,2,1,60,0,0
114788,-76.9230769230769,4,2,1,5,0,0
114846,-76.9230769230769,4,2,1,60,0,0
114904,-76.9230769230769,4,2,1,60,0,0
115019,-76.9230769230769,4,2,1,5,0,0
115077,-76.9230769230769,4,2,1,60,0,0
115134,-76.9230769230769,4,2,1,60,0,0
115711,-76.9230769230769,4,2,1,5,0,0
115769,-76.9230769230769,4,2,1,60,0,0
115827,-76.9230769230769,4,2,1,60,0,0
117750,-76.9230769230769,4,2,1,5,0,0
117808,-76.9230769230769,4,2,1,60,0,0
117827,-76.9230769230769,4,2,1,60,0,0
117904,-76.9230769230769,4,2,1,5,0,0
117962,-76.9230769230769,4,2,1,60,0,0
117981,-76.9230769230769,4,2,1,60,0,0
118057,-76.9230769230769,4,2,1,5,0,0
118115,-76.9230769230769,4,2,1,60,0,0
118134,-76.9230769230769,4,2,1,60,0,0
118250,-76.9230769230769,4,2,1,5,0,0
118308,-76.9230769230769,4,2,1,60,0,0
118365,-76.9230769230769,4,2,1,60,0,0
118942,-76.9230769230769,4,2,1,5,0,0
119000,-76.9230769230769,4,2,1,60,0,0
119057,-76.9230769230769,4,2,1,60,0,0
119865,-76.9230769230769,4,2,1,5,0,0
119923,-76.9230769230769,4,2,1,60,0,0
119981,-76.9230769230769,4,2,1,60,0,0
120154,-76.9230769230769,4,2,1,5,0,0
120212,-76.9230769230769,4,2,1,60,0,0
120327,-76.9230769230769,4,2,1,5,0,0
120385,-76.9230769230769,4,2,1,60,0,0
120442,-76.9230769230769,4,2,1,60,0,0
121019,-76.9230769230769,4,2,1,5,0,0
121077,-76.9230769230769,4,2,1,60,0,0
121134,-76.9230769230769,4,2,1,60,0,0
122173,-76.9230769230769,4,2,1,5,0,0
122231,-76.9230769230769,4,2,1,60,0,0
122288,-76.9230769230769,4,2,1,60,0,0
122692,-76.9230769230769,4,2,1,5,0,0
122750,-76.9230769230769,4,2,1,60,0,0
125596,-76.9230769230769,4,2,1,5,0,0
125654,-76.9230769230769,4,2,1,60,0,0
125750,-76.9230769230769,4,2,1,60,0,0
126500,-76.9230769230769,4,2,1,5,0,0
126558,-76.9230769230769,4,2,1,60,0,0
126673,-76.9230769230769,4,2,1,60,0,0
126731,-76.9230769230769,4,2,1,5,0,0
126789,-76.9230769230769,4,2,1,60,0,0
126904,-76.9230769230769,4,2,1,60,0,0
129557,-76.9230769230769,4,2,1,5,0,0
129615,-76.9230769230769,4,2,1,60,0,0
129673,-76.9230769230769,4,2,1,60,0,0
130077,-76.9230769230769,4,2,1,5,0,0
130135,-76.9230769230769,4,2,1,60,0,0
132904,-76.9230769230769,4,2,1,50,0,0
133192,-76.9230769230769,4,2,1,5,0,0
133250,-76.9230769230769,4,2,1,50,0,0
133307,-76.9230769230769,4,2,1,50,0,0
133769,-76.9230769230769,4,2,1,5,0,0
133827,-76.9230769230769,4,2,1,50,0,0
134000,-76.9230769230769,4,2,1,5,0,0
134058,-76.9230769230769,4,2,1,50,0,0
135154,-76.9230769230769,4,2,1,5,0,0
135212,-76.9230769230769,4,2,1,50,0,0
136019,-76.9230769230769,4,2,1,5,0,0
136077,-76.9230769230769,4,2,1,50,0,0
136134,-76.9230769230769,4,2,1,50,0,0
136769,-76.9230769230769,4,2,1,5,0,0
136827,-76.9230769230769,4,2,1,50,0,0
137000,-76.9230769230769,4,2,1,5,0,0
137058,-76.9230769230769,4,2,1,50,0,0
137577,-76.9230769230769,4,2,1,5,0,0
137635,-76.9230769230769,4,2,1,50,0,0
137750,-76.9230769230769,4,2,1,50,0,0
138327,-76.9230769230769,4,2,1,5,0,0
138385,-76.9230769230769,4,2,1,50,0,0
138442,-76.9230769230769,4,2,1,50,0,0
139019,-76.9230769230769,4,2,1,5,0,0
139057,-76.9230769230769,4,2,1,50,0,0
139250,-76.9230769230769,4,2,1,5,0,0
139308,-76.9230769230769,4,2,1,50,0,0
139365,-76.9230769230769,4,2,1,50,0,0
139481,-76.9230769230769,4,2,1,5,0,0
139539,-76.9230769230769,4,2,1,50,0,0
139596,-76.9230769230769,4,2,1,50,0,0
139711,-76.9230769230769,4,2,1,5,0,0
139769,-76.9230769230769,4,2,1,50,0,0
139827,-76.9230769230769,4,2,1,50,0,0
139942,-76.9230769230769,4,2,1,5,0,0
140000,-76.9230769230769,4,2,1,50,0,0
140057,-76.9230769230769,4,2,1,50,0,0
140173,-76.9230769230769,4,2,1,5,0,0
140231,-76.9230769230769,4,2,1,50,0,0
140288,-76.9230769230769,4,2,1,50,0,0
140634,-76.9230769230769,4,2,1,5,0,0
140692,-76.9230769230769,4,2,1,50,0,0
141269,-76.9230769230769,4,2,1,5,0,0
141327,-76.9230769230769,4,2,1,50,0,0
141442,-76.9230769230769,4,2,1,50,0,0
141615,-76.9230769230769,4,2,1,5,0,0
141673,-76.9230769230769,4,2,1,50,0,0
142538,-76.9230769230769,4,2,1,5,0,0
142596,-76.9230769230769,4,2,1,50,0,0
143404,-76.9230769230769,4,2,1,5,0,0
143462,-76.9230769230769,4,2,1,50,0,0
143519,-76.9230769230769,4,2,1,50,0,0
143865,-76.9230769230769,4,2,1,5,0,0
143923,-76.9230769230769,4,2,1,50,0,0
143981,-76.9230769230769,4,2,1,50,0,0
145596,-76.9230769230769,4,2,1,5,0,0
145654,-76.9230769230769,4,2,1,50,0,0
145827,-76.9230769230769,4,2,1,50,0,0
145903,-76.9230769230769,4,2,1,50,0,0
145981,-76.9230769230769,4,2,1,50,0,0
146210,-76.9230769230769,4,2,1,50,0,0
146288,-76.9230769230769,4,2,1,50,0,0
148019,-76.9230769230769,4,2,1,5,0,0
148077,-76.9230769230769,4,2,1,50,0,0
148134,-76.9230769230769,4,2,1,50,0,0
148250,-76.9230769230769,4,2,1,5,0,0
148308,-76.9230769230769,4,2,1,50,0,0
148365,-76.9230769230769,4,2,1,50,0,0
148481,-76.9230769230769,4,2,1,5,0,0
148539,-76.9230769230769,4,2,1,50,0,0
148596,-76.9230769230769,4,2,1,50,0,0
148769,-76.9230769230769,4,2,1,5,0,0
148827,-76.9230769230769,4,2,1,60,0,0
148942,-76.9230769230769,4,2,1,5,0,0
149000,-76.9230769230769,4,2,1,60,0,0
149057,-76.9230769230769,4,2,1,60,0,0
149404,-76.9230769230769,4,2,1,5,0,0
149462,-76.9230769230769,4,2,1,60,0,0
149519,-76.9230769230769,4,2,1,60,0,0
149634,-76.9230769230769,4,2,1,5,0,0
149692,-76.9230769230769,4,2,1,60,0,0
149750,-76.9230769230769,4,2,1,60,0,0
149865,-76.9230769230769,4,2,1,5,0,0
149923,-76.9230769230769,4,2,1,60,0,0
149981,-76.9230769230769,4,2,1,60,0,0
150327,-76.9230769230769,4,2,1,60,0,0
150442,-76.9230769230769,4,2,1,60,0,0
150557,-76.9230769230769,4,2,1,5,0,0
150615,-76.9230769230769,4,2,1,60,0,0
150673,-76.9230769230769,4,2,1,60,0,0
150788,-76.9230769230769,4,2,1,5,0,0
150846,-76.9230769230769,4,2,1,60,0,0
150904,-76.9230769230769,4,2,1,60,0,0
151019,-76.9230769230769,4,2,1,5,0,0
151077,-76.9230769230769,4,2,1,60,0,0
151134,-76.9230769230769,4,2,1,60,0,0
151250,-76.9230769230769,4,2,1,5,0,0
151308,-76.9230769230769,4,2,1,60,0,0
151365,-76.9230769230769,4,2,1,60,0,0
151711,-76.9230769230769,4,2,1,5,0,0
151769,-76.9230769230769,4,2,1,60,0,0
151827,-76.9230769230769,4,2,1,60,0,0
152173,-76.9230769230769,4,2,1,5,0,0
152231,-76.9230769230769,4,2,1,60,0,0
152288,-76.9230769230769,4,2,1,60,0,0
152461,-76.9230769230769,4,2,1,5,0,0
152519,-76.9230769230769,4,2,1,60,0,0
152634,-76.9230769230769,4,2,1,5,0,0
152692,-76.9230769230769,4,2,1,60,0,0
152750,-76.9230769230769,4,2,1,60,0,0
153096,-76.9230769230769,4,2,1,5,0,0
153154,-76.9230769230769,4,2,1,60,0,0
153211,-76.9230769230769,4,2,1,60,0,0
153327,-76.9230769230769,4,2,1,5,0,0
153385,-76.9230769230769,4,2,1,60,0,0
153442,-76.9230769230769,4,2,1,60,0,0
153557,-76.9230769230769,4,2,1,5,0,0
153615,-76.9230769230769,4,2,1,60,0,0
153673,-76.9230769230769,4,2,1,60,0,0
153788,-76.9230769230769,4,2,1,5,0,0
153846,-76.9230769230769,4,2,1,60,0,0
153904,-76.9230769230769,4,2,1,60,0,0
154019,-76.9230769230769,4,2,1,5,0,0
154077,-76.9230769230769,4,2,1,60,0,0
154134,-76.9230769230769,4,2,1,60,0,0
154250,-76.9230769230769,4,2,1,5,0,0
154308,-76.9230769230769,4,2,1,60,0,0
154365,-76.9230769230769,4,2,1,60,0,0
154481,-76.9230769230769,4,2,1,5,0,0
154539,-76.9230769230769,4,2,1,60,0,0
154596,-76.9230769230769,4,2,1,60,0,0
155634,-76.9230769230769,4,2,1,5,0,0
155692,-76.9230769230769,4,2,1,60,0,0
155750,-76.9230769230769,4,2,1,60,0,0
155865,-76.9230769230769,4,2,1,5,0,0
155923,-76.9230769230769,4,2,1,60,0,0
155981,-76.9230769230769,4,2,1,60,0,0
157827,-76.9230769230769,4,2,1,70,0,0
157942,-76.9230769230769,4,2,1,5,0,0
158000,-76.9230769230769,4,2,1,70,0,0
158057,-76.9230769230769,4,2,1,70,0,0
158173,-76.9230769230769,4,2,1,5,0,0
158231,-76.9230769230769,4,2,1,70,0,0
158288,-76.9230769230769,4,2,1,70,0,0
158404,-76.9230769230769,4,2,1,5,0,0
158462,-76.9230769230769,4,2,1,60,0,0
158519,-76.9230769230769,4,2,1,60,0,0
159557,-76.9230769230769,4,2,1,5,0,0
159615,-76.9230769230769,4,2,1,60,0,0
159673,-76.9230769230769,4,2,1,60,0,0
160019,-76.9230769230769,4,2,1,60,0,0
160134,-76.9230769230769,4,2,1,60,0,0
160596,-76.9230769230769,4,2,1,65,0,0
162442,-76.9230769230769,4,2,1,40,0,0
164173,352.941176470588,4,2,1,40,1,0
164261,461.538461538462,4,2,1,60,1,0
166107,-66.6666666666667,4,2,1,60,0,0
168184,-54.054054054054,4,2,1,60,0,0
168645,-54.054054054054,4,2,1,65,0,0
168876,-66.6666666666667,4,2,1,70,0,0
169799,-66.6666666666667,4,2,1,80,0,0
170607,545.454545454546,4,2,1,50,1,0
170607,-66.6666666666667,4,2,1,50,0,0
170879,461.538461538462,4,2,1,50,1,0
170879,-55.5555555555556,4,2,1,50,0,0
171917,423.280423280423,4,2,1,60,1,0
171917,-66.6666666666667,4,2,1,60,0,0
172340,461.538461538462,4,2,1,70,1,0
172340,-66.6666666666667,4,2,1,70,0,0
173493,461.538461538462,4,2,1,50,1,0
173493,-66.6666666666667,4,2,1,50,0,0
178569,-66.6666666666667,4,2,1,54,0,0
179031,-66.6666666666667,4,2,1,58,0,0
179493,-66.6666666666667,4,2,1,62,0,0
179954,-66.6666666666667,4,2,1,68,0,0
180416,-66.6666666666667,4,2,1,58,0,0
180877,-66.6666666666667,4,2,1,50,0,0
183954,-66.6666666666667,4,2,1,70,0,0
186416,-66.6666666666667,4,2,1,60,0,0
187339,-66.6666666666667,4,2,1,65,0,0
188262,-66.6666666666667,4,2,1,60,0,0
188723,-66.6666666666667,4,2,1,65,0,0
188954,-66.6666666666667,4,2,1,60,0,0
189877,-66.6666666666667,4,2,1,70,0,0
190108,-66.6666666666667,4,2,1,80,0,0
190569,-66.6666666666667,4,2,1,65,0,0
190800,-66.6666666666667,4,2,1,75,0,0
191954,-66.6666666666667,4,2,1,80,0,0
192416,-66.6666666666667,4,2,1,65,0,0
199339,535.714285714286,4,2,1,50,1,0
199606,480,4,2,1,50,1,0
199846,444.444444444444,4,2,1,55,1,0
199957,500,4,2,1,55,1,0
200207,392.156862745098,4,2,1,55,1,0
200305,456.273764258555,4,2,1,60,1,0
200761,-100,4,2,1,65,0,0
201217,461.538461538462,4,2,1,70,1,0
201217,-66.6666666666667,4,2,1,70,0,0
202140,-66.6666666666667,4,2,1,65,0,0
202601,-66.6666666666667,4,2,1,60,0,0
203063,437.956204379562,4,2,1,75,1,0
203938,461.538461538462,4,2,1,70,1,0
203938,-66.6666666666667,4,2,1,70,0,0
204168,491.803278688525,4,2,1,70,1,0
204168,-66.6666666666667,4,2,1,70,0,0
204413,461.538461538462,4,2,1,65,1,0
205105,476.190476190476,4,2,1,60,1,0
205501,451.127819548872,4,2,1,55,1,0
205726,-66.6666666666667,4,2,1,50,0,0
206027,-66.6666666666667,4,2,1,70,0,0
206102,-66.6666666666667,4,2,1,70,0,0
206177,-66.6666666666667,4,2,1,70,0,0
206741,461.538461538462,4,2,1,75,1,0
206741,-66.6666666666667,4,2,1,75,0,0
217817,-66.6666666666667,4,2,1,80,0,0
218048,-66.6666666666667,4,2,1,70,0,0
218279,-66.6666666666667,4,2,1,75,0,0
218510,-66.6666666666667,4,2,1,65,0,0
218741,-66.6666666666667,4,2,1,70,0,0
218971,-66.6666666666667,4,2,1,60,0,0
219202,-66.6666666666667,4,2,1,65,0,0
220587,-66.6666666666667,4,2,1,90,0,1
220933,-66.6666666666667,4,2,1,80,0,0
221048,-66.6666666666667,4,2,1,90,0,1
221394,-66.6666666666667,4,2,1,70,0,0
221510,-66.6666666666667,4,2,1,80,0,0
234433,-66.6666666666667,4,2,1,85,0,0
236279,-66.6666666666667,4,2,1,75,0,0
248048,-66.6666666666667,4,2,1,80,0,0
249202,-66.6666666666667,4,2,1,85,0,0
251048,-66.6666666666667,4,2,1,90,0,0
255664,-66.6666666666667,4,2,1,5,0,0

[Colours]
Combo1 : 220,216,133
Combo2 : 149,206,156
Combo3 : 199,163,218
Combo4 : 203,129,131

[HitObjects]
130,141,442,5,0,0:2:0:0:
130,141,904,1,2,0:0:0:0:
130,141,1365,1,0,0:0:0:0:
130,141,1827,6,0,B|165:115|165:115|193:12,1,136.499993751526,2|0,0:1|0:0,0:0:0:0:
214,184,2288,1,0,0:2:0:0:
297,211,2750,1,2,0:2:0:0:
380,238,3211,1,0,0:0:0:0:
463,265,4134,5,2,0:2:0:0:
380,238,4365,1,0,0:0:0:0:
290,300,4596,1,2,0:2:0:0:
188,255,4827,1,0,0:0:0:0:
106,346,5057,2,0,P|74:367|21:342,1,68.2499968757631,2|0,0:2|0:0,0:0:0:0:
6,234,5288,2,0,P|38:213|91:238,1,68.2499968757631,0|0,0:2|0:0,0:0:0:0:
53,290,5519,6,0,B|82:134|82:134|57:91,1,204.749990627289,2|0,0:1|0:0,0:0:0:0:
0,33,5981,5,2,0:2:0:0:
0,33,6211,1,0,0:0:0:0:
97,72,6442,1,2,0:2:0:0:
97,72,6673,1,0,0:0:0:0:
219,27,6904,1,2,0:2:0:0:
450,101,7365,5,2,0:2:0:0:
450,101,7827,1,0,0:0:0:0:
450,101,8288,1,2,0:2:0:0:
450,101,8750,1,0,0:0:0:0:
450,101,9211,2,0,B|417:137|417:137|386:256,1,136.499993751526,2|0,0:1|0:0,0:0:0:0:
365,46,9673,5,2,0:2:0:0:
276,90,10134,1,0,0:0:0:0:
187,134,10596,1,2,0:2:0:0:
98,178,11519,5,2,0:2:0:0:
187,134,11750,1,0,0:0:0:0:
242,236,11981,1,2,0:2:0:0:
378,204,12211,1,0,0:0:0:0:
414,332,12442,1,2,0:2:0:0:
414,332,12673,1,0,0:0:0:0:
414,332,12904,6,0,L|500:348,1,68.2499968757631,2|0,0:1|0:0,0:0:0:0:
453,258,13134,1,0,3:0:0:0:
327,276,13365,1,2,0:2:0:0:
327,276,13596,1,0,0:0:0:0:
384,146,13827,1,2,0:2:0:0:
384,146,14057,1,0,0:0:0:0:
229,98,14288,2,0,L|138:86,1,68.2499968757631,2|0,0:2|0:0,0:0:0:0:
212,19,14519,1,0,0:0:0:0:
114,173,14750,5,2,3:2:0:0:
169,258,15211,1,0,3:2:0:0:
169,258,15442,2,0,P|165:306|138:357,1,68.2499968757631
94,366,15673,1,2,0:2:0:0:
22,253,16134,1,2,1:2:0:0:
22,253,16596,2,0,B|113:216|113:216|186:200,1,136.499993751526,2|0,0:1|0:0,0:0:0:0:
31,146,17057,5,2,0:2:0:0:
157,118,17519,1,0,0:0:0:0:
283,90,17981,1,2,1:2:0:0:
409,62,18904,5,2,0:2:0:0:
283,90,19134,1,0,0:0:0:0:
261,213,19365,1,2,0:2:0:0:
132,248,19596,1,0,0:0:0:0:
150,368,19827,2,0,L|54:375,1,68.2499968757631,2|0,0:2|0:0,0:0:0:0:
254,334,20057,2,0,L|322:329,1,68.2499968757631
150,368,20288,2,0,B|102:343|102:343|25:276,1,136.499993751526,2|0,0:1|0:0,0:0:0:0:
254,334,20750,5,2,0:2:0:0:
387,365,21211,1,0,0:2:0:0:
387,365,21442,1,0,0:0:0:0:
490,270,21673,1,2,0:0:0:0:
410,85,22134,5,2,0:2:0:0:
310,61,22596,1,0,0:0:0:0:
210,37,23057,2,0,B|181:72|181:72|149:173,1,136.499993751526,2|0,0:2|0:0,0:0:0:0:
112,16,23519,1,0,0:0:0:0:
49,130,23981,2,0,B|55:93|55:93|17:-20,1,136.499993751526,2|0,0:1|0:0,0:0:0:0:
0,200,24442,1,2,0:2:0:0:
100,238,24904,2,0,P|146:294|121:363,1,136.499993751526
132,351,25365,2,0,B|332:334|332:334|423:375,1,272.999987503052,2|0,0:2|0:0,0:0:0:0:
397,363,26288,6,0,L|471:310,1,68.2499968757631,2|0,0:2|0:0,0:0:0:0:
493,303,26519,2,0,L|420:243,1,68.2499968757631
415,213,26750,2,0,L|483:140,1,68.2499968757631,2|0,0:2|0:0,0:0:0:0:
480,78,26981,2,0,L|409:18,1,68.2499968757631
355,3,27211,5,2,0:2:0:0:
332,169,27442,1,0,0:0:0:0:
355,3,27673,2,0,B|308:26|308:26|267:142,1,136.499993751526,2|0,0:1|0:2,0:0:0:0:
427,69,28134,5,2,0:2:0:0:
427,69,28365,1,0,0:0:0:0:
346,170,28596,1,2,0:2:0:0:
346,170,28827,1,0,0:0:0:0:
202,125,29057,1,2,0:2:0:0:
202,125,29288,1,0,0:0:0:0:
75,190,29519,5,4,3:1:0:0:
149,333,29981,1,2,1:2:0:0:
76,363,30211,1,0,0:0:0:0:
247,357,30442,1,2,1:2:0:0:
267,285,30673,1,0,0:0:0:0:
374,341,30904,1,2,0:2:0:0:
374,341,31365,2,0,B|403:299|403:299|423:177,1,136.499993751526,2|0,0:1|0:0,0:0:0:0:
467,366,31827,5,2,0:2:0:0:
500,270,32057,1,0,1:0:0:0:
500,270,32115,1,0,1:0:0:0:
500,270,32173,1,0,1:0:0:0:
416,214,32288,1,8,0:2:0:0:
498,60,32750,1,2,0:2:0:0:
390,15,32981,2,0,B|358:44|358:44|323:144,1,136.499993751526,0|8,0:0|1:0,0:0:0:0:
327,132,33673,6,0,L|372:207,1,68.2499968757631,2|0,0:2|0:0,0:0:0:0:
282,238,33904,2,0,L|196:274,1,68.2499968757631
226,357,34134,2,0,L|330:388,1,68.2499968757631,2|0,1:2|0:0,0:0:0:0:
134,368,34365,2,0,L|114:277,1,68.2499968757631
132,143,34596,2,0,L|181:212,1,68.2499968757631,2|0,0:2|0:0,0:0:0:0:
14,186,34827,2,0,L|13:91,1,68.2499968757631
114,30,35057,5,2,0:2:0:0:
233,41,35288,2,0,L|252:78,2,34.1249984378815,0|0|0,1:0|1:0|1:0,0:0:0:0:
165,97,35519,1,0,0:0:0:0:
320,143,35981,1,2,1:2:0:0:
320,143,36211,1,0,0:0:0:0:
475,103,36442,1,2,0:2:0:0:
247,15,36904,5,2,1:2:0:0:
457,118,37365,2,0,B|338:97|338:97|260:42,1,204.749990627289,0|0,1:0|0:0,0:0:0:0:
247,15,37827,2,0,P|197:66|236:134,1,136.499993751526,2|0,1:2|1:0,0:0:0:0:
315,204,38288,2,0,L|495:239,1,136.499993751526
446,345,38750,6,0,L|359:361,1,68.2499968757631,2|0,0:1|0:0,0:0:0:0:
96,347,39211,2,0,L|174:365,1,68.2499968757631,0|0,0:2|0:0,0:0:0:0:
147,271,39442,1,0,1:0:0:0:
147,271,39500,1,0,1:0:0:0:
147,271,39557,1,0,1:0:0:0:
35,265,39673,6,0,L|88:202,1,68.2499968757631,2|0,0:2|0:0,0:0:0:0:
120,179,39904,2,0,L|69:107,1,68.2499968757631
25,65,40134,2,0,B|72:43|72:43|320:110,1,272.999987503052,2|0,0:2|0:0,0:0:0:0:
285,100,41057,6,0,P|314:69|329:41,1,68.2499968757631,2|0,0:2|0:0,0:0:0:0:
248,0,41288,2,0,P|219:31|204:59,1,68.2499968757631,0|0,1:0|0:0,0:0:0:0:
251,178,41519,2,0,L|352:197,1,68.2499968757631,2|0,1:2|0:0,0:0:0:0:
341,286,41750,2,0,L|426:301,1,68.2499968757631,2|0,0:2|0:0,0:0:0:0:
264,373,41981,2,0,L|242:293,1,68.2499968757631,2|0,0:2|0:0,0:0:0:0:
111,202,42211,2,0,L|97:276,1,68.2499968757631,2|0,0:2|0:0,0:0:0:0:
27,368,42442,6,0,B|50:326|50:326|72:189,1,136.499993751526,2|0,0:2|1:0,0:0:0:0:
49,217,42731,2,0,L|1:206,1,34.1249984378815,0|0,1:0|1:0,0:0:0:0:
69,127,42904,2,0,B|107:120|107:120|217:74,1,136.499993751526
369,0,43365,2,0,B|402:5|402:5|508:65,1,136.499993751526,2|0,1:2|0:0,0:0:0:0:
307,116,43827,2,0,L|109:41,1,204.749990627289
29,9,44288,6,0,B|0:48|0:48|-17:165,1,136.499993751526,2|0,3:2|0:0,0:0:0:0:
85,371,44750,1,0,0:0:0:0:
38,244,44981,2,0,P|-9:287|12:351,1,136.499993751526,0|2,3:0|1:2,0:0:0:0:
85,371,45442,2,0,L|234:338,1,136.499993751526,0|2,1:0|3:3,0:0:0:0:
453,86,46134,6,0,P|480:180|384:183,1,204.749990627289,2|0,3:1|0:0,0:0:0:0:
336,136,46596,2,0,L|170:118,1,136.499993751526,2|0,0:2|3:0,0:0:0:0:
176,136,46884,2,0,L|128:130,1,34.1249984378815,0|0,1:0|1:0,1:0:0:0:
201,215,47057,1,2,0:2:0:0:
134,375,47288,1,0,0:0:0:0:
289,277,47519,1,0,3:0:0:0:
451,359,47750,2,0,P|500:312|460:255,1,136.499993751526,8|8,1:1|0:2,0:2:0:0:
472,259,48442,6,0,L|374:268,1,68.2499968757631,2|0,3:2|0:0,0:0:0:0:
318,303,48673,2,0,L|296:385,1,68.2499968757631,0|0,1:2|0:0,0:0:0:0:
266,225,48904,2,0,L|260:123,1,68.2499968757631,2|0,1:2|0:0,0:0:0:0:
367,141,49134,2,0,L|462:157,1,68.2499968757631,0|0,3:0|0:0,0:0:0:0:
349,52,49365,2,0,L|334:142,1,68.2499968757631,2|0,3:2|0:0,0:0:0:0:
180,176,49596,2,0,L|168:82,1,68.2499968757631
297,0,49827,6,0,B|267:31|267:31|245:158,1,136.499993751526,2|0,3:2|1:0,0:0:0:0:
269,141,50115,2,0,L|261:201,1,34.1249984378815,0|0,1:0|1:0,0:0:0:0:
389,197,50288,5,2,0:2:0:0:
366,317,50519,1,0,3:0:0:0:
258,217,50750,1,2,0:2:0:0:
200,335,50981,1,0,0:0:0:0:
87,264,51211,2,0,P|64:239|53:194,1,68.2499968757631,2|0,3:2|0:0,0:0:0:0:
102,147,51442,2,0,L|132:-9,1,136.499993751526,8|2,1:0|3:2,0:0:0:0:
156,364,52134,6,0,B|81:323|81:323|30:249,1,136.499993751526,0|0,3:0|0:0,0:0:0:0:
278,261,52596,2,0,P|299:313|225:349,1,136.499993751526,2|0,3:2|0:0,0:0:0:0:
242,354,53057,2,0,B|448:313|448:313|492:268,1,272.999987503052,0|2,0:0|3:1,0:0:0:0:
492,267,53981,5,2,3:2:0:0:
411,120,54211,1,0,1:0:0:0:
411,120,54269,1,0,1:0:0:0:
411,120,54327,1,0,1:0:0:0:
489,173,54442,2,0,L|507:88,1,68.2499968757631,2|0,3:2|0:0,0:0:0:0:
453,38,54673,2,0,L|317:16,1,136.499993751526,0|2,0:0|3:2,0:0:0:0:
411,120,55134,1,8,0:1:0:0:
411,120,55365,1,0,3:0:0:0:
411,120,55827,6,0,L|352:180,1,68.2499968757631,0|0,3:0|0:0,0:0:0:0:
293,235,56057,2,0,L|234:295,1,68.2499968757631,2|0,1:2|0:0,0:0:0:0:
161,357,56288,2,0,L|138:274,1,68.2499968757631,0|0,3:0|0:0,0:0:0:0:
30,206,56519,2,0,L|20:285,1,68.2499968757631,2|0,0:2|0:0,0:0:0:0:
138,192,56750,2,0,L|239:178,1,68.2499968757631,0|0,3:0|0:0,0:0:0:0:
195,68,56981,2,0,L|93:84,1,68.2499968757631,2|0,0:2|0:0,0:0:0:0:
0,28,57211,6,0,B|37:44|37:44|148:60,1,136.499993751526,2|0,3:1|3:0,0:0:0:0:
361,113,57673,2,0,B|273:153|273:153|243:180,1,136.499993751526,2|0,3:2|3:0,0:0:0:0:
215,374,58134,2,0,L|312:356,1,68.2499968757631,2|0,3:2|0:0,0:0:0:0:
381,367,58365,2,0,L|449:312,1,68.2499968757631,0|0,3:0|0:0,0:0:0:0:
415,221,58596,2,0,P|353:247|343:347,1,136.499993751526,2|0,3:2|0:0,0:0:0:0:
215,374,59057,6,0,L|178:156,1,204.749990627289,2|0,0:2|0:0,0:0:0:0:
152,140,59461,1,0,0:2:0:0:
140,130,59519,1,2,0:1:0:0:
130,121,59577,1,0,0:2:0:0:
45,37,59750,6,0,P|59:88|29:141,1,102.374995313645,2|0,0:2|0:0,0:0:0:0:
14,153,59981,2,0,P|-4:208|17:268,1,102.374995313645,2|0,0:2|0:0,0:0:0:0:
41,270,60211,2,0,B|96:315|96:315|106:386,1,136.499993751526,0|2,0:0|0:2,0:0:0:0:
105,379,60673,1,0,0:0:0:0:
335,354,60904,5,2,0:2:0:0:
259,312,61019,2,0,B|382:319|382:319|427:348,1,170.624992189408,2|0,0:3|0:0,0:0:0:0:
459,374,61365,2,0,L|464:211,1,136.499993751526,2|0,0:2|0:0,0:0:0:0:
503,156,61711,1,0,0:0:0:0:
500,159,61827,2,0,B|354:177|354:177|304:129,1,204.749990627289,2|0,0:2|0:0,0:0:0:0:
421,4,62288,6,0,P|384:103|295:112,1,204.749990627289,2|0,0:1|0:0,0:0:0:0:
219,65,62750,2,0,P|175:90|148:147,1,102.374995313645,2|0,0:2|0:0,0:0:0:0:
155,168,62981,2,0,P|113:214|61:224,1,102.374995313645
16,171,63211,5,2,0:2:0:0:
69,242,63327,1,2,0:2:0:0:
1,300,63442,1,2,0:2:0:0:
170,367,63673,6,0,L|181:320,1,34.1249984378815,2|0,0:2|0:0,0:0:0:0:
306,299,63904,2,0,L|302:333,2,34.1249984378815,2|2|2,0:3|0:2|0:2,0:0:0:0:
426,340,64134,2,0,L|206:360,1,204.749990627289
129,345,64596,5,2,0:2:0:0:
218,262,64711,1,2,0:2:0:0:
296,354,64827,1,2,0:2:0:0:
296,354,65057,5,2,0:1:0:0:
419,336,65211,1,0,0:0:0:0:
490,233,65365,1,0,0:0:0:0:
373,112,65519,6,0,L|349:185,1,68.2499968757631,2|0,0:2|0:0,0:0:0:0:
267,219,65750,2,0,L|243:292,1,68.2499968757631
351,110,65981,6,0,L|327:183,1,68.2499968757631,2|0,0:2|0:0,0:0:0:0:
245,217,66211,2,0,L|221:290,1,68.2499968757631
328,108,66442,6,0,B|472:75|472:75|512:24,1,204.749990627289,0|0,3:2|0:0,0:0:0:0:
413,6,66846,1,0,0:0:0:0:
399,10,66904,1,2,0:1:0:0:
386,14,66961,1,0,0:0:0:0:
242,101,67134,6,0,P|178:79|144:42,1,102.374995313645,2|0,0:2|0:0,0:0:0:0:
83,95,67365,2,0,L|65:140,1,34.1249984378815,8|0,0:1|0:0,0:0:0:0:
66,307,67596,2,0,P|105:273|117:213,1,102.374995313645
100,205,67827,6,0,B|140:344|140:344|203:378,1,204.749990627289,2|0,3:2|0:0,0:0:0:0:
302,343,68288,5,2,0:2:0:0:
213,288,68404,2,0,B|275:183|275:183|323:158,1,170.624992189408
359,187,68750,2,0,L|381:329,1,136.499993751526,2|0,3:2|0:0,0:0:0:0:
474,243,69096,1,0,0:0:0:0:
478,238,69211,2,0,B|508:81|508:81|473:23,1,204.749990627289,8|0,0:1|0:0,0:0:0:0:
359,187,69673,6,0,P|325:74|251:67,1,204.749990627289,2|0,0:1|0:0,0:0:0:0:
193,141,70134,2,0,L|45:172,1,136.499993751526,0|0,3:0|0:0,0:0:0:0:
252,240,70596,2,0,L|163:246,1,68.2499968757631,2|0,3:2|0:0,0:0:0:0:
97,252,70827,1,0,0:0:0:0:
264,350,71057,5,8,0:1:0:0:
129,336,71211,1,0,0:0:0:0:
45,229,71365,1,2,0:2:0:0:
122,117,71519,2,0,P|109:63|33:37,1,136.499993751526,0|0,3:2|0:0,0:0:0:0:
7,66,71981,5,2,0:2:0:0:
171,35,72134,2,0,L|199:0,1,45.4999979171754,0|0,0:0|3:0,0:0:0:0:
246,159,72288,1,0,0:2:0:0:
405,131,72442,1,2,3:2:0:0:
413,114,72519,1,2,0:2:0:0:
419,96,72596,1,2,0:2:0:0:
421,78,72673,1,2,0:2:0:0:
419,59,72750,1,2,0:2:0:0:
315,217,72904,6,0,L|261:319,1,90.9999958343508,8|0,0:1|0:0,0:0:0:0:
455,326,73211,1,8,1:3:0:0:
241,370,73365,1,2,0:2:0:0:
397,382,73519,1,8,1:3:0:0:
181,306,73673,1,2,0:2:0:0:
70,379,73827,6,0,P|37:280|96:200,1,204.749990627289,4|0,3:1|0:0,0:0:0:0:
70,379,74288,2,0,P|40:350|17:315,1,68.2499968757631,2|0,0:1|0:0,0:0:0:0:
89,203,74519,2,0,P|105:172|135:135,1,68.2499968757631,2|0,0:2|0:0,0:0:0:0:
231,23,74750,2,0,L|114:32,1,102.374995313645,12|0,0:1|0:0,0:0:0:0:
93,13,74981,6,0,P|72:45|63:97,1,68.2499968757631,2|0,0:1|0:0,0:0:0:0:
255,184,75211,2,0,P|311:104|243:33,1,204.749990627289,4|0,3:2|0:0,0:0:0:0:
164,233,75673,2,0,L|125:310,1,68.2499968757631,2|0,0:1|0:0,0:0:0:0:
307,248,75904,2,0,L|401:214,1,68.2499968757631,2|0,3:2|0:0,0:0:0:0:
234,343,76134,6,0,L|389:361,1,136.499993751526,6|0,3:2|0:0,0:0:0:0:
484,174,76596,2,0,L|461:258,1,68.2499968757631,10|0,0:1|0:0,0:0:0:0:
377,109,76827,2,0,L|400:32,1,68.2499968757631,2|0,3:1|0:0,0:0:0:0:
504,135,77057,6,0,L|405:149,1,68.2499968757631,6|0,3:2|0:0,0:0:0:0:
284,28,77288,2,0,L|198:15,1,68.2499968757631,0|0,3:2|0:0,0:0:0:0:
123,149,77519,6,0,P|151:80|53:15,1,204.749990627289,4|0,3:1|0:0,0:0:0:0:
84,244,77981,2,0,L|15:282,1,68.2499968757631,2|0,0:1|0:0,0:0:0:0:
155,364,78211,2,0,L|156:289,1,68.2499968757631,2|0,0:2|0:0,0:0:0:0:
248,185,78442,6,0,L|257:303,1,102.374995313645,12|0,0:1|0:0,0:0:0:0:
279,317,78673,2,0,L|356:332,1,68.2499968757631,2|0,0:1|0:0,0:0:0:0:
512,282,78904,2,0,B|373:231|373:231|332:180,1,204.749990627289,4|0,3:2|0:0,0:0:0:0:
390,109,79365,6,0,L|437:27,1,68.2499968757631,2|0,0:1|0:0,0:0:0:0:
466,235,79596,2,0,L|475:319,1,68.2499968757631,2|0,3:2|0:0,0:0:0:0:
325,367,79827,6,0,L|234:346,1,68.2499968757631,6|0,3:2|0:0,0:0:0:0:
114,228,80057,2,0,L|46:255,1,68.2499968757631
89,376,80288,6,0,L|176:350,1,68.2499968757631,10|0,0:1|0:0,0:0:0:0:
288,253,80519,2,0,L|379:258,1,68.2499968757631,6|0,3:2|0:0,0:0:0:0:
177,278,80750,1,2,3:2:0:0:
429,354,80981,1,0,3:2:0:0:
235,384,81211,6,0,P|172:308|186:262,1,136.499993751526,4|0,3:1|0:0,0:0:0:0:
329,66,81673,2,0,L|394:108,1,68.2499968757631,2|0,0:1|0:0,0:0:0:0:
188,88,81904,2,0,L|110:44,1,68.2499968757631,2|0,0:2|0:0,0:0:0:0:
266,210,82134,5,8,0:1:0:0:
89,189,82365,2,0,L|45:174,1,34.1249984378815,2|0,0:1|0:0,0:0:0:0:
85,161,82481,2,0,L|44:146,1,34.1249984378815
77,133,82596,1,4,0:2:0:0:
227,25,82827,5,2,0:2:0:0:
383,107,83057,2,0,L|394:59,1,34.1249984378815,2|0,0:1|0:0,0:0:0:0:
415,117,83173,2,0,L|430:69,1,34.1249984378815
442,128,83288,1,2,3:2:0:0:
385,326,83519,6,0,B|374:227|374:227|389:170,1,136.499993751526,4|0,3:2|0:0,0:0:0:0:
512,20,83981,2,0,L|440:0,1,68.2499968757631,12|0,0:3|0:0,0:0:0:0:
346,98,84211,2,0,L|270:150,1,68.2499968757631,12|0,0:3|0:0,0:0:0:0:
298,281,84442,2,0,L|286:357,1,68.2499968757631,12|0,0:3|0:0,0:0:0:0:
512,222,84673,2,0,B|408:234|408:234|360:259,1,136.499993751526,14|4,0:3|3:1,0:0:0:0:
379,248,85134,5,0,0:0:0:0:
197,379,85365,2,0,L|112:367,1,68.2499968757631,2|0,0:1|0:0,0:0:0:0:
253,209,85596,2,0,L|185:162,1,68.2499968757631,2|0,0:2|0:0,0:0:0:0:
71,300,85827,2,0,B|43:278|43:278|2:161,1,136.499993751526,12|2,0:1|0:1,0:0:0:0:
146,26,86288,5,6,3:2:0:0:
92,194,86519,2,0,L|42:178,1,34.1249984378815
95,158,86634,2,0,L|45:142,1,34.1249984378815
95,120,86750,1,2,0:1:0:0:
302,38,86981,5,2,3:2:0:0:
306,64,87057,1,0,3:0:0:0:
310,90,87134,1,0,3:0:0:0:
314,116,87211,5,4,3:2:0:0:
479,167,87442,1,0,3:0:0:0:
489,131,87519,1,0,3:0:0:0:
499,96,87596,1,0,3:0:0:0:
452,33,87673,6,0,L|373:53,1,68.2499968757631,10|0,0:1|0:0,0:0:0:0:
337,203,87904,2,0,L|258:223,1,68.2499968757631,2|0,0:2|0:0,0:0:0:0:
76,334,88134,5,8,3:1:0:0:
110,321,88211,1,0,3:3:0:0:
145,313,88288,1,0,3:3:0:0:
190,347,88365,5,4,3:3:0:0:
225,354,88442,1,4,3:3:0:0:
261,349,88519,1,4,3:3:0:0:
310,315,88596,6,0,B|381:331|381:331|407:352,1,105,4|0,3:1|0:0,0:0:0:0:
462,235,89057,2,0,L|427:156,1,70,2|0,0:2|0:0,0:0:0:0:
463,98,89288,1,0,0:0:0:0:
463,98,89365,1,0,0:0:0:0:
463,98,89442,1,0,0:0:0:0:
493,55,89519,6,0,L|405:30,1,70,8|0,0:2|0:0,0:0:0:0:
353,82,89750,2,0,L|277:123,1,70
218,81,89981,1,2,0:2:0:0:
222,85,90096,1,0,0:0:0:0:
143,139,90211,1,2,0:2:0:0:
45,133,90327,1,0,0:0:0:0:
38,235,90442,6,0,L|131:257,1,78.75,2|0,0:1|0:0,0:0:0:0:
125,280,90673,2,0,P|148:334|236:344,1,131.25,2|0,0:3|0:0,0:0:0:0:
240,324,91019,2,0,L|308:312,1,52.5
331,384,91250,1,0,0:0:0:0:
240,324,91365,6,0,L|324:310,1,78.75,10|0,0:2|0:0,0:0:0:0:
346,292,91596,2,0,L|379:210,1,78.75
352,179,91827,6,0,L|439:147,1,70,2|0,0:2|0:0,0:0:0:0:
483,89,92057,1,0,0:0:0:0:
483,89,92134,1,0,0:0:0:0:
483,89,92211,1,0,0:0:0:0:
483,89,92288,5,2,0:2:0:0:
448,157,92404,1,0,0:0:0:0:
479,239,92519,1,0,0:0:0:0:
319,370,92750,5,2,0:2:0:0:
232,325,92865,1,2,0:2:0:0:
285,251,92981,2,0,L|298:170,1,52.5,2|0,0:2|0:0,0:0:0:0:
231,29,93211,6,0,P|199:77|252:125,1,105,8|0,0:2|0:0,0:0:0:0:
345,29,93557,1,0,0:0:0:0:
231,29,93673,2,0,P|197:35|165:48,1,52.5,2|0,0:2|0:0,0:0:0:0:
141,139,93904,2,0,P|120:162|95:233,1,105,0|0,0:0|0:2,0:0:0:0:
133,323,94250,5,0,0:0:0:0:
182,226,94365,2,0,L|266:210,1,52.5,2|0,0:2|0:0,0:0:0:0:
213,315,94596,2,0,L|47:340,1,157.5
0,280,95057,5,10,0:2:0:0:
78,352,95173,1,2,0:2:0:0:
182,327,95288,1,2,0:2:0:0:
436,300,95519,6,0,P|453:327|465:368,1,52.5,2|0,0:2|0:0,0:0:0:0:
375,384,95750,2,0,P|358:357|346:316,1,52.5,2|0,0:2|0:0,0:0:0:0:
450,276,95981,6,0,L|327:262,1,105,8|0,0:3|0:0,0:0:0:0:
122,193,96442,2,0,L|181:184,1,52.5,0|0,0:2|0:0,0:0:0:0:
299,39,96673,2,0,L|162:16,1,105,2|8,0:3|0:2,0:0:0:0:
75,231,97134,6,0,L|150:220,1,52.5,2|0,0:2|0:0,0:0:0:0:
260,71,97365,1,2,0:2:0:0:
239,65,97442,1,2,0:2:0:0:
218,60,97519,1,2,0:2:0:0:
197,55,97596,1,2,0:2:0:0:
10,194,97827,6,0,L|-1:249,1,52.5,2|0,0:2|0:0,0:0:0:0:
58,309,98057,2,0,L|102:355,1,52.5
234,312,98288,6,0,L|178:329,1,52.5,2|0,0:2|0:0,0:0:0:0:
25,283,98519,2,0,L|1:229,1,52.5
119,109,98750,6,0,L|108:238,1,105,10|0,0:2|0:0,0:0:0:0:
271,337,99096,1,0,0:0:0:0:
315,264,99211,1,2,0:2:0:0:
402,284,99327,1,0,0:0:0:0:
418,199,99442,1,2,0:2:0:0:
331,236,99557,1,0,0:0:0:0:
327,139,99673,6,0,L|442:184,1,105,2|0,0:2|0:0,0:0:0:0:
313,63,100019,1,2,0:3:0:0:
259,175,100134,2,0,L|190:170,1,52.5,2|0,0:2|0:0,0:0:0:0:
59,121,100365,1,0,0:0:0:0:
214,131,100481,1,2,0:3:0:0:
56,44,100596,6,0,L|39:103,1,52.5,10|0,0:2|0:0,0:0:0:0:
186,244,100827,2,0,L|210:191,1,52.5
352,37,101057,6,0,L|363:104,1,52.5,2|0,0:2|0:0,0:0:0:0:
490,256,101288,2,0,L|493:139,1,105
284,358,101750,6,0,L|249:311,1,52.5,2|0,0:2|0:0,0:0:0:0:
463,377,101981,2,0,P|496:328|507:269,1,105,2|0,0:2|0:0,0:0:0:0:
212,271,102442,5,10,0:2:0:0:
113,284,102557,1,0,0:0:0:0:
58,369,102673,2,0,L|26:312,1,52.5,2|0,0:2|0:0,0:0:0:0:
98,178,102904,2,0,L|90:118,1,52.5,2|0,0:2|0:0,0:0:0:0:
242,65,103134,2,0,L|275:14,1,52.5,2|0,0:2|0:0,0:0:0:0:
486,46,103827,6,0,L|523:16,1,34.1249984378815,0|0,1:0|0:0,0:0:0:0:
46,340,104288,6,0,L|41:382,1,34.1249984378815,8|0,0:1|0:0,0:0:0:0:
247,349,104519,1,0,3:0:0:0:
75,330,104750,5,4,3:1:0:0:
63,253,104865,1,0,0:0:0:0:
51,176,104981,1,0,0:0:0:0:
226,94,105211,2,0,B|132:74|132:74|100:48,1,136.499993751526
433,21,105673,2,0,B|336:34|336:34|306:63,1,136.499993751526,0|0,3:0|0:0,0:0:0:0:
373,109,106019,1,0,0:0:0:0:
328,172,106134,2,0,L|257:183,1,68.2499968757631,8|0,0:1|0:0,0:0:0:0:
295,263,106365,2,0,L|224:274,1,68.2499968757631,0|0,0:2|0:0,0:0:0:0:
317,357,106596,5,2,0:2:0:0:
486,339,106750,2,0,L|519:386,1,45.4999979171754,0|0,0:0|3:0,0:0:0:0:
369,236,106904,1,0,0:0:0:0:
369,236,107057,6,0,P|368:146|485:117,1,204.749990627289,2|0,3:2|0:0,0:0:0:0:
491,22,107519,5,2,3:2:0:0:
399,47,107634,1,0,0:0:0:0:
348,128,107750,2,0,L|397:197,1,68.2499968757631,2|0,0:3|0:0,0:0:0:0:
267,16,107981,5,8,0:1:0:0:
184,105,108096,1,0,0:0:0:0:
82,40,108211,2,0,L|3:22,1,68.2499968757631,2|0,3:2|0:0,0:0:0:0:
32,212,108442,5,2,3:2:0:0:
32,212,108557,1,0,0:0:0:0:
32,212,108673,1,0,0:0:0:0:
239,348,108904,5,0,0:0:0:0:
74,371,109134,1,2,0:2:0:0:
345,274,109365,5,2,0:2:0:0:
421,238,109519,1,0,0:0:0:0:
456,158,109673,1,0,0:0:0:0:
298,253,109827,5,8,0:1:0:0:
368,172,109981,2,0,L|293:149,1,45.4999979171754,0|6,0:0|3:0,0:0:0:0:
369,68,110134,1,0,0:0:0:0:
260,231,110288,5,2,3:2:0:0:
104,192,110442,2,0,L|60:157,1,45.4999979171754
232,312,110596,1,0,0:0:0:0:
345,274,110750,5,2,3:1:0:0:
421,238,110865,1,0,0:0:0:0:
456,158,110981,1,2,0:3:0:0:
345,274,111211,5,0,0:0:0:0:
421,238,111327,1,0,0:0:0:0:
456,158,111442,1,0,0:0:0:0:
298,253,111673,5,8,0:1:0:0:
368,172,111827,1,0,0:0:0:0:
369,68,111981,1,2,0:2:0:0:
260,231,112134,5,0,3:2:0:0:
133,209,112288,1,0,0:0:0:0:
59,314,112442,1,2,0:0:0:0:
91,225,112596,5,2,0:2:0:0:
117,313,112711,1,0,0:0:0:0:
133,209,112827,5,0,0:0:0:0:
85,299,112942,1,0,0:0:0:0:
83,168,113057,5,2,3:2:0:0:
177,217,113173,1,0,0:0:0:0:
192,115,113288,5,0,0:0:0:0:
115,157,113404,1,0,0:0:0:0:
119,37,113519,5,8,0:1:0:0:
169,144,113673,1,0,0:0:0:0:
211,28,113827,1,0,0:2:0:0:
133,126,113981,5,2,0:2:0:0:
140,0,114134,1,0,0:0:0:0:
212,113,114288,1,0,0:0:0:0:
294,38,114442,6,0,B|155:78|155:78|70:56,1,204.749990627289,2|0,3:2|0:0,0:0:0:0:
28,122,114904,2,0,L|47:205,1,68.2499968757631,2|0,3:2|0:0,0:0:0:0:
69,275,115134,2,0,L|49:115,1,136.499993751526,2|8,0:3|0:1,0:0:0:0:
155,292,115481,1,0,0:0:0:0:
121,362,115596,2,0,L|34:376,1,68.2499968757631,2|0,3:2|0:0,0:0:0:0:
242,307,115827,5,2,3:2:0:0:
242,307,115942,1,0,0:0:0:0:
242,307,116057,2,0,B|341:324|341:324|373:365,1,136.499993751526
496,238,116519,1,0,3:0:0:0:
420,281,116750,5,2,3:2:0:0:
394,174,116904,1,0,0:0:0:0:
477,102,117057,1,0,0:0:0:0:
324,207,117211,5,10,0:1:0:0:
250,102,117365,1,0,0:0:0:0:
332,0,117519,1,0,0:0:0:0:
206,206,117673,6,0,L|170:246,1,45.4999979171754,0|0,3:0|0:0,0:0:0:0:
206,206,117827,2,0,L|170:246,1,45.4999979171754,0|0,3:0|0:0,0:0:0:0:
206,206,117981,2,0,L|170:246,1,45.4999979171754,0|0,3:0|0:0,0:0:0:0:
119,290,118134,6,0,L|34:306,1,68.2499968757631,4|0,3:1|0:0,0:0:0:0:
0,384,118365,2,0,B|24:351|24:351|51:213,1,136.499993751526,2|0,0:3|0:0,0:0:0:0:
282,44,118827,6,0,L|272:162,1,68.2499968757631,2|0,0:2|0:0,0:0:0:0:
313,270,119057,2,0,B|330:366|330:366|372:389,1,136.499993751526,8|0,0:1|0:0,0:0:0:0:
453,210,119519,6,0,P|367:243|377:341,1,204.749990627289,2|0,3:2|0:0,0:0:0:0:
459,296,119981,2,0,L|480:169,1,102.374995313645
497,158,120211,2,0,L|428:115,1,68.2499968757631,2|0,0:2|0:0,0:0:0:0:
292,7,120442,2,0,L|271:163,1,136.499993751526,0|0,3:0|0:0,0:0:0:0:
512,28,120904,6,0,L|407:17,1,68.2499968757631,8|0,0:1|0:0,0:0:0:0:
292,7,121134,1,0,0:0:0:0:
96,130,121365,5,2,0:2:0:0:
238,192,121519,1,0,0:0:0:0:
105,319,121673,1,0,0:0:0:0:
169,141,121827,6,0,P|130:235|25:216,1,204.749990627289,2|0,3:2|0:0,0:0:0:0:
109,77,122288,2,0,P|159:88|183:107,1,68.2499968757631,2|0,0:2|0:3,0:0:0:0:
216,168,122519,2,0,P|268:210|328:227,1,102.374995313645,2|0,0:3|0:0,0:0:0:0:
335,196,122750,5,8,0:1:0:0:
405,257,122865,1,0,0:0:0:0:
408,351,122981,1,2,0:2:0:0:
335,196,123211,5,0,3:0:0:0:
335,196,123327,1,0,0:0:0:0:
335,196,123442,1,0,0:0:0:0:
483,76,123673,5,2,3:1:0:0:
338,110,123827,1,0,0:0:0:0:
256,234,123981,1,0,0:0:0:0:
127,326,124134,5,2,3:2:0:0:
53,194,124288,1,0,0:0:0:0:
76,162,124365,5,0,0:2:0:0:
84,256,124481,1,0,0:0:0:0:
92,350,124596,1,8,0:1:0:0:
183,148,124827,5,0,3:0:0:0:
167,186,124904,1,0,3:0:0:0:
152,224,124981,1,0,3:0:0:0:
133,259,125057,5,2,3:2:0:0:
241,380,125211,1,4,3:0:0:0:
402,360,125365,1,0,3:0:0:0:
459,205,125519,6,0,L|489:280,1,45.4999979171754,0|0,3:2|0:0,0:0:0:0:
459,205,125750,2,0,B|476:113|476:113|529:57,1,136.499993751526,2|0,0:3|0:0,0:0:0:0:
505,81,126211,1,0,0:0:0:0:
301,29,126442,6,0,L|254:15,1,34.1249984378815,8|0,0:1|0:0,0:0:0:0:
262,113,126673,2,0,L|202:115,1,34.1249984378815
99,188,126904,2,0,P|51:147|52:69,1,136.499993751526,2|0,3:2|0:0,0:0:0:0:
99,188,127365,6,0,L|110:335,1,136.499993751526,0|2,0:0|0:2,0:0:0:0:
329,376,127827,2,0,P|372:317|352:237,1,136.499993751526,0|0,3:0|0:0,0:0:0:0:
109,324,128288,1,8,0:1:0:0:
287,161,128519,2,0,B|277:209|277:209|292:315,1,136.499993751526,2|0,0:2|0:0,0:0:0:0:
289,295,128904,5,0,0:0:0:0:
423,245,129057,1,0,0:0:0:0:
318,174,129211,2,0,P|400:201|408:100,1,204.749990627289,2|0,3:2|0:0,0:0:0:0:
251,101,129673,2,0,P|209:130|191:168,1,68.2499968757631,2|0,3:2|0:0,0:0:0:0:
201,226,129904,2,0,P|165:286|113:319,1,102.374995313645,2|0,0:3|0:0,0:0:0:0:
95,286,130134,5,8,3:1:0:0:
199,309,130250,1,0,3:0:0:0:
273,384,130365,1,2,3:2:0:0:
95,286,130596,5,2,3:2:0:0:
95,286,130711,1,0,0:0:0:0:
95,286,130827,1,0,0:0:0:0:
209,115,131057,5,2,0:2:0:0:
130,119,131173,1,0,0:0:0:0:
77,177,131288,1,0,3:2:0:0:
4,196,131404,1,0,0:0:0:0:
77,68,131519,5,2,3:2:0:0:
173,183,131673,1,0,0:0:0:0:
246,28,131827,1,0,0:0:0:0:
336,187,131981,5,8,0:1:0:0:
484,44,132211,1,8,0:3:0:0:
440,56,132288,1,8,0:3:0:0:
396,68,132365,1,8,0:3:0:0:
352,81,132442,1,12,0:3:0:0:
352,81,132673,1,4,3:0:0:0:
336,187,132904,6,0,L|347:374,1,170.624992189408,2|0,3:2|0:0,0:0:0:0:
453,325,133307,1,0,0:2:0:0:
460,305,133365,1,2,0:1:0:0:
467,285,133423,1,0,0:2:0:0:
467,37,133596,6,0,P|453:88|483:141,1,102.374995313645,2|0,0:2|0:0,0:0:0:0:
498,153,133827,2,0,P|516:208|495:268,1,102.374995313645,2|0,0:2|0:0,0:0:0:0:
471,270,134057,2,0,B|416:315|416:315|406:386,1,136.499993751526,0|2,0:0|0:2,0:0:0:0:
407,379,134519,1,0,0:0:0:0:
177,354,134750,5,2,0:2:0:0:
253,312,134865,2,0,B|130:319|130:319|85:348,1,170.624992189408,2|0,0:3|0:0,0:0:0:0:
53,374,135211,2,0,L|48:211,1,136.499993751526,2|0,0:2|0:0,0:0:0:0:
9,156,135557,1,0,0:0:0:0:
12,159,135673,2,0,B|158:177|158:177|208:129,1,204.749990627289,2|0,0:2|0:0,0:0:0:0:
91,4,136134,6,0,P|128:103|217:112,1,204.749990627289,2|0,0:1|0:0,0:0:0:0:
293,65,136596,2,0,P|337:90|364:147,1,102.374995313645,2|0,0:2|0:0,0:0:0:0:
357,168,136827,2,0,P|399:214|451:224,1,102.374995313645
496,171,137057,5,2,0:2:0:0:
443,242,137173,1,2,0:2:0:0:
511,300,137288,1,2,0:2:0:0:
342,367,137519,6,0,L|331:320,1,34.1249984378815,2|0,0:2|0:0,0:0:0:0:
206,299,137750,2,0,L|210:333,2,34.1249984378815,2|2|2,0:3|0:2|0:2,0:0:0:0:
86,340,137981,2,0,L|306:360,1,204.749990627289
383,345,138442,5,2,0:2:0:0:
294,262,138557,1,2,0:2:0:0:
216,354,138673,1,2,0:2:0:0:
216,354,138904,5,2,0:1:0:0:
103,311,139057,1,0,0:0:0:0:
36,217,139211,1,0,0:0:0:0:
139,112,139365,6,0,L|163:185,1,68.2499968757631,2|0,0:2|0:0,0:0:0:0:
245,219,139596,2,0,L|269:292,1,68.2499968757631
161,110,139827,6,0,L|185:183,1,68.2499968757631,2|0,0:2|0:0,0:0:0:0:
267,217,140057,2,0,L|291:290,1,68.2499968757631
184,108,140288,6,0,B|40:75|40:75|0:24,1,204.749990627289,0|0,3:2|0:0,0:0:0:0:
99,6,140692,1,0,0:0:0:0:
113,10,140750,1,2,0:1:0:0:
126,14,140807,1,0,0:0:0:0:
270,101,140981,6,0,P|334:79|368:42,1,102.374995313645,2|0,0:2|0:0,0:0:0:0:
429,95,141211,2,0,L|447:140,1,34.1249984378815,8|0,0:1|0:0,0:0:0:0:
446,307,141442,2,0,P|407:273|395:213,1,102.374995313645
412,205,141673,6,0,B|372:344|372:344|309:378,1,204.749990627289,2|0,3:2|0:0,0:0:0:0:
210,343,142134,5,2,0:2:0:0:
299,288,142250,2,0,B|237:183|237:183|189:158,1,170.624992189408
153,187,142596,2,0,L|131:329,1,136.499993751526,2|0,3:2|0:0,0:0:0:0:
38,243,142942,1,0,0:0:0:0:
34,238,143057,2,0,B|4:81|4:81|39:23,1,204.749990627289,8|0,0:1|0:0,0:0:0:0:
153,187,143519,6,0,P|187:74|261:67,1,204.749990627289,2|0,0:1|0:0,0:0:0:0:
319,141,143981,2,0,L|467:172,1,136.499993751526,0|0,3:0|0:0,0:0:0:0:
260,240,144442,2,0,L|349:246,1,68.2499968757631,2|0,3:2|0:0,0:0:0:0:
415,252,144673,1,0,0:0:0:0:
248,350,144904,5,8,0:1:0:0:
383,336,145057,1,0,0:0:0:0:
467,229,145211,1,2,0:2:0:0:
390,117,145365,2,0,P|403:63|479:37,1,136.499993751526,0|0,3:2|0:0,0:0:0:0:
505,66,145827,6,0,L|491:13,1,45.4999979171754,2|0,0:2|0:0,0:0:0:0:
341,35,145981,2,0,L|313:0,1,45.4999979171754,0|0,0:0|3:0,0:0:0:0:
266,159,146134,2,0,L|218:136,1,45.4999979171754,0|0,0:2|0:0,0:0:0:0:
107,131,146288,1,2,3:2:0:0:
99,114,146365,1,2,0:2:0:0:
93,96,146442,1,2,0:2:0:0:
91,78,146519,1,2,0:2:0:0:
93,59,146596,1,2,0:2:0:0:
234,240,146750,5,8,0:1:0:0:
63,277,146904,1,0,0:0:0:0:
222,345,147057,1,8,1:3:0:0:
128,193,147211,1,2,0:2:0:0:
134,381,147365,1,8,1:3:0:0:
318,252,147519,1,2,0:2:0:0:
442,379,147673,6,0,P|475:280|416:200,1,204.749990627289,4|0,3:1|0:0,0:0:0:0:
442,379,148134,2,0,P|472:350|495:315,1,68.2499968757631,2|0,0:1|0:0,0:0:0:0:
423,203,148365,2,0,P|407:172|377:135,1,68.2499968757631,2|0,0:2|0:0,0:0:0:0:
281,23,148596,2,0,L|398:32,1,102.374995313645,8|0,0:1|0:0,0:0:0:0:
419,13,148827,6,0,P|440:45|449:97,1,68.2499968757631,2|0,0:1|0:0,0:0:0:0:
257,184,149057,2,0,P|201:104|269:33,1,204.749990627289,4|0,3:2|0:0,0:0:0:0:
348,233,149519,2,0,L|387:310,1,68.2499968757631,2|0,0:1|0:0,0:0:0:0:
205,248,149750,2,0,L|111:214,1,68.2499968757631,2|0,3:2|0:0,0:0:0:0:
278,343,149981,6,0,L|123:361,1,136.499993751526,6|0,3:2|0:0,0:0:0:0:
24,170,150327,1,0,0:0:0:0:
28,174,150442,2,0,L|51:258,1,68.2499968757631,10|0,0:1|0:0,0:0:0:0:
135,109,150673,2,0,L|112:32,1,68.2499968757631,2|0,3:1|0:0,0:0:0:0:
8,135,150904,6,0,L|107:149,1,68.2499968757631,6|0,3:2|0:0,0:0:0:0:
228,28,151134,2,0,L|314:15,1,68.2499968757631,0|0,3:2|0:0,0:0:0:0:
389,149,151365,6,0,P|361:80|459:15,1,204.749990627289,4|0,3:1|0:0,0:0:0:0:
428,244,151827,1,2,0:1:0:0:
453,328,151942,1,0,0:0:0:0:
357,364,152057,2,0,L|356:289,1,68.2499968757631,2|0,0:2|0:0,0:0:0:0:
264,185,152288,6,0,L|255:303,1,102.374995313645,12|0,0:1|0:0,0:0:0:0:
233,317,152519,2,0,L|156:332,1,68.2499968757631,2|0,0:1|0:0,0:0:0:0:
0,282,152750,2,0,B|139:231|139:231|180:180,1,204.749990627289,4|0,3:2|0:0,0:0:0:0:
122,109,153211,6,0,L|75:27,1,68.2499968757631,2|0,0:1|0:0,0:0:0:0:
46,235,153442,2,0,L|37:319,1,68.2499968757631,2|0,3:2|0:0,0:0:0:0:
187,367,153673,6,0,L|278:346,1,68.2499968757631,6|0,3:2|0:0,0:0:0:0:
398,228,153904,2,0,L|466:255,1,68.2499968757631
423,376,154134,6,0,L|336:350,1,68.2499968757631,10|0,0:1|0:0,0:0:0:0:
224,253,154365,2,0,L|133:258,1,68.2499968757631,6|0,3:2|0:0,0:0:0:0:
335,278,154596,1,2,3:2:0:0:
83,354,154827,1,0,3:2:0:0:
277,384,155057,6,0,P|340:308|326:262,1,136.499993751526,4|0,3:1|0:0,0:0:0:0:
183,66,155519,2,0,L|118:108,1,68.2499968757631,2|0,0:1|0:0,0:0:0:0:
324,88,155750,2,0,L|402:44,1,68.2499968757631,2|0,0:2|1:0,0:0:0:0:
246,210,155981,5,12,0:1:0:0:
423,189,156211,2,0,L|467:174,1,34.1249984378815,2|0,0:1|0:0,0:0:0:0:
427,161,156327,2,0,L|468:146,1,34.1249984378815
435,133,156442,1,4,0:2:0:0:
285,25,156673,5,2,0:2:0:0:
129,107,156904,2,0,L|118:59,1,34.1249984378815,2|0,0:1|0:0,0:0:0:0:
97,117,157019,2,0,L|82:69,1,34.1249984378815
70,128,157134,1,2,3:2:0:0:
127,326,157365,6,0,B|138:227|138:227|123:170,1,136.499993751526,4|0,3:2|0:0,0:0:0:0:
0,20,157827,2,0,L|72:0,1,68.2499968757631,12|0,0:3|0:0,0:0:0:0:
166,98,158057,2,0,L|242:150,1,68.2499968757631,12|0,0:3|0:0,0:0:0:0:
214,281,158288,2,0,L|226:357,1,68.2499968757631,12|0,0:3|0:0,0:0:0:0:
0,222,158519,2,0,B|104:234|104:234|152:259,1,136.499993751526,14|4,0:3|3:1,0:0:0:0:
133,248,158981,5,0,0:0:0:0:
315,379,159211,2,0,L|400:367,1,68.2499968757631,2|0,0:1|0:0,0:0:0:0:
259,209,159442,2,0,L|327:162,1,68.2499968757631,2|0,0:2|0:0,0:0:0:0:
441,300,159673,2,0,B|469:278|469:278|510:161,1,136.499993751526,12|2,0:1|0:1,0:0:0:0:
438,40,160019,1,0,0:0:0:0:
434,36,160134,6,0,L|274:56,1,136.499993751526,6|0,3:2|0:0,0:0:0:0:
181,34,160481,1,0,0:0:0:0:
181,34,160538,1,0,0:0:0:0:
181,34,160596,5,10,3:1:0:0:
146,44,160673,1,0,3:0:0:0:
111,54,160750,1,0,3:0:0:0:
95,86,160827,5,2,3:2:0:0:
126,104,160904,1,0,3:0:0:0:
157,122,160981,1,0,3:0:0:0:
166,170,161057,5,4,3:0:0:0:
124,181,161134,1,0,3:0:0:0:
83,193,161211,1,0,3:0:0:0:
86,248,161288,5,2,3:0:0:0:
122,269,161365,1,0,3:0:0:0:
158,290,161442,1,0,3:0:0:0:
164,348,161519,5,10,3:1:0:0:
112,361,161596,1,0,3:0:0:0:
61,376,161673,1,0,3:0:0:0:
64,327,161750,5,2,3:2:0:0:
122,317,161827,1,0,3:0:0:0:
176,340,161904,1,0,3:0:0:0:
243,376,161981,5,12,3:3:0:0:
295,349,162057,1,0,3:0:0:0:
313,292,162134,1,0,3:0:0:0:
276,222,162211,5,4,3:3:0:0:
279,204,162288,1,0,3:3:0:0:
282,186,162365,1,0,3:3:0:0:
286,168,162442,6,0,P|281:133|270:102,1,68.2499968757631,14|0,0:1|0:0,0:0:0:0:
155,192,162673,2,0,P|134:220|120:250,1,68.2499968757631
214,312,162904,2,0,L|298:329,1,68.2499968757631,2|0,0:2|0:0,0:0:0:0:
118,361,163134,2,0,L|30:376,1,68.2499968757631
91,251,163365,6,0,L|103:346,1,68.2499968757631,2|0,0:2|0:0,0:0:0:0:
242,361,163596,2,0,L|257:275,1,68.2499968757631
386,228,163827,2,0,L|397:307,1,68.2499968757631,2|0,0:2|0:0,0:0:0:0:
451,345,164057,2,0,L|477:376,2,34.1249984378815
484,194,164261,5,2,0:2:0:0:
425,258,164376,1,0,0:2:0:0:
412,133,164491,5,2,0:2:0:0:
448,237,164607,1,0,0:2:0:0:
477,61,164722,5,2,0:2:0:0:
381,132,164837,1,0,0:2:0:0:
462,49,164953,5,2,0:2:0:0:
407,32,165068,1,0,0:2:0:0:
334,128,165184,5,2,0:2:0:0:
213,181,165299,1,0,0:2:0:0:
137,90,165414,5,2,0:2:0:0:
6,37,165530,1,0,0:2:0:0:
184,21,165645,5,2,0:2:0:0:
26,160,165761,2,0,L|19:181,6,13.125,0|0|0|0|2|0|0,0:0|0:0|0:0|0:0|0:0|0:0|0:0,0:0:0:0:
106,172,165991,1,2,0:0:0:0:
72,285,166107,6,0,P|123:349|197:361,1,157.5,6|0,0:2|0:0,1:0:0:0:
72,285,166414,2,0,B|85:351|174:395|242:350|259:332|259:332|285:308|323:277|374:261|466:299|482:383|436:405|372:411|346:405|311:385|290:325|288:321|286:314|291:246|339:184|345:179|350:173|442:191|496:124|510:38|465:-21|342:-21|292:62|399:158,1,1050.00004005432
380,139,168184,6,0,B|364:111|364:111|307:34|474:-18|526:125|423:218|351:219,1,323.749998764992,0|0,0:0|0:0,0:2:0:0:
334,228,168645,2,2,P|257:218|196:152,1,145.687499444246,2|0,0:2|0:0,0:1:0:0:
200,144,168876,2,2,P|131:78|114:264,1,393.750015020371,2|0,0:1|0:0,0:1:0:0:
176,61,169568,5,2,0:2:0:0:
97,91,169684,1,0,0:0:0:0:
74,176,169799,2,0,L|76:228,7,39.3750015020371,2|0|0|0|0|0|0|0,1:3|0:0|0:0|0:0|0:0|0:0|0:0|0:0,0:0:0:0:
119,233,170261,2,0,L|88:323,1,78.7500030040742,2|0,0:1|0:0,0:0:0:0:
26,360,170491,1,0,0:2:0:0:
26,360,170607,2,0,P|82:339|130:348,1,78.7500030040742,2|0,0:2|0:0,0:0:0:0:
26,360,170879,6,0,B|59:333|115:333|155:352|155:352|195:371|264:371|327:321|310:216|261:196|255:193|247:188|226:134|187:45|295:-6|410:32|413:164|278:215,1,755.999976928712,2|0,0:2|0:0,0:0:0:0:
150,223,171917,2,2,P|48:201|3:71,1,236.250009012223,0|0,0:2|0:0,0:1:0:0:
104,17,172340,6,0,L|108:121,1,78.7500030040742,2|0,0:2|0:0,0:0:0:0:
216,140,172570,2,2,P|295:125|346:63,1,157.500006008148,2|0,0:2|0:0,0:1:0:0:
343,68,172916,2,2,P|316:166|331:250,1,157.500006008148,0|0,0:0|0:0,1:0:0:0:
480,226,173263,2,2,B|443:198|362:206|315:267|312:271|308:279|272:332|176:348|47:301|38:197|133:141|227:174|271:218|238:302|238:302|218:337|203:364|153:389|43:335|46:296|20:203|38:154|94:144|100:143|107:141|150:119|151:56|153:8|57:17|13:82|58:141,1,1181.25004506111,0|0,0:0|0:0,2:3:0:0:
179,176,175108,5,2,0:2:0:0:
106,212,175223,1,0,0:0:0:0:
200,179,175339,5,2,0:2:0:0:
135,112,175454,1,0,0:2:0:0:
222,182,175569,6,0,L|233:260,1,78.7500030040742,0|0,0:2|0:2,0:0:0:0:
322,348,175800,5,2,0:2:0:0:
170,315,175916,1,0,0:0:0:0:
272,269,176031,5,0,0:2:0:0:
237,361,176146,1,0,0:0:0:0:
351,335,176262,5,2,0:2:0:0:
363,315,176377,1,0,0:0:0:0:
375,295,176493,1,0,0:2:0:0:
387,275,176608,1,0,0:0:0:0:
454,175,176723,5,2,0:0:0:0:
463,196,176839,1,0,0:0:0:0:
333,118,176954,5,0,0:0:0:0:
352,103,177069,1,0,0:0:0:0:
450,61,177185,5,6,0:2:0:0:
402,102,177300,1,0,0:0:0:0:
342,79,177416,1,0,0:0:0:0:
293,118,177531,1,0,0:0:0:0:
244,37,177646,5,2,0:2:0:0:
200,83,177762,1,0,0:0:0:0:
145,77,177877,2,0,L|92:14,1,78.7500030040742
47,165,178108,5,0,1:2:0:0:
109,155,178223,1,0,0:0:0:0:
136,212,178339,1,0,0:0:0:0:
180,226,178454,1,0,0:0:0:0:
226,218,178569,5,2,0:2:0:0:
257,234,178646,1,0,0:0:0:0:
277,262,178723,1,0,0:0:0:0:
273,313,178800,5,0,0:2:0:0:
291,342,178877,1,0,0:0:0:0:
321,359,178954,1,0,0:0:0:0:
364,328,179031,5,2,0:2:0:0:
367,301,179108,1,0,0:0:0:0:
370,275,179185,1,0,0:0:0:0:
373,249,179262,1,0,0:2:0:0:
377,223,179339,1,0,0:0:0:0:
381,197,179416,1,0,0:0:0:0:
457,213,179493,5,2,0:2:0:0:
450,182,179569,1,0,0:0:0:0:
443,151,179646,1,0,0:0:0:0:
436,120,179723,1,0,0:2:0:0:
429,89,179800,1,0,0:0:0:0:
422,58,179877,1,0,0:0:0:0:
340,15,179954,5,2,0:2:0:0:
310,36,180031,1,0,0:0:0:0:
294,69,180108,1,0,0:0:0:0:
291,105,180185,1,0,0:0:0:0:
296,141,180262,1,0,0:0:0:0:
278,173,180339,1,0,0:0:0:0:
227,195,180416,5,2,0:2:0:0:
186,170,180493,1,0,0:0:0:0:
163,128,180569,1,0,0:0:0:0:
127,96,180646,1,0,0:0:0:0:
103,136,180723,1,0,0:0:0:0:
71,171,180800,1,0,0:0:0:0:
29,193,180877,5,2,0:3:0:0:
81,218,180993,1,0,0:0:0:0:
96,277,181108,5,0,0:0:0:0:
41,300,181223,1,0,0:0:0:0:
127,357,181339,5,2,0:2:0:0:
165,318,181454,1,0,0:0:0:0:
219,327,181569,1,0,0:0:0:0:
254,369,181685,1,0,0:0:0:0:
330,294,181800,5,2,0:1:0:0:
330,294,181877,1,0,0:0:0:0:
330,294,181954,1,0,0:0:0:0:
330,294,182031,5,0,0:0:0:0:
382,264,182146,1,0,0:0:0:0:
461,201,182262,5,2,0:2:0:0:
428,289,182377,1,2,0:2:0:0:
511,157,182493,6,2,B|458:134|382:140|319:201|316:204|312:208|267:260|222:291|175:271|44:197|74:125|121:97|161:77|211:84|267:106|309:136|308:180|253:371|76:304|44:261|-6:205|-1:82|85:49,1,945.000036048891,2|0,0:2|0:0,0:2:0:0:
109,65,183954,2,0,P|213:77|295:0,1,210.000008010865,2|0,0:2|0:0,1:0:0:0:
314,54,184339,2,0,L|316:147,1,78.7500030040742,2|0,0:2|0:0,0:0:0:0:
314,54,184569,6,2,B|317:163|317:163|316:216|369:285|432:299|503:248|532:177|495:104|391:77|336:141|355:301|355:301|357:348|327:360|273:324|329:251,1,787.500030040742,2|0,0:1|0:0,0:1:0:0:
416,199,185839,6,2,P|451:133|367:51,1,196.875007510186,2|0,0:2|0:0,0:1:0:0:
346,61,186185,2,0,L|245:82,1,78.7500030040742
186,37,186416,2,0,L|136:28,3,39.3750015020371,2|0|0|0,0:2|0:0|0:0|0:0,0:0:0:0:
118,104,186646,2,0,L|61:114,3,39.3750015020371
145,178,186877,2,0,L|188:188,3,39.3750015020371,2|0|0|0,0:2|0:0|0:0|0:0,0:0:0:0:
184,268,187108,2,0,L|224:277,3,39.3750015020371
110,284,187339,5,2,0:2:0:0:
60,384,187454,1,0,0:0:0:0:
33,266,187569,5,2,0:2:0:0:
133,337,187685,1,0,0:0:0:0:
138,189,187800,5,2,0:2:0:0:
177,238,187916,1,0,0:0:0:0:
255,261,188031,1,2,0:3:0:0:
296,335,188146,1,0,0:0:0:0:
395,368,188262,6,2,P|467:299|456:161,1,236.250009012223,2|0,0:2|0:0,0:1:0:0:
401,92,188723,2,0,P|428:34|460:8,1,78.7500030040742,2|0,0:2|0:0,0:1:0:0:
458,190,188954,6,2,P|361:155|310:19,1,236.250009012223,2|0,0:2|0:0,3:0:0:0:
161,27,189416,2,2,B|211:85|211:85|245:169|245:169|322:231,1,236.250009012223,2|0,0:2|0:0,1:0:0:0:
395,206,189877,2,0,L|496:165,1,78.7500030040742,2|0,0:2|0:0,1:0:0:0:
435,334,190108,6,2,L|389:87,1,236.250009012223,2|0,0:2|0:0,0:1:0:0:
494,17,190569,2,0,L|463:107,1,78.7500030040742,2|2,0:2|0:0,0:1:0:0:
327,152,190800,2,2,P|266:113|236:54,1,118.125004506111,2|0,0:2|0:0,0:1:0:0:
240,41,191031,2,0,L|157:25,1,78.7500030040742,2|0,0:3|0:0,1:0:0:0:
66,111,191262,2,2,L|241:150,1,157.500006008148,2|0,0:2|0:0,0:1:0:0:
3,258,191723,1,2,0:2:0:0:
311,373,191954,5,6,3:1:0:0:
10,287,192416,1,0,3:0:0:0:
224,276,192646,1,8,0:3:0:0:
74,380,192877,5,0,3:0:0:0:
223,60,193339,1,0,3:0:0:0:
215,360,193800,1,2,3:2:0:0:
282,318,193916,1,0,0:0:0:0:
344,215,194031,1,2,1:2:0:0:
399,277,194146,1,0,0:0:0:0:
506,215,194262,5,2,3:2:0:0:
442,269,194377,1,0,0:0:0:0:
455,350,194493,1,2,0:2:0:0:
489,375,194608,1,0,0:0:0:0:
333,297,194723,5,2,3:2:0:0:
258,328,194839,1,0,0:0:0:0:
184,266,194954,1,2,0:2:0:0:
102,258,195069,1,0,0:0:0:0:
37,166,195185,5,2,3:2:0:0:
85,233,195300,1,0,0:0:0:0:
148,113,195416,5,10,1:3:0:0:
154,96,195493,1,0,0:0:0:0:
159,82,195569,1,0,0:0:0:0:
165,69,195646,5,2,3:1:0:0:
512,51,196108,1,0,3:0:0:0:
345,16,196339,1,0,0:0:0:0:
495,173,196569,5,0,3:0:0:0:
393,323,196800,1,0,0:0:0:0:
174,361,197031,1,0,3:0:0:0:
327,367,197262,1,0,0:0:0:0:
149,260,197493,6,0,P|119:293|87:353,1,78.7500030040742,2|0,3:2|0:0,0:0:0:0:
54,207,197723,1,2,0:2:0:0:
81,159,197839,1,2,0:2:0:0:
53,45,197954,5,2,3:2:0:0:
51,152,198069,1,2,0:2:0:0:
181,50,198185,6,0,L|231:249,1,157.500006008148,2|8,0:1|3:3,0:0:0:0:
251,346,198531,1,0,1:0:0:0:
255,350,198646,1,0,3:0:0:0:
368,269,198762,1,8,0:1:0:0:
372,273,198877,1,8,0:1:0:0:
417,341,198993,1,8,3:0:0:0:
464,209,199108,1,8,3:1:0:0:
468,213,199223,1,8,0:1:0:0:
394,116,199339,5,4,3:0:0:0:
367,100,199472,1,0,0:0:0:0:
351,82,199606,1,2,0:2:0:0:
336,67,199726,1,0,0:0:0:0:
237,17,199846,5,4,3:0:0:0:
220,45,199957,1,0,0:0:0:0:
108,77,200082,1,2,0:2:0:0:
88,104,200207,1,0,0:0:0:0:
209,194,200305,5,4,3:0:0:0:
162,215,200419,1,0,0:0:0:0:
48,169,200533,1,2,0:2:0:0:
6,153,200647,1,0,0:0:0:0:
117,314,200761,5,4,3:0:0:0:
64,260,200875,1,0,0:0:0:0:
119,154,200989,1,2,1:2:0:0:
82,78,201103,1,0,0:0:0:0:
237,22,201217,5,4,3:0:0:0:
189,107,201332,1,0,0:0:0:0:
304,123,201447,1,2,0:2:0:0:
298,224,201563,1,0,0:0:0:0:
425,260,201678,5,4,3:0:0:0:
364,354,201793,1,0,0:0:0:0:
252,292,201909,1,2,0:2:0:0:
183,379,202024,1,0,0:0:0:0:
103,248,202140,5,6,3:0:0:0:
44,343,202255,1,0,0:0:0:0:
171,205,202370,5,2,0:2:0:0:
212,306,202486,1,0,0:0:0:0:
92,168,202601,5,6,3:0:0:0:
26,264,202717,1,0,0:0:0:0:
203,105,202832,5,8,3:0:0:0:
26,62,202947,1,8,3:0:0:0:
171,14,203063,5,4,3:0:0:0:
210,23,203135,1,0,0:0:0:0:
243,38,203208,1,0,0:0:0:0:
272,60,203281,1,2,0:2:0:0:
303,95,203354,1,0,0:0:0:0:
306,142,203427,1,0,0:0:0:0:
293,185,203500,5,4,3:0:0:0:
261,219,203573,1,0,0:0:0:0:
316,221,203646,1,0,0:0:0:0:
359,186,203719,1,2,0:2:0:0:
373,146,203792,1,0,0:0:0:0:
365,104,203865,1,0,0:0:0:0:
328,77,203938,6,0,P|326:41|335:14,2,52.5000020027161,4|0|0,3:0|0:0|0:0,0:0:0:0:
219,155,204168,2,0,L|148:194,2,52.5000020027161,2|0|0,3:2|0:0|0:0,0:0:0:0:
304,231,204413,5,4,3:0:0:0:
321,250,204489,1,0,0:0:0:0:
336,271,204566,1,0,0:0:0:0:
349,293,204643,1,2,0:2:0:0:
360,316,204720,1,0,0:0:0:0:
369,340,204797,1,0,0:0:0:0:
336,371,204874,5,4,3:0:0:0:
304,356,204951,1,0,0:0:0:0:
279,330,205028,1,0,0:0:0:0:
219,310,205105,5,2,0:2:0:0:
182,330,205184,1,0,0:0:0:0:
158,364,205263,1,0,0:0:0:0:
128,353,205343,5,4,3:0:0:0:
104,331,205422,1,0,0:0:0:0:
103,315,205501,1,0,0:0:0:0:
104,299,205576,1,2,0:2:0:0:
108,283,205651,1,0,0:0:0:0:
120,268,205726,1,0,0:0:0:0:
133,253,205801,6,0,L|188:198,2,52.5000020027161,4|0|0,3:0|0:0|0:0,0:0:0:0:
44,172,206027,2,0,L|-13:135,2,52.5000020027161,10|0|8,0:3|0:0|0:3,0:0:0:0:
230,60,206290,5,8,0:1:0:0:
76,85,206403,1,8,0:1:0:0:
203,138,206516,5,8,0:1:0:0:
110,14,206628,1,8,0:1:0:0:
117,162,206741,6,0,L|50:225,3,78.7500030040742,6|0|0|0,3:1|0:0|0:2|0:0,0:0:0:0:
237,55,207202,2,0,L|327:43,3,78.7500030040742,2|0|0|0,0:2|0:0|0:2|0:0,0:0:0:0:
209,210,207664,5,8,0:1:0:0:
207,225,207779,1,0,0:0:0:0:
205,240,207894,1,0,0:0:0:0:
203,255,208010,1,0,0:0:0:0:
241,285,208125,5,0,3:0:0:0:
247,299,208241,1,0,3:0:0:0:
347,343,208356,5,8,0:1:0:0:
244,336,208471,1,8,0:3:0:0:
341,236,208587,5,2,0:2:0:0:
375,348,208702,1,0,0:0:0:0:
427,218,208817,5,2,0:2:0:0:
376,313,208933,1,0,0:0:0:0:
333,148,209048,5,6,3:3:0:0:
428,297,209202,1,0,0:0:0:0:
433,107,209356,1,0,0:0:0:0:
325,240,209510,5,8,0:1:0:0:
419,213,209625,1,0,0:0:0:0:
398,87,209741,5,2,1:2:0:0:
484,24,209856,1,0,0:0:0:0:
263,71,209971,5,8,0:1:0:0:
256,96,210048,1,0,0:0:0:0:
249,121,210125,1,0,0:0:0:0:
242,146,210202,5,8,0:1:0:0:
325,240,210317,1,8,0:1:0:0:
230,364,210433,6,0,L|129:376,3,78.7500030040742,6|4|8|4,3:0|3:0|0:1|3:0,0:0:0:0:
87,288,210894,2,0,L|6:230,3,78.7500030040742,6|0|0|0,0:3|0:0|0:0|0:0,0:0:0:0:
81,78,211356,5,12,0:1:0:0:
159,259,211587,1,8,0:3:0:0:
164,235,211702,1,8,0:3:0:0:
169,212,211817,5,2,0:2:0:0:
175,189,211933,1,0,0:2:0:0:
270,142,212048,1,6,3:2:0:0:
276,119,212164,1,0,0:0:0:0:
282,96,212279,5,2,3:2:0:0:
288,73,212394,1,0,3:0:0:0:
395,31,212510,2,0,L|422:122,1,78.7500030040742,2|0,3:2|0:0,0:0:0:0:
440,172,212741,6,2,B|451:65|451:65|498:15,1,157.500006008148,4|8,3:0|0:3,0:1:0:0:
504,260,213087,1,0,3:0:0:0:
448,333,213202,2,0,L|326:343,1,78.7500030040742,14|0,3:1|0:0,0:0:0:0:
186,309,213433,1,0,1:0:0:0:
163,314,213548,1,0,1:0:0:0:
140,319,213664,5,8,3:3:0:0:
233,359,213779,1,8,3:3:0:0:
105,384,213894,5,4,0:3:0:0:
207,321,214010,1,4,0:3:0:0:
70,278,214125,6,0,L|38:209,4,39.3750015020371,6|0|8|0|8,3:1|0:0|0:1|0:0|0:1,0:0:0:0:
126,189,214471,1,8,0:1:0:0:
105,159,214587,2,0,L|17:149,1,78.7500030040742,8|8,0:1|0:3,0:0:0:0:
224,8,214817,5,6,3:2:0:0:
246,44,214933,1,0,0:0:0:0:
266,80,215048,1,0,3:2:0:0:
207,153,215164,1,4,3:0:0:0:
389,118,215279,5,8,0:1:0:0:
294,332,215510,1,4,3:1:0:0:
340,327,215625,1,2,3:0:0:0:
386,322,215741,1,0,3:2:0:0:
433,318,215856,1,4,3:0:0:0:
330,228,215971,5,8,0:1:0:0:
157,330,216202,1,8,0:1:0:0:
142,285,216317,1,8,0:1:0:0:
127,239,216433,1,0,3:0:0:0:
113,193,216548,1,0,3:0:0:0:
58,357,216664,5,4,3:2:0:0:
320,333,216894,1,0,3:0:0:0:
250,301,217010,1,0,3:0:0:0:
404,256,217125,5,12,3:1:0:0:
379,77,217356,1,2,3:2:0:0:
357,122,217471,1,0,3:0:0:0:
339,168,217587,1,2,3:2:0:0:
195,30,217817,5,6,3:1:0:0:
153,62,217894,1,0,3:0:0:0:
138,112,217971,1,0,3:0:0:0:
167,155,218048,1,0,3:2:0:0:
159,206,218125,1,0,3:0:0:0:
129,249,218202,1,0,3:0:0:0:
77,259,218279,5,2,3:2:0:0:
103,242,218356,1,0,3:0:0:0:
134,239,218433,1,0,3:0:0:0:
162,253,218510,1,0,3:2:0:0:
193,255,218587,1,0,3:0:0:0:
223,245,218664,1,0,3:0:0:0:
249,228,218741,5,2,3:2:0:0:
273,247,218817,1,0,3:0:0:0:
288,274,218894,1,0,3:0:0:0:
289,305,218971,1,0,3:0:0:0:
305,331,219048,1,0,3:0:0:0:
331,348,219125,1,0,3:0:0:0:
362,347,219202,5,2,3:2:0:0:
394,320,219279,1,0,3:0:0:0:
426,293,219356,1,0,3:0:0:0:
397,262,219433,5,0,3:0:0:0:
375,226,219510,1,0,3:0:0:0:
353,190,219587,1,0,3:0:0:0:
381,158,219664,5,8,3:1:0:0:
452,36,219817,1,2,3:2:0:0:
468,230,219971,1,8,3:0:0:0:
242,78,220125,5,4,3:0:0:0:
446,63,220279,1,2,3:2:0:0:
270,173,220433,1,8,3:1:0:0:
176,3,220587,5,14,3:1:0:0:
148,24,220644,1,2,0:2:0:0:
176,3,220702,1,2,0:2:0:0:
148,24,220760,1,2,0:2:0:0:
176,3,220817,1,2,0:2:0:0:
148,24,220875,1,2,0:2:0:0:
176,3,220933,1,2,0:2:0:0:
148,24,220991,1,2,0:2:0:0:
121,64,221048,5,14,3:1:0:0:
149,85,221106,1,2,0:2:0:0:
121,64,221164,1,2,0:2:0:0:
149,85,221221,1,2,0:2:0:0:
121,64,221279,1,2,0:2:0:0:
149,85,221337,1,2,0:2:0:0:
121,64,221394,1,2,0:2:0:0:
149,85,221452,1,2,0:2:0:0:
135,139,221510,5,6,3:1:0:0:
164,168,221587,1,0,0:0:0:0:
203,182,221664,1,0,0:0:0:0:
281,131,221741,5,2,0:2:0:0:
269,117,221817,1,0,0:0:0:0:
253,108,221894,1,0,0:0:0:0:
203,182,221971,5,8,1:2:0:0:
179,215,222048,1,0,0:0:0:0:
172,256,222125,1,0,0:0:0:0:
248,304,222202,5,2,3:2:0:0:
264,295,222279,1,0,0:0:0:0:
276,281,222356,1,0,0:0:0:0:
364,296,222433,5,8,0:1:0:0:
374,336,222510,1,0,0:0:0:0:
402,366,222587,1,0,0:0:0:0:
461,288,222664,5,2,0:2:0:0:
468,274,222741,1,0,0:0:0:0:
472,259,222817,1,0,0:0:0:0:
382,208,222894,5,0,3:2:0:0:
345,186,222971,1,0,0:0:0:0:
314,157,223048,1,0,0:0:0:0:
403,104,223125,5,2,0:2:0:0:
415,95,223202,1,0,0:0:0:0:
427,86,223279,1,0,0:0:0:0:
358,18,223356,5,2,0:3:0:0:
325,35,223433,1,0,0:0:0:0:
299,61,223510,1,0,0:0:0:0:
219,100,223587,5,2,3:2:0:0:
206,82,223664,1,0,0:0:0:0:
197,62,223741,1,0,0:0:0:0:
122,14,223817,5,8,3:1:0:0:
110,43,223894,1,0,0:0:0:0:
98,72,223971,1,0,0:0:0:0:
140,148,224048,5,2,0:2:0:0:
143,157,224125,1,0,0:0:0:0:
146,166,224202,1,0,0:0:0:0:
102,241,224279,5,8,1:1:0:0:
78,252,224356,1,0,0:0:0:0:
54,264,224433,1,0,0:0:0:0:
91,354,224510,5,2,3:2:0:0:
98,360,224587,1,0,0:0:0:0:
105,366,224664,1,0,0:0:0:0:
176,310,224741,5,0,3:2:0:0:
186,291,224817,1,0,0:0:0:0:
196,272,224894,1,0,0:0:0:0:
264,326,224971,5,2,3:2:0:0:
266,330,225048,1,0,0:0:0:0:
269,334,225125,1,0,0:0:0:0:
344,370,225202,5,0,3:0:0:0:
359,368,225279,1,0,0:0:0:0:
374,363,225356,1,0,0:0:0:0:
418,296,225433,5,2,0:2:0:0:
403,288,225510,1,0,0:0:0:0:
391,277,225587,1,0,0:0:0:0:
385,188,225664,5,8,3:2:0:0:
405,181,225741,1,0,0:0:0:0:
423,171,225817,1,0,0:0:0:0:
447,87,225894,5,2,0:2:0:0:
426,70,225971,1,0,0:0:0:0:
411,48,226048,1,0,0:0:0:0:
320,33,226125,5,8,0:1:0:0:
314,63,226202,1,0,0:0:0:0:
297,89,226279,1,0,0:0:0:0:
208,142,226356,5,2,0:2:0:0:
200,177,226433,1,0,0:0:0:0:
205,213,226510,1,0,0:0:0:0:
289,266,226587,5,2,3:2:0:0:
252,286,226664,1,0,0:0:0:0:
226,319,226741,1,0,0:0:0:0:
135,384,226817,5,2,0:2:0:0:
123,338,226894,1,0,0:0:0:0:
112,291,226971,1,0,0:0:0:0:
61,205,227048,5,2,0:2:0:0:
21,170,227125,1,0,0:0:0:0:
0,121,227202,1,0,0:0:0:0:
122,61,227279,5,2,3:2:0:0:
138,121,227356,1,0,0:0:0:0:
103,173,227433,1,0,0:0:0:0:
14,88,227510,5,2,3:2:0:0:
65,53,227587,1,0,0:0:0:0:
126,65,227664,1,0,0:0:0:0:
242,120,227741,5,2,0:2:0:0:
308,104,227817,1,0,0:0:0:0:
365,67,227894,1,0,0:0:0:0:
474,121,227971,5,8,0:1:0:0:
451,162,228048,1,0,0:0:0:0:
444,208,228125,1,0,0:0:0:0:
372,297,228202,5,2,3:2:0:0:
331,273,228279,1,0,0:0:0:0:
306,232,228356,1,0,0:0:0:0:
203,197,228433,5,2,3:2:0:0:
184,268,228510,1,0,0:0:0:0:
196,339,228587,1,0,0:0:0:0:
74,365,228664,5,2,0:2:0:0:
20,300,228741,1,0,0:0:0:0:
34,217,228817,1,0,0:0:0:0:
138,117,228894,5,4,3:1:0:0:
104,291,229010,1,0,0:0:0:0:
34,91,229125,5,2,0:2:0:0:
203,197,229241,1,0,0:0:0:0:
98,21,229356,5,10,0:2:0:0:
220,150,229471,1,0,0:0:0:0:
332,86,229587,5,2,0:2:0:0:
346,263,229702,1,0,0:0:0:0:
478,162,229817,5,8,3:1:0:0:
391,295,229933,1,0,0:0:0:0:
405,120,230048,5,2,0:3:0:0:
509,265,230164,1,0,0:0:0:0:
273,209,230279,5,0,3:0:0:0:
175,323,230394,1,0,0:0:0:0:
80,249,230510,5,2,0:2:0:0:
34,373,230625,1,0,0:0:0:0:
187,355,230741,5,2,0:2:0:0:
75,287,230856,1,0,0:0:0:0:
226,227,230971,5,2,3:2:0:0:
153,333,231087,1,0,0:0:0:0:
172,162,231202,5,2,3:2:0:0:
298,208,231317,1,0,0:0:0:0:
398,101,231433,5,2,0:2:0:0:
323,243,231548,1,0,0:0:0:0:
458,344,231664,5,8,0:1:0:0:
405,254,231779,1,0,0:0:0:0:
485,175,231894,5,2,3:2:0:0:
416,96,232010,1,0,0:0:0:0:
303,13,232125,5,2,3:2:0:0:
254,72,232241,1,0,0:0:0:0:
260,145,232356,1,2,3:2:0:0:
197,188,232471,1,0,0:0:0:0:
56,234,232587,5,6,3:2:0:0:
144,242,232702,1,0,0:0:0:0:
243,334,232817,5,2,0:2:0:0:
332,328,232933,1,0,0:0:0:0:
156,344,233048,5,2,3:2:0:0:
235,316,233164,1,0,0:0:0:0:
282,219,233279,1,2,0:3:0:0:
355,181,233394,1,0,0:0:0:0:
490,200,233510,5,8,3:1:0:0:
446,265,233625,1,0,0:0:0:0:
277,311,233741,5,2,0:3:0:0:
346,356,233856,1,0,0:0:0:0:
376,248,233971,5,2,3:2:0:0:
359,288,234087,1,0,0:0:0:0:
240,369,234202,5,2,0:2:0:0:
251,335,234317,1,0,0:0:0:0:
236,210,234433,5,4,3:0:0:0:
210,191,234510,1,0,3:0:0:0:
189,167,234587,1,0,3:0:0:0:
174,138,234664,1,8,3:0:0:0:
167,107,234741,1,0,3:0:0:0:
170,75,234817,1,0,3:0:0:0:
187,48,234894,5,6,3:3:0:0:
196,83,234971,1,0,3:0:0:0:
189,119,235048,1,0,3:0:0:0:
160,141,235125,1,0,3:0:0:0:
123,147,235202,1,0,3:0:0:0:
90,129,235279,1,0,3:0:0:0:
75,95,235356,5,6,3:0:0:0:
23,147,235433,1,2,3:2:0:0:
31,220,235510,1,2,3:2:0:0:
127,255,235587,5,2,3:2:0:0:
164,299,235664,1,2,3:2:0:0:
157,356,235741,1,2,3:2:0:0:
64,309,235817,5,12,3:3:0:0:
105,300,235894,1,2,3:2:0:0:
146,291,235971,1,2,3:2:0:0:
238,349,236048,5,12,3:3:0:0:
269,353,236106,1,4,3:0:0:0:
300,357,236164,1,4,3:0:0:0:
331,361,236221,1,4,3:0:0:0:
390,368,236279,6,0,B|447:268|447:268|464:188,1,157.500006008148,6|0,3:1|0:0,0:0:0:0:
340,17,236741,2,0,L|297:114,1,78.7500030040742,2|0,1:2|0:0,0:0:0:0:
436,142,236971,2,0,L|512:124,1,78.7500030040742,2|0,0:2|0:0,0:0:0:0:
321,250,237202,6,0,B|204:219|204:219|140:170,1,157.500006008148,8|0,3:1|0:0,0:0:0:0:
70,15,237664,1,2,3:2:0:0:
73,19,237779,2,0,B|93:80|93:80|87:193,1,157.500006008148
28,227,238125,2,0,L|3:327,1,78.7500030040742,2|0,0:2|0:0,0:0:0:0:
223,373,238356,2,0,L|261:296,1,78.7500030040742,0|0,3:0|0:0,0:0:0:0:
173,159,238587,6,0,L|158:257,1,78.7500030040742,4|0,3:0|0:0,0:0:0:0:
393,347,238817,2,0,L|467:279,1,78.7500030040742,2|0,0:2|0:0,0:0:0:0:
461,59,239048,2,0,L|438:188,1,78.7500030040742,8|0,0:1|0:0,0:0:0:0:
240,274,239279,2,0,L|243:360,1,78.7500030040742,0|0,3:0|0:0,0:0:0:0:
450,293,239510,5,8,3:3:0:0:
450,293,239664,1,0,0:0:0:0:
450,293,239817,1,0,0:0:0:0:
450,293,239971,6,0,B|354:241|354:241|264:223,1,157.500006008148,6|0,3:2|0:0,0:0:0:0:
28,370,240433,2,0,L|129:364,1,78.7500030040742,2|0,3:2|0:0,0:0:0:0:
34,253,240664,2,0,B|62:147|62:147|115:112,1,157.500006008148,2|8,0:3|0:1,0:0:0:0:
448,29,241125,6,0,L|459:135,1,78.7500030040742,2|0,0:2|0:0,0:0:0:0:
299,194,241356,2,0,B|253:95|253:95|245:30,1,157.500006008148,0|0,3:0|0:0,0:0:0:0:
467,209,241817,5,2,1:2:0:0:
467,209,241971,1,0,0:0:0:0:
467,209,242125,1,0,0:0:0:0:
467,209,242279,6,0,B|353:233|353:233|312:273,1,157.500006008148,4|0,3:0|0:0,0:0:0:0:
96,373,242741,2,0,L|186:367,1,78.7500030040742,8|0,0:1|0:0,0:0:0:0:
288,178,242971,2,0,L|111:136,1,157.500006008148,0|2,3:2|3:2,0:0:0:0:
134,141,243356,1,0,0:0:0:0:
134,141,243510,1,0,0:0:0:0:
134,141,243664,6,0,B|241:114|241:114|300:70,1,157.500006008148,6|2,3:2|0:3,0:0:0:0:
502,21,244125,2,0,L|518:138,1,78.7500030040742,2|0,1:2|0:0,0:0:0:0:
337,242,244356,2,0,B|304:278|304:278|283:395,1,157.500006008148,0|8,1:0|0:1,0:0:0:0:
462,340,244702,1,0,0:0:0:0:
466,343,244817,2,0,L|267:327,1,157.500006008148,2|4,0:2|3:0,0:0:0:0:
132,316,245164,1,0,0:0:0:0:
128,319,245279,1,2,0:2:0:0:
180,82,245510,6,0,L|201:218,1,78.7500030040742,2|0,1:2|0:0,0:0:0:0:
25,233,245741,2,0,L|10:134,1,78.7500030040742,0|0,3:0|0:0,0:0:0:0:
268,113,245971,6,0,L|250:203,1,78.7500030040742,2|0,3:2|0:0,0:0:0:0:
52,127,246202,2,0,L|70:49,1,78.7500030040742,0|0,1:0|0:0,0:0:0:0:
330,38,246433,5,8,3:1:0:0:
298,123,246548,1,0,0:0:0:0:
410,179,246664,1,2,3:2:0:0:
428,264,246779,1,0,0:0:0:0:
285,294,246894,5,2,3:2:0:0:
426,340,247010,1,0,0:0:0:0:
274,369,247125,5,2,3:2:0:0:
397,274,247241,1,0,0:0:0:0:
218,256,247356,6,2,P|172:172|226:82,1,157.500006008148,2|0,3:1|0:0,0:1:0:0:
470,26,247817,2,0,P|467:68|435:115,1,78.7500030040742,2|0,3:2|0:0,1:2:0:0:
325,94,248048,2,2,L|113:53,1,157.500006008148,2|8,0:3|0:1,3:0:0:0:
26,367,248510,2,2,L|114:354,1,78.7500030040742,2|0,0:2|0:0,0:1:0:0:
241,342,248741,1,4,3:0:0:0:
245,346,248856,1,0,0:0:0:0:
249,350,248971,1,2,0:2:0:0:
512,213,249202,6,2,P|437:170|414:86,1,157.500006008148,2|0,3:1|0:0,0:1:0:0:
413,106,249664,2,2,L|393:206,1,78.7500030040742,2|0,3:2|0:0,1:0:0:0:
373,353,249894,2,0,L|344:209,1,78.7500030040742,2|0,0:2|0:0,1:2:0:0:
311,58,250125,1,8,0:1:0:0:
213,287,250356,1,2,3:1:0:0:
217,291,250471,1,0,3:0:0:0:
221,295,250587,1,14,0:3:0:0:
131,69,250817,1,2,0:2:0:0:
30,351,251048,5,6,0:1:0:0:
256,192,251164,12,0,255664,0:0:0:0:
