osu file format v14

[General]
AudioFilename: audio.mp3
AudioLeadIn: 0
PreviewTime: 35835
Countdown: 0
SampleSet: Soft
StackLeniency: 0.4
Mode: 0
LetterboxInBreaks: 0
WidescreenStoryboard: 1

[Editor]
Bookmarks: 17961,35905,53849,71793,107681,125625,143569,161513,197401
DistanceSpacing: 0.6
BeatDivisor: 3
GridSize: 32
TimelineZoom: 1.400002

[Metadata]
Title:G.O.A.T.
TitleUnicode:G.O.A.T.
Artist:Polyphia
ArtistUnicode:Polyphia
Creator:Mir
Version:Normal
Source:
Tags:rhythm guitar bass drum solo rock metal technical New Levels New Yukiyo Devils goat instrumental
BeatmapID:2478171
BeatmapSetID:1187509

[Difficulty]
HPDrainRate:2
CircleSize:3
OverallDifficulty:4
ApproachRate:5.5
SliderMultiplier:1.6
SliderTickRate:1

[Events]
//Background and Video events
0,0,"cyber.jpg",0,0
//Break Periods
2,71993,73958
//Storyboard Layer 0 (Background)
//Storyboard Layer 1 (Fail)
//Storyboard Layer 2 (Pass)
//Storyboard Layer 3 (Foreground)
//Storyboard Layer 4 (Overlay)
//Storyboard Sound Samples

[TimingPoints]
18,560.747663551402,4,2,0,40,1,0
17961,-100,4,2,1,40,0,0
18522,-100,4,2,0,40,0,0
26793,-100,4,2,1,40,0,0
27214,-100,4,2,0,40,0,0
35765,-100,4,2,1,5,0,0
35905,-90.9090909090909,4,2,1,60,0,0
53849,-100,4,2,1,40,0,0
70952,-100,4,2,1,60,0,0
71232,-100,4,2,1,80,0,0
71513,-100,4,2,1,100,0,0
75158,-100,4,2,1,60,0,0
76279,-90.9090909090909,4,2,1,60,0,0
125625,-100,4,2,1,40,0,0
131162,-100,4,2,1,5,0,0
131232,-100,4,2,1,40,0,0
131303,-100,4,2,1,5,0,0
131373,-100,4,2,1,40,0,0
143008,-100,4,2,1,60,0,0
161513,-90.9090909090909,4,2,1,60,0,0
165648,-90.9090909090909,4,2,1,5,0,0
165718,-90.9090909090909,4,2,1,60,0,0
171326,-90.9090909090909,4,2,1,25,0,0
171606,-90.9090909090909,4,2,1,60,0,0
197961,-90.9090909090909,4,2,1,5,0,0

[Colours]
Combo1 : 170,188,232
Combo2 : 196,216,223

[HitObjects]
47,328,17961,5,0,3:2:0:0:
66,152,18522,2,0,B|163:139|109:191|224:173,1,160,2|2,0:2|0:2,0:0:0:0:
274,104,19363,2,0,P|284:50|287:12,1,80,2|2,0:2|0:2,0:0:0:0:
371,30,19924,2,0,P|448:37|472:131,1,160,2|0,0:2|3:2,0:0:0:0:
451,189,20765,6,0,L|523:219,2,53.3333333333333,2|2|2,0:2|0:2|0:2,0:0:0:0:
402,222,21326,2,0,L|330:252,2,53.3333333333333,2|2|2,0:2|0:2|0:2,0:0:0:0:
452,252,21887,1,2,0:2:0:0:
311,357,22447,6,0,P|237:330|137:312,1,160,2|0,0:2|0:2,0:0:0:0:
70,298,23289,2,0,P|64:330|71:349,2,40,2|2|2,0:2|0:2|0:2,0:0:0:0:
127,231,23849,1,2,0:2:0:0:
85,153,24130,1,2,0:2:0:0:
120,72,24410,2,0,P|213:84|253:27,1,160,2|0,0:2|0:2,0:0:0:0:
332,70,25251,2,0,P|377:58|416:71,1,79.9999999999999,0|0,0:2|0:2,0:0:0:0:
445,146,25812,2,0,L|526:158,2,53.3333333333333,2|2|2,0:2|0:2|0:2,0:0:0:0:
394,177,26373,2,0,P|390:227|386:268,1,79.9999999999999,2|2,0:2|0:2,0:0:0:0:
381,344,26933,5,4,0:3:0:0:
462,310,27214,1,2,0:2:0:0:
299,241,27775,2,0,L|308:296,2,40,2|2|2,0:2|0:2|0:2,0:0:0:0:
284,154,28335,1,2,0:2:0:0:
267,67,28616,1,2,0:2:0:0:
200,123,28896,2,0,P|137:126|69:40,1,160,2|0,0:2|0:2,0:0:0:0:
70,148,29737,6,0,P|64:202|55:245,1,79.9999999999999,2|2,0:2|0:2,0:0:0:0:
103,303,30298,2,0,P|128:294|151:280,1,53.3333333333333,2|2,0:2|0:2,0:0:0:0:
179,273,30578,2,0,P|204:339|207:371,2,79.9999999999999,2|2|2,0:2|0:2|0:2,0:0:0:0:
209,190,31419,6,0,B|256:178|256:178|313:218|313:218|372:208,1,160,2|0,0:2|0:2,0:0:0:0:
434,247,32260,2,0,L|427:286,2,40,2|2|2,0:2|0:2|0:2,0:0:0:0:
426,159,32821,1,2,0:2:0:0:
470,82,33102,1,2,0:2:0:0:
396,31,33382,2,0,L|222:66,1,160,2|0,0:2|0:2,0:0:0:0:
152,81,34223,1,0,0:2:0:0:
66,99,34503,1,2,0:2:0:0:
482,190,35905,6,0,B|506:242|506:242|466:365,2,176.000005371094,4|0|8,3:2|0:2|0:2,0:0:0:0:
438,103,37307,1,2,0:2:0:0:
340,103,37588,1,0,0:2:0:0:
289,185,37868,2,0,B|253:219|253:219|103:194,1,176.000005371094,0|0,3:2|3:2,0:0:0:0:
68,121,38709,2,0,P|47:95|38:53,2,58.6666684570313,2|2|0,3:2|0:2|0:2,0:0:0:0:
104,67,39270,2,0,P|107:33|130:-2,2,58.6666684570313,10|2|2,0:2|0:2|0:2,0:0:0:0:
167,53,39831,2,0,P|218:42|308:121,1,176.000005371094,0|4,0:2|3:2,0:0:0:0:
215,286,40952,5,0,0:2:0:0:
294,341,41232,2,0,P|298:357|293:388,2,44.0000013427734,2|2|8,0:2|0:2|0:2,0:0:0:0:
328,250,41793,2,0,L|398:272,1,44.0000013427734,0|0,3:2|3:2,0:0:0:0:
415,279,42074,1,2,0:2:0:0:
475,204,42354,1,2,0:2:0:0:
406,135,42634,5,0,3:2:0:0:
406,135,42775,1,0,3:2:0:0:
268,168,43195,1,0,3:2:0:0:
268,168,43336,1,0,3:2:0:0:
140,98,43756,2,0,L|124:21,2,58.6666684570313,10|0|0,0:2|0:2|0:2,0:0:0:0:
95,145,44317,1,0,3:2:0:0:
22,209,44597,6,0,P|-2:269|107:308,1,176.000005371094,0|4,0:2|3:2,0:0:0:0:
270,320,45718,2,0,P|299:323|312:331,2,44.0000013427734,2|0|8,0:2|0:2|0:2,0:0:0:0:
196,382,46279,1,0,0:2:0:0:
177,286,46560,1,2,0:2:0:0:
252,225,46840,2,0,P|276:148|279:32,1,176.000005371094,0|2,3:2|0:0,0:0:0:0:
378,55,47681,2,0,P|376:26|357:-16,2,58.6666684570313,0|0|0,3:2|3:2|3:2,0:0:0:0:
438,79,48242,2,0,P|469:117|457:160,1,88.0000026855469,8|0,0:2|0:2,0:0:0:0:
392,219,48803,1,0,0:2:0:0:
449,296,49083,1,0,0:2:0:0:
402,380,49363,6,0,B|342:372|342:372|317:327|317:327|216:314,1,176.000005371094,4|0,3:2|0:2,0:0:0:0:
159,341,50204,2,0,L|144:395,2,44.0000013427734,0|0|10,3:2|0:2|0:2,0:0:0:0:
186,248,50765,1,0,0:2:0:0:
177,151,51046,2,0,L|103:149,1,44.0000013427734,2|0,3:2|0:2,0:0:0:0:
108,108,51326,2,0,L|290:89,1,176.000005371094,0|0,3:2|3:2,0:0:0:0:
356,18,52167,1,4,0:2:0:0:
438,68,52447,1,0,0:2:0:0:
415,162,52728,2,0,L|486:177,2,58.6666684570313,8|2|4,0:2|0:3|0:3,0:0:0:0:
370,209,53289,1,2,0:1:0:0:
277,181,53569,2,0,L|156:193,1,88.0000026855469,2|4,0:3|3:2,0:0:0:0:
46,58,54410,5,2,0:1:0:0:
208,39,54971,1,2,0:1:0:0:
208,39,55251,1,2,0:1:0:0:
368,38,55812,1,2,0:1:0:0:
441,86,56092,6,0,L|427:174,2,53.3333333333333,2|0|0,0:2|0:0|0:0,0:0:0:0:
477,115,56653,2,0,L|463:203,2,53.3333333333333,2|0|0,0:2|0:0|0:0,0:0:0:0:
509,148,57214,2,0,B|521:199|521:199|476:260|476:260|489:326,1,160,2|2,0:2|0:1,0:0:0:0:
482,291,58335,5,2,0:2:0:0:
306,271,58896,1,2,0:1:0:0:
135,254,59457,1,2,0:1:0:0:
135,254,59737,1,2,0:1:0:0:
211,95,60298,1,2,0:1:0:0:
133,52,60578,6,0,P|77:34|63:25,2,53.3333333333333,2|0|0,0:2|0:0|0:0,0:0:0:0:
97,82,61139,2,0,P|44:108|28:112,2,53.3333333333333,2|0|0,0:1|0:0|0:0,0:0:0:0:
97,129,61700,2,0,P|76:196|4:289,1,160,2|2,0:2|0:1,0:0:0:0:
25,269,62821,5,2,0:1:0:0:
201,269,63382,1,2,0:1:0:0:
253,104,63943,1,2,0:1:0:0:
253,104,64223,1,2,0:1:0:0:
427,78,64784,1,2,0:1:0:0:
439,164,65064,6,0,L|509:144,2,53.3333333333333,2|0|0,0:2|0:0|0:0,0:0:0:0:
452,209,65625,2,0,L|522:229,2,53.3333333333333,2|0|0,0:1|0:0|0:0,0:0:0:0:
434,252,66186,2,0,B|415:278|415:278|430:362,2,80,2|0|0,0:1|0:0|0:0,0:0:0:0:
434,252,67307,5,2,0:1:0:0:
337,104,67868,1,2,0:1:0:0:
167,135,68429,1,2,0:1:0:0:
167,135,68709,1,2,0:1:0:0:
115,304,69270,1,2,0:1:0:0:
202,314,69550,6,0,P|218:351|210:384,2,53.3333333333333,2|0|0,0:2|0:0|0:0,0:0:0:0:
246,298,70111,2,0,P|283:312|301:341,2,53.3333333333333,2|0|0,0:2|0:0|0:0,0:0:0:0:
235,252,70672,5,4,3:2:0:0:
203,170,70952,1,4,3:2:0:0:
250,96,71232,1,4,3:2:0:0:
181,41,71513,1,4,3:2:0:0:
278,0,71793,5,4,0:2:0:0:
477,381,75158,6,0,L|479:337,1,40,0|0,3:2|0:0,0:0:0:0:
479,293,75438,5,4,3:2:0:0:
406,243,75718,1,4,3:2:0:0:
319,223,75999,1,4,3:2:0:0:
233,241,76279,6,0,B|166:263|217:300|124:326,1,132.00000402832,4|0,3:2|0:2,0:0:0:0:
101,351,76840,1,0,0:2:0:0:
37,290,77120,1,0,0:2:0:0:
86,216,77401,1,8,0:2:0:0:
22,155,77681,1,0,0:2:0:0:
63,77,77961,2,0,L|214:89,1,132.00000402832,0|0,0:2|0:2,0:0:0:0:
222,122,78522,2,0,B|284:102|284:102|322:142|322:142,1,88.000002685547,0|0,3:2|0:0,0:0:0:0:
374,165,79083,1,2,3:2:0:0:
374,165,79223,2,0,B|402:153|402:153|406:54,1,88.000002685547,2|0,3:1|0:2,0:0:0:0:
403,51,79644,5,10,0:2:0:0:
492,72,79924,1,0,3:2:0:0:
495,159,80204,1,2,3:2:0:0:
499,247,80485,1,0,3:2:0:0:
419,283,80765,6,0,B|366:287|366:287|337:110,1,220.000006713867,6|0,3:2|0:2,0:0:0:0:
374,95,81606,2,0,L|437:90,2,44.0000013427735,2|0|8,0:2|0:2|0:2,0:0:0:0:
300,46,82167,2,0,L|278:-2,1,44.0000013427735,0|0,0:2|0:2,0:0:0:0:
237,1,82447,2,0,L|215:49,1,44.0000013427735,2|2,0:2|0:2,0:0:0:0:
179,61,82728,2,0,L|76:55,1,88.000002685547,0|0,0:2|0:0,0:0:0:0:
35,123,83289,2,0,L|43:189,1,44.0000013427735,0|2,0:2|0:2,0:0:0:0:
75,192,83569,2,0,L|67:258,1,44.0000013427735,2|0,0:2|0:2,0:0:0:0:
33,260,83849,2,0,L|41:326,1,44.0000013427735,0|0,0:2|0:2,0:0:0:0:
77,323,84130,1,10,0:2:0:0:
147,271,84410,5,0,3:2:0:0:
234,263,84690,1,2,3:2:0:0:
321,256,84971,1,2,3:2:0:0:
364,332,85251,6,0,B|402:318|402:318|414:247,2,88.000002685547,4|0|0,3:2|0:0|0:2,0:0:0:0:
418,164,86373,2,0,L|527:189,2,88.000002685547,8|0|2,0:2|0:2|0:2,0:0:0:0:
352,100,87214,2,0,L|179:137,1,176.000005371094,0|0,3:2|0:2,0:0:0:0:
101,96,88055,2,0,P|89:43|99:-4,2,88.000002685547,2|0|10,3:2|0:2|0:2,0:0:0:0:
179,136,88896,1,2,3:2:0:0:
117,198,89176,1,2,0:1:0:0:
189,247,89457,1,2,0:2:0:0:
275,228,89737,6,0,P|361:242|398:342,1,176.000005371094,6|0,3:2|0:0,0:0:0:0:
319,349,90578,1,0,0:2:0:0:
237,315,90859,1,8,0:2:0:0:
161,359,91139,1,2,0:2:0:0:
81,321,91419,2,0,P|76:264|105:143,1,176.000005371094,0|2,0:2|0:2,0:0:0:0:
158,81,92260,1,2,0:3:0:0:
326,31,92821,1,0,0:0:0:0:
405,69,93102,2,0,L|397:138,1,44.0000013427735,8|0,0:2|0:2,0:0:0:0:
394,156,93382,5,6,3:2:0:0:
329,215,93662,1,4,3:2:0:0:
242,198,93943,1,6,3:2:0:0:
181,261,94223,6,0,B|175:323|175:323|256:348,1,132.00000402832,4|0,3:2|0:2,0:0:0:0:
282,327,94784,1,0,0:2:0:0:
363,358,95064,1,2,0:2:0:0:
450,344,95345,1,8,0:2:0:0:
506,276,95625,1,2,0:2:0:0:
491,189,95905,2,0,L|329:162,1,132.00000402832,0|0,0:2|0:2,0:0:0:0:
335,203,96466,2,0,B|276:210|276:210|258:179,1,88.000002685547,0|0,3:2|0:0,0:0:0:0:
234,101,97027,1,0,3:2:0:0:
234,101,97167,2,0,B|163:78|163:78|138:96,1,88.000002685547,0|0,3:2|3:2,0:0:0:0:
121,117,97588,5,6,3:2:0:0:
162,194,97868,1,6,3:2:0:0:
129,275,98148,1,6,3:2:0:0:
188,340,98429,1,6,3:2:0:0:
258,178,98989,6,0,B|282:175|282:175|311:188|311:188|347:183,1,88.000002685547,2|8,3:2|0:2,0:0:0:0:
374,153,99410,2,0,L|389:98,2,44.0000013427735,0|2|0,0:2|0:2|0:2,0:0:0:0:
403,186,99831,1,8,0:2:0:0:
460,252,100111,2,0,L|448:314,1,44.0000013427735,2|0,0:1|0:2,0:0:0:0:
407,292,100391,2,0,L|419:354,1,44.0000013427735,0|2,0:2|0:2,0:0:0:0:
429,376,100672,1,2,0:1:0:0:
294,263,101232,2,0,L|227:253,1,44.0000013427735,2|0,0:1|0:2,0:0:0:0:
215,282,101513,2,0,L|148:272,1,44.0000013427735,0|0,0:2|0:2,0:0:0:0:
148,237,101793,2,0,L|81:227,1,44.0000013427735,2|0,0:1|0:2,0:0:0:0:
67,254,102074,1,10,0:1:0:0:
45,168,102354,5,6,3:2:0:0:
27,81,102634,1,6,3:2:0:0:
114,63,102915,1,6,3:2:0:0:
132,150,103195,6,0,B|186:133|186:133|246:164|246:164|321:143,1,176.000005371094,6|2,3:2|0:2,0:0:0:0:
449,63,104317,2,0,L|542:93,2,88.000002685547,10|2|0,0:2|0:2|0:2,0:0:0:0:
386,0,105158,2,0,B|241:18|241:18|216:73,1,176.000005371094,0|0,3:2|0:2,0:0:0:0:
145,73,105999,1,2,3:2:0:0:
137,160,106279,1,0,0:2:0:0:
129,247,106560,1,8,0:2:0:0:
122,334,106840,2,0,B|232:362|204:289|303:306,1,176.000005371094,2|0,3:2|0:0,0:0:0:0:
361,354,107681,5,4,3:2:0:0:
471,217,108242,2,0,P|488:163|377:137,1,176.000005371094,0|8,0:2|0:2,0:0:0:0:
320,161,109083,1,0,0:2:0:0:
315,73,109363,1,0,0:2:0:0:
239,28,109644,1,0,0:2:0:0:
157,60,109924,6,0,B|143:117|143:117|182:159|182:159|144:203|144:203|185:244|185:244|151:334,1,293.333342285157,2|8,0:3|0:3,0:0:0:0:
121,342,111046,2,0,L|45:355,2,58.6666684570313,8|2|2,0:2|0:2|0:2,0:0:0:0:
163,382,111606,1,2,0:1:0:0:
285,255,112167,6,0,B|441:240|441:240|451:212,1,176.000005371094,6|2,3:2|0:2,0:0:0:0:
449,133,113008,2,0,L|509:140,2,44.0000013427735,0|0|8,3:2|0:2|0:2,0:0:0:0:
380,77,113569,2,0,L|324:73,1,44.0000013427735,0|0,3:2|3:2,0:0:0:0:
318,33,113849,1,2,0:2:0:0:
233,66,114130,2,0,P|155:96|128:6,1,176.000005371094,10|2,0:2|3:2,0:0:0:0:
30,33,114971,2,0,P|2:81|28:137,1,88.000002685547,2|2,3:2|0:2,0:0:0:0:
32,195,115532,2,0,P|42:238|47:280,2,58.6666684570313,8|2|2,0:2|0:2|0:2,0:0:0:0:
87,175,116092,1,10,0:2:0:0:
143,246,116373,2,0,B|214:265|214:265|223:312|223:312|308:334,1,176.000005371094,10|6,0:2|3:2,0:0:0:0:
260,144,117494,6,0,L|251:196,2,44.0000013427735,0|0|8,0:2|0:2|0:2,0:0:0:0:
217,66,118055,1,0,0:2:0:0:
281,6,118335,1,2,0:2:0:0:
357,49,118616,2,0,B|481:38|481:38|515:105,1,176.000005371094,0|2,0:2|0:2,0:0:0:0:
464,162,119457,2,0,L|400:146,2,58.6666684570313,0|0|0,3:2|3:2|3:2,0:0:0:0:
488,215,120018,2,0,P|513:213|544:192,2,44.0000013427735,8|0|0,3:2|0:0|0:2,0:0:0:0:
408,252,120578,1,0,0:2:0:0:
365,329,120859,1,0,0:2:0:0:
288,285,121139,6,0,B|186:262|246:346|102:314,1,176.000005371094,6|2,3:2|0:2,0:0:0:0:
47,274,121980,2,0,P|33:309|25:346,2,44.0000013427735,0|0|8,3:2|0:2|0:2,0:0:0:0:
116,219,122541,1,0,0:2:0:0:
115,131,122821,2,0,L|113:79,1,44.0000013427735,0|0,3:2|3:2,0:0:0:0:
87,51,123102,2,0,B|136:84|136:84|200:72|200:72|265:103,1,176.000005371094,0|2,3:2|3:2,0:0:0:0:
318,145,123943,1,0,3:2:0:0:
383,86,124223,1,2,3:2:0:0:
461,126,124503,2,0,P|503:111|524:83,2,58.6666684570313,2|8|4,1:3|0:3|0:3,0:0:0:0:
442,181,125064,1,10,0:2:0:0:
417,265,125345,1,0,3:2:0:0:
396,350,125625,6,0,L|343:359,1,53.3333333333333,4|0,3:2|0:2,0:0:0:0:
294,327,125999,1,0,0:2:0:0:
294,327,126186,2,0,L|236:316,1,53.3333333333333,0|0,0:2|3:2,0:0:0:0:
187,312,126560,1,0,3:2:0:0:
187,312,126746,1,8,0:2:0:0:
164,226,127027,1,0,3:2:0:0:
244,191,127307,2,0,B|264:172|264:172|260:95,1,80,0|0,3:2|3:2,0:0:0:0:
229,37,127868,2,0,L|151:26,1,53.3333333333333,0|0,0:2|3:2,0:0:0:0:
127,62,128242,2,0,L|49:51,1,53.3333333333333,0|0,0:2|3:2,0:0:0:0:
36,229,128989,5,8,0:2:0:0:
36,229,129130,1,0,3:3:0:0:
251,170,129831,1,0,3:2:0:0:
338,179,130111,6,0,B|425:188|425:188|443:228,1,120,0|0,3:2|3:2,0:0:0:0:
475,241,130672,1,2,3:2:0:0:
440,321,130952,2,0,L|458:371,2,40,2|0|8,3:2|0:2|0:2,0:0:0:0:
352,312,131513,1,2,0:2:0:0:
264,312,131793,2,0,L|246:362,2,40,2|0|0,3:2|3:2|3:2,0:0:0:0:
305,234,132354,2,0,L|367:222,2,53.3333333333333,2|2|2,3:2|3:2|3:2,0:0:0:0:
260,195,132915,2,0,L|158:183,1,80,2|2,3:2|3:2,0:0:0:0:
93,193,133475,2,0,L|104:231,2,40,10|2|2,0:2|3:2|3:2,0:0:0:0:
10,162,134036,2,0,L|-1:200,2,40,10|2|2,0:2|3:2|3:2,0:0:0:0:
25,75,134597,5,2,3:2:0:0:
25,75,134784,2,0,L|111:68,1,53.3333333333333,0|0,3:2|3:2,0:0:0:0:
141,71,135158,2,0,L|194:66,1,53.3333333333333,0|0,3:2|3:2,0:0:0:0:
253,62,135532,1,0,3:2:0:0:
253,62,135718,1,8,0:2:0:0:
316,122,135999,1,0,3:2:0:0:
357,44,136279,2,0,L|449:28,1,80,0|0,3:2|3:2,0:0:0:0:
461,114,136840,2,0,L|539:130,2,53.3333333333333,0|0|0,0:2|3:2|0:2,0:0:0:0:
413,149,137401,2,0,B|409:243|486:209|452:322,1,160,0|8,3:2|0:2,0:0:0:0:
393,355,138242,2,0,L|345:345,1,40,2|2,0:3|3:2,0:0:0:0:
324,314,138522,2,0,L|284:322,2,40,8|8|0,0:2|0:2|3:2,0:0:0:0:
310,226,139083,6,0,L|299:151,2,53.3333333333333,0|0|0,3:2|0:0|0:2,0:0:0:0:
260,193,139644,2,0,L|268:153,2,40,2|2|2,3:2|3:2|3:2,0:0:0:0:
178,159,140204,2,0,B|144:126|144:126|3:146,1,160,10|2,0:2|3:2,0:0:0:0:
17,229,141046,1,8,0:2:0:0:
3,315,141326,1,0,3:2:0:0:
90,318,141606,1,0,0:0:0:0:
178,318,141887,2,0,L|166:231,2,53.3333333333333,0|0|0,3:2|0:2|0:2,0:0:0:0:
218,359,142447,2,0,B|251:347|251:347|276:359|276:359|296:341|296:341|351:338,1,120,8|8,0:2|0:2,0:0:0:0:
367,372,143008,2,0,L|478:387,1,80,0|0,3:2|0:0,0:0:0:0:
475,302,143569,5,0,3:2:0:0:
475,302,143756,2,0,L|485:208,1,53.3333333333333,0|0,3:2|3:2,0:0:0:0:
456,201,144130,2,0,L|446:107,1,53.3333333333333,0|0,3:2|3:2,0:0:0:0:
489,104,144503,1,0,3:2:0:0:
489,104,144690,2,0,B|507:89|507:89|504:6,1,80,12|0,0:2|3:2,0:0:0:0:
417,41,145251,1,4,3:2:0:0:
329,48,145532,1,4,0:2:0:0:
241,56,145812,6,0,L|219:-1,2,53.3333333333333,0|2|10,3:2|0:3|0:2,0:0:0:0:
202,101,146373,2,0,L|180:158,2,53.3333333333333,2|4|4,1:3|0:3|2:3,0:0:0:0:
143,94,146933,1,4,1:3:0:0:
241,240,147494,1,0,3:2:0:0:
248,327,147775,1,0,0:2:0:0:
169,365,148055,6,0,L|66:351,1,80,2|2,3:2|0:2,0:0:0:0:
58,332,148475,1,2,0:1:0:0:
58,332,148616,2,0,P|18:326|-10:339,2,40,2|2|2,3:2|0:2|0:1,0:0:0:0:
96,253,149176,2,0,L|84:199,1,40,2|2,3:2|0:2,0:0:0:0:
46,195,149457,2,0,L|58:141,1,40,2|2,0:2|0:1,0:0:0:0:
67,113,149737,1,2,3:2:0:0:
225,36,150298,6,0,L|284:19,2,40,2|4|4,3:2|0:3|0:3,0:0:0:0:
181,112,150859,1,0,3:2:0:0:
251,164,151139,1,2,0:1:0:0:
315,104,151419,2,0,L|376:86,2,40,8|8|8,0:3|0:3|0:3,0:0:0:0:
351,184,151980,2,0,L|412:166,2,40,4|4|4,0:3|0:3|0:3,0:0:0:0:
383,264,152541,6,0,L|410:361,2,53.3333333333333,4|0|0,3:2|0:2|0:2,0:0:0:0:
332,295,153102,2,0,L|305:392,2,53.3333333333333,0|0|2,3:2|0:2|0:1,0:0:0:0:
278,270,153662,2,0,P|266:226|251:150,1,120,0|0,3:2|0:0,0:0:0:0:
245,109,154223,1,0,3:2:0:0:
176,54,154503,1,2,0:1:0:0:
97,93,154784,2,0,L|8:73,2,53.3333333333333,0|0|2,3:2|0:2|0:1,0:0:0:0:
123,145,155345,2,0,P|137:213|146:253,1,80,0|2,3:2|0:1,0:0:0:0:
104,303,155905,1,0,3:2:0:0:
104,303,156046,1,0,3:2:0:0:
219,366,156466,1,0,3:2:0:0:
380,282,157027,6,0,L|456:296,2,53.3333333333333,2|0|0,3:2|0:2|0:0,0:0:0:0:
425,243,157588,2,0,L|501:257,2,53.3333333333333,2|0|0,3:2|0:2|0:2,0:0:0:0:
397,190,158148,2,0,P|409:93|346:40,1,160,2|2,3:2|3:1,0:0:0:0:
287,22,158989,1,0,3:2:0:0:
227,87,159270,6,0,P|190:84|161:69,2,53.3333333333333,0|8|8,3:2|0:2|0:2,0:0:0:0:
190,133,159831,2,0,P|161:157|130:166,2,53.3333333333333,0|0|8,3:0|3:2|0:2,0:0:0:0:
202,190,160391,2,0,P|199:226|178:272,2,53.3333333333333,8|2|2,0:2|0:3|0:3,0:0:0:0:
260,197,160952,2,0,P|333:187|361:229,1,120,10|0,0:2|0:2,0:0:0:0:
404,172,161513,6,0,L|372:365,1,176.000005371094,4|2,3:2|0:2,0:0:0:0:
202,308,162634,2,0,B|178:330|178:330|204:412,2,88.000002685547,10|2|2,0:2|3:2|0:2,0:0:0:0:
284,340,163475,1,0,3:2:0:0:
274,256,163756,6,0,L|292:165,1,58.6666684570313,2|0,0:2|0:2,0:0:0:0:
299,138,164130,1,0,0:2:0:0:
299,138,164317,2,0,L|317:47,1,58.6666684570313,2|0,3:2|0:2,0:0:0:0:
318,20,164690,1,0,0:2:0:0:
318,20,164877,2,0,L|227:38,2,88.000002685547,10|0|0,0:2|0:2|0:2,0:0:0:0:
405,9,165718,1,0,3:0:0:0:
476,60,165999,6,0,B|499:105|499:105|459:241,1,176.000005371094,4|2,3:2|0:2,0:0:0:0:
278,210,167120,1,10,0:2:0:0:
227,140,167401,1,0,0:2:0:0:
144,167,167681,1,2,0:2:0:0:
144,255,167961,1,0,0:2:0:0:
227,281,168242,6,0,B|277:300|277:300|311:354|311:354|387:378,1,176.000005371094,2|2,0:2|3:2,0:0:0:0:
407,329,168989,2,0,L|425:253,1,58.6666684570313,0|0,0:2|0:2,0:0:0:0:
449,220,169363,2,0,L|531:208,2,58.6666684570313,10|2|2,0:2|0:1|0:1,0:0:0:0:
436,162,169924,2,0,L|471:108,2,44.0000013427735,2|2|2,0:2|0:2|0:2,0:0:0:0:
358,119,170485,6,0,B|318:135|297:124|297:124|271:129|254:152|254:152|222:131|172:151,1,176.000005371094,2|2,0:2|0:2,0:0:0:0:
256,192,171606,12,10,173849,3:2:0:0:
473,145,174971,6,0,L|346:131,1,88.000002685547,6|0,3:2|0:0,0:0:0:0:
339,60,175532,2,0,L|251:69,1,88.000002685547,2|0,0:2|0:0,0:0:0:0:
167,45,176092,2,0,L|142:143,1,88.000002685547,10|0,0:2|0:2,0:0:0:0:
71,178,176653,5,10,0:2:0:0:
71,178,176840,2,0,B|51:206|51:206|86:312,1,117.333336914063,8|10,0:3|0:2,0:0:0:0:
95,340,177401,1,4,0:3:0:0:
206,301,177775,6,0,L|195:370,2,58.6666684570313,12|12|8,3:2|0:3|0:3,0:0:0:0:
263,313,178335,2,0,L|274:382,2,58.6666684570313,0|4|4,3:2|0:3|0:3,0:0:0:0:
303,269,178896,1,8,0:3:0:0:
259,192,179176,1,4,0:3:0:0:
287,108,179457,6,0,L|300:3,1,88.000002685547,0|0,3:2|0:2,0:0:0:0:
385,24,180018,2,0,L|374:111,1,88.000002685547,0|0,0:2|0:2,0:0:0:0:
457,137,180578,2,0,B|509:179|509:179|483:258,1,132.00000402832,12|0,0:2|0:0,0:0:0:0:
471,281,181139,1,2,0:2:0:0:
442,364,181419,1,0,0:2:0:0:
378,303,181700,6,0,B|359:290|336:292|336:292|316:342|236:339,1,132.00000402832,2|0,0:2|0:2,0:0:0:0:
222,333,182260,1,2,3:2:0:0:
143,373,182541,1,0,0:2:0:0:
88,303,182821,2,0,L|13:320,2,44.0000013427735,10|2|2,0:2|0:2|0:2,0:0:0:0:
126,223,183382,2,0,L|168:213,1,44.0000013427735,2|0,0:2|0:2,0:0:0:0:
211,201,183662,1,6,3:2:0:0:
154,133,183943,6,0,B|255:120|204:189|343:163,1,176.000005371094,6|0,3:2|0:0,0:0:0:0:
374,237,184784,2,0,L|449:217,1,44.0000013427735,0|0,0:2|0:2,0:0:0:0:
463,218,185064,1,10,0:2:0:0:
463,218,185204,1,0,0:2:0:0:
498,90,185625,2,0,L|511:48,2,44.0000013427735,2|0|0,0:2|0:2|3:2,0:0:0:0:
418,50,186186,5,8,0:2:0:0:
418,50,186326,2,0,P|356:30|299:25,1,88.000002685547,2|0,3:2|0:0,0:0:0:0:
293,28,186746,1,10,0:2:0:0:
293,28,186886,2,0,P|231:48|174:53,1,88.000002685547,0|0,0:0|0:0,0:0:0:0:
171,74,187307,2,0,L|146:11,2,58.6666684570313,2|2|8,1:3|0:3|0:3,0:0:0:0:
157,131,187868,2,0,B|126:153|126:153|130:194|130:194|177:219,1,132.00000402832,8|0,0:3|0:0,0:0:0:0:
215,196,188429,6,0,B|259:168|259:168|414:211,1,176.000005371094,4|0,0:2|0:2,0:0:0:0:
464,219,189270,1,0,0:2:0:0:
476,306,189550,2,0,L|527:324,2,44.0000013427735,10|0|2,0:2|0:2|0:2,0:0:0:0:
392,335,190111,2,0,L|291:352,1,88.000002685547,2|0,0:2|3:2,0:0:0:0:
243,286,190672,5,8,0:2:0:0:
243,286,190812,1,0,0:0:0:0:
112,305,191232,2,0,P|91:320|48:329,2,58.6666684570313,2|2|2,0:3|0:3|0:3,0:0:0:0:
86,251,191793,2,0,P|60:246|23:222,2,58.6666684570313,8|8|8,3:3|0:3|0:3,0:0:0:0:
100,193,192354,2,0,P|85:172|76:129,2,58.6666684570313,4|4|4,1:3|0:3|0:3,0:0:0:0:
158,184,192915,6,0,L|357:151,1,176.000005371094,4|4,3:2|0:3,0:0:0:0:
426,63,193849,1,4,0:3:0:0:
426,63,194036,2,0,P|493:80|505:128,1,88.000002685547,8|2,0:2|0:3,0:0:0:0:
466,173,194597,2,0,P|429:196|457:303,1,117.333336914063,12|8,0:3|0:2,0:0:0:0:
447,315,195158,1,4,3:3:0:0:
447,315,195345,1,4,3:3:0:0:
334,347,195718,6,0,P|268:359|261:351,2,58.6666684570313,2|2|8,3:3|1:3|0:3,0:0:0:0:
290,307,196279,2,0,P|235:270|235:259,2,58.6666684570313,0|0|4,1:0|1:3|0:3,0:0:0:0:
289,247,196840,1,0,1:3:0:0:
289,247,197027,2,0,P|273:181|274:167,1,58.6666684570313,4|4,0:3|1:3,0:0:0:0:
285,133,197401,1,0,3:2:0:0:
