osu file format v14

[General]
AudioFilename: audio.mp3
AudioLeadIn: 0
PreviewTime: 35835
Countdown: 0
SampleSet: Soft
StackLeniency: 0.4
Mode: 0
LetterboxInBreaks: 0
WidescreenStoryboard: 0

[Editor]
Bookmarks: 17961,35905,53849,71793,107681,125625,143569,161513,197401
DistanceSpacing: 0.6
BeatDivisor: 8
GridSize: 32
TimelineZoom: 2.700001

[Metadata]
Title:G.O.A.T.
TitleUnicode:G.O.A.T.
Artist:Polyphia
ArtistUnicode:Polyphia
Creator:Mir
Version:Myth
Source:
Tags:rhythm guitar bass drum solo rock metal technical New Levels New Yukiyo Devils goat instrumental
BeatmapID:2474770
BeatmapSetID:1187509

[Difficulty]
HPDrainRate:5
CircleSize:4
OverallDifficulty:8.5
ApproachRate:9
SliderMultiplier:3
SliderTickRate:1

[Events]
//Background and Video events
0,0,"cyber.jpg",0,0
//Break Periods
2,71993,74558
//Storyboard Layer 0 (Background)
//Storyboard Layer 1 (Fail)
//Storyboard Layer 2 (Pass)
//Storyboard Layer 3 (Foreground)
//Storyboard Layer 4 (Overlay)
//Storyboard Sound Samples

[TimingPoints]
18,560.747663551402,4,2,0,40,1,0
17961,-200,4,2,1,40,0,0
18522,-100,4,2,0,40,0,0
21887,-400,4,2,0,40,0,0
22447,-100,4,2,0,40,0,0
23008,-66.6666666666667,4,2,0,40,0,0
24410,-133.333333333333,4,2,0,40,0,0
26793,-133.333333333333,4,2,1,40,0,0
26933,-66.6666666666667,4,2,1,40,0,0
27214,-133.333333333333,4,2,0,40,0,0
30859,-100,4,2,0,40,0,0
31980,-133.333333333333,4,2,0,40,0,0
35765,-133.333333333333,4,2,1,5,0,0
35905,-100,4,2,1,60,0,0
39831,-400,4,2,1,60,0,0
40391,-100,4,2,1,60,0,0
44597,-200,4,2,1,60,0,0
45158,-100,4,2,1,60,0,0
53849,-133.333333333333,4,2,1,40,0,0
57775,-400,4,2,1,40,0,0
58335,-133.333333333333,4,2,1,40,0,0
66186,-400,4,2,1,40,0,0
66466,-400,4,2,1,33,0,0
66746,-400,4,2,1,26,0,0
67027,-400,4,2,1,20,0,0
67307,-133.333333333333,4,2,1,40,0,0
70672,-400,4,2,1,40,0,0
70952,-200,4,2,1,60,0,0
71232,-133.333333333333,4,2,1,80,0,0
71513,-100,4,2,1,100,0,0
75158,-100,4,2,1,60,0,0
79924,-125,4,2,1,60,0,0
80204,-166.666666666667,4,2,1,60,0,0
80485,-250,4,2,1,60,0,0
80765,-133.333333333333,4,2,1,60,0,0
81466,-100,4,2,1,60,0,0
89737,-133.333333333333,4,2,1,60,0,0
90578,-100,4,2,1,60,0,0
93382,-250,4,2,1,60,0,0
93662,-166.666666666667,4,2,1,60,0,0
93943,-125,4,2,1,60,0,0
94223,-100,4,2,1,60,0,0
97868,-125,4,2,1,60,0,0
98148,-166.666666666667,4,2,1,60,0,0
98429,-250,4,2,1,60,0,0
98989,-66.6666666666667,4,2,1,60,0,0
100672,-133.333333333333,4,2,1,60,0,0
102354,-250,4,2,1,60,0,0
102634,-166.666666666667,4,2,1,60,0,0
102915,-125,4,2,1,60,0,0
103195,-100,4,2,1,60,0,0
106840,-133.333333333333,4,2,1,60,0,0
107681,-100,4,2,1,60,0,0
108242,-133.333333333333,4,2,1,60,0,0
111606,-400,4,2,1,60,0,0
112167,-100,4,2,1,60,0,0
116933,-200,4,2,1,60,0,0
117214,-100,4,2,1,60,0,0
125625,-100,4,2,1,40,0,0
128429,-200,4,2,1,40,0,0
130111,-100,4,2,1,40,0,0
131162,-100,4,2,1,5,0,0
131232,-100,4,2,1,40,0,0
131303,-100,4,2,1,5,0,0
131373,-100,4,2,1,40,0,0
143008,-133.333333333333,4,2,1,60,0,0
144690,-100,4,2,1,60,0,0
158148,-66.6666666666667,4,2,1,60,0,0
158989,-100,4,2,1,60,0,0
160952,-133.333333333333,4,2,1,60,0,0
165648,-133.333333333333,4,2,1,5,0,0
165718,-133.333333333333,4,2,1,60,0,0
167120,-100,4,2,1,60,0,0
171326,-100,4,2,1,25,0,0
171606,-66.6666666666667,4,2,1,60,0,0
173849,-133.333333333333,4,2,1,60,0,0
180578,-100,4,2,1,60,0,0
181419,-400,4,2,1,60,0,0
181700,-100,4,2,1,60,0,0
197401,-400,4,2,1,60,0,0
197961,-400,4,2,1,5,0,0

[Colours]
Combo1 : 170,188,232
Combo2 : 196,216,223

[HitObjects]
54,262,17961,6,0,L|64:382,1,112.5,0|0,3:2|0:2,0:2:0:0:
64,375,18522,6,0,B|221:369|107:287|283:280,1,225,2|0,0:2|0:2,0:2:0:0:
272,298,19083,5,2,0:2:0:0:
345,361,19363,1,2,0:2:0:0:
368,269,19644,1,2,0:2:0:0:
345,361,19924,6,0,P|407:343|507:194,1,225,2|0,0:2|0:2,0:2:0:0:
503,142,20485,1,0,3:2:0:0:
120,136,20765,5,2,0:2:0:0:
267,178,20952,1,2,0:2:0:0:
348,56,21139,1,2,0:2:0:0:
118,250,21326,5,2,0:2:0:0:
251,175,21513,1,2,0:2:0:0:
250,23,21700,1,2,0:2:0:0:
228,324,21887,6,0,B|237:348|237:348|230:367|230:367|237:391,1,62.5,2|0,0:2|0:2,0:2:0:0:
235,383,22447,6,0,P|314:367|346:215,1,225,2|0,0:2|0:2,0:2:0:0:
375,160,23008,6,0,P|381:129|389:169,1,112.500004291535,0|0,0:2|0:2,0:2:0:0:
272,246,23289,5,2,0:2:0:0:
167,256,23429,1,2,0:2:0:0:
108,170,23569,1,2,0:2:0:0:
167,256,23849,5,2,0:2:0:0:
218,153,24130,1,2,0:2:0:0:
35,384,24410,6,0,B|-10:354|-10:354|37:226,1,168.750006437302,2|0,0:2|0:2,0:2:0:0:
51,125,24971,6,0,B|16:145|16:145|16:161,1,56.2500021457673,0|0,0:2|0:2,0:2:0:0:
94,196,25251,2,0,B|128:175|128:175|128:159,1,56.2500021457673,0|0,0:2|0:2,0:2:0:0:
122,79,25532,1,0,0:2:0:0:
198,331,25812,5,2,0:2:0:0:
444,281,25999,1,2,0:2:0:0:
396,190,26186,1,2,0:2:0:0:
309,242,26373,5,2,0:2:0:0:
309,242,26653,1,2,0:2:0:0:
359,376,26793,5,4,0:3:0:0:
359,376,26863,1,4,0:3:0:0:
359,376,26933,2,0,B|395:368|395:368|373:253,1,112.500004291535,4|0,0:3|0:2,0:2:0:0:
295,131,27214,6,0,L|311:258,1,112.500004291535,2|0,0:2|0:2,0:2:0:0:
310,243,27775,5,2,0:2:0:0:
390,194,27915,1,2,0:2:0:0:
479,204,28055,1,2,0:2:0:0:
390,194,28335,5,2,0:2:0:0:
411,281,28616,1,2,0:2:0:0:
106,39,28896,6,0,B|141:14|141:14|282:57,1,168.750006437302,2|0,0:2|0:2,0:2:0:0:
342,83,29457,1,0,0:2:0:0:
210,202,29737,6,0,L|155:192,2,37.5000014305115,2|0|0,0:2|0:2|0:2,0:2:0:0:
295,221,30018,2,0,L|350:231,2,37.5000014305115,2|0|0,0:2|0:2|0:2,0:2:0:0:
241,282,30298,5,2,0:2:0:0:
226,316,30392,1,2,0:2:0:0:
231,279,30485,1,2,0:2:0:0:
268,318,30578,5,2,0:2:0:0:
277,321,30648,1,2,0:2:0:0:
287,325,30718,1,2,0:2:0:0:
297,328,30789,1,2,0:2:0:0:
305,331,30859,6,0,B|362:325|362:325|382:283,1,75,2|0,0:2|0:2,0:2:0:0:
512,362,31139,2,0,B|455:368|455:368|435:410,1,75,2|0,0:2|0:2,0:2:0:0:
0,180,31419,6,0,B|65:158|65:158|139:210|139:210|220:176,1,225,2|0,0:2|0:2,0:2:0:0:
222,112,31980,2,0,L|228:66,2,28.1250010728836,0|0|0,0:2|0:2|0:2,0:2:0:0:
171,352,32260,5,2,0:2:0:0:
113,290,32401,1,2,0:2:0:0:
195,270,32541,1,2,0:2:0:0:
171,352,32821,5,2,0:2:0:0:
136,205,33102,1,2,0:2:0:0:
480,334,33382,6,0,B|412:335|412:335|387:303|387:303|300:303,1,168.750006437302,2|0,0:2|0:2,0:2:0:0:
327,303,33943,2,0,L|315:377,1,56.2500021457673,0|0,0:2|0:2,0:2:0:0:
445,199,34223,2,0,L|457:273,1,56.2500021457673,0|0,0:2|0:2,0:2:0:0:
355,77,34503,1,2,0:2:0:0:
256,192,35064,12,2,35765,0:2:0:0:
500,50,35905,6,0,B|350:31|446:154|248:97,1,225,4|0,3:2|0:2,0:2:0:0:
132,166,36466,2,0,B|104:203|58:197|58:197|17:111|107:23,1,225,0|0,0:2|0:2,0:2:0:0:
151,26,37027,6,0,P|190:34|208:83,1,75,8|0,0:2|0:2,0:2:0:0:
314,239,37307,2,0,P|334:209|356:202,2,37.5,2|2|0,0:2|0:2|0:2,0:2:0:0:
132,166,37588,2,0,P|153:200|132:246,1,75,0|0,0:2|0:2,0:2:0:0:
316,374,37868,6,0,P|363:331|529:306,1,225,0|0,3:2|0:2,0:2:0:0:
512,329,38429,1,0,3:2:0:0:
362,18,38709,5,2,3:2:0:0:
207,205,38896,1,2,0:2:0:0:
463,258,39083,1,0,0:2:0:0:
463,258,39176,1,0,0:2:0:0:
463,258,39270,5,10,0:2:0:0:
111,181,39457,1,2,0:2:0:0:
300,108,39644,1,2,0:2:0:0:
87,303,39831,6,0,B|93:334|81:332|83:358,1,56.25,0|0,0:2|0:2,0:2:0:0:
84,359,40391,6,0,P|162:360|200:211,1,225,4|0,3:2|0:2,0:2:0:0:
43,94,40952,2,0,P|116:106|146:110,1,75,0|0,0:2|0:2,0:2:0:0:
454,91,41232,5,2,0:2:0:0:
326,47,41373,1,2,0:2:0:0:
351,179,41513,2,0,L|358:283,1,75,8|0,0:2|0:2,0:2:0:0:
231,127,41793,5,0,3:2:0:0:
231,127,41933,1,0,3:2:0:0:
385,267,42074,2,0,L|378:371,1,75,2|0,0:2|0:2,0:2:0:0:
231,127,42354,2,0,B|202:118|202:118|211:44,1,75,2|0,0:2|0:2,0:2:0:0:
464,243,42634,5,0,3:2:0:0:
212,284,42775,1,0,3:2:0:0:
204,285,42845,1,0,3:2:0:0:
196,286,42915,1,2,0:2:0:0:
72,70,43195,5,0,3:2:0:0:
322,100,43335,1,0,3:2:0:0:
330,101,43405,1,0,3:2:0:0:
339,102,43475,2,0,L|351:22,1,75,2|0,0:2|0:2,0:2:0:0:
110,346,43756,5,10,0:2:0:0:
358,247,43943,1,0,0:2:0:0:
149,82,44130,1,0,0:2:0:0:
204,216,44317,1,0,3:2:0:0:
204,216,44597,6,0,B|236:242|236:242|226:343,1,112.5,0|0,0:2|0:2,0:2:0:0:
228,312,45158,6,0,B|335:320|335:320|354:264,1,150,4|2,3:2|0:2,0:2:0:0:
245,62,45718,5,2,0:2:0:0:
155,71,45859,1,0,0:2:0:0:
65,80,45999,1,8,0:2:0:0:
319,111,46279,5,0,0:2:0:0:
78,263,46560,2,0,B|53:257|53:257|43:197,1,75,2|0,0:2|0:2,0:2:0:0:
412,208,46840,6,0,B|393:147|393:147|225:175,1,225,0|0,3:2|0:2,0:2:0:0:
205,248,47401,1,2,0:0:0:0:
205,248,47541,1,2,0:0:0:0:
398,293,47681,5,0,3:2:0:0:
431,73,47868,1,0,3:2:0:0:
468,349,48055,1,0,3:2:0:0:
328,240,48242,5,8,0:2:0:0:
350,220,48335,1,0,0:2:0:0:
378,209,48428,1,0,0:2:0:0:
408,208,48522,6,0,B|439:212|439:212|456:202|456:202|508:204,1,75,0|0,0:2|0:2,0:2:0:0:
257,31,48803,2,0,B|226:27|226:27|209:37|209:37|157:35,1,75,0|0,0:2|0:2,0:2:0:0:
324,145,49083,2,0,L|344:52,1,75,0|0,0:2|0:2,0:2:0:0:
18,327,49363,6,0,B|38:386|38:386|233:348,1,225,4|0,3:2|0:2,0:2:0:0:
235,272,49924,2,0,B|215:272|215:272|193:345,1,75,0|0,0:2|0:2,0:2:0:0:
463,334,50204,5,0,3:2:0:0:
352,317,50345,1,0,0:2:0:0:
422,229,50485,1,10,0:2:0:0:
352,317,50765,5,0,0:2:0:0:
318,210,51046,1,2,3:2:0:0:
318,210,51186,1,0,0:2:0:0:
386,125,51326,6,0,P|379:42|229:40,1,225,0|0,3:2|0:2,0:2:0:0:
48,83,51887,2,0,P|109:68|126:32,1,75,0|0,3:2|0:2,0:2:0:0:
84,285,52167,2,0,B|111:284|111:284|134:224,1,75,4|0,0:2|0:2,0:2:0:0:
0,150,52447,2,0,P|53:182|91:169,1,75,0|0,0:2|0:2,0:2:0:0:
391,120,52728,6,0,L|386:192,1,50,8|0,0:2|0:2,0:2:0:0:
151,372,52915,1,2,0:3:0:0:
151,372,53008,1,2,0:3:0:0:
151,372,53102,1,4,0:3:0:0:
407,299,53289,2,0,P|468:306|516:308,1,100,2|0,0:1|0:2,0:2:0:0:
282,200,53569,5,2,0:3:0:0:
280,208,53639,1,2,0:3:0:0:
279,216,53709,1,8,0:3:0:0:
278,224,53779,1,8,0:3:0:0:
277,232,53849,6,0,L|267:134,2,75.000002861023,4|0|0,3:2|0:2|0:2,0:2:0:0:
372,232,54410,2,0,B|438:240|411:195|491:203,1,112.500004291535,2|0,0:1|0:2,0:2:0:0:
488,109,54831,1,0,0:2:0:0:
488,109,54971,6,0,P|450:95|428:80,1,56.2500021457673,2|0,0:1|0:2,0:2:0:0:
356,62,55251,2,0,P|339:25|334:0,1,56.2500021457673,2|0,0:1|0:2,0:2:0:0:
370,149,55532,1,2,0:2:0:0:
370,149,55672,1,2,0:2:0:0:
370,149,55812,2,0,L|293:143,1,56.2500021457673,2|0,0:1|0:2,0:2:0:0:
79,117,56092,6,0,B|55:68|55:68|85:38,2,75.000002861023,2|0|0,0:2|0:2|0:2,0:2:0:0:
227,270,56653,2,0,B|251:221|251:221|221:191,2,75.000002861023,2|0|0,0:2|0:2|0:2,0:2:0:0:
109,364,57214,2,0,L|139:176,1,168.750006437302,2|0,0:2|0:2,0:2:0:0:
135,197,57775,6,0,L|78:212,1,56.25,2|0,0:1|0:2,0:2:0:0:
210,331,58335,6,0,P|276:348|335:239,1,168.750006437302,2|0,0:2|0:2,0:2:0:0:
344,257,58896,1,2,0:1:0:0:
242,103,59176,1,0,0:2:0:0:
242,103,59317,1,0,0:2:0:0:
242,103,59457,6,0,L|141:86,1,56.2500021457673,2|0,0:1|0:2,0:2:0:0:
156,19,59737,2,0,L|100:28,1,56.2500021457673,2|0,0:1|0:2,0:2:0:0:
129,159,60018,1,2,0:2:0:0:
129,159,60159,1,2,0:2:0:0:
129,159,60299,2,0,L|28:176,1,56.2500021457673,2|0,0:1|0:2,0:2:0:0:
217,232,60578,5,2,0:2:0:0:
336,219,60765,1,0,0:2:0:0:
455,206,60952,1,0,0:2:0:0:
512,342,61139,5,2,0:1:0:0:
393,329,61326,1,0,0:2:0:0:
274,316,61513,1,0,0:2:0:0:
350,184,61700,6,0,L|374:384,1,168.750006437302,2|0,0:2|0:2,0:2:0:0:
370,351,62260,2,0,B|434:335|434:335|449:305|449:305|526:286,1,168.750006437302,2|0,0:1|0:2,0:2:0:0:
317,275,62821,6,0,L|129:262,1,168.750006437302,2|0,0:1|0:2,0:2:0:0:
71,343,63382,6,0,L|62:276,1,56.2500021457673,2|0,0:1|0:2,0:2:0:0:
127,182,63662,1,2,0:2:0:0:
127,182,63803,1,2,0:2:0:0:
127,182,63943,6,0,L|136:115,1,56.2500021457673,2|0,0:1|0:2,0:2:0:0:
48,123,64223,2,0,L|57:56,1,56.2500021457673,2|0,0:1|0:2,0:0:0:0:
202,67,64503,1,2,0:2:0:0:
202,67,64644,1,2,0:2:0:0:
202,67,64784,2,0,L|283:59,1,56.2500021457673,2|0,0:1|0:2,0:2:0:0:
498,71,65064,5,2,0:2:0:0:
385,71,65251,1,0,0:2:0:0:
329,169,65438,1,0,0:2:0:0:
384,263,65625,5,2,0:1:0:0:
328,360,65812,1,0,0:2:0:0:
215,360,65999,1,0,0:2:0:0:
156,265,66186,6,0,L|104:271,3,37.5,2|0|0|0,0:1|0:2|0:2|0:2,0:2:0:0:
81,346,67307,6,0,L|99:147,1,168.750006437302,2|0,0:1|0:2,0:2:0:0:
46,115,67868,1,2,0:1:0:0:
177,19,68148,5,2,0:2:0:0:
177,19,68289,1,2,0:2:0:0:
177,19,68429,2,0,L|253:34,1,56.2500021457673,2|0,0:1|0:2,0:2:0:0:
158,96,68709,2,0,L|234:111,1,56.2500021457673,2|0,0:1|0:2,0:2:0:0:
322,52,68989,5,2,0:2:0:0:
322,52,69130,1,2,0:2:0:0:
322,52,69270,2,0,L|307:128,1,56.2500021457673,2|0,0:1|0:2,0:2:0:0:
247,368,69550,5,2,0:2:0:0:
361,288,69737,1,0,0:2:0:0:
236,230,69924,1,0,0:2:0:0:
201,301,70111,5,2,0:2:0:0:
327,361,70298,1,0,0:2:0:0:
315,223,70485,1,0,0:2:0:0:
281,295,70672,6,0,L|274:322,1,18.75,4|0,3:2|0:2,0:2:0:0:
226,193,70952,2,0,L|235:231,1,37.5,4|0,3:2|0:2,0:2:0:0:
386,111,71232,2,0,L|367:183,1,56.2500021457673,4|0,3:2|0:2,0:2:0:0:
171,4,71513,2,0,L|189:76,1,75,4|0,3:2|0:2,0:2:0:0:
422,0,71793,5,4,3:2:0:0:
421,330,75158,5,0,3:2:0:0:
421,330,75298,1,0,3:2:0:0:
475,258,75438,6,0,P|382:250|368:262,1,75,4|0,3:2|0:2,0:2:0:0:
354,48,75718,2,0,P|282:108|281:126,1,75,4|0,3:2|0:2,0:2:0:0:
89,55,75999,2,0,P|81:148|93:162,1,75,4|0,3:2|0:2,0:2:0:0:
155,373,76279,6,0,P|252:371|285:226,1,225,4|0,3:2|0:2,0:2:0:0:
301,265,76840,6,0,P|266:287|206:276,1,75,0|0,0:2|0:2,0:2:0:0:
153,249,77120,2,0,P|131:213|142:153,1,75,0|0,0:2|0:2,0:2:0:0:
302,95,77401,2,0,P|300:132|279:163,1,75,8|0,0:2|0:2,0:2:0:0:
199,202,77681,2,0,P|161:200|130:179,1,75,0|0,0:2|0:2,0:2:0:0:
196,14,77961,2,0,P|187:104|136:31,1,225,0|0,0:2|0:2,0:2:0:0:
281,253,78522,6,0,B|314:295|314:295|538:237,1,225,0|0,3:2|0:2,0:2:0:0:
495,330,79083,5,2,3:2:0:0:
378,69,79223,2,0,B|333:98|333:98|366:236,1,150,2|0,3:1|0:2,0:2:0:0:
118,384,79644,6,0,B|93:376|93:376|98:292,1,75,10|0,0:2|0:2,0:2:0:0:
204,71,79924,2,0,B|229:79|229:79|224:163,1,60,0|0,3:2|0:2,0:2:0:0:
34,287,80204,2,0,B|30:277|30:277|58:256,1,44.999998626709,2|0,3:2|0:2,0:2:0:0:
288,161,80485,2,0,B|293:172|293:172|260:197,1,30,0|0,3:2|0:2,0:2:0:0:
177,238,80765,6,0,L|159:6,1,225.000008583069,6|0,3:2|0:2,0:2:0:0:
159,13,81466,1,0,0:2:0:0:
339,132,81606,5,2,0:2:0:0:
420,86,81746,1,0,0:2:0:0:
509,98,81887,2,0,P|517:135|487:183,1,75,8|0,0:2|0:2,0:2:0:0:
373,361,82167,5,0,0:2:0:0:
330,300,82307,1,0,0:2:0:0:
398,245,82447,1,2,0:2:0:0:
339,132,82588,1,2,0:2:0:0:
394,229,82728,6,0,B|323:242|323:242|288:312|288:312|214:325,1,225,0|0,0:2|0:2,0:2:0:0:
50,76,83289,5,0,0:2:0:0:
101,241,83429,1,2,0:2:0:0:
88,0,83569,5,2,0:2:0:0:
156,95,83709,1,0,0:2:0:0:
65,158,83849,1,0,0:2:0:0:
88,231,83989,1,0,0:2:0:0:
38,295,84130,1,10,0:2:0:0:
54,146,84270,1,0,0:2:0:0:
175,234,84410,6,0,L|302:252,1,75,0|0,3:2|0:2,0:2:0:0:
512,36,84690,2,0,L|437:46,1,75,2|0,3:2|0:2,0:2:0:0:
323,384,84971,2,0,L|337:280,1,75,2|0,3:2|0:2,0:2:0:0:
342,0,85251,6,0,B|263:25|263:25|300:201,1,225,4|0,3:2|0:2,0:2:0:0:
292,164,85812,2,0,L|419:182,1,75,0|0,0:2|0:2,0:2:0:0:
36,345,86303,5,0,0:2:0:0:
43,324,86373,2,0,P|107:310|127:332,1,75,8|0,0:2|0:2,0:2:0:0:
169,249,86653,2,0,P|224:284|222:314,1,75,0|0,0:2|0:2,0:2:0:0:
304,279,86933,2,0,P|316:294|317:313,2,37.5,2|2|2,0:2|0:2|0:2,0:2:0:0:
109,311,87214,6,0,P|81:232|127:173,2,150,0|2|0,3:2|0:2|0:2,0:2:0:0:
486,306,88055,6,0,L|370:283,1,75,2|0,3:2|0:2,0:2:0:0:
191,142,88335,2,0,L|307:165,1,75,0|0,0:2|0:2,0:2:0:0:
456,54,88616,2,0,L|468:-5,2,37.5,10|2|2,0:2|0:2|0:2,0:2:0:0:
434,142,88896,5,2,3:2:0:0:
434,142,89036,1,2,0:2:0:0:
327,75,89176,2,0,P|319:12|313:-14,1,75,2|0,0:1|0:2,0:2:0:0:
319,266,89457,2,0,P|311:329|305:355,1,75,2|0,0:2|0:2,0:2:0:0:
25,94,89737,6,0,B|101:74|188:108|115:167|209:198|317:161,1,281.250010728836,6|0,3:2|0:2,0:2:0:0:
419,330,90578,6,0,B|439:316|439:316|417:218,1,75,0|0,0:2|0:2,0:2:0:0:
319,266,90859,2,0,B|299:280|299:280|321:378,1,75,8|0,0:2|0:2,0:2:0:0:
500,254,91139,2,0,B|486:234|486:234|388:256,1,75,2|0,0:2|0:2,0:2:0:0:
217,333,91420,2,0,B|242:368|242:368|418:329,1,225,0|0,0:2|0:2,0:2:0:0:
502,338,91980,2,0,L|495:394,2,37.5,2|2|2,0:2|0:2|0:2,0:2:0:0:
413,169,92260,5,2,0:3:0:0:
411,161,92331,1,2,0:3:0:0:
410,153,92401,1,2,0:3:0:0:
481,106,92541,6,0,B|498:83|498:83|486:-12,2,112.5,2|0|0,0:2|0:2|0:2,0:2:0:0:
164,224,93102,5,8,0:2:0:0:
164,224,93242,1,0,0:2:0:0:
141,142,93382,6,0,L|178:138,1,30,6|2,3:2|0:2,0:2:0:0:
195,307,93662,2,0,L|147:312,1,44.999998626709,4|0,3:2|0:2,0:2:0:0:
214,63,93943,2,0,B|245:65|245:65|249:106,1,60,6|0,3:2|0:2,0:2:0:0:
110,384,94223,6,0,B|54:359|54:359|78:174,1,225,4|0,3:2|0:2,0:2:0:0:
13,122,94714,1,0,0:2:0:0:
24,133,94784,6,0,P|84:115|108:99,1,75,0|0,0:2|0:2,0:2:0:0:
167,67,95064,2,0,P|196:11|202:-16,1,75,2|0,0:2|0:2,0:2:0:0:
30,146,95345,2,0,P|85:175|113:181,1,75,8|0,0:2|0:2,0:2:0:0:
177,200,95625,2,0,P|237:182|261:166,1,75,2|0,0:2|0:2,0:2:0:0:
378,46,95905,2,0,P|341:0|333:97,1,225,0|0,0:2|0:2,0:2:0:0:
403,358,96466,6,0,B|461:353|461:353|492:189,1,225,0|0,3:2|0:2,0:2:0:0:
219,295,97027,5,0,3:2:0:0:
374,261,97167,2,0,L|389:182,1,75,0|2,3:2|0:2,0:2:0:0:
390,172,97447,1,0,3:2:0:0:
141,71,97588,6,0,L|238:62,1,75,6|0,3:2|0:2,0:2:0:0:
342,356,97868,2,0,L|257:348,1,60,6|0,3:2|0:2,0:2:0:0:
49,110,98148,2,0,L|96:149,1,44.999998626709,6|0,3:2|0:2,0:2:0:0:
208,383,98429,2,0,L|180:350,1,30,6|0,3:2|0:2,0:2:0:0:
188,359,98989,6,0,B|253:354|253:354|309:285|309:285|394:275,1,225.000008583069,2|8,3:2|0:2,0:2:0:0:
492,268,99410,5,0,0:2:0:0:
366,129,99550,1,2,0:2:0:0:
508,11,99690,1,0,0:2:0:0:
474,133,99831,6,0,L|316:111,1,112.500004291535,8|0,0:2|0:2,0:2:0:0:
31,120,100111,5,2,0:1:0:0:
71,104,100251,1,0,0:2:0:0:
129,149,100391,1,0,0:2:0:0:
239,103,100532,1,2,0:2:0:0:
304,274,100672,6,0,B|333:263|333:263|316:165,1,112.500004291535,2|0,0:1|0:2,0:2:0:0:
239,103,101232,5,2,0:1:0:0:
129,149,101373,1,0,0:2:0:0:
71,104,101513,1,0,0:2:0:0:
31,120,101653,1,0,0:2:0:0:
16,111,101793,5,2,0:1:0:0:
156,63,101933,1,0,0:2:0:0:
125,207,102074,1,10,0:1:0:0:
101,128,102214,1,0,0:2:0:0:
217,304,102354,6,0,L|211:341,1,30,6|0,3:2|0:2,0:2:0:0:
42,211,102634,2,0,L|49:260,1,44.999998626709,6|0,3:2|0:2,0:2:0:0:
338,113,102915,2,0,L|327:176,1,60,6|0,3:2|0:2,0:2:0:0:
25,81,103195,6,0,B|159:107|102:-5|253:17,1,225,6|0,3:2|0:2,0:2:0:0:
242,88,103756,2,0,P|196:90|177:59,1,75,2|0,0:2|0:2,0:2:0:0:
346,338,104246,5,0,0:2:0:0:
357,353,104317,2,0,P|380:303|369:268,1,75,10|0,0:2|0:2,0:2:0:0:
218,331,104597,2,0,P|249:375|285:383,1,75,2|0,0:2|0:2,0:2:0:0:
306,221,104877,2,0,P|251:226|226:253,1,75,0|0,0:2|0:2,0:2:0:0:
455,384,105158,6,0,P|478:314|472:209,2,150,0|2|0,3:2|0:2|0:2,0:2:0:0:
73,280,105999,6,0,P|109:272|172:265,1,75,2|0,3:2|0:2,0:2:0:0:
379,207,106279,2,0,P|343:215|280:222,1,75,0|0,0:2|0:2,0:2:0:0:
56,229,106560,2,0,P|93:231|155:240,1,75,8|0,0:2|0:2,0:2:0:0:
370,238,106840,2,0,P|334:236|243:42,1,281.250010728836,2|0,3:2|0:2,0:2:0:0:
46,89,107681,6,0,P|112:74|216:183,1,225,4|0,3:2|0:2,0:2:0:0:
98,384,108242,2,0,L|126:211,1,168.750006437302,0|0,0:2|0:2,0:2:0:0:
124,217,108803,5,8,0:2:0:0:
211,265,109083,1,0,0:2:0:0:
293,218,109363,1,0,0:2:0:0:
211,265,109644,6,0,L|219:343,1,56.2500021457673,0|0,0:2|0:2,0:2:0:0:
505,163,109924,5,2,0:3:0:0:
481,160,110018,1,4,0:3:0:0:
419,153,110111,5,2,0:3:0:0:
395,150,110205,1,4,0:3:0:0:
339,140,110298,5,2,0:3:0:0:
315,137,110392,1,4,0:3:0:0:
259,194,110485,5,8,0:3:0:0:
253,172,110578,1,4,0:3:0:0:
201,134,110672,5,8,0:3:0:0:
195,112,110765,1,4,0:3:0:0:
234,67,110859,5,8,0:3:0:0:
228,45,110952,1,4,0:3:0:0:
155,8,111046,5,8,0:2:0:0:
310,109,111232,1,2,0:2:0:0:
170,221,111419,1,2,0:2:0:0:
375,309,111606,6,0,B|400:314|400:314|405:319|405:319|433:324,1,56.25,2|0,0:1|0:2,0:2:0:0:
442,307,112167,6,0,B|381:296|381:296|326:358|326:358|188:333,1,225,6|0,3:2|0:2,0:2:0:0:
159,316,112728,2,0,P|193:397|230:388,1,75,2|0,0:2|0:2,0:2:0:0:
228,254,113008,5,0,3:2:0:0:
213,167,113148,1,0,0:2:0:0:
198,80,113289,1,8,0:2:0:0:
300,203,113569,5,0,3:2:0:0:
300,203,113709,1,0,3:2:0:0:
129,134,113849,2,0,L|67:145,2,37.5,2|2|2,0:2|0:2|0:2,0:2:0:0:
458,259,114130,6,0,B|511:245|511:245|477:70,1,225,10|0,0:2|0:2,0:2:0:0:
283,35,114690,6,0,L|371:15,1,75,2|0,3:2|0:2,0:2:0:0:
183,269,114971,2,0,L|271:289,1,75,2|0,3:2|0:2,0:2:0:0:
29,102,115251,1,2,0:2:0:0:
29,102,115391,1,2,0:2:0:0:
105,38,115532,5,8,0:2:0:0:
257,187,115718,1,2,0:2:0:0:
133,368,115905,1,2,0:2:0:0:
0,214,116092,6,0,B|31:206|31:206|43:215|43:215|88:206,1,75,10|0,0:2|0:2,0:2:0:0:
180,47,116373,2,0,L|152:293,1,225,10|0,0:2|0:2,0:2:0:0:
154,270,116933,6,0,L|147:164,1,75,6|0,3:2|0:2,0:2:0:0:
481,219,117494,5,0,0:2:0:0:
386,193,117634,1,0,0:2:0:0:
411,289,117775,1,8,0:2:0:0:
458,126,118055,6,0,P|455:92|451:32,1,75,0|0,0:2|0:2,0:2:0:0:
316,271,118335,2,0,P|318:304|323:365,1,75,2|0,0:2|0:2,0:2:0:0:
481,219,118616,6,0,B|403:220|403:220|353:167|353:167|263:170,1,225,0|0,0:2|0:2,0:2:0:0:
218,230,119176,1,2,0:2:0:0:
218,230,119317,1,2,0:2:0:0:
51,354,119457,5,0,3:2:0:0:
72,318,119550,1,2,0:2:0:0:
51,291,119644,1,0,3:2:0:0:
69,265,119737,1,2,0:2:0:0:
54,243,119831,6,0,L|44:161,1,50,0|0,3:2|0:2,0:2:0:0:
48,23,120018,5,8,3:2:0:0:
34,53,120111,1,0,0:2:0:0:
15,25,120204,1,0,0:2:0:0:
32,33,120298,6,0,L|98:18,2,50,0|0|0,0:2|0:2|0:2,0:2:0:0:
152,84,120578,6,0,B|95:98|95:98|95:124,1,75,0|0,0:2|0:2,0:2:0:0:
130,194,120859,2,0,B|186:179|186:179|186:153,1,75,0|0,0:2|0:2,0:2:0:0:
462,378,121139,6,0,B|323:387|399:283|238:306,1,225,6|0,3:2|0:2,0:2:0:0:
185,323,121700,2,0,P|228:346|281:289,1,75,2|0,0:2|0:2,0:2:0:0:
491,132,121980,5,0,3:2:0:0:
411,162,122120,1,0,0:2:0:0:
341,110,122260,1,8,0:2:0:0:
411,162,122541,6,0,P|418:198|431:256,1,75,0|0,0:2|0:2,0:2:0:0:
359,26,122821,1,0,3:2:0:0:
359,26,122961,1,0,3:2:0:0:
430,259,123102,6,0,B|339:247|339:247|315:215|315:215|197:198,1,225,0|0,3:2|0:2,0:2:0:0:
197,349,123662,6,0,B|221:346|221:346|239:283,1,75,2|0,3:2|0:2,0:2:0:0:
216,67,123943,2,0,B|192:70|192:70|174:133,1,75,0|0,3:2|0:2,0:2:0:0:
297,384,124223,2,0,B|319:374|319:374|320:309,1,75,2|0,3:2|0:2,0:2:0:0:
351,178,124503,5,2,1:3:0:0:
322,167,124597,1,2,0:3:0:0:
273,194,124690,5,8,0:3:0:0:
244,183,124784,1,8,0:3:0:0:
198,218,124877,5,4,0:3:0:0:
169,207,124971,1,4,0:3:0:0:
120,234,125064,6,0,L|28:247,1,75,10|0,0:2|0:2,0:2:0:0:
335,315,125345,2,0,L|409:304,1,75,0|0,3:2|0:2,0:2:0:0:
398,73,125625,5,4,3:2:0:0:
398,73,125812,1,0,0:2:0:0:
398,73,125999,1,0,0:2:0:0:
487,91,126186,5,0,0:2:0:0:
308,53,126373,1,0,3:2:0:0:
308,53,126560,1,0,3:2:0:0:
378,354,126746,6,0,B|431:334|431:334|396:230,1,150,8|0,0:2|3:2,0:2:0:0:
390,229,127120,1,0,3:2:0:0:
381,216,127214,1,0,3:2:0:0:
372,203,127307,2,0,L|277:218,1,75,0|0,3:2|0:2,0:2:0:0:
406,366,127588,2,0,L|501:351,1,75,0|0,3:2|0:2,0:2:0:0:
475,249,127868,5,0,0:2:0:0:
313,352,128055,1,0,3:2:0:0:
242,148,128242,1,0,0:2:0:0:
316,375,128429,6,0,B|292:346|292:346|194:363,1,100,0|0,3:2|0:2,0:2:0:0:
119,183,128989,5,8,0:2:0:0:
119,190,129060,1,0,3:3:0:0:
119,198,129130,1,0,3:3:0:0:
492,238,129831,6,0,L|487:276,1,37.5,0|0,3:2|0:2,0:2:0:0:
506,94,130111,6,0,B|415:90|472:154|353:144,1,150,0|2,3:2|0:1,0:2:0:0:
361,135,130532,1,0,3:2:0:0:
266,47,130672,5,2,3:2:0:0:
267,54,130742,1,0,3:2:0:0:
268,61,130812,1,2,3:2:0:0:
358,123,130952,1,2,3:2:0:0:
281,201,131092,6,0,L|211:186,1,37.5,0|0,0:2|0:2,0:2:0:0:
349,283,131232,2,0,L|419:268,1,37.5,8|0,0:2|0:2,0:2:0:0:
361,112,131373,5,0,0:2:0:0:
263,295,131513,5,2,0:2:0:0:
264,320,131606,1,2,0:2:0:0:
266,345,131700,1,2,0:2:0:0:
268,370,131793,5,2,3:2:0:0:
383,285,131933,1,0,3:2:0:0:
511,311,132074,2,0,L|497:384,1,75,0|0,3:2|0:2,0:2:0:0:
378,164,132354,5,2,3:2:0:0:
378,164,132541,1,2,3:2:0:0:
378,164,132728,1,2,3:2:0:0:
512,91,132915,6,0,B|495:76|495:76|429:83,1,75,2|0,3:2|0:2,0:2:0:0:
217,220,133195,2,0,B|234:235|234:235|300:228,1,75,2|0,3:2|0:2,0:2:0:0:
146,30,133475,5,10,0:2:0:0:
145,36,133546,1,2,3:2:0:0:
144,43,133616,1,2,3:2:0:0:
66,100,133756,5,2,3:2:0:0:
193,121,133896,1,2,3:2:0:0:
117,178,134036,5,10,0:2:0:0:
116,184,134107,1,2,3:2:0:0:
115,191,134177,1,2,3:2:0:0:
132,295,134317,5,2,3:2:0:0:
217,220,134457,1,2,3:2:0:0:
132,319,134597,5,2,3:2:0:0:
457,273,134784,1,0,3:2:0:0:
215,365,134971,1,0,3:2:0:0:
478,181,135158,5,0,3:2:0:0:
333,304,135345,1,0,3:2:0:0:
333,304,135532,1,0,3:2:0:0:
319,0,135718,6,0,B|279:38|279:38|314:152,1,150,8|0,0:2|3:2,0:2:0:0:
314,141,136092,1,0,3:2:0:0:
320,154,136186,1,0,3:2:0:0:
326,167,136279,2,0,L|415:153,1,75,0|0,3:2|0:2,0:2:0:0:
319,0,136560,2,0,L|230:14,1,75,0|0,3:2|0:2,0:2:0:0:
206,120,136840,5,0,0:2:0:0:
478,206,137027,1,0,3:2:0:0:
176,257,137214,1,0,0:2:0:0:
494,227,137401,6,0,B|529:307|464:371|464:371|434:353|413:293,1,225,0|0,3:2|0:2,0:2:0:0:
227,121,137961,5,8,0:2:0:0:
220,122,138032,1,8,0:2:0:0:
213,124,138102,1,2,0:3:0:0:
206,126,138172,1,2,0:3:0:0:
199,128,138242,1,2,0:3:0:0:
288,28,138382,5,2,3:2:0:0:
201,328,138522,1,8,0:2:0:0:
201,328,138662,1,8,0:2:0:0:
287,345,138803,2,0,P|290:310|244:265,1,75,0|0,3:2|0:2,0:2:0:0:
122,284,139083,5,0,3:2:0:0:
377,362,139270,1,0,0:0:0:0:
506,161,139457,1,0,0:2:0:0:
426,96,139644,5,2,3:2:0:0:
426,96,139784,1,2,3:2:0:0:
426,96,139924,2,0,L|415:190,1,75,2|0,3:2|0:2,0:2:0:0:
344,281,140204,5,10,0:2:0:0:
365,277,140298,1,2,0:2:0:0:
385,275,140391,1,2,0:2:0:0:
405,271,140485,1,2,0:2:0:0:
426,269,140578,1,2,0:2:0:0:
446,265,140672,1,2,0:2:0:0:
465,263,140765,6,0,B|496:279|496:279|479:369,1,75,2|0,3:2|0:2,0:2:0:0:
299,358,141046,2,0,L|286:255,1,75,8|0,0:2|0:2,0:2:0:0:
349,163,141326,5,0,3:2:0:0:
131,117,141513,1,0,0:2:0:0:
376,42,141700,1,0,0:2:0:0:
250,198,141887,5,0,3:2:0:0:
256,115,142074,1,0,0:2:0:0:
262,32,142260,1,0,0:2:0:0:
252,209,142447,5,8,0:2:0:0:
252,215,142518,1,8,0:2:0:0:
253,222,142588,1,8,0:3:0:0:
254,228,142658,1,8,0:3:0:0:
255,235,142728,1,8,0:3:0:0:
131,117,142868,5,8,0:2:0:0:
347,272,143008,6,0,B|235:257|307:331|165:310,1,168.750006437302,0|0,3:2|0:2,0:2:0:0:
118,279,143569,5,0,3:2:0:0:
320,369,143756,1,0,3:2:0:0:
426,184,143943,1,0,3:2:0:0:
100,274,144130,5,0,3:2:0:0:
227,99,144317,1,0,3:2:0:0:
227,99,144503,1,0,3:2:0:0:
269,243,144690,6,0,B|306:232|306:232|327:94,1,150,12|0,0:2|3:2,0:2:0:0:
333,111,145064,1,0,3:2:0:0:
343,100,145158,1,0,3:2:0:0:
354,90,145251,2,0,L|350:4,1,75,4|0,3:2|0:2,0:2:0:0:
261,261,145532,2,0,L|265:347,1,75,4|0,0:2|0:2,0:2:0:0:
92,139,145812,5,0,3:2:0:0:
430,206,145999,1,2,0:3:0:0:
430,206,146092,1,0,3:2:0:0:
430,206,146186,1,10,0:2:0:0:
141,353,146373,5,2,1:3:0:0:
122,330,146466,1,4,0:3:0:0:
120,301,146560,1,4,0:3:0:0:
141,273,146653,1,4,0:3:0:0:
156,249,146746,1,4,2:3:0:0:
151,219,146840,1,4,2:3:0:0:
129,194,146933,5,4,1:3:0:0:
121,204,147027,1,0,3:2:0:0:
512,384,147494,5,0,3:2:0:0:
512,384,147775,6,0,B|490:361|490:361|387:373,1,75,0|0,0:2|0:2,0:2:0:0:
347,372,148055,5,2,3:2:0:0:
347,363,148125,1,2,0:2:0:0:
348,355,148195,1,2,0:2:0:0:
349,346,148265,1,2,0:2:0:0:
349,338,148335,5,2,0:2:0:0:
433,281,148475,1,2,0:1:0:0:
445,190,148616,1,2,3:2:0:0:
341,132,148756,1,2,0:2:0:0:
304,38,148896,5,2,0:1:0:0:
473,17,149036,1,2,0:2:0:0:
341,132,149176,5,2,3:2:0:0:
333,134,149246,1,2,0:2:0:0:
325,136,149317,1,2,0:2:0:0:
317,138,149387,1,2,0:2:0:0:
310,140,149457,5,2,0:2:0:0:
423,111,149597,1,2,0:1:0:0:
228,155,149737,1,2,3:2:0:0:
0,384,150298,5,2,3:2:0:0:
5,300,150438,1,4,0:3:0:0:
12,302,150508,1,4,0:3:0:0:
19,304,150578,1,4,0:3:0:0:
397,375,150859,6,0,B|412:356|412:356|390:280,1,75,0|0,3:2|0:2,0:2:0:0:
228,235,151139,2,0,B|213:254|213:254|235:330,1,75,2|0,0:1|0:2,0:2:0:0:
437,215,151419,5,8,0:3:0:0:
428,213,151489,1,8,0:3:0:0:
420,212,151560,1,8,0:3:0:0:
411,211,151630,1,8,0:3:0:0:
403,210,151700,2,0,L|327:234,1,75,8|8,0:3|0:3,0:2:0:0:
261,383,151980,5,4,0:3:0:0:
266,381,152050,1,4,0:3:0:0:
272,379,152120,1,4,0:3:0:0:
250,307,152260,1,4,0:3:0:0:
231,236,152401,1,4,0:3:0:0:
385,347,152541,5,4,3:2:0:0:
139,298,152728,1,0,0:2:0:0:
413,335,152915,1,0,0:2:0:0:
173,136,153102,1,0,3:2:0:0:
283,256,153289,5,0,0:2:0:0:
283,256,153475,1,2,0:1:0:0:
445,182,153662,6,0,B|470:163|470:163|419:20,1,150,0|0,3:2|3:2,0:2:0:0:
415,49,154036,1,0,3:2:0:0:
399,47,154130,1,2,3:1:0:0:
384,45,154223,2,0,L|294:65,1,75,0|0,3:2|0:2,0:2:0:0:
439,194,154503,2,0,L|529:174,1,75,2|0,0:1|0:2,0:2:0:0:
509,276,154784,5,0,3:2:0:0:
351,169,154971,1,0,0:2:0:0:
181,193,155158,1,2,0:1:0:0:
76,325,155345,6,0,P|181:353|197:343,1,75,0|0,3:2|0:2,0:2:0:0:
228,355,155625,2,0,P|263:344|290:319,1,75,2|0,0:1|0:2,0:2:0:0:
208,121,155905,1,0,3:2:0:0:
208,121,155975,1,0,3:2:0:0:
208,121,156046,2,0,P|182:200|178:287,1,150,0|2,3:2|0:1,0:2:0:0:
176,266,156466,5,0,3:2:0:0:
97,188,156746,2,0,P|64:183|12:175,1,75,2|0,0:1|0:2,0:2:0:0:
298,303,157027,5,2,3:2:0:0:
341,219,157214,1,0,0:2:0:0:
304,137,157401,1,0,0:0:0:0:
360,65,157588,5,2,3:2:0:0:
397,147,157775,1,0,0:2:0:0:
256,213,157961,1,0,0:2:0:0:
494,337,158148,6,0,B|419:352|419:352|372:296|372:296|251:315,2,225.000008583069,2|0|2,3:2|3:2|3:1,0:2:0:0:
218,345,158989,2,0,P|205:311|219:277,1,75,0|0,3:2|0:2,0:2:0:0:
307,24,159270,5,0,3:2:0:0:
298,36,159363,1,8,0:2:0:0:
249,40,159457,5,8,0:2:0:0:
240,52,159550,1,8,0:2:0:0:
191,56,159644,5,8,0:2:0:0:
182,68,159737,1,8,0:2:0:0:
131,83,159831,5,0,3:0:0:0:
335,121,160018,1,0,3:2:0:0:
23,175,160204,1,8,0:2:0:0:
163,375,160391,5,8,0:2:0:0:
194,337,160485,1,4,0:3:0:0:
200,288,160578,1,2,0:3:0:0:
177,244,160672,1,2,0:3:0:0:
154,200,160765,1,2,0:3:0:0:
160,151,160859,1,4,0:3:0:0:
192,113,160952,6,0,P|217:197|180:283,1,168.750006437302,10|0,0:2|0:2,0:2:0:0:
512,369,161513,6,0,B|396:371|478:313|343:311,1,168.750006437302,4|0,3:2|0:2,0:2:0:0:
190,270,162074,2,0,B|305:272|223:214|358:212,1,168.750006437302,2|0,0:2|0:2,0:2:0:0:
149,366,162634,2,0,P|107:347|83:287,1,112.500004291535,10|2,0:2|3:2,0:2:0:0:
87,273,163008,1,2,0:2:0:0:
92,258,163102,1,2,0:2:0:0:
97,244,163195,1,2,0:2:0:0:
361,311,163475,1,0,3:2:0:0:
247,32,163756,5,2,0:2:0:0:
197,85,163849,1,0,0:2:0:0:
191,131,163943,1,0,0:2:0:0:
208,164,164036,1,0,0:2:0:0:
234,182,164130,1,0,0:2:0:0:
260,178,164223,1,0,0:2:0:0:
279,156,164317,6,0,P|285:141|271:113,2,37.5000014305115,2|0|0,3:2|0:2|0:2,0:2:0:0:
101,258,164597,5,0,0:2:0:0:
135,212,164690,1,0,0:2:0:0:
101,166,164784,1,0,0:2:0:0:
46,170,164877,6,0,P|23:243|25:280,1,112.500004291535,10|0,0:2|0:2,0:2:0:0:
105,295,165438,2,0,P|126:229|124:195,1,84.3750032186509,0|0,0:2|0:2,0:2:0:0:
126,201,165718,1,0,3:0:0:0:
309,379,165999,6,0,P|365:315|458:287,1,168.750006437302,4|0,3:2|0:2,0:2:0:0:
506,352,166560,1,2,0:2:0:0:
506,352,166700,1,2,0:2:0:0:
506,352,166840,1,2,0:2:0:0:
241,138,167120,6,0,P|213:92|234:44,1,75,10|0,0:2|0:2,0:2:0:0:
372,107,167401,2,0,P|346:154|294:160,1,75,0|0,0:2|0:2,0:2:0:0:
280,10,167681,2,0,P|333:8|364:50,1,75,2|0,0:2|0:2,0:2:0:0:
135,64,167961,2,0,P|147:11|196:-7,1,75,0|0,0:2|0:2,0:2:0:0:
365,247,168242,6,0,B|227:276|289:186|146:208,1,225,2|0,0:2|0:2,0:2:0:0:
92,267,168803,5,2,3:2:0:0:
328,161,168989,1,0,0:2:0:0:
135,64,169176,1,0,0:2:0:0:
262,361,169363,5,10,0:2:0:0:
246,281,169550,1,2,0:1:0:0:
230,201,169737,1,2,0:1:0:0:
173,341,169924,6,0,B|159:362|159:362|96:358,2,75,2|2|2,0:2|0:2|0:2,0:2:0:0:
436,356,170485,6,0,B|488:311|488:311|496:227|436:146,1,225,2|0,0:2|0:2,0:2:0:0:
368,139,171046,2,0,B|411:134|424:122|424:122|459:140|459:140|485:119|539:110,1,150,2|0,0:2|0:2,0:2:0:0:
32,28,171606,6,0,P|24:105|73:129,1,112.500004291535,10|0,3:2|0:2,0:2:0:0:
219,73,171887,5,8,0:2:0:0:
228,70,171957,1,8,0:2:0:0:
238,69,172027,1,8,0:2:0:0:
247,67,172097,1,8,0:2:0:0:
256,65,172167,6,0,L|427:97,1,150.000005722046,8|8,0:2|0:2,0:2:0:0:
477,225,172447,5,8,0:2:0:0:
466,181,172541,1,8,0:2:0:0:
422,192,172634,1,8,0:2:0:0:
433,236,172728,1,2,0:3:0:0:
407,109,172915,6,0,L|282:125,1,75.000002861023,2|0,3:1|0:2,0:2:0:0:
234,142,173102,5,8,0:2:0:0:
220,183,173195,1,0,3:2:0:0:
213,139,173289,1,8,0:2:0:0:
203,181,173382,1,0,3:2:0:0:
168,206,173475,5,4,0:3:0:0:
156,250,173569,1,4,0:3:0:0:
181,287,173662,1,4,0:3:0:0:
225,296,173756,1,8,0:2:0:0:
265,277,173849,6,0,B|413:273|303:368|494:358,1,225.000008583069,0|0,3:2|0:2,0:2:0:0:
473,343,174690,1,0,3:2:0:0:
104,355,174971,6,0,B|74:339|74:339|109:164,1,168.750006437302,6|0,3:2|0:2,0:2:0:0:
191,103,175532,2,0,B|134:89|134:89|94:127|94:127|24:110,1,168.750006437302,2|0,0:2|0:2,0:2:0:0:
189,190,176092,2,0,L|257:181,1,56.2500021457673,10|0,0:2|0:2,0:2:0:0:
204,19,176373,2,0,L|272:28,1,56.2500021457673,0|0,0:2|0:2,0:2:0:0:
468,120,176653,5,10,0:2:0:0:
340,187,176840,2,0,L|329:50,1,112.500004291535,8|0,0:3|3:2,0:2:0:0:
355,51,177214,5,10,0:2:0:0:
487,340,177401,2,0,L|497:205,1,112.500004291535,4|0,0:3|0:3,0:2:0:0:
412,206,177775,5,12,3:2:0:0:
378,190,177868,1,12,0:3:0:0:
340,187,177961,1,12,0:3:0:0:
304,196,178055,1,8,0:3:0:0:
274,218,178148,1,8,0:3:0:0:
252,248,178242,1,8,0:3:0:0:
219,320,178335,5,0,3:2:0:0:
197,350,178429,1,4,0:3:0:0:
166,371,178522,1,4,0:3:0:0:
130,381,178616,1,4,0:3:0:0:
93,377,178709,1,4,0:3:0:0:
59,362,178802,1,4,0:3:0:0:
44,284,178896,5,8,0:3:0:0:
62,270,178989,1,8,0:3:0:0:
80,257,179083,1,8,0:3:0:0:
117,183,179176,5,4,0:3:0:0:
99,169,179269,1,4,0:3:0:0:
81,156,179363,1,4,0:3:0:0:
73,78,179457,5,0,3:2:0:0:
162,276,179737,1,0,0:2:0:0:
276,91,180018,2,0,P|288:56|296:3,1,56.2500021457673,0|0,0:2|0:2,0:2:0:0:
209,13,180298,2,0,P|197:48|189:101,1,56.2500021457673,0|0,0:2|0:2,0:2:0:0:
337,152,180578,6,0,P|374:147|465:118,1,75,12|0,0:2|0:2,0:2:0:0:
477,380,180859,5,0,0:2:0:0:
477,350,180952,1,0,0:2:0:0:
463,323,181046,1,0,0:2:0:0:
439,304,181139,6,0,L|338:320,1,75,2|0,0:2|0:2,0:2:0:0:
344,360,181419,2,0,L|344:335,1,18.75,0|0,0:2|0:2,0:2:0:0:
61,286,181700,6,0,B|184:293|184:293|197:335|197:335,1,150,2|0,0:2|0:2,0:2:0:0:
191,318,182120,1,0,0:2:0:0:
446,223,182260,6,0,L|460:141,1,75,2|0,3:2|0:2,0:2:0:0:
199,126,182541,2,0,L|211:199,1,75,0|0,0:2|0:2,0:2:0:0:
443,41,182821,5,10,0:2:0:0:
346,95,182961,1,2,0:2:0:0:
267,36,183102,1,2,0:2:0:0:
222,50,183242,1,0,0:2:0:0:
141,19,183382,5,2,0:2:0:0:
141,19,183522,1,0,0:2:0:0:
338,113,183662,2,0,L|354:19,1,75,6|0,3:2|0:2,0:2:0:0:
41,155,183943,6,0,B|193:181|193:181|196:186|196:186|439:228,1,375,6|0,3:2|0:2,0:2:0:0:
407,222,184784,1,0,0:2:0:0:
407,222,184924,1,0,0:2:0:0:
291,363,185064,5,10,0:2:0:0:
336,295,185204,1,0,0:2:0:0:
253,292,185345,1,0,0:2:0:0:
253,292,185485,1,0,0:2:0:0:
380,370,185625,5,2,0:2:0:0:
168,287,185765,1,0,0:2:0:0:
393,234,185905,2,0,L|411:137,1,75,0|0,3:2|0:2,0:2:0:0:
60,65,186186,5,8,0:2:0:0:
195,101,186326,2,0,B|131:115|131:115|108:142|108:142|18:160,1,175,2|0,3:2|0:2,0:2:0:0:
17,191,186746,5,10,0:2:0:0:
35,182,186840,1,0,0:2:0:0:
56,177,186933,1,0,3:2:0:0:
86,177,187027,1,0,0:2:0:0:
124,189,187120,1,0,0:2:0:0:
157,215,187214,1,0,3:2:0:0:
182,256,187307,5,2,1:3:0:0:
199,294,187401,1,2,1:3:0:0:
235,327,187494,1,2,0:3:0:0:
298,343,187588,1,2,0:3:0:0:
369,323,187681,1,8,0:3:0:0:
410,264,187775,1,8,0:3:0:0:
410,223,187868,5,8,0:3:0:0:
404,208,187961,1,8,0:3:0:0:
399,193,188055,1,8,0:3:0:0:
419,158,188148,5,4,0:3:0:0:
413,143,188241,1,4,0:3:0:0:
408,128,188335,1,4,0:3:0:0:
495,201,188429,6,0,B|464:236|464:236|274:187|274:187|348:168,1,300,4|0,0:2|0:2,0:2:0:0:
329,172,189130,5,0,0:2:0:0:
283,306,189270,1,0,0:2:0:0:
189,199,189410,1,0,0:2:0:0:
270,229,189550,5,10,0:2:0:0:
270,229,189690,1,0,0:2:0:0:
209,367,189831,5,2,0:2:0:0:
199,365,189901,1,2,0:2:0:0:
189,363,189971,1,2,0:2:0:0:
180,362,190041,1,2,0:2:0:0:
171,361,190111,2,0,B|134:334|134:334|70:344|70:344|28:306,1,150,2|0,0:2|3:2,0:2:0:0:
29,74,190672,5,8,0:2:0:0:
45,70,190765,1,0,0:2:0:0:
104,115,190859,5,8,0:2:0:0:
120,111,190952,1,0,0:2:0:0:
137,106,191046,2,0,L|211:87,1,50,2|2,0:3|0:3,0:2:0:0:
396,4,191232,5,2,0:3:0:0:
344,29,191326,1,2,0:3:0:0:
320,79,191419,1,2,0:3:0:0:
328,133,191513,1,2,0:3:0:0:
351,149,191606,1,2,0:3:0:0:
376,139,191700,1,2,0:3:0:0:
352,116,191793,5,8,3:3:0:0:
290,165,191887,1,8,0:3:0:0:
298,242,191980,1,8,0:3:0:0:
366,272,192074,1,8,0:3:0:0:
396,252,192167,1,8,0:3:0:0:
402,233,192260,1,8,0:3:0:0:
395,216,192354,5,4,1:3:0:0:
320,204,192447,1,4,0:3:0:0:
248,230,192540,1,4,0:3:0:0:
197,285,192634,1,4,0:3:0:0:
146,340,192728,1,4,0:3:0:0:
75,367,192821,1,4,0:3:0:0:
0,360,192915,6,0,B|-21:330|-21:330|13:251,1,75,4|0,3:2|0:2,0:2:0:0:
79,288,193195,2,0,B|100:318|100:318|66:397,1,75,0|0,0:2|0:2,0:2:0:0:
46,82,193475,5,4,0:3:0:0:
59,89,193569,2,4,L|148:67,1,50,4|4,0:3|0:3,0:3:0:0:
307,15,193756,5,4,0:3:0:0:
287,11,193849,1,4,0:3:0:0:
268,10,193943,1,4,0:3:0:0:
241,33,194036,5,8,0:2:0:0:
222,30,194130,2,4,L|147:16,1,50,4|4,0:3|0:3,0:3:0:0:
107,214,194317,5,2,0:3:0:0:
136,207,194410,1,6,0:3:0:0:
165,200,194503,1,6,0:3:0:0:
194,193,194597,1,12,0:3:0:0:
223,186,194690,1,12,0:3:0:0:
252,179,194784,1,4,0:3:0:0:
281,172,194877,1,8,0:3:0:0:
310,134,194971,1,8,0:2:0:0:
361,183,195064,1,8,0:2:0:0:
400,122,195158,6,0,L|411:48,1,50,4|0,3:3|0:2,0:2:0:0:
303,89,195345,2,0,L|296:40,1,50,4|0,3:3|0:2,0:2:0:0:
226,141,195532,2,0,L|200:98,1,50,4|0,3:3|0:2,0:2:0:0:
303,330,195718,5,2,3:3:0:0:
321,317,195812,1,0,0:3:0:0:
392,335,195905,5,2,1:3:0:0:
396,313,195999,1,0,0:3:0:0:
459,275,196092,5,8,0:3:0:0:
445,257,196186,1,2,0:3:0:0:
472,190,196279,5,0,1:0:0:0:
447,187,196373,1,2,0:3:0:0:
423,194,196466,1,0,1:3:0:0:
404,176,196560,1,4,0:3:0:0:
366,207,196653,1,4,0:3:0:0:
324,158,196746,1,4,0:3:0:0:
281,222,196840,1,0,1:3:0:0:
237,155,196933,1,0,1:0:0:0:
193,197,197027,1,4,0:3:0:0:
149,172,197120,1,0,0:2:0:0:
130,190,197214,1,4,1:3:0:0:
106,183,197307,1,4,0:3:0:0:
81,186,197401,6,0,B|54:187|54:187|36:179|36:179|-3:181,1,75,0|0,3:2|0:2,0:2:0:0:
