osu file format v14

[General]
AudioFilename: audio.ogg
AudioLeadIn: 0
PreviewTime: 26
Countdown: 0
SampleSet: Soft
StackLeniency: 0.7
Mode: 2
LetterboxInBreaks: 0
WidescreenStoryboard: 1

[Editor]
Bookmarks: 13794,20651,27508,34258,37794,41222,44651,48080,54937,58365,61794,68651,72080,75508,78937,82365,85794,89222,92651,95651,109794,113222,116651,120080,123508,130365,133794,137222,140651,144080,147508,150937
DistanceSpacing: 1
BeatDivisor: 2
GridSize: 32
TimelineZoom: 1.8

[Metadata]
Title:ABC feat. Sophia Black
TitleUnicode:ABC feat. Sophia Black
Artist:Polyphia
ArtistUnicode:Polyphia
Creator:muya-
Version:Cup
Source:
Tags:english pop prog progressive metal female vocal rock Tim Henson Scott LePage Clay Gober Aeschliman Remember That You Will Die fourth 4th album gimmick -Rustyy SadEgg -Hex- hex phob
BeatmapID:4095395
BeatmapSetID:1972993

[Difficulty]
HPDrainRate:2
CircleSize:2.5
OverallDifficulty:6
ApproachRate:6
SliderMultiplier:1.6
SliderTickRate:1

[Events]
//Background and Video events
0,0,"colorful.jpg",0,0
//Break Periods
2,96279,101887
//Storyboard Layer 0 (Background)
//Storyboard Layer 1 (Fail)
//Storyboard Layer 2 (Pass)
//Storyboard Layer 3 (Foreground)
//Storyboard Layer 4 (Overlay)
//Storyboard Sound Samples

[TimingPoints]
80,428.571428571429,4,2,1,50,1,0
13365,-100,4,2,2,50,0,0
13794,-100,4,2,2,75,0,0
14008,-100,4,2,3,75,0,0
14222,-100,4,2,1,75,0,0
16580,-100,4,2,3,75,0,0
16687,-100,4,2,1,75,0,0
17008,-100,4,2,3,75,0,0
17222,-100,4,2,2,75,0,0
17437,-100,4,2,1,75,0,0
18080,-100,4,2,4,75,0,0
18294,-100,4,2,3,75,0,0
18401,-100,4,2,5,75,0,0
18508,-100,4,2,1,75,0,0
18615,-100,4,2,2,75,0,0
18722,-100,4,2,3,75,0,0
18830,-100,4,2,4,75,0,0
19151,-100,4,2,1,75,0,0
19580,-100,4,2,3,75,0,0
19794,-100,4,2,1,75,0,0
20008,-100,4,2,3,75,0,0
20222,-100,4,2,1,75,0,0
20651,-100,4,2,6,75,0,0
20865,-100,4,2,3,75,0,0
20972,-100,4,2,1,75,0,0
21294,-100,4,2,3,75,0,0
21508,-100,4,2,5,75,0,0
21615,-100,4,2,2,75,0,0
21722,-100,4,2,7,75,0,0
21830,-100,4,2,2,75,0,0
21937,-100,4,2,1,75,0,0
22044,-100,4,2,2,75,0,0
22151,-100,4,2,7,75,0,0
22365,-100,4,2,2,75,0,0
22580,-100,4,2,3,75,0,0
22687,-100,4,2,1,75,0,0
23008,-100,4,2,3,75,0,0
23222,-100,4,2,4,75,0,0
23437,-100,4,2,7,75,0,0
23544,-100,4,2,2,75,0,0
23651,-100,4,2,1,75,0,0
23758,-100,4,2,4,75,0,0
23865,-100,4,2,3,75,0,0
24080,-100,4,2,2,75,0,0
24187,-100,4,2,3,75,0,0
24294,-100,4,2,8,75,0,0
24401,-100,4,2,1,75,0,0
24722,-100,4,2,9,75,0,0
24937,-100,4,2,5,75,0,0
25044,-100,4,2,9,75,0,0
25365,-100,4,2,1,75,0,0
25472,-100,4,2,2,75,0,0
25580,-100,4,2,3,75,0,0
25687,-100,4,2,2,75,0,0
26008,-100,4,2,8,75,0,0
26115,-100,4,2,5,75,0,0
26222,-100,4,2,1,75,0,0
26437,-100,4,2,8,75,0,0
26544,-100,4,2,5,75,0,0
26758,-100,4,2,2,75,0,0
26865,-100,4,2,7,75,0,0
26972,-100,4,2,2,75,0,0
27080,-100,4,2,1,75,0,0
27187,-100,4,2,2,75,0,0
27294,-100,4,2,7,75,0,0
27508,-100,4,2,10,65,0,0
27615,-100,4,2,1,65,0,0
27722,-100,4,2,3,65,0,0
27937,-100,4,2,1,65,0,0
28151,-100,4,2,3,65,0,0
28365,-100,4,2,1,65,0,0
29008,-100,4,2,3,65,0,0
29222,-100,4,2,1,65,0,0
29437,-100,4,2,3,65,0,0
29651,-100,4,2,1,65,0,0
30294,-100,4,2,3,65,0,0
30508,-100,4,2,1,65,0,0
30722,-100,4,2,3,65,0,0
30937,-100,4,2,11,60,0,0
31365,-100,4,2,1,60,0,0
31794,-100,4,2,12,60,0,0
32008,-100,4,2,1,60,0,0
32651,-100,4,2,6,60,0,0
33937,-100,4,2,1,60,0,0
34365,-100,4,2,13,90,0,0
34580,-100,4,2,14,90,0,0
34794,-100,4,2,15,90,0,0
35437,-100,4,2,1,90,0,0
35651,-100,4,2,15,90,0,0
35865,-100,4,2,1,90,0,0
36080,-100,4,2,16,90,0,0
36294,-100,4,2,14,90,0,0
36508,-100,4,2,17,90,0,0
36937,-100,4,2,18,90,0,0
37365,-100,4,2,15,90,0,0
37794,-100,4,2,13,90,0,0
38008,-100,4,2,14,90,0,0
38222,-100,4,2,15,90,0,0
39294,-100,4,2,3,90,0,0
39508,-100,4,2,16,90,0,0
39722,-100,4,2,14,90,0,0
39937,-100,4,2,17,90,0,0
40151,-100,4,2,18,90,0,0
40580,-100,4,2,1,90,0,0
40794,-100,4,2,19,90,0,0
41008,-100,4,2,1,90,0,0
41222,-100,4,2,13,90,0,0
41437,-100,4,2,14,90,0,0
41651,-100,4,2,15,90,0,0
41865,-100,4,2,1,90,0,0
42080,-100,4,2,2,90,0,0
42508,-100,4,2,15,90,0,0
42615,-100,4,2,1,90,0,0
42937,-100,4,2,16,90,0,0
43151,-100,4,2,3,90,0,0
43258,-100,4,2,1,90,0,0
43365,-100,4,2,20,90,0,0
43472,-100,4,2,5,90,0,0
43794,-100,4,2,21,90,0,0
43901,-100,4,2,4,90,0,0
44222,-100,4,2,15,90,0,0
44437,-100,4,2,4,90,0,0
44651,-100,4,2,2,90,0,0
44758,-100,4,2,3,90,0,0
44865,-100,4,2,1,90,0,0
44972,-100,4,2,2,90,0,0
45080,-100,4,2,5,90,0,0
45294,-100,4,2,1,90,0,0
45401,-100,4,2,2,90,0,0
45508,-100,4,2,1,90,0,0
45615,-100,4,2,4,90,0,0
45830,-100,4,2,3,90,0,0
45937,-100,4,2,1,90,0,0
46044,-100,4,2,2,90,0,0
46151,-100,4,2,3,90,0,0
46365,-100,4,2,22,90,0,0
46472,-100,4,2,3,90,0,0
46580,-100,4,2,1,90,0,0
46687,-100,4,2,2,90,0,0
46794,-100,4,2,1,90,0,0
46901,-100,4,2,2,90,0,0
47115,-100,4,2,3,90,0,0
47222,-100,4,2,23,90,0,0
47330,-100,4,2,2,90,0,0
47437,-100,4,2,1,90,0,0
47651,-100,4,2,24,90,0,0
47758,-100,4,2,3,90,0,0
47865,-100,4,2,1,90,0,0
47972,-100,4,2,2,90,0,0
48026,-100,4,2,3,90,0,0
48080,-100,4,2,2,80,0,0
48401,-100,4,2,1,80,0,0
49151,-100,4,2,2,80,0,0
49258,-100,4,2,1,80,0,0
49580,-100,4,2,15,80,0,0
49794,-100,4,2,1,80,0,0
50008,-100,4,2,2,80,0,0
50115,-100,4,2,1,80,0,0
50437,-100,4,2,15,80,0,0
50651,-100,4,2,12,80,0,0
50865,-100,4,2,2,80,0,0
51080,-100,4,2,25,80,0,0
51294,-100,4,2,2,80,0,0
51830,-100,4,2,1,80,0,0
52580,-100,4,2,2,80,0,0
52687,-100,4,2,1,80,0,0
53008,-100,4,2,15,80,0,0
53222,-100,4,2,26,80,0,0
53437,-100,4,2,2,80,0,0
53544,-100,4,2,35,80,0,0
53865,-100,4,2,15,80,0,0
54080,-100,4,2,12,80,0,0
54294,-100,4,2,2,80,0,0
54401,-100,4,2,25,80,0,0
54722,-100,4,2,2,80,0,0
55151,-100,4,2,15,80,0,0
55258,-100,4,2,1,80,0,0
55580,-100,4,2,15,80,0,0
55794,-100,4,2,1,80,0,0
56008,-100,4,2,2,80,0,0
56222,-100,4,2,1,80,0,0
56437,-100,4,2,2,80,0,0
56651,-100,4,2,1,80,0,0
56865,-100,4,2,15,80,0,0
56972,-100,4,2,1,80,0,0
57294,-100,4,2,15,80,0,0
57508,-100,4,2,12,80,0,0
57615,-100,4,2,3,80,0,0
57722,-100,4,2,2,80,0,0
57937,-100,4,2,25,80,0,0
58044,-100,4,2,3,80,0,0
58151,-100,4,2,15,80,0,0
58365,-100,4,2,2,85,0,0
58472,-100,4,2,3,85,0,0
58580,-100,4,2,27,85,0,0
58687,-100,4,2,5,85,0,0
58794,-100,4,2,1,85,0,0
58901,-100,4,2,4,85,0,0
59008,-100,4,2,2,85,0,0
59222,-100,4,2,28,85,0,0
59330,-100,4,2,29,85,0,0
59651,-100,4,2,25,85,0,0
59865,-100,4,2,27,85,0,0
59972,-100,4,2,3,85,0,0
60080,-100,4,2,26,90,0,0
60187,-100,4,2,3,90,0,0
60294,-100,4,2,27,90,0,0
60401,-100,4,2,5,90,0,0
60508,-100,4,2,1,90,0,0
60722,-100,4,2,30,90,0,0
60830,-100,4,2,2,90,0,0
60937,-100,4,2,23,90,0,0
61044,-100,4,2,3,90,0,0
61151,-100,4,2,27,90,0,0
61258,-100,4,2,3,90,0,0
61365,-100,4,2,25,90,0,0
61472,-100,4,2,2,90,0,0
61580,-100,4,2,15,90,0,0
61687,-100,4,2,1,90,0,0
61794,-100,4,2,2,75,0,0
61901,-100,4,2,4,75,0,0
62008,-100,4,2,3,75,0,0
62115,-100,4,2,1,75,0,0
62222,-100,4,2,4,75,0,0
62330,-100,4,2,3,75,0,0
62437,-100,4,2,31,75,0,0
62544,-100,4,2,2,75,0,0
62865,-100,4,2,7,75,0,0
62972,-100,4,2,2,75,0,0
63080,-100,4,2,1,75,0,0
63187,-100,4,2,5,75,0,0
63294,-100,4,2,8,75,0,0
63401,-100,4,2,3,75,0,0
63508,-100,4,2,6,75,0,0
63615,-100,4,2,2,75,0,0
63722,-100,4,2,3,75,0,0
63830,-100,4,2,1,75,0,0
63937,-100,4,2,4,75,0,0
64044,-100,4,2,3,75,0,0
64151,-100,4,2,32,75,0,0
64258,-100,4,2,2,75,0,0
64472,-100,4,2,4,75,0,0
64580,-100,4,2,3,75,0,0
64687,-100,4,2,4,75,0,0
64901,-100,4,2,3,75,0,0
65008,-100,4,2,8,75,0,0
65115,-100,4,2,3,75,0,0
65222,-100,4,2,11,60,0,0
65651,-100,4,2,1,60,0,0
66080,-100,4,2,12,60,0,0
66294,-100,4,2,1,60,0,0
66937,-100,4,2,6,60,0,0
67151,-100,4,2,1,60,0,0
68651,-100,4,2,13,90,0,0
68865,-100,4,2,14,90,0,0
69080,-100,4,2,15,90,0,0
69722,-100,4,2,1,90,0,0
69937,-100,4,2,15,90,0,0
70151,-100,4,2,1,90,0,0
70365,-100,4,2,16,90,0,0
70580,-100,4,2,14,90,0,0
70794,-100,4,2,17,90,0,0
71222,-100,4,2,18,90,0,0
71651,-100,4,2,15,90,0,0
72080,-100,4,2,13,90,0,0
72294,-100,4,2,14,90,0,0
72508,-100,4,2,15,90,0,0
73580,-100,4,2,3,90,0,0
73794,-100,4,2,16,90,0,0
74008,-100,4,2,14,90,0,0
74222,-100,4,2,17,90,0,0
74437,-100,4,2,18,90,0,0
74865,-100,4,2,1,90,0,0
75080,-100,4,2,19,90,0,0
75294,-100,4,2,1,90,0,0
75508,-100,4,2,13,90,0,0
75722,-100,4,2,14,90,0,0
75937,-100,4,2,15,90,0,0
76151,-100,4,2,1,90,0,0
76365,-100,4,2,2,90,0,0
76794,-100,4,2,15,90,0,0
76901,-100,4,2,1,90,0,0
77222,-100,4,2,16,90,0,0
77437,-100,4,2,3,90,0,0
77544,-100,4,2,1,90,0,0
77651,-100,4,2,20,90,0,0
77758,-100,4,2,5,90,0,0
78080,-100,4,2,21,90,0,0
78187,-100,4,2,4,90,0,0
78508,-100,4,2,15,90,0,0
78722,-100,4,2,4,90,0,0
78937,-100,4,2,2,90,0,0
79044,-100,4,2,3,90,0,0
79151,-100,4,2,1,90,0,0
79258,-100,4,2,2,90,0,0
79365,-100,4,2,5,90,0,0
79580,-100,4,2,1,90,0,0
79687,-100,4,2,2,90,0,0
79794,-100,4,2,1,90,0,0
79901,-100,4,2,4,90,0,0
80115,-100,4,2,3,90,0,0
80222,-100,4,2,1,90,0,0
80330,-100,4,2,2,90,0,0
80437,-100,4,2,3,90,0,0
80651,-100,4,2,22,90,0,0
80758,-100,4,2,3,90,0,0
80865,-100,4,2,1,90,0,0
80972,-100,4,2,2,90,0,0
81080,-100,4,2,1,90,0,0
81187,-100,4,2,2,90,0,0
81401,-100,4,2,3,90,0,0
81508,-100,4,2,23,90,0,0
81615,-100,4,2,2,90,0,0
81722,-100,4,2,1,90,0,0
81937,-100,4,2,24,90,0,0
82044,-100,4,2,3,90,0,0
82151,-100,4,2,1,90,0,0
82258,-100,4,2,2,90,0,0
82312,-100,4,2,3,90,0,0
82365,-100,4,2,2,90,0,0
82580,-100,4,2,33,90,0,0
82794,-100,4,2,25,90,0,0
83008,-100,4,2,3,90,0,0
83222,-100,4,2,1,90,0,0
83865,-100,4,2,3,90,0,0
84080,-100,4,2,2,90,0,0
84294,-100,4,2,33,90,0,0
84508,-100,4,2,34,90,0,0
84722,-100,4,2,1,90,0,0
84937,-100,4,2,26,90,0,0
85151,-100,4,2,3,90,0,0
85365,-100,4,2,35,90,0,0
85580,-100,4,2,3,90,0,0
85794,-100,4,2,2,90,0,0
86008,-100,4,2,4,90,0,0
86222,-100,4,2,25,90,0,0
86437,-100,4,2,3,90,0,0
86651,-100,4,2,1,90,0,0
86865,-100,4,2,3,90,0,0
87080,-100,4,2,36,90,0,0
87294,-100,4,2,4,90,0,0
87508,-100,4,2,2,90,0,0
87722,-100,4,2,33,90,0,0
87937,-100,4,2,34,90,0,0
88151,-100,4,2,3,90,0,0
88365,-100,4,2,26,90,0,0
88580,-100,4,2,1,90,0,0
88794,-100,4,2,25,90,0,0
89008,-100,4,2,1,90,0,0
89222,-100,4,2,2,90,0,0
89437,-100,4,2,33,90,0,0
89651,-100,4,2,25,90,0,0
89865,-100,4,2,3,90,0,0
90080,-100,4,2,1,90,0,0
90722,-100,4,2,3,90,0,0
90937,-100,4,2,2,90,0,0
91151,-100,4,2,33,90,0,0
91365,-100,4,2,34,90,0,0
91580,-100,4,2,1,90,0,0
91794,-100,4,2,26,90,0,0
92008,-100,4,2,3,90,0,0
92222,-100,4,2,35,90,0,0
92437,-100,4,2,3,90,0,0
92651,-100,4,2,2,90,0,0
92865,-100,4,2,4,90,0,0
93080,-100,4,2,25,90,0,0
93294,-100,4,2,3,90,0,0
93508,-100,4,2,1,90,0,0
93722,-100,4,2,3,90,0,0
93937,-100,4,2,36,90,0,0
94151,-100,4,2,37,90,0,0
94365,-100,4,2,2,90,0,0
94580,-100,4,2,33,90,0,0
94794,-100,4,2,34,90,0,0
95008,-100,4,2,3,90,0,0
95222,-100,4,2,26,90,0,0
95437,-100,4,2,1,90,0,0
95651,-100,4,2,25,90,0,0
95865,-100,4,2,1,90,0,0
96080,-100,4,2,38,70,0,0
96937,-100,4,2,39,70,0,0
97151,-100,4,2,1,70,0,0
97794,-100,4,2,38,70,0,0
98222,-100,4,2,1,70,0,0
98651,-100,4,2,39,70,0,0
99080,-100,4,2,1,70,0,0
99508,-100,4,2,38,70,0,0
99937,-100,4,2,4,70,0,0
100365,-100,4,2,39,70,0,0
100794,-100,4,2,1,70,0,0
101222,-100,4,2,38,70,0,0
101651,-100,4,2,1,70,0,0
102080,-100,4,2,39,70,0,0
102294,-100,4,2,1,70,0,0
102937,-100,4,2,40,70,0,0
103258,-100,4,2,15,70,0,0
103794,-100,4,2,5,70,0,0
104651,-100,4,2,40,70,0,0
104972,-100,4,2,15,70,0,0
105294,-100,4,2,4,70,0,0
105508,-100,4,2,39,70,0,0
105615,-100,4,2,1,70,0,0
106365,-100,4,2,38,70,0,0
106472,-100,4,2,1,70,0,0
107222,-100,4,2,39,70,0,0
107330,-100,4,2,1,70,0,0
108080,-100,4,2,38,70,0,0
108187,-100,4,2,1,70,0,0
108937,-100,4,2,39,70,0,0
109794,-100,4,2,41,85,0,0
110008,-100,4,2,1,85,0,0
110437,-100,4,2,1,85,0,0
110865,-100,4,2,3,85,0,0
111080,-100,4,2,1,85,0,0
111294,-100,4,2,3,85,0,0
111508,-100,4,2,42,85,0,0
111722,-100,4,2,1,85,0,0
111937,-100,4,2,17,85,0,0
112151,-100,4,2,3,85,0,0
112365,-100,4,2,25,85,0,0
112580,-100,4,2,7,85,0,0
113008,-100,4,2,8,85,0,0
113115,-100,4,2,4,85,0,0
113222,-100,4,2,41,85,0,0
113330,-100,4,2,5,85,0,0
113437,-100,4,2,8,85,0,0
113544,-100,4,2,4,85,0,0
113651,-100,4,2,5,85,0,0
113865,-100,4,2,8,85,0,0
114080,-100,4,2,1,85,0,0
114508,-100,4,2,15,85,0,0
114722,-100,4,2,3,85,0,0
114937,-100,4,2,43,85,0,0
115044,-100,4,2,3,85,0,0
115151,-100,4,2,9,85,0,0
115258,-100,4,2,5,85,0,0
115580,-100,4,2,8,85,0,0
115794,-100,4,2,1,85,0,0
116008,-100,4,2,8,85,0,0
116115,-100,4,2,5,85,0,0
116437,-100,4,2,31,85,0,0
116544,-100,4,2,1,85,0,0
116651,-100,4,2,41,85,0,0
116758,-100,4,2,2,85,0,0
116865,-100,4,2,7,85,0,0
116972,-100,4,2,4,85,0,0
117187,-100,4,2,3,85,0,0
117401,-100,4,2,2,85,0,0
117508,-100,4,2,6,85,0,0
117722,-100,4,2,3,85,0,0
117937,-100,4,2,1,85,0,0
118151,-100,4,2,3,85,0,0
118365,-100,4,2,44,85,0,0
118580,-100,4,2,1,85,0,0
118794,-100,4,2,7,85,0,0
119008,-100,4,2,1,85,0,0
119651,-100,4,2,17,85,0,0
119865,-100,4,2,6,85,0,0
120080,-100,4,2,41,85,0,0
120187,-100,4,2,1,85,0,0
120294,-100,4,2,3,85,0,0
120401,-100,4,2,28,85,0,0
120722,-100,4,2,3,85,0,0
120830,-100,4,2,25,85,0,0
121151,-100,4,2,45,85,0,0
121258,-100,4,2,1,85,0,0
121580,-100,4,2,3,85,0,0
121794,-100,4,2,13,85,0,0
121901,-100,4,2,15,85,0,0
122008,-100,4,2,46,85,0,0
122115,-100,4,2,23,85,0,0
122437,-100,4,2,8,85,0,0
122544,-100,4,2,25,85,0,0
122865,-100,4,2,1,85,0,0
123080,-100,4,2,17,85,0,0
123222,-100,4,2,2,85,0,0
123508,-100,4,2,41,85,0,0
123722,-100,4,2,1,85,0,0
124580,-100,4,2,8,85,0,0
124794,-100,4,2,9,85,0,0
125008,-100,4,2,8,85,0,0
125115,-100,4,2,1,85,0,0
125222,-100,4,2,44,85,0,0
125330,-100,4,2,2,85,0,0
125437,-100,4,2,5,85,0,0
125651,-100,4,2,2,85,0,0
125758,-100,4,2,3,85,0,0
125865,-100,4,2,15,85,0,0
126294,-100,4,2,3,85,0,0
126401,-100,4,2,1,85,0,0
126722,-100,4,2,3,85,0,0
126830,-100,4,2,1,85,0,0
126937,-100,4,2,41,85,0,0
127044,-100,4,2,2,85,0,0
127151,-100,4,2,7,85,0,0
127258,-100,4,2,4,85,0,0
127472,-100,4,2,3,85,0,0
127580,-100,4,2,8,85,0,0
127794,-100,4,2,31,85,0,0
128222,-100,4,2,1,85,0,0
128437,-100,4,2,3,85,0,0
128651,-100,4,2,10,85,0,0
128758,-100,4,2,2,85,0,0
128865,-100,4,2,28,85,0,0
129187,-100,4,2,2,85,0,0
129401,-100,4,2,3,85,0,0
129508,-100,4,2,1,85,0,0
129722,-100,4,2,3,85,0,0
129830,-100,4,2,4,85,0,0
130151,-100,4,2,3,85,0,0
130258,-100,4,2,4,85,0,0
130365,-100,4,2,2,85,0,0
130687,-100,4,2,1,85,0,0
130901,-100,4,2,2,85,0,0
131008,-100,4,2,1,85,0,0
131222,-100,4,2,6,85,0,0
131437,-100,4,2,3,85,0,0
131544,-100,4,2,1,85,0,0
131865,-100,4,2,3,85,0,0
131972,-100,4,2,1,85,0,0
132080,-100,4,2,42,85,0,0
132294,-100,4,2,3,85,0,0
132401,-100,4,2,25,85,0,0
132722,-100,4,2,3,85,0,0
132937,-100,4,2,1,85,0,0
133151,-100,4,2,3,85,0,0
133258,-100,4,2,25,85,0,0
133580,-100,4,2,3,85,0,0
133687,-100,4,2,1,85,0,0
133794,-100,4,2,41,85,0,0
133901,-100,4,2,1,85,0,0
134008,-100,4,2,3,85,0,0
134115,-100,4,2,34,85,0,0
134437,-100,4,2,3,85,0,0
134544,-100,4,2,1,85,0,0
134865,-100,4,2,8,85,0,0
134972,-100,4,2,1,85,0,0
135294,-100,4,2,31,85,0,0
135401,-100,4,2,1,85,0,0
135508,-100,4,2,41,85,0,0
135615,-100,4,2,1,85,0,0
135722,-100,4,2,3,85,0,0
135830,-100,4,2,23,85,0,0
136044,-100,4,2,9,85,0,0
136151,-100,4,2,10,85,0,0
136258,-100,4,2,1,85,0,0
136365,-100,4,2,25,85,0,0
136580,-100,4,2,1,85,0,0
136794,-100,4,2,15,85,0,0
136937,-100,4,2,2,85,0,0
137222,-100,4,2,2,90,0,0
137437,-100,4,2,33,90,0,0
137651,-100,4,2,25,90,0,0
137865,-100,4,2,3,90,0,0
138080,-100,4,2,1,90,0,0
138722,-100,4,2,3,90,0,0
138937,-100,4,2,2,90,0,0
139151,-100,4,2,33,90,0,0
139365,-100,4,2,34,90,0,0
139580,-100,4,2,1,90,0,0
139794,-100,4,2,26,90,0,0
140008,-100,4,2,3,90,0,0
140222,-100,4,2,35,90,0,0
140437,-100,4,2,3,90,0,0
140651,-100,4,2,2,90,0,0
140865,-100,4,2,4,90,0,0
141080,-100,4,2,25,90,0,0
141294,-100,4,2,3,90,0,0
141508,-100,4,2,1,90,0,0
141722,-100,4,2,3,90,0,0
141830,-100,4,2,36,90,0,0
142151,-100,4,2,37,90,0,0
142365,-100,4,2,2,90,0,0
142580,-100,4,2,33,90,0,0
142687,-100,4,2,34,90,0,0
143008,-100,4,2,3,90,0,0
143222,-100,4,2,26,90,0,0
143437,-100,4,2,1,90,0,0
143651,-100,4,2,25,90,0,0
143865,-100,4,2,3,90,0,0
144080,-100,4,2,2,90,0,0
144294,-100,4,2,33,90,0,0
144508,-100,4,2,25,90,0,0
144722,-100,4,2,3,90,0,0
144937,-100,4,2,1,90,0,0
145580,-100,4,2,3,90,0,0
145794,-100,4,2,2,90,0,0
146008,-100,4,2,33,90,0,0
146222,-100,4,2,34,90,0,0
146437,-100,4,2,1,90,0,0
146651,-100,4,2,26,90,0,0
146865,-100,4,2,3,90,0,0
147080,-100,4,2,35,90,0,0
147294,-100,4,2,3,90,0,0
147508,-100,4,2,2,90,0,0
147722,-100,4,2,4,90,0,0
147937,-100,4,2,25,90,0,0
148151,-100,4,2,3,90,0,0
148365,-100,4,2,1,90,0,0
148580,-100,4,2,3,90,0,0
148794,-100,4,2,36,90,0,0
149008,-100,4,2,37,90,0,0
149222,-100,4,2,2,90,0,0
149437,-100,4,2,33,90,0,0
149651,-100,4,2,34,90,0,0
149865,-100,4,2,3,90,0,0
150080,-100,4,2,26,90,0,0
150294,-100,4,2,1,90,0,0
150508,-100,4,2,25,90,0,0
150722,-100,4,2,1,90,0,0
150937,-100,4,2,47,90,0,0

[Colours]
Combo1 : 208,182,172
Combo2 : 239,182,193
Combo3 : 220,203,192
Combo4 : 185,223,181

[HitObjects]
125,212,80,5,2,2:2:0:0:
125,212,937,1,2,2:2:0:0:
75,175,1151,1,2,2:2:0:0:
104,118,1365,1,2,2:2:0:0:
264,118,1794,6,0,L|441:117,1,160,2|2,2:2|2:2,0:0:0:0:
264,118,2651,2,0,L|441:117,1,160,2|2,2:2|2:2,0:0:0:0:
263,118,3508,6,0,L|67:117,1,160,2|2,2:2|2:2,0:0:0:0:
263,118,4365,2,0,L|67:117,1,160,2|2,2:2|2:2,0:0:0:0:
263,118,5222,6,0,L|263:282,1,160,2|2,2:2|2:2,0:0:0:0:
102,278,6080,1,2,2:2:0:0:
42,292,6294,1,2,2:2:0:0:
74,326,6508,1,2,2:2:0:0:
233,336,6937,6,0,P|333:312|325:178,1,240,2|2,2:2|2:2,0:0:0:0:
98,180,8222,1,2,2:2:0:0:
58,148,8437,1,2,2:2:0:0:
93,120,8651,6,0,L|229:119,1,120,2|2,2:2|2:2,0:0:0:0:
406,168,9508,1,2,2:2:0:0:
455,141,9722,1,2,2:2:0:0:
431,89,9937,1,2,2:2:0:0:
256,192,10365,12,2,12937,2:2:0:0:
72,156,13794,5,6,1:2:0:0:
151,158,14008,1,2,2:2:0:0:
230,156,14222,1,10,2:2:0:0:
72,156,14651,2,0,L|75:327,1,160,2|10,2:2|2:2,0:0:0:0:
234,316,15508,5,2,2:2:0:0:
74,315,15937,1,10,2:2:0:0:
234,316,16365,1,2,1:2:0:0:
291,298,16580,1,2,2:2:0:0:
287,238,16794,1,10,2:2:0:0:
127,242,17222,6,0,L|307:244,1,160,2|10,1:2|2:2,0:0:0:0:
447,243,18080,1,10,2:2:0:0:
482,186,18294,1,10,2:2:0:0:
453,136,18508,1,10,2:2:0:0:
292,137,18937,5,2,1:2:0:0:
453,136,19365,1,10,2:2:0:0:
292,137,19794,2,0,L|292:298,1,160,2|10,1:2|2:2,0:0:0:0:
92,314,20651,6,0,L|283:315,1,160,6|8,1:2|2:2,0:0:0:0:
92,314,21508,1,10,2:2:0:0:
47,280,21722,1,10,2:2:0:0:
66,226,21937,1,10,2:2:0:0:
225,225,22365,6,0,P|292:204|301:121,1,160,2|8,2:2|2:2,0:0:0:0:
142,121,23222,1,2,1:2:0:0:
97,87,23436,1,10,2:2:0:0:
116,33,23651,1,10,2:2:0:0:
276,36,24080,6,0,L|459:38,1,160,2|8,1:2|2:2,0:0:0:0:
276,36,24937,2,0,L|459:38,1,160,10|10,2:2|2:2,0:0:0:0:
276,36,25794,5,2,1:2:0:0:
152,103,26222,1,8,2:2:0:0:
129,225,26651,1,2,1:2:0:0:
215,321,27080,1,8,2:2:0:0:
414,326,27508,6,0,P|456:266|371:223,1,160,6|10,1:2|2:2,0:0:0:0:
242,207,28365,1,2,2:2:0:0:
402,215,28794,1,10,2:2:0:0:
242,207,29222,6,0,L|75:205,1,160,2|10,2:2|2:2,0:0:0:0:
242,207,30080,1,2,1:2:0:0:
82,205,30508,1,10,2:2:0:0:
280,200,30937,5,6,1:2:0:0:
280,200,31794,1,6,2:2:0:0:
280,200,32651,1,6,2:2:0:0:
106,141,34365,5,6,1:2:0:0:
186,136,34580,1,2,1:2:0:0:
106,141,34794,1,14,2:2:0:0:
265,139,35222,2,0,P|319:212|279:263,1,160,2|10,2:2|2:2,0:0:0:0:
126,270,36080,5,6,1:2:0:0:
205,268,36294,1,2,1:2:0:0:
284,264,36508,1,14,2:2:0:0:
126,270,36937,1,6,1:2:0:0:
284,264,37365,1,14,2:2:0:0:
481,257,37794,5,6,1:2:0:0:
401,261,38008,1,2,1:2:0:0:
481,257,38222,1,14,2:2:0:0:
321,269,38651,2,0,L|140:271,1,160,2|10,2:2|2:2,0:0:0:0:
327,266,39508,5,6,1:2:0:0:
389,235,39722,1,2,1:2:0:0:
366,181,39937,1,14,2:2:0:0:
206,180,40365,1,6,1:2:0:0:
369,173,40794,1,14,2:2:0:0:
171,219,41222,6,0,P|84:182|139:57,1,240,6|2,1:2|1:2,0:0:0:0:
359,60,42508,1,10,2:2:0:0:
203,99,42937,6,0,L|71:104,2,120,6|6|4,1:2|2:2|2:2,0:0:0:0:
283,96,43794,1,6,2:2:0:0:
362,90,44008,1,6,2:2:0:0:
283,96,44222,1,14,2:2:0:0:
83,327,44651,5,6,1:2:0:0:
243,329,45080,1,6,1:2:0:0:
83,327,45508,1,6,1:2:0:0:
243,329,45937,1,10,2:2:0:0:
83,327,46365,5,6,1:2:0:0:
34,262,46580,1,8,2:2:0:0:
72,202,46794,1,6,1:2:0:0:
231,197,47222,1,6,1:2:0:0:
298,153,47437,1,8,2:2:0:0:
276,76,47651,1,6,1:2:0:0:
77,82,48080,6,0,L|270:81,1,160,6|8,1:2|2:2,0:0:0:0:
236,81,49365,1,8,2:2:0:0:
242,281,50222,6,0,L|448:269,2,160,12|6|14,2:2|1:2|2:2,0:0:0:0:
401,271,51508,6,0,P|461:211|409:139,1,160,6|8,1:2|2:2,0:0:0:0:
274,143,52365,1,2,2:2:0:0:
274,143,52794,1,8,2:2:0:0:
114,143,53222,6,0,L|299:142,2,160,6|12|6,1:2|2:2|1:2,0:0:0:0:
73,102,54294,1,2,1:3:0:0:
96,54,54508,1,12,2:2:0:0:
298,62,54937,6,0,L|478:62,2,160,6|8|2,1:2|2:2|2:2,0:0:0:0:
138,59,56222,1,10,2:2:0:0:
298,62,56651,6,0,L|299:238,1,160,2|12,2:2|2:2,0:0:0:0:
139,217,57508,1,14,2:2:0:0:
218,218,57722,1,2,1:3:0:0:
298,221,57937,1,14,2:2:0:0:
96,323,58365,6,0,P|32:263|82:185,1,160,6|8,1:2|2:2,0:0:0:0:
211,201,59222,1,14,2:2:0:0:
51,203,59651,1,14,2:2:0:0:
211,201,60080,5,6,1:2:0:0:
258,174,60294,1,10,2:2:0:0:
254,122,60508,1,8,2:2:0:0:
94,113,60937,1,6,1:2:0:0:
43,77,61151,1,10,2:2:0:0:
69,31,61365,1,14,2:2:0:0:
271,41,61794,6,0,P|421:71|444:237,1,320,6|2,1:2|1:2,0:0:0:0:
293,233,63080,1,10,2:2:0:0:
133,242,63508,6,0,P|41:199|181:83,1,320,10|2,2:2|1:2,0:0:0:0:
296,80,64794,1,2,1:2:0:0:
137,61,65222,5,6,1:2:0:0:
137,61,66080,1,6,2:2:0:0:
137,61,66937,1,6,2:2:0:0:
406,141,68651,5,6,1:2:0:0:
326,136,68866,1,2,1:2:0:0:
406,141,69080,1,14,2:2:0:0:
247,139,69508,2,0,L|80:136,1,160,2|10,2:2|2:2,0:0:0:0:
247,139,70366,5,6,1:2:0:0:
312,184,70580,1,2,1:2:0:0:
288,242,70794,1,14,2:2:0:0:
128,252,71223,1,6,1:2:0:0:
288,242,71651,1,14,2:2:0:0:
86,336,72080,5,6,1:2:0:0:
165,335,72294,1,2,1:2:0:0:
86,336,72508,1,14,2:2:0:0:
246,337,72937,2,0,L|427:335,1,160,2|10,2:2|2:2,0:0:0:0:
246,322,73794,5,6,1:2:0:0:
175,284,74008,1,2,1:2:0:0:
200,207,74223,1,14,2:2:0:0:
359,207,74651,1,6,1:2:0:0:
200,207,75080,1,14,2:2:0:0:
401,218,75508,6,0,P|396:117|267:109,1,240,6|2,1:2|1:2,0:0:0:0:
37,104,76794,1,10,2:2:0:0:
196,114,77223,6,0,L|346:116,1,120,6|6,1:2|2:2,0:0:0:0:
315,115,77865,1,4,2:2:0:0:
234,115,78080,1,6,2:2:0:0:
154,119,78294,1,6,2:2:0:0:
154,119,78508,1,14,2:2:0:0:
357,241,78937,5,6,1:2:0:0:
196,246,79366,1,6,1:2:0:0:
357,241,79794,1,6,1:2:0:0:
196,246,80223,1,10,2:2:0:0:
357,241,80651,5,6,1:2:0:0:
412,225,80866,1,8,2:2:0:0:
415,160,81080,1,6,1:2:0:0:
255,155,81508,1,6,1:2:0:0:
174,152,81723,1,8,2:2:0:0:
94,148,81937,1,6,1:2:0:0:
293,73,82365,5,6,1:2:0:0:
365,108,82580,1,2,1:2:0:0:
384,185,82794,1,14,2:2:0:0:
372,312,83222,1,2,2:2:0:0:
269,359,83651,1,10,2:2:0:0:
102,357,84080,5,6,1:2:0:0:
181,355,84294,1,2,1:2:0:0:
260,355,84508,1,14,2:2:0:0:
98,345,84937,1,6,1:2:0:0:
264,346,85365,1,14,2:2:0:0:
65,327,85794,5,6,1:2:0:0:
32,288,86008,1,2,1:3:0:0:
26,223,86222,1,14,2:2:0:0:
71,114,86651,1,2,2:2:0:0:
178,78,87080,1,14,2:2:0:0:
337,80,87508,5,6,1:2:0:0:
257,77,87722,1,2,1:2:0:0:
178,78,87937,1,14,2:2:0:0:
337,80,88365,1,6,1:2:0:0:
178,78,88794,1,14,2:2:0:0:
380,60,89222,5,6,1:2:0:0:
315,88,89437,1,2,1:2:0:0:
278,139,89651,1,14,2:2:0:0:
289,277,90080,1,2,2:2:0:0:
396,354,90508,1,10,2:2:0:0:
235,358,90937,5,6,1:2:0:0:
155,363,91151,1,2,1:2:0:0:
75,364,91365,1,14,2:2:0:0:
241,363,91794,1,6,1:2:0:0:
75,357,92222,1,14,2:2:0:0:
273,338,92651,5,6,1:2:0:0:
208,310,92866,1,2,1:3:0:0:
171,259,93080,1,14,2:2:0:0:
182,121,93509,1,2,2:2:0:0:
289,44,93937,1,14,2:2:0:0:
365,43,94151,1,10,2:2:0:0:
305,94,94365,5,6,1:2:0:0:
144,98,94794,1,14,2:2:0:0:
305,94,95222,1,6,1:2:0:0:
107,104,95651,2,0,P|62:191|94:248,1,160,14|6,2:2|1:2,0:0:0:0:
380,288,102937,6,0,P|402:182|201:161,1,320,2|2,2:2|2:3,0:0:0:0:
74,141,104222,1,2,2:2:0:0:
233,125,104651,6,0,P|378:141|380:288,1,320,2|2,2:2|2:2,0:0:0:0:
222,315,105937,1,2,2:2:0:0:
256,192,106365,12,2,108937,2:2:0:0:
85,272,109794,6,0,B|198:212|270:316|425:247,1,320,6|14,1:2|2:2,0:0:0:0:
398,257,111080,1,2,2:2:0:0:
238,265,111508,6,0,P|179:217|227:145,1,160,6|2,1:2|1:2,0:0:0:0:
369,142,112365,1,14,2:2:0:0:
369,142,112580,2,0,L|194:148,1,160,2|10,1:3|2:2,0:0:0:0:
310,145,113222,6,0,P|437:185|366:349,1,320,6|8,1:2|2:2,0:0:0:0:
240,356,114508,1,2,2:2:0:0:
82,376,114937,5,6,1:2:0:0:
161,367,115151,1,10,2:2:0:0:
240,356,115365,1,2,1:2:0:0:
82,376,115794,1,14,2:2:0:0:
240,356,116222,1,2,1:2:0:0:
306,310,116437,1,10,2:2:0:0:
204,246,116651,6,0,L|81:257,1,120,6|2,1:2|1:2,0:0:0:0:
204,246,117294,1,2,1:2:0:0:
131,256,117508,1,12,2:2:0:0:
129,197,118365,5,6,1:2:0:0:
289,202,118794,2,0,L|452:198,1,160,0|14,1:1|2:2,0:0:0:0:
287,166,119651,1,2,1:2:0:0:
287,166,119865,1,2,2:3:0:0:
387,145,120080,6,0,L|199:148,2,160,6|6|14,1:2|1:2|2:2,0:0:0:0:
387,145,121151,1,2,1:2:0:0:
226,140,121580,1,2,2:2:0:0:
146,142,121794,6,0,P|83:90|149:27,1,160,6|6,1:2|1:2,0:0:0:0:
274,34,122651,1,14,2:2:0:0:
114,32,123080,1,2,1:2:0:0:
314,73,123508,6,0,P|418:114|348:291,1,320,6|14,1:2|2:2,0:0:0:0:
315,282,124580,1,10,2:3:0:0:
268,238,124794,1,10,2:3:0:0:
282,168,125008,1,6,2:3:0:0:
361,143,125222,6,0,L|505:136,1,120,6|2,1:2|1:2,0:0:0:0:
361,143,125865,1,2,1:2:0:0:
440,135,126080,1,12,2:2:0:0:
440,135,126937,6,0,B|285:102|284:208|90:199,1,320,6|8,1:2|2:2,0:0:0:0:
132,193,128222,1,2,2:2:0:0:
292,195,128651,5,6,1:2:0:0:
346,167,128865,1,2,1:2:0:0:
331,113,129080,1,2,1:2:0:0:
172,123,129508,1,12,2:2:0:0:
251,116,129722,1,10,2:2:0:0:
331,113,129937,1,2,1:2:0:0:
132,185,130365,6,0,L|13:185,1,120,6|2,1:2|1:2,0:0:0:0:
132,185,131008,1,2,1:2:0:0:
52,186,131222,1,12,2:2:0:0:
218,168,132080,6,0,P|297:198|292:269,1,160,6|0,1:2|1:1,0:0:0:0:
139,296,132937,2,0,P|73:232|133:188,1,160,14|2,2:2|1:2,0:0:0:0:
305,190,133794,5,6,1:2:0:0:
395,157,134222,1,14,2:2:0:0:
412,49,134651,1,2,2:2:0:0:
307,1,135080,1,14,2:2:0:0:
227,6,135294,1,10,2:2:0:0:
147,14,135508,5,6,1:2:0:0:
310,61,135937,1,14,2:2:0:0:
147,14,136365,2,0,P|94:86|144:137,1,160,6|10,1:2|2:2,0:0:0:0:
331,30,137222,5,6,1:2:0:0:
261,63,137437,1,2,1:2:0:0:
235,138,137651,1,14,2:2:0:0:
268,254,138079,1,2,2:2:0:0:
382,294,138508,1,10,2:2:0:0:
220,315,138937,5,6,1:2:0:0:
299,313,139151,1,2,1:2:0:0:
378,313,139365,1,14,2:2:0:0:
220,315,139794,1,6,1:2:0:0:
378,313,140222,1,14,2:2:0:0:
177,312,140651,5,6,1:2:0:0:
245,286,140865,1,2,1:3:0:0:
271,221,141079,1,14,2:2:0:0:
234,92,141508,1,2,2:2:0:0:
109,60,141937,1,14,2:2:0:0:
268,62,142365,5,6,1:2:0:0:
188,59,142579,1,2,1:2:0:0:
109,60,142794,1,14,2:2:0:0:
270,76,143222,1,6,1:2:0:0:
106,68,143651,1,14,2:2:0:0:
305,53,144079,5,6,1:2:0:0:
240,81,144294,1,2,1:2:0:0:
203,132,144508,1,14,2:2:0:0:
214,270,144937,1,2,2:2:0:0:
321,347,145365,1,10,2:2:0:0:
158,366,145794,5,6,1:2:0:0:
236,351,146008,1,2,1:2:0:0:
158,366,146222,1,14,2:2:0:0:
317,354,146651,1,6,1:2:0:0:
157,358,147079,1,14,2:2:0:0:
358,353,147508,5,6,1:2:0:0:
293,325,147723,1,2,1:3:0:0:
256,274,147937,1,14,2:2:0:0:
267,136,148366,1,2,2:2:0:0:
374,59,148794,1,14,2:2:0:0:
450,58,149008,1,10,2:2:0:0:
361,71,149222,5,6,1:2:0:0:
201,82,149651,1,14,2:2:0:0:
362,81,150079,1,6,1:2:0:0:
198,109,150508,1,14,2:2:0:0:
395,196,150937,5,6,1:2:0:0:
315,200,151151,1,6,1:2:0:0:
404,201,151365,1,6,1:2:0:0:
