osu file format v14

[General]
AudioFilename: audio.ogg
AudioLeadIn: 0
PreviewTime: 14
Countdown: 0
SampleSet: Soft
StackLeniency: 0.4
Mode: 0
LetterboxInBreaks: 0
WidescreenStoryboard: 1

[Editor]
Bookmarks: 13881,27595,34452,48167,61881,68738,82452,96167,109881,137309,151024
DistanceSpacing: 0.2
BeatDivisor: 4
GridSize: 32
TimelineZoom: 2

[Metadata]
Title:ABC feat. Sophia Black
TitleUnicode:ABC feat. Sophia Black
Artist:Polyphia
ArtistUnicode:Polyphia
Creator:Mir
Version:Normal
Source:
Tags:english pop prog metal vocal rock tim henson and the boys andada ocean man boppin amateurre remember that you will die progressive clay gober aeschliman scott lepage
BeatmapID:3878001
BeatmapSetID:1845870

[Difficulty]
HPDrainRate:3
CircleSize:3
OverallDifficulty:4
ApproachRate:4.5
SliderMultiplier:1.3
SliderTickRate:1

[Events]
//Background and Video events
0,0,"colorful.jpg",0,0
//Break Periods
//Storyboard Layer 0 (Background)
//Storyboard Layer 1 (Fail)
//Storyboard Layer 2 (Pass)
//Storyboard Layer 3 (Foreground)
//Storyboard Layer 4 (Overlay)
//Storyboard Sound Samples

[TimingPoints]
80,428.571428571429,4,2,0,40,1,0
80,-111.111111111111,4,2,0,40,0,0
13365,-111.111111111111,4,2,0,40,0,0
13794,-111.111111111111,4,2,0,55,0,0
20651,-100,4,2,0,55,0,0
22151,-100,4,2,0,55,0,0
22365,-100,4,2,0,55,0,0
31580,-100,4,2,0,55,0,0
33508,-100,4,2,0,55,0,0
34365,-100,4,2,0,70,0,1
35222,-100,4,2,0,70,0,0
36080,-100,4,2,0,70,0,0
37365,-100,4,2,0,70,0,0
37794,-100,4,2,0,70,0,0
38651,-100,4,2,0,70,0,0
39508,-100,4,2,0,70,0,0
40580,-100,4,2,0,70,0,0
40794,-100,4,2,0,70,0,0
41008,-100,4,2,0,70,0,0
41222,-100,4,2,0,70,0,0
42080,-100,4,2,0,70,0,0
42937,-100,4,2,0,70,0,0
44222,-100,4,2,0,70,0,0
47651,-100,4,2,0,70,0,0
48080,-100,4,2,0,50,0,0
55794,-100,4,2,0,50,0,0
57080,-100,4,2,0,50,0,0
58365,-100,4,2,0,50,0,0
61794,-100,4,2,0,45,0,0
64365,-100,4,2,0,45,0,0
65222,-100,4,2,0,45,0,0
66937,-100,4,2,0,45,0,0
67794,-100,4,2,0,45,0,0
68651,-100,4,2,0,70,0,1
69508,-100,4,2,0,70,0,0
70365,-100,4,2,0,70,0,0
71651,-100,4,2,0,70,0,0
72080,-100,4,2,0,70,0,0
72937,-100,4,2,0,70,0,0
73794,-100,4,2,0,70,0,0
74866,-100,4,2,0,70,0,0
75080,-100,4,2,0,70,0,0
75294,-100,4,2,0,70,0,0
75508,-100,4,2,0,70,0,0
76365,-100,4,2,0,70,0,0
77222,-100,4,2,0,70,0,0
78508,-100,4,2,0,70,0,0
81937,-100,4,2,0,70,0,0
82365,-100,4,2,0,70,0,0
83008,-100,4,2,0,70,0,0
84080,-100,4,2,0,70,0,0
85151,-100,4,2,0,70,0,0
85365,-100,4,2,0,70,0,0
85580,-100,4,2,0,70,0,0
85794,-100,4,2,0,70,0,0
86437,-100,4,2,0,70,0,0
87508,-100,4,2,0,70,0,0
88151,-100,4,2,0,70,0,0
88365,-100,4,2,0,70,0,0
89865,-100,4,2,0,70,0,0
90937,-100,4,2,0,70,0,0
92008,-100,4,2,0,70,0,0
92222,-100,4,2,0,70,0,0
92437,-100,4,2,0,70,0,0
92651,-100,4,2,0,70,0,0
93294,-100,4,2,0,70,0,0
94365,-100,4,2,0,70,0,0
95008,-100,4,2,0,70,0,0
95222,-100,4,2,0,70,0,0
96080,-125,4,2,0,40,0,0
97794,-125,4,2,0,40,0,0
100580,-125,4,2,0,40,0,0
101222,-125,4,2,0,40,0,0
108937,-125,4,2,0,40,0,0
109794,-100,4,2,0,70,0,0
111508,-100,4,2,0,70,0,0
111937,-100,4,2,0,70,0,0
112365,-100,4,2,0,70,0,0
112580,-100,4,2,0,70,0,0
113222,-100,4,2,0,70,0,0
113865,-100,4,2,0,70,0,0
114508,-100,4,2,0,70,0,0
117722,-100,4,2,0,70,0,0
118365,-100,4,2,0,70,0,0
118901,-100,4,2,0,70,0,0
123508,-100,4,2,0,70,0,0
124365,-100,4,2,0,70,0,0
126937,-100,4,2,0,70,0,0
128008,-100,4,2,0,70,0,0
130365,-100,4,2,0,70,0,0
132722,-100,4,2,0,70,0,0
136365,-100,4,2,0,70,0,0
137222,-100,4,2,0,70,0,0
137865,-100,4,2,0,70,0,0
138937,-100,4,2,0,70,0,0
140008,-100,4,2,0,70,0,0
140222,-100,4,2,0,70,0,0
140437,-100,4,2,0,70,0,0
140651,-100,4,2,0,70,0,0
141294,-100,4,2,0,70,0,0
142365,-100,4,2,0,70,0,0
143008,-100,4,2,0,70,0,0
143222,-100,4,2,0,70,0,0
144722,-100,4,2,0,70,0,0
145794,-100,4,2,0,70,0,0
146865,-100,4,2,0,70,0,0
147079,-100,4,2,0,70,0,0
147294,-100,4,2,0,70,0,0
147508,-100,4,2,0,70,0,0
148151,-100,4,2,0,70,0,0
149222,-100,4,2,0,70,0,0
149865,-100,4,2,0,70,0,0
150079,-100,4,2,0,70,0,0

[Colours]
Combo1 : 136,230,157
Combo2 : 255,155,205
Combo3 : 162,223,220
Combo4 : 238,183,142

[HitObjects]
95,333,80,5,2,0:2:0:0:
95,333,937,2,0,P|101:294|111:253,1,58.4999982147217,2|2,0:2|0:2,0:0:0:0:
66,239,1365,2,0,P|60:200|50:159,1,58.4999982147217,2|2,0:2|0:2,0:0:0:0:
76,132,1794,5,2,0:2:0:0:
165,186,2222,1,2,0:2:0:0:
261,143,2651,1,2,0:2:0:0:
365,131,3080,1,2,0:2:0:0:
403,32,3508,6,0,P|451:45|528:61,2,116.999996429443,2|2|2,0:2|0:2|0:2,0:2:0:0:
359,127,4794,1,2,0:2:0:0:
259,76,5222,2,0,P|270:163|274:204,1,116.999996429443,2|2,0:2|0:2,0:2:0:0:
374,221,6080,2,0,P|362:269|358:300,1,58.4999982147217,2|2,0:2|0:2,0:0:0:0:
309,267,6508,2,0,P|321:315|325:346,1,58.4999982147217,2|2,0:2|0:2,0:0:0:0:
326,370,6937,5,2,0:2:0:0:
483,378,7580,1,2,0:2:0:0:
420,233,8222,2,0,P|423:202|443:154,1,58.4999982147217,2|2,0:2|0:2,0:0:0:0:
483,182,8651,2,0,P|482:138|471:85,1,87.7499973220825,2|2,0:2|0:2,0:2:0:0:
498,47,9187,1,2,0:2:0:0:
428,10,9508,2,0,P|366:15|351:79,1,116.999996429443,2|2,0:2|0:2,0:0:0:0:
325,163,10365,6,0,P|284:148|251:136,1,58.4999982147217,2|2,0:2|0:2,0:0:0:0:
245,195,10794,2,0,P|203:210|170:222,1,58.4999982147217,2|2,0:2|0:2,0:0:0:0:
145,187,11222,2,0,P|117:176|90:166,1,58.4999982147217,2|2,0:2|0:2,0:0:0:0:
56,207,11651,2,0,P|28:217|1:227,1,58.4999982147217,2|2,0:2|0:2,0:0:0:0:
7,279,12080,5,2,0:2:0:0:
104,317,12508,2,0,P|112:363|116:385,2,58.4999982147217,2|2|2,0:2|0:2|0:2,0:0:0:0:
184,248,13365,1,2,0:2:0:0:
268,310,13794,6,0,P|312:331|325:341,1,58.4999982147217,2|2,1:2|0:2,0:0:0:0:
352,377,14222,2,0,P|409:363|411:292,1,116.999996429443,10|2,0:2|0:2,0:0:0:0:
351,232,15080,2,0,P|334:164|331:151,1,58.4999982147217,10|0,0:2|0:2,0:0:0:0:
360,128,15508,2,0,P|380:78|421:7,1,116.999996429443,2|10,0:2|0:2,0:2:0:0:
484,97,16365,6,0,P|459:148|451:159,1,58.4999982147217,2|2,1:2|0:2,0:0:0:0:
447,201,16794,2,0,P|486:214|506:226,2,58.4999982147217,10|2|2,0:2|0:2|1:2,0:0:0:0:
359,259,17651,1,10,0:2:0:0:
263,213,18080,6,0,P|227:202|190:195,1,58.4999982147217,2|2,3:2|3:2,0:0:0:0:
166,231,18508,2,0,P|137:237|109:246,2,58.4999982147217,10|2|2,3:2|3:2|1:2,3:2:0:0:
215,137,19365,6,0,P|226:73|225:56,1,58.4999982147217,10|2,0:2|0:2,0:0:0:0:
239,28,19794,2,0,P|196:21|141:4,2,87.7499973220825,2|2|2,1:2|0:2|0:2,0:0:0:0:
275,74,20651,6,0,P|334:57|386:52,1,97.4999999999999,6|2,1:2|0:2,0:2:0:0:
450,87,21294,1,2,0:2:0:0:
450,87,21508,2,0,P|439:132|416:240,1,130,2|8,3:2|3:2,0:2:0:0:
496,303,22365,6,0,P|461:348|399:349,1,97.4999999999999,2|2,0:2|0:2,0:2:0:0:
349,308,23008,1,2,1:2:0:0:
349,308,23222,2,0,P|307:300|202:288,1,130,2|2,1:2|3:2,0:0:0:0:
179,331,23865,1,2,3:2:0:0:
179,331,24080,6,0,P|137:333|93:268,1,97.4999999999999,2|2,1:2|1:2,0:2:0:0:
117,242,24615,1,2,1:2:0:0:
117,242,24830,2,0,P|109:178|88:127,1,97.4999999999999,2|0,1:2|3:2,3:2:0:0:
75,93,25365,1,10,3:2:0:0:
155,7,25794,6,0,P|204:28|213:113,1,130,2|8,1:2|0:2,0:2:0:0:
195,151,26437,1,0,0:2:0:0:
195,151,26651,2,0,P|224:172|309:197,2,97.4999999999999,0|0|0,1:2|0:2|0:2,0:2:0:0:
152,191,27508,5,6,1:2:0:0:
437,333,29222,1,2,0:2:0:0:
373,86,30080,5,2,0:2:0:0:
261,120,30508,1,10,0:2:0:0:
179,35,30937,1,2,1:2:0:0:
32,217,31794,5,2,0:3:0:0:
214,363,32651,5,4,0:2:0:0:
267,343,34365,5,4,1:2:0:0:
267,343,34580,1,4,1:2:0:0:
267,343,34794,1,12,1:2:0:0:
345,256,35222,2,0,P|355:206|365:172,1,64.9999999999999,2|2,0:2|0:2,0:2:0:0:
417,196,35651,2,0,P|407:146|397:112,1,64.9999999999999,10|2,0:2|0:2,0:2:0:0:
441,88,36080,5,0,1:2:0:0:
441,88,36294,1,0,1:2:0:0:
441,88,36508,1,10,1:2:0:0:
340,27,36937,2,0,P|300:46|208:58,1,130,2|10,1:2|1:2,0:2:0:0:
128,134,37794,1,6,1:2:0:0:
128,134,38008,1,4,1:2:0:0:
128,134,38222,1,14,1:2:0:0:
27,74,38651,2,0,P|18:42|8:11,2,64.9999999999999,0|2|2,0:2|0:3|0:3,0:2:0:0:
135,142,39508,5,2,1:2:0:0:
135,142,39722,1,0,1:2:0:0:
135,142,39937,1,10,1:2:0:0:
54,226,40365,1,6,1:2:0:0:
107,330,40794,1,8,1:2:0:0:
216,290,41222,5,6,1:2:0:0:
216,290,41437,1,4,1:2:0:0:
216,290,41651,2,0,P|250:305|281:322,1,64.9999999999999,12|2,1:2|1:2,0:2:0:0:
442,367,42508,1,10,3:2:0:0:
496,263,42937,2,0,P|502:207|511:150,2,97.4999999999999,6|6|0,1:2|0:2|0:0,0:2:0:0:
437,254,43794,1,2,0:2:0:0:
336,194,44222,1,10,0:2:0:0:
247,271,44651,6,0,P|194:279|173:285,1,64.9999999999999,2|10,1:2|3:2,0:0:0:0:
156,334,45080,2,0,P|103:326|82:320,1,64.9999999999999,2|10,1:2|0:2,0:0:0:0:
52,279,45508,1,2,1:2:0:0:
52,279,45722,1,2,1:2:0:0:
104,174,46151,5,2,1:2:0:0:
104,174,46365,2,0,P|113:133|122:88,1,64.9999999999999,2|10,1:2|0:2,0:0:0:0:
100,65,46794,1,2,1:2:0:0:
100,65,47008,1,2,1:2:0:0:
100,65,47222,2,0,P|49:66|0:137,2,130,2|8|6,1:2|0:2|1:2,0:0:0:0:
392,63,49151,6,0,L|382:142,1,64.9999999999999,0|8,0:2|0:2,0:0:0:0:
228,208,50008,1,0,0:2:0:0:
228,208,50222,2,0,L|238:287,1,64.9999999999999,8|2,1:2|0:2,0:2:0:0:
291,292,50651,2,0,P|327:298|369:312,1,64.9999999999999,2|0,1:2|0:2,0:2:0:0:
390,351,51080,1,8,1:2:0:0:
493,297,51508,6,0,L|227:342,1,260,6|2,1:2|0:2,0:2:0:0:
121,362,52794,1,10,0:2:0:0:
36,281,53222,2,0,P|48:214|51:194,1,64.9999999999999,2|0,1:2|0:2,0:2:0:0:
103,198,53651,2,0,P|91:131|88:111,1,64.9999999999999,10|2,1:2|0:2,0:0:0:0:
83,75,54080,2,0,P|40:68|2:54,2,64.9999999999999,2|0|8,0:2|1:2|0:2,0:2:0:0:
183,135,54937,6,0,B|227:127|227:127|252:103|252:103|312:89,1,130,6|8,1:2|0:2,0:2:0:0:
394,21,55794,1,2,0:2:0:0:
471,108,56222,2,0,P|455:159|433:249,1,130,10|2,0:2|0:2,0:0:0:0:
331,286,57080,2,0,L|316:202,1,64.9999999999999,10|0,1:2|0:2,0:2:0:0:
274,185,57508,2,0,L|289:101,2,64.9999999999999,2|0|10,0:2|1:2|0:2,0:2:0:0:
222,212,58151,1,2,1:2:0:0:
222,212,58365,6,0,P|145:219|63:230,1,130,6|8,1:2|0:2,0:2:0:0:
56,271,59008,1,0,1:2:0:0:
56,271,59222,1,2,0:2:0:0:
145,346,59651,2,0,P|193:328|217:322,1,64.9999999999999,10|2,0:2|0:2,0:0:0:0:
254,358,60080,2,0,P|270:302|278:278,1,64.9999999999999,2|2,1:2|3:2,0:0:0:0:
327,277,60508,1,8,1:2:0:0:
243,195,60937,2,0,L|171:176,2,64.9999999999999,2|2|10,1:2|3:2|1:2,3:2:0:0:
326,112,61794,6,0,L|303:12,2,97.4999999999999,4|8|8,1:2|3:2|3:2,0:2:0:0:
381,278,63080,1,8,3:2:0:0:
462,194,63508,2,0,L|485:94,2,97.4999999999999,8|8|8,3:2|3:2|3:2,3:2:0:0:
432,160,64365,6,0,P|375:177|353:188,1,64.9999999999999,0|0,1:2|3:2,3:2:0:0:
316,202,64794,2,0,P|259:185|237:174,1,64.9999999999999,0|0,1:2|3:2,0:0:0:0:
199,199,65222,5,4,1:2:0:0:
52,15,66080,1,4,0:2:0:0:
25,247,66937,1,4,0:2:0:0:
259,346,68651,5,4,1:2:0:0:
259,346,68865,1,4,1:2:0:0:
259,346,69080,1,12,1:2:0:0:
309,240,69508,2,0,L|299:167,1,64.9999999999999,2|2,0:2|0:2,0:2:0:0:
244,156,69937,2,0,L|254:83,1,64.9999999999999,10|2,0:2|0:2,0:2:0:0:
297,53,70365,1,0,1:2:0:0:
297,53,70580,1,0,1:2:0:0:
297,53,70794,1,10,1:2:0:0:
407,16,71222,2,0,P|452:33|478:116,1,130,2|10,1:2|1:2,0:2:0:0:
404,195,72080,5,6,1:2:0:0:
404,195,72294,1,4,1:2:0:0:
404,195,72508,1,14,1:2:0:0:
301,251,72937,2,0,P|256:230|216:220,1,64.9999999999999,0|2,0:2|0:3,0:2:0:0:
209,176,73365,2,0,P|164:197|124:207,1,64.9999999999999,2|0,0:3|1:2,0:2:0:0:
95,177,73794,1,2,1:2:0:0:
95,177,74008,1,0,1:2:0:0:
95,177,74222,1,10,1:2:0:0:
16,263,74651,2,0,P|39:307|60:395,1,130,6|8,1:2|1:2,0:2:0:0:
158,323,75508,5,6,1:2:0:0:
158,323,75722,1,4,1:2:0:0:
158,323,75937,2,0,P|201:332|229:341,1,64.9999999999999,12|2,1:2|1:2,0:2:0:0:
392,374,76794,2,0,P|397:326|403:294,1,64.9999999999999,10|2,3:2|0:2,0:0:0:0:
441,268,77222,2,0,P|492:248|547:233,2,97.4999999999999,6|6|0,1:2|0:2|0:0,0:2:0:0:
395,231,78080,1,2,0:2:0:0:
466,138,78508,1,10,0:2:0:0:
372,67,78937,6,0,P|318:46|292:37,1,64.9999999999999,2|10,1:2|3:2,0:0:0:0:
274,88,79365,2,0,P|220:109|194:118,1,64.9999999999999,2|10,1:2|0:2,0:0:0:0:
160,85,79794,1,2,1:2:0:0:
160,85,80008,1,2,1:2:0:0:
76,167,80437,1,2,1:2:0:0:
76,167,80651,2,0,P|91:208|96:239,1,64.9999999999999,2|10,1:2|0:2,0:0:0:0:
71,282,81080,1,2,1:2:0:0:
71,282,81294,1,2,1:2:0:0:
71,282,81508,1,2,1:2:0:0:
150,368,81937,2,2,B|184:374|184:374|219:344,1,64.9999999999999,8|8,0:2|0:2,0:1:0:0:
252,317,82365,5,6,1:2:0:0:
252,317,82580,1,6,1:2:0:0:
252,317,82794,1,6,1:2:0:0:
349,381,83222,1,0,0:2:0:0:
435,302,83651,1,10,0:2:0:0:
378,199,84080,1,6,0:2:0:0:
378,199,84294,1,6,1:2:0:0:
378,199,84508,1,14,0:2:0:0:
456,112,84937,1,6,1:2:0:0:
389,16,85365,1,14,0:2:0:0:
283,51,85794,5,6,1:2:0:0:
283,51,86008,1,4,1:2:0:0:
283,51,86222,1,14,0:2:0:0:
289,167,86651,1,2,0:2:0:0:
177,203,87080,1,10,3:2:0:0:
109,122,87508,1,6,1:2:0:0:
109,122,87722,1,6,1:2:0:0:
109,122,87937,1,14,0:2:0:0:
167,20,88365,1,6,1:2:0:0:
283,51,88794,2,0,P|293:90|303:123,1,64.9999999999999,6|0,1:2|0:2,2:2:0:0:
343,152,89222,5,6,1:2:0:0:
343,152,89437,1,6,1:2:0:0:
343,152,89651,1,6,1:2:0:0:
448,101,90080,1,2,0:2:0:0:
505,202,90508,2,0,P|484:240|478:269,1,64.9999999999999,8|0,0:2|0:2,0:2:0:0:
488,331,90937,5,6,1:2:0:0:
488,331,91151,1,6,1:2:0:0:
488,331,91365,1,14,1:2:0:0:
373,357,91794,2,0,P|337:342|295:330,1,64.9999999999999,6|2,1:2|0:2,0:2:0:0:
272,291,92222,2,0,P|236:306|194:318,1,64.9999999999999,14|2,0:2|0:2,0:2:0:0:
166,351,92651,5,6,1:2:0:0:
166,351,92865,1,4,1:2:0:0:
166,351,93080,1,14,0:2:0:0:
59,302,93508,2,0,P|42:266|25:227,1,64.9999999999999,2|2,0:2|0:2,0:2:0:0:
76,204,93937,2,0,P|93:168|110:129,1,64.9999999999999,10|8,0:2|0:2,0:2:0:0:
72,95,94365,5,6,1:2:0:0:
72,95,94580,1,6,1:2:0:0:
72,95,94794,1,14,0:2:0:0:
172,35,95222,1,6,1:2:0:0:
268,101,95651,1,6,1:2:0:0:
374,51,96080,6,0,P|431:41|491:27,1,104,4|0,0:1|0:0,0:2:0:0:
502,69,96722,1,0,0:2:0:0:
502,69,96937,2,0,P|490:108|471:181,1,104,2|2,0:3|0:2,0:2:0:0:
428,182,97580,1,2,0:2:0:0:
428,182,97794,5,6,0:2:0:0:
339,235,98222,1,2,0:2:0:0:
254,174,98651,1,6,0:2:0:0:
303,82,99080,1,2,0:2:0:0:
219,30,99508,2,0,P|159:40|100:47,2,104,6|2|2,0:2|0:3|0:3,0:2:0:0:
224,76,100580,1,2,0:2:0:0:
224,76,100794,1,2,0:2:0:0:
165,149,101222,6,0,P|155:200|140:265,1,104,6|2,0:2|0:2,0:2:0:0:
107,280,101865,1,2,0:2:0:0:
107,280,102080,2,0,P|146:313|179:370,1,104,2|2,0:3|0:2,0:0:0:0:
224,366,102722,1,2,0:2:0:0:
224,366,102937,2,0,P|253:340|303:324,2,77.9999999999999,2|2|2,0:2|0:3|0:3,0:2:0:0:
233,225,104222,6,0,P|239:196|250:165,1,52,2|2,0:3|0:3,0:0:0:0:
286,151,104651,2,0,P|278:97|276:56,2,77.9999999999999,2|2|0,0:2|0:2|0:2,0:2:0:0:
328,170,105508,2,0,P|358:177|450:199,1,104,2|2,0:3|0:2,0:0:0:0:
475,275,106365,5,2,0:2:0:0:
397,327,106794,1,2,0:2:0:0:
308,296,107222,1,2,0:2:0:0:
235,354,107651,1,2,0:2:0:0:
149,315,108080,1,2,0:2:0:0:
72,369,108508,1,2,0:2:0:0:
2,305,108937,2,0,P|12:255|21:192,1,104,2|0,0:2|0:2,0:2:0:0:
26,85,109794,6,0,B|93:98|48:142|138:158,1,130,4|0,0:1|0:0,0:2:0:0:
234,105,110651,2,0,L|252:32,1,64.9999999999999,8|2,0:2|3:2,0:2:0:0:
303,18,111080,2,0,L|318:81,1,64.9999999999999,2|2,0:2|3:2,0:2:0:0:
369,110,111508,2,0,P|415:118|511:137,1,130,2|2,1:2|1:2,0:2:0:0:
477,252,112365,1,10,0:2:0:0:
477,252,112580,2,0,P|431:260|335:279,1,130,2|0,1:2|0:2,0:2:0:0:
328,330,113222,6,0,P|284:353|236:302,2,130,4|2|8,1:1|0:2|0:2,0:2:0:0:
282,222,114508,1,2,0:2:0:0:
282,222,114722,1,2,0:2:0:0:
282,222,114937,2,0,P|261:167|252:140,2,64.9999999999999,2|2|2,1:2|1:2|1:2,0:0:0:0:
356,132,115794,2,0,P|360:74|364:49,1,64.9999999999999,8|0,0:2|0:2,0:0:0:0:
302,63,116222,2,0,P|298:5|294:-20,1,64.9999999999999,2|10,1:2|0:2,0:2:0:0:
238,5,116651,5,6,1:2:0:0:
169,59,116972,1,6,1:2:0:0:
84,34,117294,1,6,1:2:0:0:
35,322,118365,6,0,P|106:300|149:290,1,97.4999999999999,6|2,1:2|0:2,0:2:0:0:
181,319,118901,1,2,0:2:0:0:
260,281,119222,2,0,L|277:189,1,65,10|0,0:2|0:2,0:2:0:0:
298,164,119651,2,0,P|363:148|372:145,1,64.9999999999999,2|2,1:2|0:3,0:2:0:0:
404,181,120080,6,0,L|416:253,1,64.9999999999999,2|2,1:2|0:2,0:0:0:0:
468,267,120508,2,0,L|456:339,1,64.9999999999999,2|2,1:2|0:2,0:0:0:0:
408,364,120937,1,10,0:2:0:0:
408,364,121151,1,2,1:2:0:0:
336,312,121472,1,2,1:2:0:0:
258,353,121794,2,0,P|197:365|179:368,1,64.9999999999999,2|2,1:2|1:2,0:0:0:0:
143,337,122222,1,2,1:2:0:0:
143,337,122437,1,2,1:2:0:0:
143,337,122651,2,0,B|155:294|155:294|146:246|146:246|161:188,1,130,8|2,3:2|0:3,0:0:0:0:
205,105,123508,6,0,B|162:72|162:72|17:112|17:112|-1:171,1,260,4|10,0:1|0:2,0:2:0:0:
31,283,124794,1,10,0:3:0:0:
31,283,125008,1,6,0:3:0:0:
31,283,125222,5,2,1:2:0:0:
93,345,125544,1,2,1:2:0:0:
175,316,125865,1,2,1:2:0:0:
285,356,126294,2,0,L|353:343,2,64.9999999999999,2|2|2,0:2|0:2|0:3,0:0:0:0:
261,302,126937,6,0,P|287:224|301:186,2,97.4999999999999,4|2|2,1:1|0:2|0:2,0:2:0:0:
197,203,128008,2,0,P|183:156|171:121,2,64.9999999999999,2|2|2,3:2|0:2|3:2,3:2:0:0:
157,246,128651,1,2,1:2:0:0:
157,246,128865,1,2,1:2:0:0:
157,246,129080,1,2,1:2:0:0:
60,179,129508,2,0,L|89:39,1,130,8|0,0:2|1:2,0:0:0:0:
200,24,130365,5,2,1:2:0:0:
268,79,130687,1,2,1:2:0:0:
352,55,131008,1,2,1:2:0:0:
488,165,131651,2,0,P|472:209|463:236,1,64.9999999999999,2|2,0:2|0:2,0:0:0:0:
493,278,132080,6,0,P|422:282|388:341,1,130,6|2,1:2|1:2,0:0:0:0:
353,371,132722,1,2,0:2:0:0:
353,371,132937,2,0,P|310:355|298:317,1,64.9999999999999,10|2,0:2|0:2,0:0:0:0:
295,282,133365,1,2,1:2:0:0:
365,188,133794,6,0,L|345:117,1,64.9999999999999,6|2,1:2|0:2,0:0:0:0:
307,82,134222,2,0,L|167:46,1,130,6|10,1:2|0:2,0:0:0:0:
128,40,134865,1,6,1:2:0:0:
128,40,135080,2,0,L|145:102,1,64.9999999999999,10|10,3:2|3:2,0:0:0:0:
143,161,135508,2,0,L|63:187,1,64.9999999999999,6|2,1:2|0:2,0:0:0:0:
57,234,135937,1,10,0:2:0:0:
57,234,136151,1,4,0:3:0:0:
57,234,136365,2,0,B|93:283|93:283|162:248,1,130,4|2,0:3|0:3,0:2:0:0:
212,353,137222,5,6,1:2:0:0:
212,353,137437,1,6,1:2:0:0:
212,353,137651,1,6,1:2:0:0:
320,307,138080,1,0,3:2:0:0:
421,364,138508,1,10,0:2:0:0:
502,288,138937,1,6,0:2:0:0:
502,288,139151,1,6,1:2:0:0:
502,288,139365,1,14,0:2:0:0:
414,211,139794,1,6,1:2:0:0:
455,103,140222,1,14,0:2:0:0:
346,66,140651,5,6,1:2:0:0:
346,66,140865,1,4,1:2:0:0:
346,66,141080,1,14,0:2:0:0:
301,174,141508,1,2,0:2:0:0:
189,138,141937,1,10,3:2:0:0:
234,34,142365,1,6,1:2:0:0:
234,34,142580,1,6,1:2:0:0:
234,34,142794,1,14,0:2:0:0:
346,66,143222,1,6,1:2:0:0:
301,174,143651,2,0,L|327:263,1,64.9999999999999,6|0,1:2|0:0,2:2:0:0:
375,251,144080,5,6,1:2:0:0:
375,251,144294,1,6,1:2:0:0:
375,251,144508,1,6,1:2:0:0:
370,367,144937,2,0,P|341:355|309:346,1,64.9999999999999,2|0,0:2|0:2,0:2:0:0:
265,308,145365,2,0,P|235:320|203:329,1,64.9999999999999,8|0,0:2|0:2,0:2:0:0:
159,368,145794,5,6,1:2:0:0:
159,368,146008,1,6,1:2:0:0:
159,368,146222,1,14,1:2:0:0:
72,306,146651,1,6,1:2:0:0:
127,202,147080,2,0,L|145:109,1,64.9999999999999,14|2,0:2|0:2,0:2:0:0:
103,92,147508,5,6,1:2:0:0:
103,92,147722,1,4,1:2:0:0:
103,92,147937,1,14,0:2:0:0:
192,16,148365,2,0,P|231:40|252:50,1,64.9999999999999,2|2,0:2|0:2,0:2:0:0:
293,86,148794,2,0,P|332:62|353:52,1,64.9999999999999,10|8,0:2|0:2,0:2:0:0:
398,22,149222,5,6,1:2:0:0:
398,22,149437,1,6,1:2:0:0:
398,22,149651,1,14,0:2:0:0:
475,110,150080,1,6,1:2:0:0:
393,193,150508,1,6,1:2:0:0:
476,274,150937,5,6,1:2:0:0:
441,320,151151,1,6,1:2:0:0:
383,309,151365,1,6,1:2:0:0:
