osu file format v14

[General]
AudioFilename: audio.ogg
AudioLeadIn: 0
PreviewTime: 14
Countdown: 0
SampleSet: Soft
StackLeniency: 0.4
Mode: 0
LetterboxInBreaks: 0
WidescreenStoryboard: 1

[Editor]
Bookmarks: 13881,27595,34452,48167,61881,68738,82452,96167,109881,137309,151024
DistanceSpacing: 0.8
BeatDivisor: 16
GridSize: 32
TimelineZoom: 2

[Metadata]
Title:ABC feat. Sophia Black
TitleUnicode:ABC feat. Sophia Black
Artist:Polyphia
ArtistUnicode:Polyphia
Creator:Mir
Version:Boppin's Insane
Source:
Tags:english pop prog metal vocal rock tim henson and the boys andada ocean man boppin amateurre remember that you will die progressive clay gober aeschliman scott lepage
BeatmapID:3810198
BeatmapSetID:1845870

[Difficulty]
HPDrainRate:4.5
CircleSize:3.8
OverallDifficulty:8
ApproachRate:9
SliderMultiplier:1.8
SliderTickRate:1

[Events]
//Background and Video events
0,0,"colorful.jpg",0,0
//Break Periods
//Storyboard Layer 0 (Background)
//Storyboard Layer 1 (Fail)
//Storyboard Layer 2 (Pass)
//Storyboard Layer 3 (Foreground)
//Storyboard Layer 4 (Overlay)
//Storyboard Sound Samples

[TimingPoints]
80,428.571428571429,4,2,0,40,1,0
80,-125,4,2,0,40,0,0
13365,-200,4,2,0,40,0,0
13794,-125,4,2,0,55,0,0
20651,-83.3333333333333,4,2,0,55,0,0
24080,-90.9090909090908,4,2,0,55,0,0
27508,-125,4,2,0,55,0,0
30937,-250,4,2,0,55,0,0
34365,-58.8235294117647,4,2,0,70,0,0
35222,-100,4,2,0,70,0,0
36080,-58.8235294117647,4,2,0,70,0,0
37794,-58.8235294117647,4,2,0,70,0,0
38651,-100,4,2,0,70,0,0
39508,-58.8235294117647,4,2,0,70,0,0
40580,-83.3333333333333,4,2,0,70,0,0
40794,-58.8235294117647,4,2,0,70,0,0
41008,-83.3333333333333,4,2,0,70,0,0
41222,-58.8235294117647,4,2,0,70,0,0
42080,-100,4,2,0,70,0,0
42508,-71.4285714285714,4,2,0,70,0,0
42937,-58.8235294117647,4,2,0,70,0,0
44651,-83.3333333333333,4,2,0,70,0,0
47651,-66.6666666666667,4,2,0,70,0,0
48080,-100,4,2,0,50,0,0
50222,-100,4,2,0,50,0,0
50651,-83.3333333333333,4,2,0,50,0,0
51080,-68.9655172413793,4,2,0,50,0,0
51937,-100,4,2,0,50,0,0
53222,-100,4,2,0,50,0,0
53651,-83.3333333333333,4,2,0,50,0,0
54080,-68.9655172413793,4,2,0,50,0,0
54937,-83.3333333333333,4,2,0,50,0,0
61794,-125,4,2,0,45,0,0
65222,-250,4,2,0,45,0,0
68651,-58.8235294117647,4,2,0,70,0,0
69508,-100,4,2,0,70,0,0
70365,-58.8235294117647,4,2,0,70,0,0
72937,-100,4,2,0,70,0,0
73794,-58.8235294117647,4,2,0,70,0,0
78937,-83.3333333333333,4,2,0,70,0,0
81937,-66.6666666666667,4,2,0,70,0,0
82365,-71.4285714285714,4,2,0,70,0,0
83222,-100,4,2,0,70,0,0
84080,-71.4285714285714,4,2,0,70,0,0
86437,-100,4,2,0,70,0,0
87508,-71.4285714285714,4,2,0,70,0,0
88151,-100,4,2,0,70,0,0
88794,-58.8235294117647,4,2,0,70,0,0
89222,-71.4285714285714,4,2,0,70,0,0
90508,-100,4,2,0,70,0,0
90937,-71.4285714285714,4,2,0,70,0,0
93294,-100,4,2,0,70,0,0
93937,-83.3333333333333,4,2,0,70,0,0
94365,-71.4285714285714,4,2,0,70,0,0
95651,-58.8235294117647,4,2,0,70,0,0
96080,-166.666666666667,4,2,0,40,0,0
99508,-125,4,2,0,40,0,0
99937,-166.666666666667,4,2,0,40,0,0
104651,-125,4,2,0,40,0,0
106365,-166.666666666667,4,2,0,40,0,0
109794,-71.4285714285715,4,2,0,70,0,0
110651,-83.3333333333333,4,2,0,70,0,0
111937,-100,4,2,0,70,0,0
112580,-71.4285714285714,4,2,0,70,0,0
114080,-71.4285714285714,4,2,0,70,0,0
117722,-100,4,2,0,70,0,0
117937,-71.4285714285714,4,2,0,70,0,0
120080,-83.3333333333333,4,2,0,70,0,0
122651,-71.4285714285714,4,2,0,70,0,0
128008,-100,4,2,0,70,0,0
132080,-66.6666666666667,4,2,0,70,0,0
137222,-71.4285714285714,4,2,0,70,0,0
138080,-100,4,2,0,70,0,0
138937,-71.4285714285714,4,2,0,70,0,0
143222,-100,4,2,0,70,0,0
143651,-58.8235294117647,4,2,0,70,0,0
144080,-71.4285714285714,4,2,0,70,0,0
148151,-100,4,2,0,70,0,0
149222,-71.4285714285714,4,2,0,70,0,0
150080,-100,4,2,0,70,0,0
150508,-58.8235294117647,4,2,0,70,0,0
150937,-71.4285714285714,4,2,0,70,0,0

[Colours]
Combo1 : 136,230,157
Combo2 : 255,155,205
Combo3 : 162,223,220
Combo4 : 238,183,142

[HitObjects]
505,21,80,6,0,B|493:39|493:39|446:39|410:73,1,108,2|0,0:2|0:2,0:2:0:0:
414,69,722,1,0,0:2:0:0:
334,81,937,2,0,P|343:119|383:141,2,72,2|2|2,0:2|0:2|0:2,0:0:0:0:
363,10,1580,1,2,0:2:0:0:
478,160,1794,6,0,P|419:164|346:229,1,144,2|2,0:2|0:2,0:0:0:0:
203,77,2651,2,0,P|144:73|71:8,1,144,2|2,0:2|0:2,0:2:0:0:
78,22,3294,1,0,0:2:0:0:
284,122,3508,6,0,P|273:171|256:240,1,108,2|0,0:2|0:2,0:2:0:0:
259,227,3937,1,2,0:2:0:0:
9,314,4365,2,0,P|35:344|35:382,1,72,2|2,0:2|0:2,0:0:0:0:
36,374,4794,1,2,0:2:0:0:
203,377,5222,6,0,P|241:331|332:312,1,144,2|2,0:2|0:2,0:2:0:0:
320,310,5865,1,0,0:2:0:0:
467,176,6080,5,2,0:2:0:0:
387,175,6294,1,2,0:2:0:0:
340,114,6508,1,2,0:2:0:0:
354,36,6722,1,2,0:2:0:0:
512,42,6937,6,0,B|495:64|495:64|458:70|417:97,2,108,2|0|2,0:2|0:2|0:2,0:2:0:0:
512,42,8008,1,0,0:2:0:0:
265,41,8222,5,2,0:2:0:0:
260,30,8330,1,2,0:2:0:0:
267,26,8437,1,2,0:2:0:0:
181,89,8651,6,0,B|207:103|207:103|223:157,1,72,2|0,0:2|0:2,0:2:0:0:
291,176,8972,2,0,L|280:210,1,36,2|0,0:2|0:2,0:2:0:0:
201,222,9187,2,0,L|156:235,2,36,2|0|0,0:2|0:2|0:2,0:2:0:0:
386,314,9508,6,0,L|376:357,1,36,2|2,0:2|0:2,0:0:0:0:
302,332,9722,2,0,L|310:296,1,36,2|2,0:2|0:2,0:0:0:0:
228,354,9937,2,0,P|183:362|149:372,1,72,2|0,0:2|0:2,0:2:0:0:
34,367,10365,5,2,0:2:0:0:
40,350,10472,1,2,0:2:0:0:
46,333,10580,1,2,0:2:0:0:
52,316,10686,1,2,0:2:0:0:
57,297,10794,2,0,L|43:250,3,36,2|2|2|2,0:2|0:2|0:2|0:2,0:0:0:0:
175,292,11222,5,2,0:2:0:0:
169,275,11329,1,2,0:2:0:0:
163,258,11437,1,2,0:2:0:0:
157,241,11543,1,2,0:2:0:0:
152,222,11651,2,0,L|166:175,3,36,2|2|2|2,0:2|0:2|0:2|0:2,0:0:0:0:
92,149,12080,6,0,L|48:165,1,36,2|2,0:2|0:2,0:0:0:0:
37,85,12294,2,0,L|-7:69,1,36,2|2,0:2|0:2,0:0:0:0:
142,80,12508,2,0,L|186:96,1,36,2|2,0:2|0:2,0:0:0:0:
197,16,12722,2,0,L|241:0,1,36,2|2,0:2|0:2,0:0:0:0:
295,51,12937,2,0,P|346:53|377:104,1,108,2|0,0:2|0:2,0:2:0:0:
376,96,13365,1,2,0:2:0:0:
21,355,13794,5,2,1:2:0:0:
81,285,14008,1,2,0:2:0:0:
166,321,14222,1,10,0:2:0:0:
21,217,14544,5,2,0:2:0:0:
16,209,14651,1,2,0:2:0:0:
157,135,14972,1,2,0:2:0:0:
162,127,15079,1,10,0:2:0:0:
99,72,15294,6,0,L|50:92,1,36,0|0,0:2|0:2,0:0:0:0:
3,36,15508,1,2,0:2:0:0:
3,36,15937,1,10,0:2:0:0:
154,135,16365,6,0,L|144:169,1,36,2|2,1:2|0:2,0:0:0:0:
229,175,16580,2,0,L|238:209,1,36,2|2,0:2|0:2,0:0:0:0:
288,125,16794,1,10,0:2:0:0:
353,187,17008,1,2,0:2:0:0:
353,187,17115,1,0,0:2:0:0:
353,187,17222,6,0,L|395:203,1,36,2|0,1:2|0:0,0:2:0:0:
470,25,17651,2,0,L|512:9,1,36,10|0,0:2|0:0,0:2:0:0:
287,246,18080,6,0,L|300:288,1,36,2|2,3:2|3:2,0:0:0:0:
461,379,18294,2,0,L|474:337,1,36,2|2,3:2|3:2,0:0:0:0:
501,237,18508,5,10,3:2:0:0:
474,212,18615,1,0,3:2:0:0:
438,212,18722,1,2,3:2:0:0:
407,231,18830,1,0,3:2:0:0:
395,265,18937,1,2,1:2:0:0:
210,179,19365,5,10,0:2:0:0:
278,124,19580,2,0,L|263:85,1,36,2|0,0:2|0:2,0:2:0:0:
326,32,19794,1,2,1:2:0:0:
326,32,19901,2,0,L|372:47,1,36,2|0,0:2|0:2,0:2:0:0:
423,115,20115,1,2,0:2:0:0:
423,115,20222,2,0,L|377:130,1,36,8|2,0:2|0:2,0:0:0:0:
375,143,20437,2,0,L|363:177,1,36,2|2,0:2|0:2,0:0:0:0:
244,291,20651,6,0,P|195:295|159:351,1,107.999996704102,6|0,1:2|0:2,0:2:0:0:
87,370,20972,2,0,L|26:356,1,53.9999983520508,2|8,0:2|0:2,0:2:0:0:
0,281,21187,1,0,0:2:0:0:
0,281,21294,2,0,L|63:260,1,53.9999983520508,2|0,0:2|0:2,0:2:0:0:
128,242,21508,2,0,L|107:179,1,53.9999983520508,2|0,3:2|0:2,0:2:0:0:
0,69,21722,5,0,3:2:0:0:
24,93,21830,1,0,3:2:0:0:
60,81,21937,1,8,3:2:0:0:
81,107,22044,1,0,3:2:0:0:
114,99,22151,1,0,3:2:0:0:
247,14,22365,6,0,P|265:71|279:124,1,107.999996704102,2|0,0:2|0:2,0:2:0:0:
352,148,22687,2,0,P|342:176|332:209,1,53.9999983520508,2|8,0:2|0:2,0:2:0:0:
394,257,22901,1,0,0:2:0:0:
394,257,23008,2,0,P|422:247|455:237,1,53.9999983520508,2|0,1:2|0:2,0:2:0:0:
249,192,23222,2,0,P|257:217|266:243,1,53.9999983520508,2|0,1:2|3:2,0:0:0:0:
193,312,23437,5,0,3:2:0:0:
169,336,23545,1,0,3:2:0:0:
133,324,23652,1,2,3:2:0:0:
109,351,23759,1,2,3:2:0:0:
73,348,23866,1,2,3:2:0:0:
9,195,24080,6,0,P|34:202|67:216,1,49.5000015106202,2|0,1:2|0:2,0:2:0:0:
111,148,24294,1,0,0:2:0:0:
111,148,24401,2,0,P|136:141|169:127,1,49.5000015106202,2|0,1:2|0:2,0:2:0:0:
19,46,24615,2,0,P|32:79|37:105,1,49.5000015106202,2|0,1:2|0:2,0:2:0:0:
222,190,24830,1,2,1:2:0:0:
214,199,24937,2,0,P|201:232|196:258,1,49.5000015106202,0|0,3:2|3:2,0:0:0:0:
282,138,25151,2,0,P|315:151|341:156,1,49.5000015106202,0|0,3:2|3:2,0:0:0:0:
461,79,25365,6,0,B|475:59|475:59|444:75,1,49.5000015106202,10|2,3:2|3:2,0:0:0:0:
281,26,25580,2,0,B|267:6|267:6|298:22,1,49.5000015106202,2|0,3:2|0:2,0:2:0:0:
364,42,25794,2,0,L|379:98,1,49.5000015106202,2|0,1:2|0:0,0:2:0:0:
507,160,26008,1,0,0:2:0:0:
496,169,26115,2,0,L|481:225,1,49.5000015106202,2|8,0:2|0:2,0:2:0:0:
317,257,26330,1,0,1:2:0:0:
329,267,26437,2,0,L|344:323,1,49.5000015106202,0|0,0:2|0:2,0:2:0:0:
406,171,26651,5,0,1:2:0:0:
406,171,26758,1,0,0:2:0:0:
406,171,26865,2,0,L|344:192,1,49.5000015106202,0|0,0:2|0:2,0:0:0:0:
245,122,27080,1,8,0:2:0:0:
255,97,27187,1,0,0:2:0:0:
268,132,27294,1,0,0:2:0:0:
15,32,27508,5,6,1:2:0:0:
15,32,27615,1,2,0:2:0:0:
15,32,27722,1,2,0:2:0:0:
76,76,27937,1,10,0:2:0:0:
30,136,28151,1,2,0:2:0:0:
91,180,28366,1,2,0:2:0:0:
188,374,28794,5,10,0:2:0:0:
188,374,28901,1,2,0:2:0:0:
188,374,29008,1,2,0:2:0:0:
249,330,29223,1,2,0:2:0:0:
203,270,29437,1,2,0:2:0:0:
264,226,29652,1,10,0:2:0:0:
382,32,30080,5,2,0:2:0:0:
382,32,30187,1,2,0:2:0:0:
382,32,30294,1,2,0:2:0:0:
443,76,30509,1,10,0:2:0:0:
397,136,30723,1,2,0:2:0:0:
459,182,30937,6,0,B|470:195|479:206|479:206|461:227|440:284,1,108,2|0,1:2|0:2,0:0:0:0:
381,325,31687,1,0,0:0:0:0:
381,325,31794,2,0,P|346:289|284:287,1,108,2|0,0:3|0:2,0:0:0:0:
222,251,32544,1,0,0:0:0:0:
222,251,32651,2,0,P|187:287|125:289,1,108,4|0,0:2|0:0,0:2:0:0:
118,278,33508,2,0,P|93:278|75:327,1,72,0|0,0:2|0:2,0:2:0:0:
57,14,34365,6,0,B|17:16|17:16|4:62,1,76.5000014591217,4|0,1:2|0:2,0:2:0:0:
155,116,34580,2,0,B|172:80|172:80|139:46,1,76.5000014591217,4|0,1:2|0:2,0:2:0:0:
14,142,34794,2,0,B|36:175|36:175|81:163,1,76.5000014591217,12|0,1:2|0:2,0:2:0:0:
77,90,35008,1,0,0:2:0:0:
77,90,35222,6,0,L|59:43,3,45,2|0|2|0,0:2|0:2|0:2|0:2,0:2:0:0:
155,116,35651,2,0,P|150:137|140:170,1,45,10|0,0:2|0:2,0:2:0:0:
230,160,35865,2,0,P|236:181|241:203,1,45,2|0,0:2|0:2,0:0:0:0:
457,373,36080,6,0,B|496:370|496:370|509:324,1,76.5000014591217,0|0,1:2|0:2,0:2:0:0:
359,271,36295,2,0,B|341:306|341:306|374:340,1,76.5000014591217,0|0,1:2|0:2,0:2:0:0:
500,245,36509,2,0,B|477:211|477:211|432:223,1,76.5000014591217,10|0,1:2|0:2,0:2:0:0:
441,302,36722,5,0,0:2:0:0:
441,302,36830,1,0,0:2:0:0:
441,302,36937,2,0,P|343:333|272:354,1,153.000002918243,2|0,1:2|0:2,0:2:0:0:
232,297,37258,1,0,0:2:0:0:
232,297,37365,2,0,P|173:278|130:265,1,76.5000014591217,10|0,1:2|0:2,0:2:0:0:
317,253,37580,2,0,B|325:216|325:216|301:251,1,76.5000014591217,2|0,0:3|0:2,0:2:0:0:
35,243,37794,6,0,P|42:204|73:182,1,76.5000014591217,6|0,1:2|0:2,0:2:0:0:
74,28,38008,2,0,P|103:53|106:91,1,76.5000014591217,4|0,1:2|0:2,0:2:0:0:
235,171,38222,2,0,P|197:185|163:168,1,76.5000014591217,14|0,1:2|0:2,0:2:0:0:
207,87,38437,5,0,1:2:0:0:
207,87,38651,2,0,L|223:30,1,45,0|0,0:2|0:2,0:2:0:0:
312,125,38865,2,0,L|300:82,1,45,2|0,0:3|0:2,0:2:0:0:
435,197,39080,2,0,L|481:209,1,45,2|0,0:3|0:2,0:2:0:0:
322,287,39294,2,0,L|276:299,1,45,0|0,1:2|0:2,0:2:0:0:
0,372,39508,6,0,P|39:367|62:337,1,76.5000014591217,2|0,1:2|0:2,0:2:0:0:
204,337,39722,2,0,P|180:305|142:300,1,76.5000014591217,0|0,1:2|0:2,0:2:0:0:
71,175,39936,2,0,P|55:211|70:246,1,76.5000014591217,10|0,1:2|0:2,0:2:0:0:
155,217,40151,5,0,0:2:0:0:
155,217,40258,1,0,0:2:0:0:
155,217,40365,2,0,L|232:196,1,76.5000014591217,6|0,1:2|0:2,0:2:0:0:
253,122,40580,2,0,L|317:141,1,53.9999983520508,2|0,0:2|0:2,0:2:0:0:
423,180,40794,2,0,L|444:103,1,76.5000014591217,8|0,1:2|0:2,0:2:0:0:
367,81,41009,2,0,L|346:4,1,53.9999983520508,2|0,0:2|0:2,0:2:0:0:
450,367,41222,6,0,B|489:364|489:364|502:318,1,76.5000014591217,6|0,1:2|0:2,0:2:0:0:
352,265,41437,2,0,B|334:300|334:300|367:334,1,76.5000014591217,4|0,1:2|0:2,0:2:0:0:
493,239,41651,2,0,B|470:205|470:205|425:217,1,76.5000014591217,12|0,1:2|0:2,0:2:0:0:
431,291,41865,1,2,1:2:0:0:
431,291,42080,6,0,L|442:320,4,22.5,0|0|0|0|0,3:2|3:2|3:2|0:0|3:2,3:2:0:0:
253,355,42508,1,10,3:2:0:0:
238,346,42615,1,2,3:2:0:0:
246,364,42722,2,0,P|258:316|271:290,1,62.9999980773926,2|0,0:2|0:2,0:2:0:0:
118,189,42937,6,0,B|104:180|104:180|32:207,1,76.5000014591217,6|0,1:2|0:2,0:2:0:0:
6,278,43151,1,0,1:2:0:0:
1,285,43258,2,0,B|15:276|15:276|87:303,1,76.5000014591217,6|0,0:2|0:2,0:2:0:0:
155,373,43472,2,0,L|194:216,1,153.000002918243,6|0,0:2|0:2,0:2:0:0:
323,158,43794,5,2,0:2:0:0:
311,134,43901,1,2,0:2:0:0:
329,100,44008,1,2,0:2:0:0:
287,67,44115,1,2,0:2:0:0:
323,29,44222,2,0,P|298:89|269:177,1,153.000002918243,10|2,0:2|0:2,0:2:0:0:
393,364,44651,5,2,1:2:0:0:
443,378,44758,1,2,3:2:0:0:
488,352,44865,1,10,3:2:0:0:
500,301,44972,1,2,3:2:0:0:
471,257,45080,2,0,L|411:273,3,53.9999983520508,2|10|10|2,1:2|0:2|0:2|0:2,0:0:0:0:
353,180,45508,5,2,1:2:0:0:
303,194,45615,1,2,0:2:0:0:
270,172,45722,1,2,1:2:0:0:
266,148,45829,1,2,0:2:0:0:
278,136,45937,2,0,L|338:152,3,53.9999983520508,10|2|2|2,0:2|0:2|1:2|0:2,0:0:0:0:
512,22,46365,6,0,P|502:68|498:91,1,53.9999983520508,2|10,1:2|0:2,0:0:0:0:
425,122,46580,2,0,P|435:168|439:191,1,53.9999983520508,10|10,0:2|0:2,0:0:0:0:
183,146,46794,2,0,P|193:192|197:215,1,53.9999983520508,2|2,1:2|0:2,0:0:0:0:
271,259,47009,2,0,P|261:305|257:328,1,53.9999983520508,2|2,1:2|0:2,0:0:0:0:
331,161,47222,6,0,P|299:173|276:182,1,53.9999983520508,2|2,1:2|0:2,0:0:0:0:
180,277,47437,1,8,0:2:0:0:
110,239,47544,1,8,0:2:0:0:
57,298,47651,2,2,B|75:331|75:331|164:332|245:397,1,202.500007724762,8|0,0:2|3:2,0:1:0:0:
338,294,48080,5,6,1:2:0:0:
425,359,48401,1,2,0:2:0:0:
512,287,48722,1,2,0:2:0:0:
474,196,48937,6,0,B|437:212|437:212|436:228|436:228|402:244,1,90,2|0,0:2|0:2,0:2:0:0:
405,242,49258,1,2,0:2:0:0:
405,242,49365,1,8,0:2:0:0:
343,192,49580,1,2,0:2:0:0:
270,226,49794,1,2,0:2:0:0:
214,170,50008,1,0,0:2:0:0:
214,170,50115,1,2,0:2:0:0:
214,170,50222,6,0,P|227:112|247:32,1,135,8|0,1:2|0:2,0:2:0:0:
172,7,50651,2,0,B|121:27|121:27|110:56|110:56|30:83,1,161.999995056153,2|2,1:2|0:2,0:2:0:0:
0,151,51080,2,0,B|11:177|11:177|142:207|142:207|159:239,1,195.750005973816,8|0,1:2|0:2,0:2:0:0:
194,318,51508,6,0,P|243:278|237:210,1,130.500003982544,6|0,1:2|0:0,0:2:0:0:
132,94,51937,1,8,0:2:0:0:
174,159,52151,1,0,0:2:0:0:
97,177,52365,6,0,P|89:198|82:219,1,45,2|2,0:2|0:2,0:0:0:0:
220,93,52580,2,0,P|241:86|263:78,1,45,2|2,0:2|0:2,0:0:0:0:
366,188,52794,1,10,0:2:0:0:
386,209,52901,1,2,0:2:0:0:
417,202,53008,1,2,0:2:0:0:
443,231,53115,1,2,0:2:0:0:
467,200,53222,6,0,P|403:218|325:262,1,135,2|2,1:2|0:2,0:2:0:0:
257,245,53651,2,0,P|266:313|368:324,1,161.999995056153,10|0,1:2|0:0,0:0:0:0:
417,381,54080,2,0,P|435:339|424:313,1,65.250001991272,2|0,0:2|0:0,0:2:0:0:
346,336,54294,1,0,1:2:0:0:
216,384,54508,2,0,P|141:343|20:315,1,195.750005973816,8|0,0:2|0:0,0:0:0:0:
4,245,54937,6,0,P|38:191|94:204,1,107.999996704102,6|2,1:2|0:2,0:2:0:0:
138,137,55258,2,0,P|170:150|200:162,1,53.9999983520508,2|8,0:2|0:2,0:2:0:0:
181,239,55472,1,2,0:2:0:0:
181,239,55580,2,0,P|149:252|119:264,1,53.9999983520508,2|0,0:2|0:2,0:2:0:0:
57,113,55794,1,2,0:2:0:0:
57,113,56222,2,0,L|76:61,1,53.9999983520508,10|0,0:2|0:0,0:0:0:0:
247,19,56651,6,0,P|305:38|355:56,1,107.999996704102,2|0,0:2|0:2,0:2:0:0:
391,125,56972,2,0,P|421:114|452:104,1,53.9999983520508,0|10,0:2|1:2,0:0:0:0:
472,33,57187,1,0,0:0:0:0:
472,33,57294,2,0,P|441:22|410:12,1,53.9999983520508,0|0,0:2|0:0,0:0:0:0:
280,131,57508,5,2,0:2:0:0:
288,156,57615,1,0,0:2:0:0:
295,181,57722,1,0,1:2:0:0:
303,206,57830,1,0,0:2:0:0:
310,229,57937,2,0,P|279:222|257:219,1,53.9999983520508,10|0,0:2|3:2,0:0:0:0:
183,144,58151,2,0,P|156:147|130:153,1,53.9999983520508,2|0,1:2|0:0,0:0:0:0:
3,306,58365,6,0,B|32:317|32:317|43:346|43:346|107:367,1,107.999996704102,6|2,1:2|0:2,0:2:0:0:
144,305,58687,2,0,P|133:271|126:248,1,53.9999983520508,2|8,0:2|0:2,0:2:0:0:
239,369,58901,1,2,0:2:0:0:
239,369,59008,2,0,P|250:335|257:312,1,53.9999983520508,0|0,1:2|0:2,0:0:0:0:
270,228,59222,6,0,L|213:242,3,53.9999983520508,2|2|2|2,0:2|0:2|0:2|0:2,0:0:0:0:
362,333,59651,1,10,0:2:0:0:
411,354,59758,1,2,0:2:0:0:
459,331,59865,1,2,0:2:0:0:
480,281,59972,1,2,0:2:0:0:
460,230,60080,6,0,P|450:200|440:175,1,53.9999983520508,2|2,1:2|3:2,0:0:0:0:
359,171,60294,2,0,P|369:141|379:116,1,53.9999983520508,2|2,3:2|3:2,0:0:0:0:
243,0,60508,2,0,P|253:30|263:55,1,53.9999983520508,8|2,1:2|3:2,0:0:0:0:
184,75,60722,2,0,P|174:105|164:130,1,53.9999983520508,2|0,3:2|3:2,3:2:0:0:
113,203,60937,5,2,1:2:0:0:
60,216,61044,1,0,3:2:0:0:
13,189,61151,1,2,3:2:0:0:
0,136,61258,1,0,3:2:0:0:
29,90,61365,1,10,1:2:0:0:
239,258,61580,1,8,0:2:0:0:
255,296,61687,1,8,0:2:0:0:
297,298,61794,6,0,P|311:291|342:279,2,36,4|0|0,1:2|3:2|3:2,0:2:0:0:
365,214,62115,2,0,P|379:221|410:233,2,36,8|0|0,3:2|3:2|3:2,3:2:0:0:
450,289,62437,2,0,P|470:278|493:270,1,36,8|0,3:2|3:2,3:2:0:0:
477,192,62651,2,0,P|487:164|491:153,3,36,0|0|0|0,3:2|3:2|3:2|3:2,0:0:0:0:
428,107,63080,2,0,P|420:82|415:69,3,36,8|0|0|0,3:2|3:2|3:2|3:2,3:2:0:0:
328,13,63508,6,0,P|320:38|315:51,2,36,8|0|0,3:2|3:2|3:2,3:2:0:0:
234,64,63830,2,0,P|242:89|247:102,2,36,8|0|0,3:2|3:2|3:2,3:2:0:0:
149,49,64151,2,0,P|157:24|162:11,1,36,8|0,3:2|3:2,3:2:0:0:
25,41,64365,1,0,1:2:0:0:
25,41,64472,1,0,3:2:0:0:
25,41,64580,2,0,L|83:60,1,36,0|0,3:2|3:2,0:0:0:0:
106,121,64794,2,0,L|48:140,1,36,0|0,1:2|3:2,0:0:0:0:
18,198,65008,2,0,L|76:217,1,36,0|0,3:2|3:2,0:0:0:0:
111,257,65222,6,0,B|124:279|124:279|167:276|210:305,1,108,4|0,1:2|0:2,0:2:0:0:
260,357,65972,1,0,0:2:0:0:
260,357,66080,2,0,P|292:332|364:328,1,108,4|0,0:2|0:2,0:2:0:0:
399,258,66830,1,0,0:0:0:0:
399,258,66938,2,0,P|431:283|503:287,1,108,4|0,0:2|0:0,0:2:0:0:
505,275,67794,2,0,P|507:235|471:213,1,72,0|0,0:2|0:2,0:2:0:0:
66,48,68651,6,0,B|41:19|41:19|52:61,1,76.5000014591217,4|0,1:2|0:2,0:2:0:0:
185,129,68865,2,0,B|222:121|222:121|179:109,1,76.5000014591217,4|0,1:2|0:2,0:2:0:0:
58,189,69080,2,0,B|45:225|45:225|77:194,1,76.5000014591217,12|0,1:2|0:2,0:2:0:0:
101,125,69294,1,0,0:2:0:0:
101,125,69508,6,0,L|81:76,3,45,2|0|2|0,0:2|0:2|0:2|0:2,0:2:0:0:
177,157,69937,2,0,L|168:202,1,45,10|0,0:2|0:2,0:2:0:0:
249,108,70151,2,0,L|239:63,1,45,2|0,0:2|0:2,0:0:0:0:
499,216,70365,6,0,B|523:244|523:244|512:202,1,76.5000014591217,0|0,1:2|0:2,0:2:0:0:
382,131,70579,2,0,B|344:138|344:138|387:150,1,76.5000014591217,0|0,1:2|0:2,0:2:0:0:
504,74,70794,2,0,B|516:37|516:37|484:68,1,76.5000014591217,10|0,1:2|0:2,0:2:0:0:
469,144,71008,1,0,0:2:0:0:
469,144,71115,1,0,0:2:0:0:
469,144,71222,2,0,P|443:231|423:304,1,153.000002918243,2|0,1:2|0:2,0:2:0:0:
353,337,71544,1,0,0:2:0:0:
353,337,71651,2,0,P|340:293|330:257,1,76.5000014591217,10|0,1:2|0:2,0:2:0:0:
265,209,71865,2,0,B|229:194|229:194|258:227,1,76.5000014591217,2|0,0:3|0:2,0:2:0:0:
72,378,72080,6,0,P|35:372|13:321,1,76.5000014591217,6|0,1:2|0:2,0:2:0:0:
148,272,72294,2,0,P|161:306|127:350,1,76.5000014591217,4|0,1:2|0:2,0:2:0:0:
13,258,72508,2,0,P|36:229|91:236,1,76.5000014591217,14|0,1:2|0:2,0:2:0:0:
81,306,72722,1,0,1:2:0:0:
81,306,72937,6,0,L|69:353,1,45,0|0,0:2|0:2,0:2:0:0:
233,341,73151,2,0,L|245:388,1,45,2|0,0:3|0:2,0:2:0:0:
276,271,73365,2,0,P|302:282|323:291,1,45,2|0,0:3|0:2,0:2:0:0:
56,227,73580,2,0,P|30:238|9:247,1,45,0|0,1:2|0:2,0:2:0:0:
182,16,73794,6,0,P|145:21|123:72,1,76.5000014591217,2|0,1:2|0:2,0:2:0:0:
258,122,74008,2,0,P|271:87|237:43,1,76.5000014591217,0|0,1:2|0:2,0:2:0:0:
123,136,74222,2,0,P|146:164|201:157,1,76.5000014591217,10|0,1:2|0:2,0:2:0:0:
255,222,74437,5,0,0:2:0:0:
255,222,74544,1,0,0:2:0:0:
255,222,74651,2,0,P|289:204|339:199,1,76.5000014591217,6|0,1:2|0:2,0:2:0:0:
354,127,74865,2,0,P|388:145|438:149,1,76.5000014591217,2|0,0:2|0:2,0:0:0:0:
248,54,75080,2,0,P|264:95|276:142,1,76.5000014591217,8|0,1:2|0:2,0:2:0:0:
404,229,75294,2,0,P|388:270|376:317,1,76.5000014591217,2|0,0:2|0:2,0:0:0:0:
62,366,75508,6,0,B|23:363|23:363|10:317,1,76.5000014591217,6|0,1:2|0:2,0:2:0:0:
160,264,75723,2,0,B|178:299|178:299|145:333,1,76.5000014591217,4|0,1:2|0:2,0:2:0:0:
19,238,75937,2,0,B|42:204|42:204|87:216,1,76.5000014591217,12|0,1:2|0:2,0:2:0:0:
86,293,76151,1,2,1:2:0:0:
86,293,76365,2,0,L|73:334,4,38.2500007295609,0|0|0|0|0,3:2|3:2|3:2|0:0|3:2,3:2:0:0:
25,152,76794,5,10,3:2:0:0:
25,152,76901,1,2,3:2:0:0:
25,152,77008,2,0,L|-1:77,1,76.5000014591217,2|0,0:2|0:2,0:2:0:0:
123,14,77222,6,0,P|194:9|217:76,1,153.000002918243,6|0,1:2|1:2,0:2:0:0:
278,136,77544,2,0,P|243:150|198:173,1,76.5000014591217,6|0,0:2|0:2,0:2:0:0:
304,54,77758,1,6,0:2:0:0:
304,54,77865,2,0,P|339:68|384:91,1,76.5000014591217,0|0,0:0|0:2,0:0:0:0:
505,216,78080,5,2,0:2:0:0:
484,233,78187,1,2,0:2:0:0:
443,224,78294,1,2,0:2:0:0:
413,264,78401,1,2,0:2:0:0:
372,239,78508,2,0,B|387:226|387:226|515:282,1,153.000002918243,10|2,0:2|0:2,0:2:0:0:
293,359,78937,5,2,1:2:0:0:
241,371,79044,1,2,3:2:0:0:
193,351,79151,1,10,3:2:0:0:
166,305,79258,1,2,3:2:0:0:
172,253,79365,2,0,P|182:224|195:199,3,53.9999983520508,2|0|10|2,1:2|3:2|0:2|0:2,0:0:0:0:
81,107,79794,5,2,1:2:0:0:
40,94,79901,1,2,0:2:0:0:
10,105,80008,1,2,1:2:0:0:
1,120,80115,1,2,0:2:0:0:
0,133,80222,2,0,P|14:161|22:187,3,53.9999983520508,10|2|2|2,0:2|0:2|1:2|0:2,0:0:0:0:
157,250,80651,6,0,P|189:258|221:267,1,53.9999983520508,2|10,1:2|0:2,0:0:0:0:
243,339,80865,2,0,P|269:331|295:325,1,53.9999983520508,10|10,0:2|0:2,0:0:0:0:
458,160,81080,2,0,P|426:168|394:177,1,53.9999983520508,2|2,1:2|0:2,0:0:0:0:
372,249,81294,2,0,P|345:241|319:235,1,53.9999983520508,2|2,1:2|0:2,0:0:0:0:
269,130,81508,6,0,P|275:94|279:74,1,53.9999983520508,2|2,1:2|0:2,0:0:0:0:
160,11,81722,1,8,0:2:0:0:
100,61,81830,1,8,0:2:0:0:
23,47,81937,2,2,B|10:79|10:79|66:134|88:227,1,202.500007724762,8|0,0:2|3:2,0:1:0:0:
163,255,82365,6,0,P|148:290|134:324,1,62.9999980773926,6|0,1:2|0:2,0:2:0:0:
252,317,82580,2,0,P|267:352|281:386,1,62.9999980773926,6|0,1:2|0:2,0:2:0:0:
383,234,82794,2,0,P|368:269|354:303,1,62.9999980773926,6|0,1:2|0:2,0:2:0:0:
483,304,83008,2,0,P|498:339|512:373,1,62.9999980773926,0|0,1:2|0:2,0:2:0:0:
417,362,83222,6,0,P|390:369|371:373,3,45,0|0|0|0,0:2|0:2|0:2|0:2,0:2:0:0:
252,223,83651,2,0,P|274:228|296:234,1,45,10|0,0:2|0:2,0:2:0:0:
334,303,83865,1,2,0:2:0:0:
94,238,84080,6,0,P|128:248|161:257,1,62.9999980773926,6|0,0:2|0:2,0:2:0:0:
244,72,84294,2,0,P|251:106|258:140,1,62.9999980773926,6|0,1:2|0:2,0:2:0:0:
435,197,84508,2,0,P|408:220|383:243,1,62.9999980773926,14|0,0:2|0:2,0:2:0:0:
353,142,84722,1,0,0:2:0:0:
353,142,84830,1,0,0:2:0:0:
353,142,84937,6,0,P|361:111|370:81,1,62.9999980773926,6|0,1:2|0:2,0:2:0:0:
454,40,85151,2,0,P|457:56|471:100,1,62.9999980773926,2|0,0:2|0:2,0:2:0:0:
266,71,85365,2,0,P|236:61|205:50,1,62.9999980773926,14|0,0:2|0:2,0:2:0:0:
126,17,85580,2,0,B|120:-16|120:-16|140:7,1,62.9999980773926,2|0,0:2|0:2,0:2:0:0:
13,148,85794,6,0,P|24:178|34:209,1,62.9999980773926,6|0,1:2|0:2,0:2:0:0:
146,234,86008,2,0,P|135:264|125:295,1,62.9999980773926,4|0,1:2|0:2,0:2:0:0:
249,302,86222,2,0,P|260:332|270:363,1,62.9999980773926,14|0,0:2|0:2,0:2:0:0:
192,375,86437,6,0,P|173:371|146:365,1,45,2|0,3:2|3:2,3:2:0:0:
341,290,86651,1,2,0:2:0:0:
341,290,86758,1,0,0:2:0:0:
341,290,86865,2,0,P|369:278|393:268,1,45,2|0,0:2|0:2,0:2:0:0:
275,225,87080,1,10,3:2:0:0:
364,366,87294,1,8,3:2:0:0:
358,198,87508,6,0,P|368:162|376:132,1,62.9999980773926,6|0,1:2|0:2,0:2:0:0:
193,232,87722,2,2,P|201:262|209:292,1,62.9999980773926,6|0,1:2|0:2,0:2:0:0:
62,177,87937,2,0,P|70:146|78:116,1,62.9999980773926,14|0,0:2|0:2,0:2:0:0:
42,45,88151,6,0,P|22:52|-2:61,1,45,2|0,0:2|0:2,0:2:0:0:
160,141,88365,2,0,P|215:140|231:54,1,135,6|0,1:2|0:2,0:2:0:0:
162,3,88794,2,0,B|169:29|169:29|261:43|325:96|325:96|364:83,1,229.500004377365,6|0,1:2|0:2,2:2:0:0:
385,17,89222,6,0,P|408:32|445:43,1,62.9999980773926,6|0,1:2|0:2,0:2:0:0:
512,152,89437,2,0,P|481:160|455:177,1,62.9999980773926,6|0,1:2|0:2,0:2:0:0:
342,252,89651,2,0,P|372:260|398:277,1,62.9999980773926,6|0,1:2|0:2,0:2:0:0:
496,263,89865,6,0,P|478:298|465:334,1,62.9999980773926,2|0,1:2|0:2,0:2:0:0:
347,342,90080,2,0,P|355:358|361:374,4,31.4999990386963,2|0|0|0|0,0:2|0:0|0:2|0:0|0:2,0:2:0:0:
226,348,90508,6,0,L|268:363,1,45,8|0,0:2|0:2,0:2:0:0:
310,262,90722,2,0,L|267:277,1,45,0|0,0:2|0:2,0:2:0:0:
12,316,90937,6,0,P|27:347|37:377,1,62.9999980773926,6|0,1:2|0:2,0:2:0:0:
211,226,91151,2,0,P|221:196|235:167,1,62.9999980773926,6|0,1:2|0:2,0:2:0:0:
6,69,91365,2,0,P|19:97|30:127,1,62.9999980773926,14|0,1:2|0:2,0:2:0:0:
106,188,91580,1,0,0:2:0:0:
106,188,91687,1,0,0:2:0:0:
106,188,91794,6,0,P|122:149|135:125,1,62.9999980773926,6|0,1:2|0:2,0:2:0:0:
212,89,92008,2,0,P|196:50|183:26,1,62.9999980773926,2|0,0:2|0:2,0:2:0:0:
399,0,92222,2,0,P|413:28|424:57,1,62.9999980773926,14|0,0:2|0:2,0:2:0:0:
336,74,92436,2,0,P|321:102|310:131,1,62.9999980773926,2|0,0:2|0:2,0:2:0:0:
367,285,92651,6,0,P|392:305|414:327,1,62.9999980773926,6|0,1:2|0:2,0:2:0:0:
411,164,92865,2,0,P|440:152|471:145,1,62.9999980773926,4|0,1:2|0:2,0:2:0:0:
241,316,93080,2,0,P|235:351|226:381,1,62.9999980773926,14|0,0:2|0:2,0:2:0:0:
157,323,93294,6,0,P|128:336|98:346,3,45,2|0|2|0,1:2|0:2|0:2|0:2,0:2:0:0:
186,250,93722,2,0,P|199:237|192:254,1,45,2|0,0:2|0:2,0:2:0:0:
115,204,93937,2,0,B|90:222|90:222|103:263,1,53.9999983520508,10|0,0:2|0:2,0:2:0:0:
282,204,94151,2,0,B|290:182|290:182|265:164,1,53.9999983520508,8|0,0:2|0:2,0:2:0:0:
89,125,94365,6,0,P|68:119|25:106,1,62.9999980773926,6|0,1:2|0:2,0:2:0:0:
304,88,94580,2,0,P|325:82|368:69,1,62.9999980773926,6|0,1:2|0:2,0:2:0:0:
162,0,94794,2,0,P|155:31|147:71,1,62.9999980773926,14|0,0:2|0:2,0:2:0:0:
221,105,95008,2,0,P|228:136|236:176,1,62.9999980773926,2|0,0:2|0:2,0:2:0:0:
417,356,95222,6,0,P|483:346|471:241,1,188.999994232178,6|0,1:2|0:2,0:2:0:0:
484,229,95651,2,2,B|474:242|474:242|372:247|273:342,1,229.500004377365,6|0,1:2|0:2,0:1:0:0:
205,379,96080,6,0,P|149:361|155:269,1,161.999995056153,4|0,0:1|0:2,0:2:0:0:
223,238,96937,2,0,P|232:268|237:286,1,26.9999991760254,2|0,0:3|0:2,0:2:0:0:
304,217,97151,2,0,P|313:187|318:169,2,26.9999991760254,2|0|2,0:2|0:0|0:2,0:2:0:0:
365,268,97580,1,2,0:2:0:0:
238,157,97794,6,0,P|198:141|149:123,1,80.9999975280763,6|0,0:2|0:2,0:2:0:0:
137,138,98222,1,2,0:2:0:0:
276,62,98651,6,0,P|316:46|365:28,1,80.9999975280763,6|0,0:2|0:2,0:2:0:0:
377,43,99079,1,2,0:2:0:0:
204,15,99294,2,2,L|199:39,2,13.4999995880127,2|2|2,0:2|0:2|0:2,0:2:0:0:
307,127,99508,6,0,B|318:148|318:148|362:151|404:176,1,107.999996704102,6|0,0:2|0:2,0:2:0:0:
423,167,99937,2,0,B|431:155|431:155|417:160,1,26.9999991760254,2|0,0:3|0:0,0:0:0:0:
239,240,100365,5,2,0:3:0:0:
290,297,100580,1,2,0:2:0:0:
252,366,100794,1,2,0:2:0:0:
252,366,101008,1,0,0:2:0:0:
175,343,101222,6,0,P|145:329|88:315,1,80.9999975280763,6|0,0:2|0:2,0:2:0:0:
84,297,101651,2,0,P|64:305|27:315,1,53.9999983520508,2|2,0:2|0:2,0:0:0:0:
133,228,102080,5,2,0:3:0:0:
92,159,102294,1,2,0:2:0:0:
122,62,102508,1,2,0:2:0:0:
217,33,102722,1,2,0:2:0:0:
287,89,102937,6,0,L|280:118,2,26.9999991760254,2|0|0,0:2|0:2|0:2,0:2:0:0:
352,43,103258,2,0,P|368:49|384:56,1,26.9999991760254,2|0,0:3|0:2,0:2:0:0:
427,120,103472,1,0,0:2:0:0:
427,120,103580,2,0,P|443:113|459:106,1,26.9999991760254,2|0,0:3|0:0,0:0:0:0:
492,45,103794,1,4,0:2:0:0:
357,169,104008,5,0,0:2:0:0:
357,169,104222,1,2,0:3:0:0:
341,141,104330,1,2,0:3:0:0:
329,178,104437,1,2,0:3:0:0:
412,233,104651,6,0,P|440:220|461:217,1,36,2|0,0:2|0:0,0:2:0:0:
469,299,104865,1,0,0:2:0:0:
469,299,104972,2,0,P|486:304|501:313,1,36,2|0,0:2|0:2,0:2:0:0:
404,346,105187,1,2,0:2:0:0:
404,346,105294,2,0,P|412:362|417:379,1,36,0|0,0:2|0:2,0:0:0:0:
278,259,105508,5,2,0:3:0:0:
242,256,105615,1,2,0:2:0:0:
222,286,105722,1,2,0:2:0:0:
186,279,105830,1,2,0:2:0:0:
161,304,105937,1,2,0:2:0:0:
161,304,106151,1,2,0:2:0:0:
68,246,106365,5,2,0:2:0:0:
71,235,106472,1,2,0:2:0:0:
74,224,106580,1,2,0:2:0:0:
77,213,106686,1,2,0:2:0:0:
80,200,106794,2,0,L|69:173,3,26.9999991760254,2|2|2|2,0:2|0:2|0:2|0:2,0:0:0:0:
168,181,107222,5,2,0:2:0:0:
165,170,107329,1,2,0:2:0:0:
162,159,107437,1,2,0:2:0:0:
159,148,107543,1,2,0:2:0:0:
156,135,107651,2,0,L|167:108,3,26.9999991760254,2|2|2|2,0:2|0:2|0:2|0:2,0:0:0:0:
242,133,108080,6,0,L|275:124,3,26.9999991760254,2|2|2|2,0:2|0:2|0:2|0:2,0:0:0:0:
309,59,108508,1,2,0:2:0:0:
309,59,108615,1,2,0:2:0:0:
309,59,108722,2,0,L|352:74,1,26.9999991760254,2|2,0:2|0:2,0:0:0:0:
395,123,108937,6,0,P|431:125|444:59,1,107.999996704102,2|0,0:2|0:2,0:2:0:0:
0,276,109794,6,0,B|25:306|25:306|131:298|231:381,1,251.999992309571,4|0,0:1|0:0,0:2:0:0:
221,373,110437,1,0,0:2:0:0:
287,329,110651,6,0,P|297:287|305:258,1,53.9999983520508,8|0,0:2|0:2,0:2:0:0:
245,220,110865,2,0,P|240:203|235:187,2,26.9999991760254,2|0|0,3:2|3:2|3:2,3:2:0:0:
392,269,111080,2,0,P|382:227|374:198,1,53.9999983520508,2|0,0:2|0:2,0:2:0:0:
436,160,111294,2,0,P|441:143|446:127,2,26.9999991760254,2|0|0,3:2|3:2|3:2,3:2:0:0:
328,108,111508,6,0,P|286:93|159:67,1,161.999995056153,2|0,1:2|0:2,0:2:0:0:
0,35,111937,2,0,P|12:69|18:87,1,45,2|0,1:2|0:2,0:2:0:0:
76,8,112151,2,0,P|88:42|94:60,1,45,2|0,0:2|0:2,0:2:0:0:
49,306,112365,6,0,P|56:284|63:263,1,45,10|0,0:2|0:2,0:2:0:0:
0,162,112580,2,0,P|73:181|186:225,1,188.999994232178,2|0,1:2|0:2,0:2:0:0:
230,297,113008,1,0,0:2:0:0:
230,297,113115,1,0,0:2:0:0:
230,297,113222,2,0,P|317:262|408:237,1,188.999994232178,4|0,1:1|0:2,0:2:0:0:
490,179,113651,1,2,0:2:0:0:
490,179,113758,1,2,0:2:0:0:
490,179,113865,2,0,P|456:169|424:156,1,62.9999980773926,2|0,0:2|0:2,0:2:0:0:
269,126,114080,6,0,P|284:160|298:196,1,62.9999980773926,8|0,0:2|0:2,0:2:0:0:
505,25,114294,2,0,P|490:59|476:95,1,62.9999980773926,0|0,3:2|3:2,3:2:0:0:
267,6,114508,2,0,P|323:22|341:30,1,62.9999980773926,2|0,0:2|0:2,0:2:0:0:
405,81,114722,2,0,P|349:97|331:105,1,62.9999980773926,2|0,0:2|0:2,0:2:0:0:
81,61,114937,6,0,P|92:18|98:-7,1,62.9999980773926,2|2,1:2|0:2,0:0:0:0:
201,187,115151,2,0,P|194:156|186:126,1,62.9999980773926,2|2,1:2|0:2,0:0:0:0:
0,156,115365,2,0,P|31:163|62:171,1,62.9999980773926,2|2,1:2|0:2,0:0:0:0:
68,253,115580,2,0,P|98:245|128:235,1,62.9999980773926,0|0,0:0|0:2,0:0:0:0:
234,318,115794,5,8,0:2:0:0:
234,318,115901,2,0,P|224:361|217:384,1,62.9999980773926,0|0,1:2|0:2,0:2:0:0:
407,264,116115,1,2,1:2:0:0:
407,264,116222,1,2,1:2:0:0:
407,264,116330,2,0,P|397:221|390:198,1,62.9999980773926,0|10,0:2|0:2,0:0:0:0:
224,23,116544,5,10,0:2:0:0:
262,90,116651,2,0,P|330:68|343:16,1,125.999996154785,6|0,1:2|0:2,0:2:0:0:
224,158,116972,2,0,P|156:136|143:84,1,125.999996154785,6|0,1:2|0:2,0:2:0:0:
305,187,117294,2,0,P|311:166|301:184,1,62.9999980773926,6|0,1:2|0:0,0:2:0:0:
244,240,117508,1,8,0:2:0:0:
244,240,117722,6,0,L|228:296,1,45,0|0,0:2|0:2,0:2:0:0:
67,348,117937,5,2,0:2:0:0:
27,318,118044,1,2,0:2:0:0:
75,339,118151,2,0,P|103:320|144:311,1,62.9999980773926,2|0,3:2|3:2,3:2:0:0:
329,371,118365,6,0,P|389:343|388:277,1,125.999996154785,6|0,1:2|0:2,0:2:0:0:
451,224,118687,2,0,P|416:213|385:202,1,62.9999980773926,2|0,0:2|1:2,0:2:0:0:
267,172,118901,2,0,P|291:233|316:299,1,125.999996154785,2|0,0:2|0:2,0:2:0:0:
149,227,119222,6,0,P|171:168|194:109,1,125.999996154785,10|0,0:2|0:2,0:2:0:0:
146,48,119544,1,2,0:2:0:0:
146,48,119651,2,0,P|116:59|83:70,1,62.9999980773926,2|0,1:2|0:2,0:2:0:0:
75,152,119865,2,0,P|45:141|15:131,1,62.9999980773926,2|0,0:3|0:2,0:2:0:0:
193,109,120080,6,0,L|212:163,3,53.9999983520508,2|2|2|2,1:2|0:2|0:2|0:2,0:0:0:0:
303,41,120508,2,0,L|285:91,3,53.9999983520508,2|2|2|2,1:2|0:2|0:2|0:2,0:0:0:0:
343,163,120937,5,10,0:2:0:0:
377,147,121044,1,2,0:2:0:0:
414,147,121151,1,2,1:2:0:0:
448,161,121258,1,2,0:2:0:0:
473,189,121365,2,0,P|464:222|457:251,1,53.9999983520508,2|2,0:2|1:2,0:0:0:0:
368,360,121580,2,0,P|361:333|354:307,1,53.9999983520508,2|2,0:2|0:2,0:0:0:0:
272,278,121794,5,2,1:2:0:0:
272,278,121901,1,2,1:2:0:0:
272,278,122008,2,2,P|262:260|267:278,1,53.9999983520508,2|2,1:2|0:2,0:2:0:0:
169,357,122222,2,2,P|178:339|173:357,1,53.9999983520508,2|2,1:2|0:2,0:2:0:0:
120,179,122437,5,2,1:2:0:0:
55,226,122544,1,2,0:2:0:0:
15,160,122651,2,0,B|30:187|30:187|110:190|185:268,1,188.999994232178,8|0,3:2|0:0,0:0:0:0:
219,184,123080,5,2,0:3:0:0:
338,233,123222,1,2,0:3:0:0:
407,132,123365,1,2,0:3:0:0:
318,82,123508,6,0,P|359:154|422:350,1,251.999992309571,4|0,0:1|0:2,0:2:0:0:
414,313,124151,1,0,0:2:0:0:
248,384,124365,6,0,P|222:373|181:361,1,62.9999980773926,10|0,0:2|0:2,0:2:0:0:
0,232,124580,1,10,0:3:0:0:
12,287,124687,1,8,0:3:0:0:
68,288,124794,1,10,0:3:0:0:
92,300,124901,1,8,0:3:0:0:
114,294,125008,1,6,0:3:0:0:
117,280,125115,1,4,0:3:0:0:
90,252,125222,6,0,P|102:283|118:330,1,62.9999980773926,2|0,1:2|3:2,0:0:0:0:
182,215,125437,1,0,3:2:0:0:
206,192,125544,2,0,P|217:159|230:122,1,62.9999980773926,2|0,1:2|3:2,0:0:0:0:
296,225,125758,1,0,3:2:0:0:
321,252,125865,2,0,P|332:285|345:322,1,62.9999980773926,2|0,1:2|3:2,0:0:0:0:
415,227,126080,1,8,3:2:0:0:
502,36,126294,5,2,0:2:0:0:
484,52,126401,1,2,0:2:0:0:
454,43,126508,1,2,0:2:0:0:
432,75,126615,1,2,0:2:0:0:
385,54,126722,1,2,0:3:0:0:
349,103,126830,1,2,0:3:0:0:
293,42,126937,6,0,P|220:56|219:158,1,188.999994232178,4|2,1:1|0:2,0:2:0:0:
282,235,127365,2,0,P|294:194|303:166,1,62.9999980773926,0|0,0:0|0:2,0:0:0:0:
185,66,127580,1,2,0:2:0:0:
176,74,127687,2,0,P|137:89|108:99,1,62.9999980773926,0|8,0:2|0:2,0:0:0:0:
6,303,128008,6,0,P|17:330|26:353,1,45,2|0,3:2|3:2,3:2:0:0:
112,340,128222,2,0,P|101:367|92:390,1,45,2|0,0:2|0:0,0:0:0:0:
78,264,128437,2,0,L|102:256,2,22.5,2|0|0,3:2|3:2|3:2,3:2:0:0:
201,335,128651,5,2,1:2:0:0:
243,349,128758,1,2,0:2:0:0:
284,312,128865,1,2,1:2:0:0:
326,326,128972,1,2,0:2:0:0:
365,298,129080,1,2,1:2:0:0:
407,312,129187,1,2,0:2:0:0:
395,327,129294,6,0,P|389:305|383:284,1,45,2|0,0:2|0:2,0:2:0:0:
312,230,129508,1,8,0:2:0:0:
322,217,129615,2,0,P|331:173|333:163,1,45,0|0,1:2|0:2,0:2:0:0:
443,132,129830,1,0,1:2:0:0:
433,119,129937,2,0,P|424:75|422:65,1,45,0|0,1:2|0:2,0:2:0:0:
339,85,130151,2,0,L|296:69,1,45,0|0,3:2|3:2,0:2:0:0:
29,53,130365,6,0,L|36:31,4,22.5,2|0|0|0|0,1:2|1:2|1:2|0:0|1:2,0:0:0:0:
104,77,130687,2,0,L|113:53,4,22.5,2|0|0|0|0,1:2|1:2|1:2|0:0|1:2,0:0:0:0:
196,68,131008,1,2,1:2:0:0:
196,68,131115,1,0,1:2:0:0:
196,68,131222,2,0,L|176:121,1,45,8|0,0:2|0:0,0:0:0:0:
18,225,131437,5,0,0:2:0:0:
18,225,131544,1,0,0:2:0:0:
62,202,131651,1,2,0:2:0:0:
94,238,131758,1,2,0:2:0:0:
138,215,131865,1,2,0:2:0:0:
165,248,131972,1,2,0:2:0:0:
185,238,132080,5,6,1:2:0:0:
162,224,132187,1,2,0:2:0:0:
161,265,132294,2,0,P|171:291|185:331,1,67.5000025749208,2|2,0:2|0:2,0:0:0:0:
373,297,132508,1,2,1:2:0:0:
381,315,132615,1,2,0:2:0:0:
390,284,132722,2,2,P|401:240|407:212,1,67.5000025749208,2|2,0:2|0:2,0:2:0:0:
319,195,132937,6,0,P|282:185|248:175,1,67.5000025749208,10|2,0:2|0:2,0:0:0:0:
251,93,133151,2,0,P|214:103|180:113,1,67.5000025749208,2|2,0:2|0:2,0:0:0:0:
142,239,133365,2,0,P|134:206|126:174,1,67.5000025749208,2|2,1:2|0:2,0:0:0:0:
350,45,133580,2,0,P|341:77|333:110,1,67.5000025749208,2|2,0:2|0:2,0:0:0:0:
512,318,133794,5,6,1:2:0:0:
490,268,133901,1,2,0:2:0:0:
437,251,134008,1,2,0:2:0:0:
386,270,134115,1,2,0:2:0:0:
364,319,134222,2,0,P|377:358|385:385,3,67.5000025749208,6|2|2|2,1:2|0:2|0:2|0:2,0:0:0:0:
165,214,134651,5,10,0:2:0:0:
187,264,134758,1,2,0:2:0:0:
240,281,134865,1,6,1:2:0:0:
291,262,134972,1,2,3:2:0:0:
313,213,135079,2,0,P|300:174|292:147,3,67.5000025749208,10|2|10|2,3:2|3:2|3:2|3:2,0:0:0:0:
397,19,135508,6,0,P|384:59|373:96,1,67.5000025749208,6|2,1:2|0:2,0:0:0:0:
151,58,135722,2,0,P|174:92|195:125,1,67.5000025749208,2|2,0:2|0:2,0:0:0:0:
267,3,135937,1,10,0:2:0:0:
297,47,136044,1,4,0:3:0:0:
263,89,136151,1,4,0:3:0:0:
295,131,136258,1,4,0:3:0:0:
264,175,136365,6,0,B|250:197|250:197|158:195|76:265,1,202.500007724762,4|0,0:3|0:2,0:2:0:0:
3,223,136794,5,2,0:3:0:0:
109,346,136937,1,2,0:3:0:0:
134,172,137080,1,2,0:3:0:0:
87,255,137222,6,0,P|135:269|160:276,1,62.9999980773926,6|0,1:2|0:2,0:2:0:0:
222,365,137437,2,0,P|252:356|282:347,1,62.9999980773926,6|0,1:2|0:2,0:2:0:0:
346,289,137651,2,0,P|355:248|361:218,1,62.9999980773926,6|0,1:2|0:2,0:2:0:0:
222,161,137865,2,0,P|213:120|207:90,1,62.9999980773926,0|0,3:2|3:2,3:2:0:0:
309,154,138080,6,0,L|359:139,3,45,0|0|0|0,3:2|3:2|3:2|3:2,0:2:0:0:
278,71,138508,2,0,P|289:38|293:23,1,45,10|0,0:2|0:2,0:2:0:0:
374,1,138722,2,0,P|380:22|387:43,1,45,2|0,0:2|0:2,0:2:0:0:
499,278,138937,6,0,P|446:263|426:258,1,62.9999980773926,6|0,0:2|0:2,0:2:0:0:
300,147,139151,2,0,P|260:185|246:200,1,62.9999980773926,6|0,1:2|0:2,0:2:0:0:
81,206,139365,2,0,P|94:259|100:279,1,62.9999980773926,14|0,0:2|0:2,0:2:0:0:
168,316,139580,5,0,0:2:0:0:
168,316,139687,1,0,0:2:0:0:
168,316,139794,2,0,P|210:328|235:335,1,62.9999980773926,6|0,1:2|0:2,0:2:0:0:
242,248,140008,2,0,P|211:239|181:230,1,62.9999980773926,2|0,0:2|0:2,0:2:0:0:
377,367,140222,2,0,P|419:355|444:348,1,62.9999980773926,14|0,0:2|0:2,0:2:0:0:
491,289,140437,2,0,B|495:257|495:257|476:284,1,62.9999980773926,2|0,0:2|0:2,0:2:0:0:
327,287,140651,6,0,P|337:241|342:214,1,62.9999980773926,6|0,1:2|0:2,0:2:0:0:
288,21,140865,2,0,P|244:35|220:42,1,62.9999980773926,4|0,1:2|0:2,0:2:0:0:
400,163,141080,2,0,P|444:177|468:184,1,62.9999980773926,14|0,0:2|0:2,0:2:0:0:
342,102,141294,1,2,3:2:0:0:
342,102,141401,1,0,3:2:0:0:
342,102,141508,6,0,P|298:116|213:140,1,125.999996154785,2|2,0:2|0:2,0:2:0:0:
170,199,141830,1,0,0:2:0:0:
170,199,141937,2,0,P|125:186|101:179,1,62.9999980773926,10|0,3:2|3:2,3:2:0:0:
13,30,142151,2,0,P|58:17|82:10,1,62.9999980773926,8|0,3:2|0:2,0:0:0:0:
291,163,142365,6,0,P|281:203|275:232,1,62.9999980773926,6|0,1:2|0:2,0:2:0:0:
155,14,142580,2,2,P|165:54|171:83,1,62.9999980773926,6|0,1:2|0:2,0:2:0:0:
419,23,142794,2,0,P|409:63|403:92,1,62.9999980773926,14|0,0:2|0:2,0:2:0:0:
452,158,143008,6,0,P|497:145|516:139,1,62.9999980773926,2|0,0:2|0:2,0:2:0:0:
336,372,143222,2,0,P|272:376|263:305,1,135,6|0,1:2|0:2,0:2:0:0:
305,257,143651,2,0,B|448:281|349:356|497:385,1,229.500004377365,6|0,1:2|0:2,2:2:0:0:
484,292,144080,6,0,P|470:244|466:227,1,62.9999980773926,6|0,1:2|0:2,0:2:0:0:
305,153,144294,2,0,P|319:105|323:88,1,62.9999980773926,6|0,1:2|0:2,0:2:0:0:
137,241,144508,2,0,P|123:193|119:176,1,62.9999980773926,6|0,1:2|0:2,0:2:0:0:
65,126,144722,6,0,P|20:114|0:108,1,62.9999980773926,2|0,1:2|0:2,0:2:0:0:
115,59,144937,2,0,P|133:54|150:49,4,31.4999990386963,2|0|0|0|0,0:2|0:0|0:2|0:0|0:2,0:2:0:0:
239,220,145365,6,0,P|227:260|220:284,1,62.9999980773926,8|0,0:2|0:2,0:2:0:0:
293,317,145580,2,0,P|305:357|312:381,1,62.9999980773926,0|0,0:2|0:2,0:2:0:0:
113,337,145794,6,0,P|165:352|186:358,1,62.9999980773926,6|0,1:2|0:2,0:2:0:0:
382,219,146008,2,0,P|330:234|309:240,1,62.9999980773926,6|0,1:2|0:2,0:2:0:0:
109,140,146222,2,0,P|161:155|182:161,1,62.9999980773926,14|0,1:2|0:2,0:2:0:0:
232,111,146437,1,0,0:2:0:0:
232,111,146544,1,0,0:2:0:0:
232,111,146651,6,0,L|257:45,1,62.9999980773926,6|0,1:2|0:2,0:2:0:0:
324,12,146865,2,0,L|349:78,1,62.9999980773926,2|0,0:2|0:2,0:2:0:0:
511,221,147080,2,0,L|486:155,1,62.9999980773926,14|0,0:2|0:2,0:2:0:0:
419,122,147294,2,0,L|394:188,1,62.9999980773926,2|0,0:2|0:2,0:2:0:0:
271,369,147508,6,0,P|314:356|342:347,1,62.9999980773926,6|0,1:2|0:2,0:2:0:0:
202,181,147722,2,0,P|195:211|187:242,1,62.9999980773926,4|0,1:2|0:2,0:2:0:0:
49,296,147937,2,0,P|26:274|2:253,1,62.9999980773926,14|0,0:2|0:2,0:2:0:0:
21,173,148151,6,0,P|30:142|35:125,1,45,2|0,1:2|0:2,0:2:0:0:
106,95,148365,2,0,P|97:64|92:47,1,45,2|0,0:2|0:2,0:2:0:0:
15,47,148580,2,0,P|6:32|8:50,1,45,2|0,0:2|0:2,0:2:0:0:
191,75,148794,6,0,B|206:54|206:54|185:66,1,45,10|0,0:2|0:2,0:2:0:0:
300,169,149008,2,0,B|315:190|315:190|294:178,1,45,8|0,0:2|0:2,0:2:0:0:
367,57,149222,6,0,P|330:67|300:76,1,62.9999980773926,6|0,1:2|0:2,0:2:0:0:
129,167,149437,2,0,P|165:177|195:186,1,62.9999980773926,6|0,1:2|0:2,0:2:0:0:
395,277,149651,2,0,P|358:287|328:296,1,62.9999980773926,14|0,0:2|0:2,0:2:0:0:
259,323,149865,2,0,P|252:355|243:391,1,62.9999980773926,2|0,0:2|0:2,0:2:0:0:
50,250,150080,6,0,P|66:315|141:315,1,135,6|0,1:2|0:2,0:2:0:0:
182,265,150508,2,2,B|172:303|172:303|93:311|27:369|27:369|-18:358,1,229.500004377365,6|0,1:2|0:2,0:1:0:0:
56,246,150937,6,0,P|42:227|49:249,1,62.9999980773926,6|0,1:2|0:2,0:2:0:0:
232,358,151151,2,0,P|222:378|238:362,1,62.9999980773926,6|0,1:2|0:2,0:2:0:0:
241,150,151365,2,0,P|263:147|241:142,1,62.9999980773926,6|0,1:2|0:2,0:2:0:0:
