osu file format v14

[General]
AudioFilename: audio.ogg
AudioLeadIn: 0
PreviewTime: 14
Countdown: 0
SampleSet: Soft
StackLeniency: 0.4
Mode: 0
LetterboxInBreaks: 0
WidescreenStoryboard: 1

[Editor]
Bookmarks: 13881,27595,34452,48167,61881,68738,82452,96167,109881,137309,151024
DistanceSpacing: 1.1
BeatDivisor: 8
GridSize: 32
TimelineZoom: 2

[Metadata]
Title:ABC feat. Sophia Black
TitleUnicode:ABC feat. Sophia Black
Artist:Polyphia
ArtistUnicode:Polyphia
Creator:Mir
Version:AndAda's Hard
Source:
Tags:english pop prog metal vocal rock tim henson and the boys andada ocean man boppin amateurre remember that you will die progressive clay gober aeschliman scott lepage
BeatmapID:3874882
BeatmapSetID:1845870

[Difficulty]
HPDrainRate:4
CircleSize:3.5
OverallDifficulty:6.5
ApproachRate:8
SliderMultiplier:1.4
SliderTickRate:1

[Events]
//Background and Video events
0,0,"colorful.jpg",0,0
//Break Periods
//Storyboard Layer 0 (Background)
//Storyboard Layer 1 (Fail)
//Storyboard Layer 2 (Pass)
//Storyboard Layer 3 (Foreground)
//Storyboard Layer 4 (Overlay)
//Storyboard Sound Samples

[TimingPoints]
80,428.571428571429,4,2,0,40,1,0
80,-100,4,2,0,40,0,0
13365,-125,4,2,0,40,0,0
13794,-100,4,2,0,55,0,0
20651,-83.3333333333333,4,2,0,55,0,0
27508,-100,4,2,0,55,0,0
30937,-125,4,2,0,55,0,0
32651,-166.666666666667,4,2,0,55,0,0
34365,-66.6666666666667,4,2,0,70,0,0
48080,-76.9230769230769,4,2,0,50,0,0
54937,-83.3333333333333,4,2,0,50,0,0
58365,-71.4285714285714,4,2,0,50,0,0
60080,-66.6666666666667,4,2,0,50,0,0
61794,-125,4,2,0,45,0,0
64365,-100,4,2,0,45,0,0
65222,-125,4,2,0,45,0,0
66937,-166.666666666667,4,2,0,45,0,0
68651,-66.6666666666667,4,2,0,70,0,0
88794,-58.8235294117647,4,2,0,70,0,0
89222,-66.6666666666667,4,2,0,70,0,0
95651,-55.5555555555556,4,2,0,70,0,0
96080,-125,4,2,0,40,0,0
104222,-100,4,2,0,40,0,0
106365,-125,4,2,0,40,0,0
109794,-76.9230769230769,4,2,0,70,0,0
116651,-66.6666666666667,4,2,0,70,0,0
117937,-76.9230769230769,4,2,0,70,0,0
118365,-66.6666666666667,4,2,0,70,0,0
122651,-58.8235294117647,4,2,0,70,0,0
123508,-76.9230769230769,4,2,0,70,0,0
126937,-66.6666666666667,4,2,0,70,0,0
143651,-58.8235294117647,4,2,0,70,0,0
144079,-66.6666666666667,4,2,0,70,0,0
150508,-55.5555555555556,4,2,0,70,0,0

[Colours]
Combo1 : 136,230,157
Combo2 : 255,155,205
Combo3 : 162,223,220
Combo4 : 238,183,142

[HitObjects]
45,0,80,6,0,B|12:38|12:38|23:96,1,105,2|0,0:2|0:2,0:2:0:0:
7,107,722,1,0,0:2:0:0:
73,151,937,2,0,P|106:159|141:164,1,70,2|2,0:2|0:2,0:0:0:0:
206,205,1365,2,0,P|215:238|220:273,1,70,2|2,0:2|0:2,0:0:0:0:
143,281,1794,6,0,P|208:309|213:386,1,140,2|2,0:2|0:2,0:0:0:0:
372,383,2651,2,0,P|437:355|442:278,1,140,2|2,0:2|0:2,0:2:0:0:
298,328,3508,6,0,P|234:341|162:367,1,140,2|2,0:2|0:2,0:2:0:0:
267,252,4365,2,0,P|230:258|182:273,1,70,2|2,0:2|0:2,0:0:0:0:
126,294,4794,1,2,0:2:0:0:
191,155,5222,6,0,P|255:168|329:189,1,140,2|2,0:2|0:2,0:2:0:0:
365,123,5865,1,0,0:2:0:0:
365,123,6080,2,0,P|332:109|286:98,1,70,2|2,0:2|0:2,0:0:0:0:
259,34,6508,2,0,P|224:41|191:52,1,70,2|2,0:2|0:2,0:0:0:0:
109,124,6937,6,0,P|51:123|23:78,2,105,2|0|2,0:2|0:2|0:2,0:2:0:0:
123,277,8008,1,0,0:2:0:0:
162,211,8222,2,0,L|171:168,2,35,2|2|2,0:2|0:2|0:2,0:0:0:0:
205,274,8651,6,0,L|292:292,1,70,2|0,0:2|0:2,0:2:0:0:
306,269,8972,2,0,L|380:253,2,70,2|2|0,0:2|0:2|0:2,0:2:0:0:
269,256,9508,2,0,L|260:205,3,35,2|2|2|2,0:2|0:2|0:2|0:2,0:0:0:0:
290,194,9937,2,0,L|306:116,1,70,2|0,0:2|0:2,0:2:0:0:
353,47,10365,6,0,L|345:12,3,35,2|2|2|2,0:2|0:2|0:2|0:2,0:0:0:0:
323,0,10794,2,0,L|288:8,3,35,2|2|2|2,0:2|0:2|0:2|0:2,0:0:0:0:
265,13,11222,2,0,L|230:21,3,35,2|2|2|2,0:2|0:2|0:2|0:2,0:0:0:0:
216,40,11651,2,0,L|224:75,3,35,2|2|2|2,0:2|0:2|0:2|0:2,0:0:0:0:
239,93,12080,2,0,L|231:128,1,35,2|2,0:2|0:2,0:0:0:0:
222,149,12294,1,2,0:2:0:0:
203,153,12401,1,2,0:2:0:0:
184,158,12509,2,0,L|149:166,3,35,2|2|2|2,0:2|0:2|0:2|0:2,0:0:0:0:
131,171,12937,1,2,0:2:0:0:
11,182,13365,2,0,B|18:200|18:200|60:207|60:207|74:243,1,84,2|0,0:2|0:2,0:2:0:0:
72,249,13794,6,0,P|62:286|56:350,1,70,2|2,1:2|0:2,0:0:0:0:
2,371,14222,1,10,0:2:0:0:
117,364,14544,2,0,P|146:357|170:351,1,35,2|2,0:2|0:2,0:0:0:0:
149,247,14972,1,2,0:2:0:0:
157,237,15080,1,10,0:2:0:0:
214,295,15294,6,0,P|218:311|222:328,2,35,0|0|2,0:2|0:2|0:2,0:0:0:0:
74,229,15937,1,10,0:2:0:0:
226,208,16365,2,0,P|243:211|260:214,3,35,2|2|2|2,1:2|0:2|0:2|0:2,0:0:0:0:
293,193,16794,1,10,0:2:0:0:
265,121,17008,1,2,0:2:0:0:
321,68,17222,6,0,P|384:82|439:86,1,105,2|0,1:2|0:2,0:2:0:0:
452,111,17651,2,0,P|399:138|399:188,1,105,10|0,0:2|0:2,0:2:0:0:
373,210,18080,2,0,P|384:250|389:272,3,35,2|2|2|2,3:2|3:2|3:2|3:2,0:0:0:0:
414,264,18508,1,10,3:2:0:0:
472,214,18722,1,2,3:2:0:0:
487,289,18937,5,2,1:2:0:0:
329,304,19365,2,0,P|288:295|274:293,3,35,10|2|2|0,0:2|0:2|0:2|0:2,0:0:0:0:
259,311,19794,1,2,1:2:0:0:
218,376,20008,1,0,0:2:0:0:
164,316,20222,2,0,P|106:331|48:342,1,105,8|2,0:2|0:2,0:0:0:0:
25,310,20651,6,0,B|8:272|8:272|23:202,1,83.9999974365235,6|0,1:2|0:2,0:2:0:0:
58,209,20972,2,0,B|66:167|66:167|49:129,1,83.9999974365235,2|0,0:2|0:2,0:2:0:0:
16,95,21294,1,2,0:2:0:0:
117,87,21508,2,0,L|126:36,3,41.9999987182618,2|0|0|0,3:2|0:2|3:2|3:2,0:2:0:0:
96,8,21937,2,0,L|55:0,1,41.9999987182618,8|0,3:2|3:2,0:0:0:0:
10,7,22151,1,0,3:2:0:0:
16,95,22365,6,0,B|12:138|12:138|35:196,1,83.9999974365235,2|0,0:2|0:2,0:2:0:0:
71,189,22687,2,0,B|85:227|85:227|82:270,1,83.9999974365235,2|0,0:2|0:2,0:2:0:0:
78,316,23008,2,0,L|139:323,1,41.9999987182618,2|0,1:2|0:2,0:2:0:0:
165,327,23222,2,0,L|170:368,3,41.9999987182618,2|0|0|0,1:2|3:2|3:2|3:2,0:0:0:0:
216,375,23651,1,2,3:2:0:0:
262,295,23865,1,2,3:2:0:0:
310,373,24080,6,0,L|410:357,1,83.9999974365235,2|0,1:2|0:2,0:2:0:0:
425,327,24401,1,2,1:2:0:0:
381,245,24615,2,0,L|481:229,1,83.9999974365235,2|2,1:2|1:2,0:2:0:0:
498,262,24937,2,0,L|502:303,2,41.9999987182618,0|0|0,3:2|3:2|3:2,0:0:0:0:
509,170,25365,1,10,3:2:0:0:
417,155,25580,1,2,3:2:0:0:
412,62,25794,6,0,P|356:70|311:96,1,83.9999974365235,2|0,1:2|0:2,0:2:0:0:
295,110,26115,2,0,P|256:94|214:90,1,83.9999974365235,2|0,0:2|1:2,0:2:0:0:
172,109,26437,1,0,0:2:0:0:
226,182,26651,6,0,B|243:216|243:216|231:260,1,83.9999974365235,0|0,1:2|0:2,0:2:0:0:
201,295,26972,2,0,B|236:277|236:277|280:289,1,83.9999974365235,0|0,0:2|0:2,0:2:0:0:
308,324,27294,2,0,L|390:317,1,41.9999987182618,0|0,0:2|0:2,0:2:0:0:
382,299,27508,6,0,L|385:258,2,35,6|2|2,1:2|0:2|0:2,0:0:0:0:
447,340,27937,1,10,0:2:0:0:
460,264,28151,1,2,0:2:0:0:
421,197,28365,1,2,0:2:0:0:
298,103,28794,6,0,L|295:62,2,35,10|2|2,0:2|0:2|0:2,0:0:0:0:
233,144,29223,1,2,0:2:0:0:
220,68,29437,1,2,0:2:0:0:
259,1,29651,1,10,0:2:0:0:
442,187,30080,6,0,L|483:184,2,35,2|2|2,0:2|0:2|0:2,0:0:0:0:
369,161,30508,1,10,0:2:0:0:
305,206,30722,1,2,0:2:0:0:
376,257,30937,6,0,B|457:252|426:312|515:304,1,140,2|0,1:2|0:0,0:0:0:0:
509,298,31580,2,0,L|515:267,3,18.6666666666667,0|0|0|2,0:2|0:2|0:2|0:3,0:2:0:0:
308,307,32437,2,0,L|302:276,2,18.6666666666667,0|0|0,0:2|0:2|0:2,0:2:0:0:
303,316,32651,2,0,B|159:315|208:357|56:374,1,251.999992309571,4|0,0:2|0:2,0:2:0:0:
111,5,34365,5,4,1:2:0:0:
154,148,34580,1,4,1:2:0:0:
9,121,34794,1,12,1:2:0:0:
96,88,35008,1,0,0:2:0:0:
96,88,35222,2,0,P|151:88|215:76,2,105.000004005432,2|2|10,0:2|0:2|0:2,0:2:0:0:
91,103,35758,1,0,0:2:0:0:
86,118,35865,1,2,0:2:0:0:
189,170,36080,5,0,1:2:0:0:
93,281,36294,1,0,1:2:0:0:
236,311,36508,2,0,P|288:304|338:291,1,105.000004005432,10|0,1:2|0:2,0:2:0:0:
352,280,36830,1,0,0:2:0:0:
366,268,36937,2,0,P|364:218|321:192,1,105.000004005432,2|0,1:2|0:2,0:2:0:0:
309,178,37258,1,0,0:2:0:0:
299,163,37365,1,10,1:2:0:0:
414,157,37580,1,2,0:3:0:0:
287,82,37794,5,6,1:2:0:0:
415,12,38008,1,4,1:2:0:0:
426,158,38222,1,14,1:2:0:0:
375,81,38437,1,0,1:2:0:0:
375,81,38651,2,0,P|295:62|251:46,1,105.000004005432,0|2,0:2|0:3,0:2:0:0:
259,65,38972,1,0,0:2:0:0:
246,76,39080,1,2,0:3:0:0:
325,159,39294,1,0,1:2:0:0:
179,140,39508,5,2,1:2:0:0:
321,174,39722,1,0,1:2:0:0:
220,281,39937,2,0,P|151:254|150:211,1,105.000004005432,10|0,1:2|0:2,0:2:0:0:
98,92,40365,2,0,B|94:132|94:132|77:151|77:151|73:195,1,105.000004005432,6|2,1:2|0:2,0:2:0:0:
24,329,40794,2,0,B|19:287|19:287|3:270|3:270|-2:226,1,105.000004005432,8|2,1:2|0:2,0:2:0:0:
0,84,41222,5,6,1:2:0:0:
124,5,41437,1,4,1:2:0:0:
138,151,41651,1,12,1:2:0:0:
250,115,41865,1,2,1:2:0:0:
250,115,42080,2,0,L|292:126,4,26.2500010013581,0|0|0|0|0,3:2|3:2|3:2|0:0|3:2,3:2:0:0:
191,214,42508,1,10,3:2:0:0:
183,232,42615,1,2,3:2:0:0:
176,249,42722,1,2,0:2:0:0:
290,268,42937,6,0,B|343:282|343:282|394:256,1,105.000004005432,6|0,1:2|1:2,0:2:0:0:
403,236,43258,1,6,0:2:0:0:
501,176,43472,2,0,L|360:147,1,105.000004005432,6|0,0:2|0:2,0:2:0:0:
377,124,43794,1,2,0:2:0:0:
363,133,43901,1,2,0:2:0:0:
349,142,44008,1,2,0:2:0:0:
336,151,44115,1,2,0:2:0:0:
323,160,44222,2,0,L|203:182,1,105.000004005432,10|2,0:2|0:2,0:2:0:0:
93,289,44651,6,0,L|81:344,3,52.5000020027161,2|2|10|2,1:2|3:2|3:2|3:2,0:0:0:0:
109,371,45080,2,0,L|164:383,3,52.5000020027161,2|10|10|2,1:2|0:2|0:2|0:2,0:0:0:0:
198,364,45508,2,0,L|253:352,1,52.5000020027161,2|2,1:2|0:2,0:0:0:0:
287,369,45722,2,0,L|338:380,1,52.5000020027161,2|2,1:2|0:2,0:0:0:0:
378,365,45937,2,0,L|429:353,3,52.5000020027161,10|2|2|2,0:2|0:2|1:2|0:2,0:0:0:0:
451,317,46365,2,0,L|439:262,3,52.5000020027161,2|10|10|10,1:2|0:2|0:2|0:2,0:0:0:0:
465,232,46794,2,0,L|477:177,1,52.5000020027161,2|2,1:2|0:2,0:0:0:0:
454,144,47008,2,0,L|442:89,1,52.5000020027161,2|2,1:2|0:2,0:0:0:0:
476,67,47222,2,0,L|488:12,1,52.5000020027161,2|2,1:2|0:2,0:0:0:0:
464,3,47437,1,8,0:2:0:0:
446,14,47544,1,8,0:2:0:0:
429,26,47651,2,2,P|360:38|280:91,1,157.500006008148,8|0,0:2|3:2,0:1:0:0:
274,106,48080,6,0,P|266:178|249:256,2,136.499993751526,6|2|2,1:2|0:2|0:2,0:2:0:0:
222,19,48937,1,2,0:2:0:0:
169,159,49258,1,2,0:2:0:0:
103,23,49580,1,2,0:2:0:0:
42,102,49794,6,0,P|50:174|67:252,2,136.499993751526,2|2|2,0:2|0:2|0:2,0:2:0:0:
103,23,50651,2,0,P|162:44|176:83,1,90.9999958343508,2|0,1:2|0:2,0:2:0:0:
207,216,51080,2,0,P|250:208|277:172,1,90.9999958343508,8|0,1:2|0:2,0:2:0:0:
380,74,51508,6,0,P|445:92|512:104,2,136.499993751526,6|0|0,1:2|0:0|0:2,0:2:0:0:
295,127,52365,2,0,P|299:154|310:190,3,45.4999979171754,2|2|2|2,0:2|0:2|0:2|0:2,0:0:0:0:
324,217,52794,2,0,P|319:244|309:280,3,45.4999979171754,10|2|2|2,0:2|0:2|0:2|0:2,0:0:0:0:
293,306,53222,6,0,P|358:288|425:276,2,136.499993751526,2|2|2,1:2|0:2|0:2,0:2:0:0:
171,348,54080,2,0,P|106:330|48:320,1,90.9999958343508,2|0,0:2|1:2,0:2:0:0:
67,338,54401,1,2,0:2:0:0:
53,353,54508,1,8,0:2:0:0:
17,171,54937,6,0,B|58:152|58:152|108:162,1,83.9999974365235,6|2,1:2|0:2,0:2:0:0:
123,196,55258,2,0,B|161:203|161:203|202:184,1,83.9999974365235,2|2,0:2|0:2,0:2:0:0:
215,139,55580,1,2,0:2:0:0:
230,47,55794,1,2,0:2:0:0:
409,12,56222,1,10,0:2:0:0:
500,172,56651,6,0,B|459:153|459:153|409:163,1,83.9999974365235,2|0,0:2|0:2,0:2:0:0:
407,177,56972,1,0,0:2:0:0:
393,193,57080,2,0,L|302:216,1,83.9999974365235,10|0,1:2|0:2,0:2:0:0:
220,277,57508,2,0,L|311:300,1,83.9999974365235,2|0,0:2|1:2,0:2:0:0:
392,281,57937,1,10,0:2:0:0:
418,369,58151,1,2,1:2:0:0:
497,296,58365,6,0,L|473:194,1,97.9999970092774,6|2,1:2|0:2,0:2:0:0:
454,186,58687,1,2,0:2:0:0:
433,174,58794,1,8,0:2:0:0:
493,87,59008,2,0,B|524:45|524:45|512:-2,2,97.9999970092774,0|2|2,1:2|0:2|0:2,0:0:0:0:
384,84,59651,1,10,0:2:0:0:
340,182,59865,1,2,0:2:0:0:
233,135,60080,6,0,L|175:149,3,52.5000020027161,2|2|2|2,1:2|3:2|3:2|3:2,0:0:0:0:
157,181,60508,2,0,L|171:239,3,52.5000020027161,8|2|2|0,1:2|3:2|3:2|3:2,0:0:0:0:
195,265,60937,2,0,L|181:323,1,52.5000020027161,2|0,1:2|3:2,3:2:0:0:
149,341,61151,2,0,L|91:355,1,52.5000020027161,2|0,3:2|3:2,3:2:0:0:
58,367,61365,1,10,1:2:0:0:
7,286,61580,5,8,0:2:0:0:
16,279,61687,1,8,0:2:0:0:
25,272,61794,2,0,L|45:180,2,84,4|8|8,1:2|3:2|3:2,0:2:0:0:
172,383,63080,1,8,3:2:0:0:
273,313,63508,2,0,L|253:221,2,84,8|8|8,3:2|3:2|3:2,3:2:0:0:
342,349,64365,6,0,L|334:388,2,35,0|0|0,1:2|3:2|3:2,3:2:0:0:
400,297,64794,2,0,L|392:258,2,35,0|0|0,1:2|3:2|3:2,0:0:0:0:
466,368,65222,6,0,B|456:296|516:298|512:233,1,140,4|0,1:2|0:0,0:2:0:0:
505,229,65865,2,0,L|474:223,3,18.6666666666667,0|0|0|4,0:2|0:0|0:0|0:2,0:0:0:0:
384,11,66722,2,0,L|353:5,2,18.6666666666667,0|0|0,0:2|0:0|0:0,0:0:0:0:
393,22,66937,2,0,B|387:109|423:102|417:189,1,167.999994873047,4|0,0:2|0:2,0:2:0:0:
3,10,68651,5,4,1:2:0:0:
24,155,68865,1,4,1:2:0:0:
141,66,69080,1,12,1:2:0:0:
56,80,69294,1,0,0:2:0:0:
56,80,69508,2,0,P|78:154|96:191,1,105.000004005432,2|2,0:2|0:2,0:2:0:0:
145,280,69937,2,0,P|167:206|185:169,1,105.000004005432,10|2,0:2|0:2,0:2:0:0:
195,169,70258,1,0,0:2:0:0:
212,159,70365,5,0,1:2:0:0:
319,260,70580,1,0,1:2:0:0:
352,117,70794,2,0,P|400:96|451:83,1,105.000004005432,10|0,1:2|0:2,0:2:0:0:
466,96,71115,1,0,0:2:0:0:
480,108,71222,2,0,P|459:156|446:207,1,105.000004005432,2|0,1:2|0:2,0:2:0:0:
454,224,71544,1,0,0:2:0:0:
462,241,71651,1,10,1:2:0:0:
379,321,71865,1,2,0:3:0:0:
372,173,72080,5,6,1:2:0:0:
363,319,72294,1,4,1:2:0:0:
219,349,72508,1,14,1:2:0:0:
279,263,72722,1,0,1:2:0:0:
279,263,72937,2,0,P|194:243|155:226,1,105.000004005432,0|2,0:2|0:3,0:2:0:0:
165,253,73258,1,0,0:2:0:0:
154,271,73365,1,2,0:3:0:0:
173,156,73580,1,0,1:2:0:0:
29,188,73794,5,2,1:2:0:0:
167,139,74008,1,0,1:2:0:0:
61,36,74222,2,0,P|9:64|9:118,1,105.000004005432,10|0,1:2|0:2,0:2:0:0:
108,209,74651,2,0,B|155:219|155:219|164:232|164:232|227:246,1,105.000004005432,6|2,1:2|0:2,0:2:0:0:
344,286,75080,2,0,B|297:296|297:296|288:309|288:309|225:323,1,105.000004005432,8|2,1:2|0:2,0:2:0:0:
105,355,75508,5,6,1:2:0:0:
204,240,75722,1,4,1:2:0:0:
108,127,75937,1,12,1:2:0:0:
199,56,76151,1,2,1:2:0:0:
199,56,76365,2,0,L|210:14,4,26.2500010013581,0|0|0|0|0,3:2|3:2|3:2|0:0|3:2,3:2:0:0:
275,143,76794,1,10,3:2:0:0:
279,156,76901,1,2,3:2:0:0:
283,169,77008,1,2,0:2:0:0:
361,84,77222,6,0,B|404:55|404:55|476:73,1,105.000004005432,6|0,1:2|1:2,0:2:0:0:
474,93,77544,1,6,0:2:0:0:
429,188,77758,2,0,L|447:293,1,105.000004005432,6|0,0:2|0:2,0:2:0:0:
477,311,78080,1,2,0:2:0:0:
472,326,78187,1,2,0:2:0:0:
467,341,78294,1,2,0:2:0:0:
462,356,78401,1,2,0:2:0:0:
457,371,78508,2,0,L|338:349,1,105.000004005432,10|2,0:2|0:2,0:2:0:0:
125,375,78937,6,0,L|56:362,3,52.5000020027161,2|2|10|2,1:2|3:2|3:2|3:2,0:0:0:0:
44,335,79365,2,0,L|57:266,3,52.5000020027161,2|0|10|2,1:2|3:2|0:2|0:2,0:0:0:0:
91,264,79794,2,0,L|78:195,1,52.5000020027161,2|2,1:2|0:2,0:0:0:0:
52,182,80008,2,0,L|65:113,1,52.5000020027161,2|2,1:2|0:2,0:0:0:0:
96,107,80222,2,0,L|83:38,3,52.5000020027161,10|2|2|2,0:2|0:2|1:2|0:2,0:0:0:0:
116,26,80651,2,0,L|185:13,3,52.5000020027161,2|10|10|10,1:2|0:2|0:2|0:2,0:0:0:0:
198,44,81080,2,0,L|267:57,1,52.5000020027161,2|2,1:2|0:2,0:0:0:0:
283,29,81294,2,0,L|352:16,1,52.5000020027161,2|2,1:2|0:2,0:0:0:0:
365,47,81508,2,0,L|434:60,1,52.5000020027161,2|2,1:2|0:2,0:0:0:0:
449,83,81722,1,8,0:2:0:0:
462,98,81830,1,8,0:2:0:0:
473,115,81937,2,2,P|391:130|317:182,1,157.500006008148,8|0,0:2|3:2,0:1:0:0:
294,210,82365,5,6,1:2:0:0:
429,268,82580,1,6,1:2:0:0:
309,352,82794,2,0,L|155:330,2,105.000004005432,6|0|0,1:2|1:2|0:2,0:2:0:0:
149,184,83651,1,10,0:2:0:0:
149,184,83865,1,2,0:2:0:0:
231,190,84080,5,6,0:2:0:0:
97,250,84294,1,6,1:2:0:0:
113,104,84508,1,14,0:2:0:0:
332,86,84830,1,0,0:2:0:0:
343,77,84937,2,0,P|266:63|219:49,1,105.000004005432,6|2,1:2|0:2,0:2:0:0:
76,20,85365,2,0,P|153:6|200:-8,1,105.000004005432,14|2,0:2|0:2,0:2:0:0:
358,0,85794,5,6,1:2:0:0:
281,125,86008,1,4,1:2:0:0:
427,127,86222,1,14,0:2:0:0:
351,83,86437,1,2,3:2:0:0:
351,83,86651,2,0,L|324:198,1,105.000004005432,2|2,0:2|0:2,0:2:0:0:
411,264,87080,1,10,3:2:0:0:
411,264,87294,1,8,3:2:0:0:
490,180,87508,5,6,1:2:0:0:
468,325,87722,1,6,1:2:0:0:
321,339,87937,2,0,P|301:299|280:212,1,105.000004005432,14|2,0:2|0:2,0:2:0:0:
250,98,88365,1,6,1:2:0:0:
48,225,88794,2,0,B|77:250|77:250|152:247|229:288,1,178.500003404617,6|0,1:2|0:2,2:2:0:0:
245,317,89222,5,6,1:2:0:0:
104,363,89437,1,6,1:2:0:0:
137,219,89651,2,0,L|119:115,2,105.000004005432,6|2|2,1:2|1:2|0:2,0:2:0:0:
333,95,90508,1,8,0:2:0:0:
333,95,90722,1,0,0:2:0:0:
251,115,90937,5,6,1:2:0:0:
390,159,91151,1,6,1:2:0:0:
359,16,91365,1,14,1:2:0:0:
491,254,91794,2,0,P|439:245|386:240,1,105.000004005432,6|2,1:2|0:2,0:2:0:0:
261,330,92222,2,0,P|312:321|365:316,1,105.000004005432,14|2,0:2|0:2,0:2:0:0:
500,375,92651,5,6,1:2:0:0:
359,331,92865,1,4,1:2:0:0:
321,188,93080,1,14,0:2:0:0:
227,253,93294,1,2,1:2:0:0:
227,253,93508,2,0,L|253:125,1,105.000004005432,2|2,0:2|0:2,0:2:0:0:
347,110,93937,1,10,0:2:0:0:
347,110,94151,1,8,0:2:0:0:
239,67,94365,5,6,1:2:0:0:
321,188,94580,1,6,1:2:0:0:
174,201,94794,2,0,L|37:214,1,105.000004005432,14|2,0:2|0:2,0:2:0:0:
16,347,95222,1,6,1:2:0:0:
281,339,95651,2,2,B|245:345|245:345|196:316|135:315|135:315|83:277,1,188.999994232178,6|0,1:2|0:2,0:1:0:0:
90,300,96080,5,4,0:1:0:0:
337,276,96722,1,0,0:2:0:0:
337,276,96937,1,2,0:3:0:0:
402,233,97151,2,0,L|398:204,3,18.6666666666667,2|0|0|2,0:2|0:2|0:2|0:2,0:2:0:0:
472,262,97580,1,2,0:2:0:0:
500,189,97794,6,0,L|509:68,1,112,6|2,0:2|0:2,0:2:0:0:
358,29,98651,2,0,L|366:140,1,112,6|2,0:2|0:2,0:2:0:0:
202,259,99508,6,0,B|152:287|152:287|91:276,2,112,6|2|2,0:2|0:3|0:3,0:2:0:0:
248,195,100580,2,0,L|254:132,1,56,2|2,0:2|0:2,0:2:0:0:
67,0,101222,6,0,L|198:22,1,112,6|2,0:2|0:2,0:2:0:0:
250,60,101865,1,2,0:2:0:0:
250,60,102080,2,0,L|313:49,1,56,2|2,0:3|0:2,0:0:0:0:
379,76,102508,2,0,L|388:131,1,56,2|2,0:2|0:2,0:0:0:0:
504,255,102937,6,0,L|499:282,2,28,2|0|0,0:2|0:2|0:2,0:2:0:0:
476,227,103258,2,0,L|405:242,1,56,2|0,0:3|0:2,0:2:0:0:
384,223,103580,1,2,0:3:0:0:
336,285,103794,2,0,L|321:356,1,56,4|0,0:2|0:2,0:2:0:0:
167,373,104222,2,0,L|122:385,2,35,2|2|2,0:3|0:3|0:3,0:0:0:0:
229,325,104651,6,0,B|247:294|247:294|237:239,1,70,2|0,0:2|0:2,0:2:0:0:
228,213,104972,1,2,0:2:0:0:
152,276,105187,2,0,L|133:181,1,70,2|0,0:2|0:2,0:2:0:0:
97,180,105508,2,0,L|52:168,3,35,2|2|2|2,0:3|0:2|0:2|0:2,0:0:0:0:
34,130,105937,2,0,L|53:35,1,70,2|2,0:2|0:2,0:2:0:0:
297,19,106365,6,0,L|246:29,3,28,2|2|2|2,0:2|0:2|0:2|0:2,0:0:0:0:
249,48,106794,2,0,L|259:99,3,28,2|2|2|2,0:2|0:2|0:2|0:2,0:0:0:0:
259,105,107222,2,0,L|269:156,3,28,2|2|2|2,0:2|0:2|0:2|0:2,0:0:0:0:
292,145,107651,2,0,L|343:135,3,28,2|2|2|2,0:2|0:2|0:2|0:2,0:0:0:0:
345,156,108080,2,0,L|372:161,1,28,2|2,0:2|0:2,0:0:0:0:
402,153,108294,1,2,0:2:0:0:
416,150,108401,1,2,0:2:0:0:
430,148,108508,2,0,L|457:142,4,28,2|2|2|2|2,0:2|0:2|0:2|0:2|0:2,0:0:0:0:
138,154,109794,6,0,B|241:171|241:171|284:220|284:220|389:239,1,272.999987503052,4|0,0:1|0:2,0:2:0:0:
475,277,110651,1,8,0:2:0:0:
397,353,110865,2,0,L|403:374,4,22.7499989585877,2|0|0|0|2,3:2|3:2|3:2|0:0|0:2,3:2:0:0:
301,318,111294,2,0,L|309:291,2,22.7499989585877,2|0|0,3:2|3:2|3:2,3:2:0:0:
253,354,111508,6,0,B|200:361|200:361|178:380|178:380|107:389,1,136.499993751526,2|0,1:2|0:2,0:2:0:0:
76,359,111937,2,0,B|59:317|59:317|94:251,1,90.9999958343508,2|2,1:2|0:2,0:2:0:0:
180,234,112365,1,10,0:2:0:0:
76,199,112580,2,0,L|51:50,1,136.499993751526,2|0,1:2|0:2,0:2:0:0:
78,73,113008,1,0,0:2:0:0:
103,83,113115,1,0,0:2:0:0:
128,93,113222,6,0,B|194:76|194:76|266:124,1,136.499993751526,4|0,1:1|0:2,0:2:0:0:
276,102,113651,1,2,0:2:0:0:
300,91,113758,1,2,0:2:0:0:
325,80,113865,1,2,0:2:0:0:
363,182,114080,2,0,B|406:186|406:186|413:195|413:195|463:200,1,90.9999958343508,8|0,0:2|3:2,0:2:0:0:
506,105,114508,1,2,0:2:0:0:
436,20,114722,2,0,L|443:-2,2,22.7499989585877,2|0|0,0:2|0:0|0:2,0:2:0:0:
420,72,114937,5,2,1:2:0:0:
313,49,115151,1,2,1:2:0:0:
206,25,115365,2,0,B|196:91,3,45.4999979171754,2|2|0|0,1:2|0:2|0:0|0:2,0:0:0:0:
184,87,115794,2,0,B|194:153,1,45.4999979171754,8|0,0:2|1:2,0:0:0:0:
207,147,116008,1,0,0:2:0:0:
223,163,116115,2,0,B|207:266,1,90.9999958343508,2|0,1:2|0:2,0:0:0:0:
219,288,116437,5,10,0:2:0:0:
254,295,116544,1,10,0:2:0:0:
289,303,116651,2,0,P|370:251|402:239,1,105.000004005432,6|0,1:2|0:2,0:2:0:0:
388,158,116972,2,0,P|392:254|386:287,1,105.000004005432,6|0,1:2|0:2,0:2:0:0:
459,316,117294,2,0,P|373:271|347:250,1,105.000004005432,6|8,1:2|0:2,0:2:0:0:
210,360,117722,1,0,0:2:0:0:
134,308,117937,1,2,0:2:0:0:
137,294,118044,1,2,0:2:0:0:
140,280,118151,1,2,3:2:0:0:
54,351,118365,6,0,B|37:281|37:281|41:268|41:268|24:190,1,157.500006008148,6|2,1:2|0:2,0:2:0:0:
51,139,118794,2,0,B|105:125|105:125|163:186,1,105.000004005432,0|0,1:2|0:0,0:0:0:0:
280,237,119222,2,0,B|205:215|205:215|126:269,1,157.500006008148,10|2,0:2|0:2,0:2:0:0:
129,322,119651,1,2,1:2:0:0:
233,381,119865,1,2,0:3:0:0:
330,301,120080,6,0,L|389:288,3,52.5000020027161,2|2|2|2,1:2|0:2|0:2|0:2,0:0:0:0:
411,253,120508,2,0,L|398:194,3,52.5000020027161,2|2|2|2,1:2|0:2|0:2|0:2,0:0:0:0:
388,155,120937,1,10,0:2:0:0:
484,104,121151,2,0,B|437:91|437:91|430:83|430:83|349:63,1,105.000004005432,2|2,1:2|0:2,0:0:0:0:
340,85,121472,1,2,1:2:0:0:
323,98,121580,2,0,L|243:110,1,52.5000020027161,2|2,0:2|0:2,0:0:0:0:
182,120,121794,5,2,1:2:0:0:
176,130,121901,1,2,1:2:0:0:
170,140,122008,1,2,1:2:0:0:
126,21,122222,1,2,1:2:0:0:
35,109,122437,1,2,1:2:0:0:
73,228,122651,2,0,B|112:245|149:232|149:232|164:255|164:255|214:242|259:290,1,178.500003404617,8|0,3:2|0:0,0:0:0:0:
272,305,123080,2,0,B|273:344|273:344|255:383,2,79.3333348464966,2|2|2,0:3|0:3|0:3,0:0:0:0:
345,256,123508,6,0,B|374:241|440:229|440:229|329:226|259:147,1,272.999987503052,4|0,0:1|0:2,0:2:0:0:
197,97,124365,1,10,0:2:0:0:
303,67,124580,1,10,0:3:0:0:
329,61,124687,1,8,0:3:0:0:
355,55,124794,1,10,0:3:0:0:
381,49,124901,1,8,0:3:0:0:
407,43,125008,2,0,L|482:61,1,45.4999979171754,6|4,0:3|0:3,0:0:0:0:
491,66,125222,5,2,1:2:0:0:
497,92,125329,2,0,L|479:167,1,45.4999979171754,0|0,3:2|3:2,0:0:0:0:
443,171,125544,1,2,1:2:0:0:
437,197,125651,2,0,L|455:272,1,45.4999979171754,0|0,3:2|3:2,0:0:0:0:
492,272,125865,2,0,L|474:347,1,45.4999979171754,2|0,1:2|3:2,0:0:0:0:
450,362,126080,1,8,3:2:0:0:
327,317,126294,2,0,L|259:334,3,45.4999979171754,2|2|2|2,0:2|0:2|0:2|0:2,0:0:0:0:
241,363,126722,1,2,0:3:0:0:
215,357,126829,1,2,0:3:0:0:
189,351,126937,6,0,B|163:346|151:317|151:317|112:311|81:345,1,105.000004005432,4|0,1:1|0:2,0:2:0:0:
60,374,127258,1,2,0:2:0:0:
18,255,127472,1,0,0:2:0:0:
30,271,127580,2,0,L|48:189,1,52.5000020027161,2|0,0:2|0:2,0:2:0:0:
19,160,127794,1,8,0:2:0:0:
132,139,128008,2,0,L|163:147,4,26.2500010013581,2|0|0|0|2,3:2|3:2|3:2|0:0|0:2,3:2:0:0:
61,47,128437,2,0,L|30:55,2,26.2500010013581,2|0|0,3:2|3:2|3:2,3:2:0:0:
120,26,128651,5,2,1:2:0:0:
226,70,128865,1,2,1:2:0:0:
332,114,129080,2,0,B|398:128|398:128|396:188|433:226,1,157.500006008148,2|0,1:2|0:2,0:0:0:0:
453,260,129508,2,0,L|524:244,2,52.5000020027161,8|0|0,0:2|1:2|0:2,0:0:0:0:
406,295,129830,1,0,1:2:0:0:
389,306,129937,2,0,L|313:290,1,52.5000020027161,0|0,1:2|0:2,0:2:0:0:
289,326,130151,1,0,3:2:0:0:
181,299,130365,6,0,L|173:268,2,26.2500010013581,2|0|0,1:2|1:2|1:2,0:0:0:0:
136,344,130580,1,0,1:2:0:0:
132,359,130687,2,0,L|140:390,2,26.2500010013581,2|0|0,1:2|1:2|1:2,0:0:0:0:
75,330,130901,1,0,1:2:0:0:
71,315,131008,2,0,L|5:300,2,52.5000020027161,2|0|8,1:2|1:2|0:2,0:0:0:0:
106,193,131437,1,0,0:2:0:0:
115,203,131544,1,0,0:2:0:0:
124,213,131651,2,0,L|136:154,3,52.5000020027161,2|2|2|2,0:2|0:2|0:2|0:2,0:0:0:0:
113,101,132080,6,0,B|143:82|176:88|176:88|186:48|186:48|219:48|254:33,1,157.500006008148,6|2,1:2|0:2,0:0:0:0:
298,33,132508,2,0,B|324:41|334:64|334:64|310:88|313:117,1,105.000004005432,2|2,1:2|0:2,0:0:0:0:
220,200,132937,2,0,B|242:157|282:151|282:151|312:193|359:191,1,157.500006008148,10|2,0:2|0:2,0:0:0:0:
406,191,133365,2,0,L|436:185,4,26.2500010013581,2|0|2|0|2,1:2|0:0|0:2|0:0|0:2,0:0:0:0:
312,307,133794,6,0,L|252:316,3,52.5000020027161,6|2|2|2,1:2|0:2|0:2|0:2,0:0:0:0:
229,286,134222,2,0,L|220:226,3,52.5000020027161,6|2|2|2,1:2|0:2|0:2|0:2,0:0:0:0:
245,199,134651,1,10,0:2:0:0:
271,195,134758,1,2,0:2:0:0:
297,191,134865,2,0,L|306:131,1,52.5000020027161,6|2,1:2|3:2,0:0:0:0:
288,99,135080,2,0,L|279:39,3,52.5000020027161,10|2|10|2,3:2|3:2|3:2|3:2,0:0:0:0:
256,12,135508,2,0,L|196:21,3,52.5000020027161,6|2|2|2,1:2|0:2|0:2|0:2,0:0:0:0:
174,50,135937,1,10,0:2:0:0:
148,46,136044,1,4,0:3:0:0:
122,42,136151,1,4,0:3:0:0:
96,38,136258,1,4,0:3:0:0:
70,34,136365,2,0,P|21:61|29:167,1,157.500006008148,4|0,0:3|0:2,0:2:0:0:
55,172,136794,2,0,B|92:176|92:176|143:148,2,70.0000026702882,2|2|2,0:3|0:3|0:3,0:0:0:0:
0,235,137222,5,6,1:2:0:0:
58,370,137437,1,6,1:2:0:0:
146,253,137651,2,0,L|252:232,2,105.000004005432,6|0|0,1:2|3:2|3:2,0:2:0:0:
372,317,138508,1,10,0:2:0:0:
372,317,138722,1,2,0:2:0:0:
285,324,138937,5,6,0:2:0:0:
419,384,139151,1,6,1:2:0:0:
403,238,139365,1,14,0:2:0:0:
504,97,139687,1,0,0:2:0:0:
508,108,139794,2,0,P|456:99|405:86,1,105.000004005432,6|2,1:2|0:2,0:2:0:0:
304,142,140222,2,0,P|253:154|201:163,1,105.000004005432,14|2,0:2|0:2,0:2:0:0:
100,55,140651,5,6,1:2:0:0:
41,189,140865,1,4,1:2:0:0:
186,170,141079,1,14,0:2:0:0:
107,139,141294,1,2,3:2:0:0:
107,139,141508,2,0,L|92:263,1,105.000004005432,2|2,0:2|0:2,0:2:0:0:
184,324,141937,1,10,3:2:0:0:
184,324,142151,1,8,3:2:0:0:
69,336,142365,5,6,1:2:0:0:
178,237,142579,1,6,1:2:0:0:
264,356,142794,2,0,P|314:341|361:318,1,105.000004005432,14|2,0:2|0:2,0:2:0:0:
460,209,143222,1,6,1:2:0:0:
138,121,143651,2,0,B|168:145|168:145|220:139|266:165|266:165|328:155,1,178.500003404617,6|0,1:2|0:2,2:2:0:0:
342,129,144079,5,6,1:2:0:0:
230,32,144294,1,6,1:2:0:0:
200,175,144508,2,0,L|218:279,2,105.000004005432,6|2|2,1:2|1:2|0:2,0:2:0:0:
427,239,145365,1,8,0:2:0:0:
427,239,145579,1,0,0:2:0:0:
345,265,145794,5,6,1:2:0:0:
453,166,146008,1,6,1:2:0:0:
484,309,146222,1,14,1:2:0:0:
257,356,146651,2,0,P|205:347|152:342,1,105.000004005432,6|2,1:2|0:2,0:2:0:0:
19,281,147079,2,0,P|70:272|123:267,1,105.000004005432,14|2,0:2|0:2,0:2:0:0:
223,159,147508,5,6,1:2:0:0:
78,133,147722,1,4,1:2:0:0:
141,266,147937,1,14,0:2:0:0:
260,264,148151,1,2,1:2:0:0:
260,264,148365,2,0,P|304:236|304:171,1,105.000004005432,2|2,0:2|0:2,0:2:0:0:
395,107,148794,1,10,0:2:0:0:
395,107,149008,1,8,0:2:0:0:
396,222,149222,5,6,1:2:0:0:
310,101,149437,1,6,1:2:0:0:
434,23,149651,2,0,P|479:58|484:118,1,105.000004005432,14|2,0:2|0:2,0:2:0:0:
503,248,150079,1,6,1:2:0:0:
203,290,150508,2,2,B|233:311|233:311|315:301|389:356,1,188.999994232178,6|0,1:2|0:2,0:1:0:0:
415,384,150937,5,6,1:2:0:0:
363,242,151151,1,6,1:2:0:0:
263,355,151365,1,6,1:2:0:0:
