osu file format v14

[General]
AudioFilename: audio.ogg
AudioLeadIn: 0
PreviewTime: 14
Countdown: 0
SampleSet: Soft
StackLeniency: 0.4
Mode: 0
LetterboxInBreaks: 0
WidescreenStoryboard: 1

[Editor]
Bookmarks: 13881,27595,34452,48167,61881,68738,82452,96167,109881,137309,151024
DistanceSpacing: 0.2
BeatDivisor: 4
GridSize: 32
TimelineZoom: 2

[Metadata]
Title:ABC feat. Sophia Black
TitleUnicode:ABC feat. Sophia Black
Artist:Polyphia
ArtistUnicode:Polyphia
Creator:Mir
Version:Amateurre's Progressive Expert
Source:
Tags:english pop prog metal vocal rock tim henson and the boys andada ocean man boppin amateurre remember that you will die progressive clay gober aeschliman scott lepage
BeatmapID:3812091
BeatmapSetID:1845870

[Difficulty]
HPDrainRate:5
CircleSize:3.8
OverallDifficulty:8.8
ApproachRate:9.2
SliderMultiplier:2.4
SliderTickRate:1

[Events]
//Background and Video events
0,0,"colorful.jpg",0,0
//Break Periods
//Storyboard Layer 0 (Background)
//Storyboard Layer 1 (Fail)
//Storyboard Layer 2 (Pass)
//Storyboard Layer 3 (Foreground)
//Storyboard Layer 4 (Overlay)
//Storyboard Sound Samples

[TimingPoints]
80,428.571428571429,4,2,0,40,1,0
80,-166.666666666667,4,2,0,40,0,0
13794,-100,4,2,0,55,0,0
34365,-66.6666666666667,4,2,0,70,0,0
35222,-100,4,2,0,70,0,0
36080,-66.6666666666667,4,2,0,70,0,0
38651,-100,4,2,0,70,0,0
39508,-66.6666666666667,4,2,0,70,0,0
41865,-100,4,2,0,70,0,0
42937,-66.6666666666667,4,2,0,70,0,0
43794,-100,4,2,0,70,0,0
48080,-100,4,2,0,50,0,0
48722,-125,4,2,0,50,0,0
50222,-100,4,2,0,50,0,0
61794,-200,4,2,0,45,0,0
68651,-66.6666666666667,4,2,0,70,0,0
69508,-100,4,2,0,70,0,0
70365,-66.6666666666667,4,2,0,70,0,0
72937,-100,4,2,0,70,0,0
73794,-66.6666666666667,4,2,0,70,0,0
76151,-100,4,2,0,70,0,0
77222,-66.6666666666667,4,2,0,70,0,0
78508,-100,4,2,0,70,0,0
82365,-66.6666666666667,4,2,0,70,0,0
83008,-100,4,2,0,70,0,0
83222,-200,4,2,0,70,0,0
83651,-100,4,2,0,70,0,0
84080,-66.6666666666667,4,2,0,70,0,0
84937,-66.6666666666667,4,2,0,70,0,0
86437,-100,4,2,0,70,0,0
87508,-66.6666666666667,4,2,0,70,0,0
88365,-100,4,2,0,70,0,0
88794,-66.6666666666667,4,2,0,70,0,0
89865,-100,4,2,0,70,0,0
90080,-200,4,2,0,70,0,0
90508,-100,4,2,0,70,0,0
90937,-66.6666666666667,4,2,0,70,0,0
93294,-100,4,2,0,70,0,0
94365,-66.6666666666667,4,2,0,70,0,0
95008,-100,4,2,0,70,0,0
95651,-66.6666666666667,4,2,0,70,0,0
96080,-142.857142857143,4,2,0,40,0,0
96937,-142.857142857143,4,2,0,40,0,0
108937,-400,4,2,0,40,0,0
109794,-66.6666666666667,4,2,0,70,0,1
110651,-100,4,2,0,70,0,1
111508,-66.6666666666667,4,2,0,70,0,1
111937,-100,4,2,0,70,0,1
116651,-66.6666666666667,4,2,0,70,0,1
117294,-50,4,2,0,70,0,1
117722,-100,4,2,0,70,0,1
118365,-66.6666666666667,4,2,0,70,0,1
122222,-50,4,2,0,70,0,1
123508,-66.6666666666667,4,2,0,70,0,1
128437,-133.333333333333,4,2,0,70,0,1
128651,-66.6666666666667,4,2,0,70,0,1
131651,-200,4,2,0,70,0,1
132080,-66.6666666666667,4,2,0,70,0,1
132937,-100,4,2,0,70,0,1
136365,-66.6666666666667,4,2,0,70,0,1
137222,-66.6666666666667,4,2,0,70,0,0
137865,-100,4,2,0,70,0,0
138080,-200,4,2,0,70,0,0
138508,-100,4,2,0,70,0,0
138937,-66.6666666666667,4,2,0,70,0,0
141937,-100,4,2,0,70,0,0
142365,-66.6666666666667,4,2,0,70,0,0
143222,-133.333333333333,4,2,0,70,0,0
143651,-66.6666666666667,4,2,0,70,0,0
144722,-100,4,2,0,70,0,0
144937,-200,4,2,0,70,0,0
145365,-100,4,2,0,70,0,0
145794,-66.6666666666667,4,2,0,70,0,0
148151,-100,4,2,0,70,0,0
149222,-66.6666666666667,4,2,0,70,0,0

[Colours]
Combo1 : 136,230,157
Combo2 : 255,155,205
Combo3 : 162,223,220
Combo4 : 238,183,142

[HitObjects]
258,161,80,6,0,P|251:213|243:279,2,107.999996704102,2|0|0,0:2|0:2|0:2,0:2:0:0:
281,46,937,1,2,0:2:0:0:
281,46,1044,1,2,0:2:0:0:
281,46,1151,1,2,0:2:0:0:
191,79,1365,2,0,P|156:90|103:111,1,71.9999978027344,2|2,0:2|0:2,0:0:0:0:
375,146,1794,6,0,P|425:127|522:96,1,143.999995605469,2|2,0:2|0:2,0:0:0:0:
142,361,2651,2,0,P|91:342|-5:311,1,143.999995605469,2|2,0:2|0:2,0:2:0:0:
5,314,3508,6,0,P|48:289|60:248,1,71.9999978027344,2|0,0:2|0:0,0:2:0:0:
135,230,3937,2,0,P|134:180|105:149,1,71.9999978027344,2|0,0:2|0:2,0:2:0:0:
304,117,4365,6,0,P|315:83|343:61,1,71.9999978027344,2|2,0:2|0:2,0:0:0:0:
427,87,4794,2,0,P|461:80|494:93,1,71.9999978027344,2|0,0:2|0:0,0:0:0:0:
295,263,5222,6,0,P|247:207|256:151,1,107.999996704102,2|0,0:2|0:0,0:2:0:0:
262,170,5651,2,0,P|274:136|303:116,1,71.9999978027344,2|0,0:2|0:2,0:2:0:0:
136,0,6080,2,0,P|157:28|157:63,1,71.9999978027344,2|2,0:2|0:2,0:0:0:0:
109,135,6508,1,2,0:2:0:0:
109,135,6722,1,2,0:2:0:0:
356,47,6937,6,0,P|421:51|446:92,2,107.999996704102,2|0|2,0:2|0:2|0:2,0:2:0:0:
488,259,8008,5,0,0:2:0:0:
422,305,8223,1,2,0:2:0:0:
422,305,8330,1,2,0:2:0:0:
422,305,8437,2,0,L|362:295,1,35.9999989013672,2|0,0:2|0:0,0:0:0:0:
147,365,8651,6,0,L|166:266,1,71.9999978027344,2|0,0:2|0:2,0:2:0:0:
226,238,8972,2,0,L|240:301,1,35.9999989013672,2|0,0:2|0:2,0:2:0:0:
73,306,9187,2,0,L|59:235,1,71.9999978027344,2|0,0:2|0:2,0:2:0:0:
3,154,9508,5,2,0:2:0:0:
43,154,9615,1,2,0:2:0:0:
79,128,9722,1,2,0:2:0:0:
91,91,9830,1,2,0:2:0:0:
82,55,9937,2,0,L|72:4,1,35.9999989013672,2|0,0:2|0:0,0:2:0:0:
64,7,10151,2,0,L|73:57,1,35.9999989013672,0|0,0:2|0:0,0:0:0:0:
212,135,10365,5,2,0:2:0:0:
253,150,10472,1,2,0:2:0:0:
294,138,10580,1,2,0:2:0:0:
311,100,10687,1,2,0:2:0:0:
349,67,10794,5,2,0:2:0:0:
397,64,10901,1,2,0:2:0:0:
443,87,11008,1,2,0:2:0:0:
460,131,11115,1,2,0:2:0:0:
440,168,11222,5,2,0:2:0:0:
431,177,11330,1,2,0:2:0:0:
427,191,11437,1,2,0:2:0:0:
429,204,11544,1,2,0:2:0:0:
468,268,11651,5,2,0:2:0:0:
467,272,11758,1,2,0:2:0:0:
466,276,11865,1,2,0:2:0:0:
465,281,11972,1,2,0:2:0:0:
394,321,12080,5,2,0:2:0:0:
395,325,12187,1,2,0:2:0:0:
396,330,12294,2,0,L|347:319,1,35.9999989013672,2|2,0:2|0:2,0:0:0:0:
285,341,12508,5,2,0:2:0:0:
280,341,12615,1,2,0:2:0:0:
276,342,12722,1,2,0:2:0:0:
271,342,12829,1,2,0:2:0:0:
267,343,12936,1,2,0:2:0:0:
24,65,13365,6,0,B|19:12|19:12|35:64,1,107.999996704102,2|0,0:2|0:2,0:2:0:0:
92,135,13794,6,0,P|127:148|147:156,1,60,2|0,1:2|0:0,0:0:0:0:
219,125,14008,1,2,0:2:0:0:
28,357,14222,2,0,P|21:292|14:237,1,120,10|0,0:2|0:0,0:0:0:0:
20,246,14544,1,2,0:2:0:0:
20,246,14651,2,0,P|79:272|130:293,1,120,2|0,0:2|0:2,0:2:0:0:
208,327,14972,1,2,0:2:0:0:
208,327,15080,1,10,0:2:0:0:
504,125,15401,5,0,0:2:0:0:
494,117,15508,2,0,P|449:143|475:210,1,120,2|0,0:2|0:0,0:2:0:0:
423,335,15937,2,0,P|467:360|512:304,1,120,10|0,0:2|0:0,0:2:0:0:
297,225,16365,5,2,1:2:0:0:
297,225,16472,1,2,0:2:0:0:
297,225,16580,2,0,P|265:232|238:237,1,60,2|2,0:2|0:2,0:0:0:0:
153,222,16794,1,10,0:2:0:0:
373,271,17008,1,2,0:2:0:0:
143,217,17222,6,0,P|134:127|124:37,1,180,2|0,1:2|0:2,0:2:0:0:
124,37,17651,2,0,P|70:58|10:76,1,120,10|0,0:2|0:0,0:2:0:0:
188,114,17972,5,0,0:2:0:0:
211,106,18080,1,2,3:2:0:0:
256,122,18187,1,2,3:2:0:0:
273,162,18294,1,2,3:2:0:0:
260,205,18401,1,2,3:2:0:0:
228,232,18508,2,0,L|214:300,1,60,10|0,3:2|3:2,3:2:0:0:
312,373,18722,2,0,L|298:305,1,60,2|0,3:2|3:2,3:2:0:0:
123,301,18937,6,0,P|62:312|-10:323,1,120,2|0,1:2|0:0,0:0:0:0:
70,169,19365,1,10,0:2:0:0:
76,185,19472,1,2,0:2:0:0:
83,201,19580,1,2,0:2:0:0:
215,290,19794,5,2,1:2:0:0:
225,297,19901,2,0,L|238:175,1,120,2|2,0:2|0:2,0:2:0:0:
250,93,20222,1,8,0:2:0:0:
250,93,20330,1,2,0:2:0:0:
250,93,20437,1,2,0:2:0:0:
250,93,20544,1,2,0:2:0:0:
333,145,20651,6,0,P|413:142|450:104,1,120,6|0,1:2|0:2,0:2:0:0:
441,118,20972,2,0,P|404:82|385:82,1,60,2|8,0:2|0:2,0:2:0:0:
479,240,21187,1,0,0:2:0:0:
479,240,21294,2,0,P|496:186|487:165,1,60,2|0,0:2|0:2,0:2:0:0:
333,145,21508,5,2,3:2:0:0:
335,157,21615,1,0,0:2:0:0:
337,169,21722,1,0,3:2:0:0:
339,182,21829,1,0,3:2:0:0:
340,194,21936,1,8,3:2:0:0:
342,206,22043,1,0,3:2:0:0:
343,219,22150,1,0,3:2:0:0:
139,367,22365,6,0,P|80:312|27:313,1,120,2|0,0:2|0:2,0:2:0:0:
43,308,22686,2,0,P|43:359|57:373,1,60,2|8,0:2|0:2,0:2:0:0:
211,324,22901,1,0,0:2:0:0:
211,324,23008,2,0,P|209:294|193:269,1,60,2|0,1:2|0:2,0:2:0:0:
79,207,23222,5,2,1:2:0:0:
60,209,23329,1,0,3:2:0:0:
43,202,23436,1,0,3:2:0:0:
32,190,23543,1,0,3:2:0:0:
29,173,23650,1,2,3:2:0:0:
31,156,23757,1,2,3:2:0:0:
41,142,23864,1,2,3:2:0:0:
21,33,24080,6,0,P|51:41|79:47,1,60,2|0,1:2|0:2,0:2:0:0:
253,171,24294,1,0,0:2:0:0:
261,162,24401,2,0,L|248:88,1,60,2|0,1:2|0:2,0:2:0:0:
179,2,24615,2,0,P|171:55|158:120,1,120,2|2,1:2|1:2,0:2:0:0:
148,205,24937,1,0,3:2:0:0:
148,205,25044,1,0,3:2:0:0:
148,205,25151,1,0,3:2:0:0:
346,124,25365,6,0,P|380:129|405:134,1,60,10|2,3:2|3:2,0:0:0:0:
505,48,25580,2,0,P|471:53|445:58,1,60,2|0,3:2|0:2,0:2:0:0:
357,222,25794,6,0,P|348:275|339:344,1,120,2|0,1:2|0:2,0:2:0:0:
339,340,26115,2,0,L|265:357,1,60,2|8,0:2|0:2,0:2:0:0:
438,216,26330,1,0,1:2:0:0:
442,204,26437,2,0,L|516:187,1,60,0|0,0:2|0:2,0:2:0:0:
501,345,26651,5,0,1:2:0:0:
489,341,26758,1,0,0:2:0:0:
477,338,26865,1,0,0:2:0:0:
464,335,26972,1,0,0:2:0:0:
453,332,27079,1,8,0:2:0:0:
441,329,27186,1,0,0:2:0:0:
428,327,27293,1,0,0:2:0:0:
148,276,27508,5,6,1:2:0:0:
109,286,27615,1,2,0:2:0:0:
70,296,27722,1,2,0:2:0:0:
239,254,27937,6,0,P|232:308|222:372,2,120,10|2|2,0:2|0:2|0:2,0:0:0:0:
239,254,28580,1,0,0:0:0:0:
134,96,28794,5,10,0:2:0:0:
173,86,28901,1,2,0:2:0:0:
212,76,29008,1,2,0:2:0:0:
43,118,29222,6,0,P|50:64|59:0,2,120,2|2|10,0:2|0:2|0:2,0:0:0:0:
43,118,29865,1,0,0:0:0:0:
239,254,30080,5,2,0:2:0:0:
278,264,30187,1,2,0:2:0:0:
317,274,30294,1,2,0:2:0:0:
397,151,30508,6,0,L|519:118,2,120,10|2|2,0:2|0:2|1:2,0:0:0:0:
256,192,31044,12,2,31794,0:3:0:0:
256,192,31901,12,4,32651,0:2:0:0:
256,192,32758,12,0,33937,0:2:0:0:
5,252,34365,6,0,P|48:241|91:229,1,90.0000034332277,4|0,1:2|0:2,0:2:0:0:
235,55,34580,2,0,P|222:98|211:141,1,90.0000034332277,4|0,1:2|0:2,0:2:0:0:
290,352,34794,2,0,P|259:319|227:288,1,90.0000034332277,12|0,1:2|0:2,0:2:0:0:
178,222,35008,1,0,0:2:0:0:
146,379,35222,5,2,0:2:0:0:
149,371,35330,1,0,0:2:0:0:
152,363,35437,2,0,L|138:298,1,60,2|0,0:2|0:2,0:2:0:0:
104,170,35651,2,0,L|90:235,1,60,10|0,0:2|0:2,0:2:0:0:
25,280,35865,1,2,0:2:0:0:
369,126,36080,6,0,P|414:124|456:162,1,90.0000034332277,0|0,1:2|0:2,0:2:0:0:
495,281,36294,2,0,P|474:319|434:337,1,90.0000034332277,0|0,1:2|0:2,0:2:0:0:
298,312,36508,2,0,P|275:275|280:231,1,90.0000034332277,10|0,1:2|0:2,0:2:0:0:
387,240,36722,1,0,0:2:0:0:
384,248,36830,1,0,0:2:0:0:
361,375,36937,6,0,P|269:354|184:341,1,180.000006866455,2|0,1:2|0:2,0:2:0:0:
184,341,37258,1,0,0:2:0:0:
0,228,37365,2,0,P|89:215|176:194,1,180.000006866455,10|2,1:2|0:3,0:2:0:0:
177,195,37686,1,0,0:2:0:0:
245,271,37794,6,0,P|274:239|273:190,1,90.0000034332277,6|0,1:2|0:2,0:2:0:0:
285,1,38008,2,0,P|297:42|340:65,1,90.0000034332277,4|0,1:2|0:2,0:2:0:0:
493,179,38222,2,0,P|450:169|409:194,1,90.0000034332277,14|0,1:2|0:2,0:2:0:0:
341,144,38437,1,0,1:2:0:0:
453,322,38651,5,0,0:2:0:0:
453,322,38758,1,0,0:2:0:0:
453,322,38865,1,2,0:3:0:0:
453,322,38972,1,0,0:2:0:0:
453,322,39080,2,0,P|460:288|466:263,1,60,2|0,0:3|0:2,0:2:0:0:
341,227,39294,2,0,P|334:261|327:285,1,60,0|0,1:2|0:2,0:2:0:0:
140,384,39508,6,0,P|134:337|127:294,1,90.0000034332277,2|0,1:2|0:2,0:2:0:0:
16,106,39722,2,0,P|59:124|100:139,1,90.0000034332277,0|0,1:2|0:2,0:2:0:0:
317,137,39937,2,0,P|279:164|245:192,1,90.0000034332277,10|0,1:2|0:2,0:2:0:0:
157,210,40151,1,0,0:2:0:0:
161,197,40258,1,0,0:2:0:0:
247,199,40365,6,0,P|253:242|226:277,1,90.0000034332277,6|0,1:2|0:2,0:2:0:0:
127,294,40580,1,2,0:2:0:0:
131,281,40687,1,0,0:2:0:0:
292,340,40794,6,0,P|257:367|213:361,1,90.0000034332277,8|0,1:2|0:2,0:2:0:0:
0,237,41008,2,0,P|34:209|78:215,1,90.0000034332277,2|0,0:2|0:2,0:2:0:0:
247,199,41222,6,0,P|254:156|260:110,1,90.0000034332277,6|0,1:2|0:2,0:2:0:0:
363,14,41437,2,0,P|370:57|376:102,1,90.0000034332277,4|0,1:2|0:2,0:2:0:0:
478,278,41651,2,0,P|485:235|491:189,1,90.0000034332277,12|0,1:2|0:2,0:2:0:0:
335,180,41865,6,0,P|278:191|225:204,1,90,2|0,1:2|0:0,0:0:0:0:
239,209,42080,2,0,L|230:245,2,30,0|0|0,3:2|3:2|3:2,3:2:0:0:
173,142,42294,1,0,3:2:0:0:
321,262,42508,1,10,3:2:0:0:
326,275,42615,1,2,3:2:0:0:
330,284,42722,2,0,L|392:273,1,60,2|0,0:2|0:2,0:2:0:0:
151,225,42937,6,0,P|66:237|35:318,1,180.000006866455,6|0,1:2|1:2,0:2:0:0:
239,209,43258,2,0,P|276:163|267:114,1,90.0000034332277,6|0,0:2|0:2,0:2:0:0:
223,78,43472,1,6,0:2:0:0:
355,129,43580,2,0,P|333:73|287:57,1,90.0000034332277,0|0,0:0|0:2,0:0:0:0:
0,36,43794,5,2,0:2:0:0:
14,66,43901,1,2,0:2:0:0:
39,88,44008,1,2,0:2:0:0:
71,98,44115,1,2,0:2:0:0:
105,94,44222,2,0,P|111:63|116:35,1,60,10|0,0:2|0:2,0:2:0:0:
201,50,44437,2,0,P|195:79|190:109,1,60,2|0,0:2|0:2,0:2:0:0:
48,335,44651,5,2,1:2:0:0:
41,285,44758,1,2,3:2:0:0:
35,235,44865,1,10,3:2:0:0:
29,186,44972,1,2,3:2:0:0:
117,196,45080,5,2,1:2:0:0:
122,232,45187,1,10,0:2:0:0:
126,268,45294,1,10,0:2:0:0:
130,304,45401,1,2,0:2:0:0:
209,266,45508,5,2,1:2:0:0:
206,247,45615,1,2,0:2:0:0:
204,229,45722,1,2,1:2:0:0:
201,212,45829,1,2,0:2:0:0:
290,220,45937,5,10,0:2:0:0:
290,225,46044,1,2,0:2:0:0:
291,230,46151,1,2,1:2:0:0:
291,236,46258,1,2,0:2:0:0:
377,248,46365,5,2,1:2:0:0:
377,248,46472,1,10,0:2:0:0:
377,248,46580,2,0,L|450:263,1,60,10|10,0:2|0:2,0:0:0:0:
220,292,46794,5,2,1:2:0:0:
220,292,46901,1,2,0:2:0:0:
220,292,47009,2,0,L|147:307,1,60,2|2,1:2|0:2,0:0:0:0:
296,384,47222,6,0,L|308:325,1,60,2|2,1:2|0:2,0:0:0:0:
397,104,47437,5,8,0:2:0:0:
357,92,47544,1,8,0:2:0:0:
316,81,47651,2,2,P|322:109|328:139,1,60,8|0,0:2|0:0,0:1:0:0:
277,209,47865,5,8,0:2:0:0:
210,172,47972,1,0,3:2:0:0:
205,180,48026,1,0,3:2:0:0:
201,187,48080,2,0,P|116:174|52:165,1,150,6|0,1:2|0:0,0:2:0:0:
52,165,48401,2,0,L|39:97,1,60,2|8,0:2|0:0,0:2:0:0:
42,90,48722,5,2,0:2:0:0:
132,270,48937,1,2,0:2:0:0:
347,184,49151,5,0,0:2:0:0:
347,184,49258,1,2,0:2:0:0:
347,184,49365,2,0,L|470:166,2,96,8|2|2,0:2|0:2|0:2,0:2:0:0:
245,380,50008,5,0,0:2:0:0:
245,380,50115,1,2,0:2:0:0:
245,380,50222,2,0,P|233:315|220:244,1,120,8|2,1:2|0:2,0:2:0:0:
421,289,50651,2,0,P|433:224|446:153,1,120,2|0,1:2|0:2,0:2:0:0:
171,181,51080,2,0,P|159:116|146:45,1,120,8|0,1:2|0:2,0:2:0:0:
512,83,51508,6,0,P|375:94|336:184,1,240,6|8,1:2|0:2,0:2:0:0:
351,191,52365,1,2,0:2:0:0:
351,191,52472,1,2,0:2:0:0:
351,191,52580,1,2,0:2:0:0:
351,191,52687,1,2,0:2:0:0:
351,191,52794,2,0,L|263:172,1,60,10|2,0:2|0:2,0:0:0:0:
253,247,53008,2,0,L|165:266,1,60,2|2,0:2|0:2,0:0:0:0:
19,70,53222,6,0,B|49:103|49:103|34:197,1,120,2|0,1:2|0:2,0:2:0:0:
176,367,53651,2,0,B|206:334|206:334|191:240,1,120,10|2,1:2|0:2,0:0:0:0:
86,253,54080,6,0,P|59:258|27:266,1,60,2|0,0:2|0:0,0:2:0:0:
20,280,54294,2,0,P|48:271|78:266,1,60,0|2,1:2|0:2,0:0:0:0:
242,125,54508,6,0,P|181:78|163:170,1,180,8|0,0:2|0:0,0:0:0:0:
214,209,54937,6,0,B|316:186|280:263|389:244,2,180,6|2|2,1:2|0:2|0:2,0:2:0:0:
119,240,55794,1,2,0:2:0:0:
0,37,56222,6,0,P|67:-1|87:73,1,180,10|0,0:2|0:0,0:0:0:0:
91,84,56651,5,2,0:2:0:0:
184,43,56865,1,0,0:2:0:0:
184,43,56972,1,0,0:2:0:0:
184,43,57080,2,0,P|213:50|242:57,1,60,10|0,1:2|0:0,0:2:0:0:
252,148,57294,2,0,P|281:140|310:133,1,60,0|0,0:2|0:0,0:0:0:0:
402,75,57508,5,2,0:2:0:0:
404,63,57615,1,0,0:2:0:0:
406,51,57722,1,0,1:2:0:0:
408,38,57829,1,0,0:2:0:0:
409,26,57936,1,10,0:2:0:0:
411,14,58043,1,0,3:2:0:0:
412,1,58150,1,2,1:2:0:0:
469,175,58365,6,0,P|473:203|479:234,1,60,6|0,1:2|0:2,0:2:0:0:
381,366,58580,1,2,0:2:0:0:
368,351,58687,2,0,P|372:323|378:292,1,60,2|8,0:2|0:2,0:2:0:0:
304,213,58901,1,2,0:2:0:0:
289,225,59008,2,0,L|215:244,1,60,0|0,1:2|0:2,0:0:0:0:
165,360,59222,5,2,0:2:0:0:
139,337,59330,1,2,0:2:0:0:
97,323,59437,1,2,0:2:0:0:
54,318,59544,1,2,0:2:0:0:
15,335,59651,2,0,P|5:299|-5:262,3,60,10|2|2|2,0:2|0:2|0:2|0:2,0:0:0:0:
113,238,60080,5,2,1:2:0:0:
115,230,60187,1,2,3:2:0:0:
117,222,60294,1,2,3:2:0:0:
119,214,60401,1,2,3:2:0:0:
178,154,60508,5,8,1:2:0:0:
195,177,60615,1,2,3:2:0:0:
203,206,60722,1,2,3:2:0:0:
199,236,60829,1,0,3:2:0:0:
255,297,60937,5,2,1:2:0:0:
292,314,61044,1,0,3:2:0:0:
324,327,61151,2,0,P|356:318|382:311,1,60,2|0,3:2|3:2,3:2:0:0:
512,233,61365,2,0,P|482:226|453:217,1,60,10|0,1:2|0:0,0:0:0:0:
368,131,61580,5,8,0:2:0:0:
368,131,61687,1,8,0:2:0:0:
368,131,61794,2,0,L|361:85,2,30,4|0|0,1:2|3:2|3:2,0:2:0:0:
298,194,62115,2,0,L|291:240,1,30,8|0,3:2|3:2,3:2:0:0:
214,131,62330,1,0,3:2:0:0:
214,131,62437,2,0,L|221:177,1,30,8|0,3:2|3:2,3:2:0:0:
159,218,62651,2,0,L|154:247,3,30,0|0|0|0,3:2|3:2|3:2|3:2,0:0:0:0:
84,140,63080,2,0,L|91:170,1,30,8|0,3:2|3:2,3:2:0:0:
27,217,63294,2,0,L|19:251,1,30,0|0,3:2|3:2,0:0:0:0:
110,383,63508,6,0,L|102:349,1,30,8|0,3:2|3:2,3:2:0:0:
154,247,63722,1,0,3:2:0:0:
154,247,63830,2,0,L|146:281,2,30,8|0|0,3:2|3:2|3:2,3:2:0:0:
214,337,64151,2,0,L|220:366,1,30,8|0,3:2|3:2,3:2:0:0:
271,238,64365,6,0,L|264:268,1,30,0|0,1:2|3:2,3:2:0:0:
328,316,64579,2,0,L|336:350,1,30,0|0,3:2|3:2,0:0:0:0:
389,222,64794,2,0,L|382:252,1,30,0|0,1:2|3:2,0:0:0:0:
446,299,65008,2,0,L|454:333,1,30,0|0,3:2|3:2,0:0:0:0:
500,234,65222,5,4,1:2:0:0:
256,192,65330,12,4,66080,0:2:0:0:
256,192,66187,12,4,66937,0:2:0:0:
256,192,67044,12,0,67794,0:2:0:0:
497,129,68651,6,0,P|461:143|413:161,1,90.0000034332277,4|0,1:2|0:2,0:2:0:0:
242,309,68865,2,0,P|247:270|255:220,1,90.0000034332277,4|0,1:2|0:2,0:2:0:0:
227,0,69080,2,0,P|257:24|297:56,1,90.0000034332277,12|0,1:2|0:2,0:2:0:0:
320,143,69294,1,0,0:2:0:0:
81,196,69508,5,2,0:2:0:0:
81,196,69615,1,0,0:2:0:0:
81,196,69722,2,0,P|43:201|21:206,1,60,2|0,0:2|0:2,0:2:0:0:
3,126,69937,2,0,P|41:121|62:115,1,60,10|0,0:2|0:2,0:2:0:0:
167,190,70151,2,0,L|156:249,1,60,2|0,0:2|0:2,0:0:0:0:
90,373,70365,6,0,P|129:350|172:338,1,90.0000034332277,0|0,1:2|0:2,0:2:0:0:
167,190,70580,2,0,P|210:201|249:224,1,90.0000034332277,0|0,1:2|0:2,0:2:0:0:
342,157,70794,2,0,P|364:196|376:239,1,90.0000034332277,10|0,1:2|0:2,0:2:0:0:
342,384,71008,5,0,0:2:0:0:
342,384,71115,1,0,0:2:0:0:
271,320,71222,6,0,P|344:153|373:121,1,180.000006866455,2|0,1:2|0:2,0:2:0:0:
341,156,71544,1,0,0:2:0:0:
237,0,71651,2,0,P|308:53|395:73,1,180.000006866455,10|2,1:2|0:3,0:2:0:0:
395,73,71972,1,0,0:2:0:0:
247,140,72080,6,0,P|205:123|163:107,1,90.0000034332277,6|0,1:2|0:2,0:2:0:0:
59,190,72294,2,0,P|65:234|72:278,1,90.0000034332277,4|0,1:2|0:2,0:2:0:0:
197,328,72508,2,0,P|232:300|267:271,1,90.0000034332277,14|0,1:2|0:2,0:2:0:0:
174,216,72722,1,0,1:2:0:0:
314,352,72937,6,0,P|256:339|197:328,1,120,0|2,0:2|0:3,0:2:0:0:
430,237,73365,1,2,0:3:0:0:
430,237,73472,1,0,0:2:0:0:
430,237,73579,2,0,P|480:227|505:222,1,60,0|0,1:2|0:2,0:2:0:0:
442,42,73794,6,0,P|414:80|409:123,1,90.0000034332277,2|0,1:2|0:2,0:2:0:0:
343,275,74008,2,0,P|324:231|288:206,1,90.0000034332277,0|0,1:2|0:2,0:2:0:0:
182,62,74222,2,0,P|228:67|269:48,1,90.0000034332277,10|0,1:2|0:2,0:2:0:0:
350,13,74437,1,0,0:2:0:0:
355,19,74544,1,0,0:2:0:0:
313,120,74651,6,0,P|302:160|290:207,1,90.0000034332277,6|0,1:2|0:2,0:2:0:0:
204,149,74865,2,0,P|193:109|181:61,1,90.0000034332277,2|0,0:2|0:2,0:0:0:0:
141,297,75080,6,0,P|130:337|118:384,1,90.0000034332277,8|0,1:2|0:2,0:2:0:0:
54,120,75294,2,0,P|43:80|31:32,1,90.0000034332277,2|0,0:2|0:2,0:0:0:0:
0,232,75508,6,0,P|45:218|86:206,1,90.0000034332277,6|0,1:2|0:2,0:2:0:0:
267,50,75722,2,0,P|256:95|245:137,1,90.0000034332277,4|0,1:2|0:2,0:2:0:0:
301,375,75937,2,0,P|266:343|235:313,1,90.0000034332277,12|0,1:2|0:2,0:2:0:0:
189,208,76151,6,0,B|239:231|278:188|266:181|294:139|361:171,1,180,2|0,1:2|3:2,0:0:0:0:
350,166,76580,1,0,3:2:0:0:
483,49,76794,1,10,3:2:0:0:
471,45,76901,1,2,3:2:0:0:
458,40,77008,2,0,L|447:110,1,60,2|0,0:2|0:2,0:2:0:0:
512,312,77222,6,0,P|503:268|473:235,1,90.0000034332277,6|0,1:2|0:2,0:2:0:0:
465,236,77437,1,0,1:2:0:0:
237,337,77544,2,0,P|280:328|313:298,1,90.0000034332277,6|0,0:2|0:2,0:2:0:0:
312,289,77759,1,6,0:2:0:0:
375,384,77865,2,0,P|400:347|401:303,1,90.0000034332277,0|0,0:0|0:2,0:0:0:0:
261,214,78080,5,2,0:2:0:0:
211,225,78187,1,2,0:2:0:0:
161,204,78294,1,2,0:2:0:0:
135,159,78401,1,2,0:2:0:0:
140,119,78508,2,0,L|152:60,1,60,10|0,0:2|0:2,0:2:0:0:
83,7,78722,2,0,L|70:65,1,60,2|0,0:2|0:2,0:2:0:0:
93,289,78937,5,2,1:2:0:0:
38,314,79044,1,2,3:2:0:0:
13,259,79151,1,10,3:2:0:0:
68,235,79258,1,2,3:2:0:0:
161,204,79366,5,2,1:2:0:0:
198,220,79473,1,0,3:2:0:0:
216,184,79580,1,10,0:2:0:0:
178,166,79687,1,2,0:2:0:0:
102,111,79794,5,2,1:2:0:0:
87,117,79901,1,2,0:2:0:0:
81,103,80008,1,2,1:2:0:0:
95,97,80115,1,2,0:2:0:0:
172,58,80223,5,10,0:2:0:0:
181,62,80330,1,2,0:2:0:0:
186,53,80437,1,2,1:2:0:0:
176,49,80544,1,2,0:2:0:0:
92,13,80651,5,2,1:2:0:0:
92,13,80758,1,10,0:2:0:0:
92,13,80865,2,0,P|56:26|16:37,1,60,10|10,0:2|0:2,0:0:0:0:
242,135,81080,5,2,1:2:0:0:
242,135,81187,1,2,0:2:0:0:
242,135,81294,2,0,P|273:120|296:109,1,60,2|2,1:2|0:2,0:0:0:0:
433,21,81508,2,0,P|425:53|419:79,1,60,2|2,1:2|0:2,0:0:0:0:
430,272,81722,5,8,0:2:0:0:
470,284,81829,1,8,0:2:0:0:
511,295,81936,2,2,P|505:267|499:237,1,60,8|0,0:2|0:0,0:1:0:0:
441,161,82150,5,8,0:2:0:0:
360,209,82258,1,0,3:2:0:0:
355,217,82311,1,0,3:2:0:0:
351,224,82365,2,0,P|305:239|265:250,1,90.0000034332277,6|0,1:2|0:2,0:2:0:0:
0,280,82580,2,0,P|46:295|86:306,1,90.0000034332277,6|0,1:2|0:2,0:2:0:0:
196,379,82794,2,0,P|190:330|183:289,1,90.0000034332277,6|0,1:2|0:2,0:2:0:0:
150,79,83008,6,0,P|146:110|143:138,1,60,0|0,1:2|0:2,0:2:0:0:
149,215,83222,2,0,P|128:218|101:224,3,30,0|0|0|0,0:2|0:2|0:2|0:2,0:2:0:0:
281,139,83651,6,0,P|250:130|224:120,1,60,10|0,0:2|0:2,0:2:0:0:
63,239,83865,2,0,P|94:230|119:220,1,60,2|0,0:2|0:2,0:2:0:0:
359,85,84080,6,0,P|370:139|376:188,1,90.0000034332277,6|0,0:2|0:2,0:2:0:0:
497,314,84294,2,0,P|503:269|512:225,1,90.0000034332277,6|0,1:2|0:2,0:2:0:0:
281,139,84508,2,0,P|292:193|298:242,1,90.0000034332277,14|0,0:2|0:2,0:2:0:0:
317,308,84722,1,0,0:2:0:0:
317,308,84830,1,0,0:2:0:0:
230,274,84937,6,0,P|186:276|152:316,1,90.0000034332277,6|0,1:2|0:2,0:2:0:0:
73,301,85151,2,0,P|51:340|69:389,1,90.0000034332277,2|0,0:2|0:2,0:2:0:0:
281,139,85365,6,0,P|322:153|343:202,1,90.0000034332277,14|0,0:2|0:2,0:2:0:0:
422,212,85579,2,0,P|430:255|398:297,1,90.0000034332277,2|0,0:2|0:2,0:2:0:0:
155,306,85794,6,0,P|149:262|140:217,1,90.0000034332277,6|0,1:2|0:2,0:2:0:0:
203,20,86008,2,0,P|168:33|118:51,1,90.0000034332277,4|0,1:2|0:2,0:2:0:0:
0,102,86222,2,0,P|35:115|84:133,1,90.0000034332277,14|0,0:2|0:2,0:2:0:0:
188,127,86437,5,2,3:2:0:0:
188,127,86544,1,0,3:2:0:0:
188,127,86651,1,2,0:2:0:0:
50,214,86865,1,2,0:2:0:0:
74,74,87080,6,0,L|85:142,1,60,10|0,3:2|3:2,3:2:0:0:
254,223,87294,2,0,L|265:155,1,60,8|0,3:2|3:2,0:0:0:0:
409,47,87508,6,0,P|417:89|424:135,1,90.0000034332277,6|0,1:2|0:2,0:2:0:0:
512,320,87722,2,2,P|474:313|423:304,1,90.0000034332277,6|0,1:2|0:2,0:2:0:0:
254,223,87937,2,0,P|301:217|342:207,1,90.0000034332277,14|0,0:2|0:2,0:2:0:0:
444,222,88151,1,2,0:2:0:0:
296,377,88365,6,0,P|227:328|117:358,1,180,6|0,1:2|0:2,0:2:0:0:
67,383,88794,6,0,P|130:264|129:131,1,270.000010299683,6|0,1:2|0:2,2:2:0:0:
129,131,89222,6,0,P|91:143|42:153,1,90.0000034332277,6|0,1:2|0:2,0:2:0:0:
101,0,89437,2,0,P|139:11|188:22,1,90.0000034332277,6|0,1:2|0:2,0:2:0:0:
318,184,89651,2,0,P|274:193|230:206,1,90.0000034332277,6|0,1:2|0:2,0:2:0:0:
346,78,89865,6,0,P|391:90|433:99,1,60,2|0,1:2|0:2,0:2:0:0:
483,145,90080,2,0,L|534:135,3,30,2|0|0|0,0:2|0:2|0:2|0:2,0:2:0:0:
397,243,90508,6,0,P|402:212|409:184,1,60,8|0,0:2|0:2,0:2:0:0:
268,108,90722,2,0,P|263:78|255:49,1,60,0|0,0:2|0:2,0:2:0:0:
486,58,90937,6,0,P|445:75|403:93,1,90.0000034332277,6|0,1:2|0:2,0:2:0:0:
214,180,91151,2,0,P|255:197|296:215,1,90.0000034332277,6|0,1:2|0:2,0:2:0:0:
511,369,91365,2,0,P|493:327|475:286,1,90.0000034332277,14|0,1:2|0:2,0:2:0:0:
401,247,91580,1,0,0:2:0:0:
401,247,91687,1,0,0:2:0:0:
344,307,91794,6,0,P|311:337|259:333,1,90.0000034332277,6|0,1:2|0:2,0:2:0:0:
196,382,92008,2,0,P|153:369|130:321,1,90.0000034332277,2|0,0:2|0:2,0:2:0:0:
197,101,92222,6,0,P|176:62|134:47,1,90.0000034332277,14|0,0:2|0:2,0:2:0:0:
71,0,92436,2,0,P|27:8|0:52,1,90.0000034332277,2|0,0:2|0:2,0:2:0:0:
25,155,92651,6,0,P|82:138|111:131,1,90.0000034332277,6|0,1:2|0:2,0:2:0:0:
212,264,92865,2,0,P|168:254|125:240,1,90.0000034332277,4|0,1:2|0:2,0:2:0:0:
224,19,93080,2,0,P|267:28|310:42,1,90.0000034332277,14|0,0:2|0:2,0:2:0:0:
395,78,93294,5,2,1:2:0:0:
395,78,93401,1,0,0:2:0:0:
395,78,93508,1,2,0:2:0:0:
239,112,93722,1,2,0:2:0:0:
458,218,93937,6,0,L|471:146,1,60,10|0,0:2|0:2,0:2:0:0:
216,265,94151,2,0,L|201:194,1,60,8|0,0:2|0:2,0:2:0:0:
326,131,94365,6,0,P|332:182|339:250,1,90.0000034332277,6|0,1:2|0:2,0:2:0:0:
415,366,94580,2,0,P|351:351|297:340,1,90.0000034332277,6|0,1:2|0:2,0:2:0:0:
115,224,94794,2,0,P|173:212|232:198,1,90.0000034332277,14|0,0:2|0:2,0:2:0:0:
257,266,95008,6,0,P|252:293|246:325,1,60,2|0,0:2|0:2,0:2:0:0:
35,155,95222,6,0,P|53:77|128:105,1,180,6|0,1:2|0:2,0:2:0:0:
188,43,95651,6,2,P|162:156|135:338,1,270.000010299683,6|0,1:2|0:2,0:1:0:0:
23,339,96080,6,0,P|169:264|328:305,1,335.999989746094,4|2,0:1|0:3,0:2:0:0:
501,282,97151,2,0,L|492:243,3,27.9999991455078,2|0|0|2,0:2|0:2|0:2|0:2,0:2:0:0:
432,351,97580,5,2,0:2:0:0:
416,268,97794,2,0,P|410:226|400:185,1,83.9999974365235,6|0,0:2|0:0,0:2:0:0:
400,185,98222,1,2,0:2:0:0:
156,109,98651,6,0,P|161:67|171:26,1,83.9999974365235,6|0,0:2|0:0,0:2:0:0:
256,48,99080,2,0,P|250:89|240:130,1,83.9999974365235,2|2,0:2|0:2,0:2:0:0:
148,214,99508,6,0,P|68:208|2:268,2,167.999994873047,6|2|2,0:2|0:3|0:3,0:2:0:0:
152,218,100794,1,2,0:2:0:0:
152,218,101008,1,0,0:2:0:0:
216,161,101222,6,0,P|211:119|199:79,1,83.9999974365235,6|0,0:2|0:0,0:2:0:0:
294,63,101651,2,0,P|298:104|310:144,1,83.9999974365235,2|2,0:2|0:2,0:0:0:0:
498,229,102080,5,2,0:3:0:0:
460,160,102294,1,2,0:2:0:0:
386,128,102508,1,2,0:2:0:0:
310,144,102722,1,2,0:2:0:0:
228,311,102937,6,0,P|214:324|190:330,1,41.9999987182618,2|0,0:2|0:2,0:2:0:0:
128,369,103151,1,0,0:2:0:0:
128,369,103258,2,0,P|107:363|92:349,1,41.9999987182618,2|0,0:3|0:2,0:2:0:0:
15,334,103472,1,0,0:2:0:0:
15,334,103580,2,0,P|14:291|32:251,1,83.9999974365235,2|4,0:3|0:2,0:0:0:0:
38,250,104008,5,0,0:2:0:0:
125,210,104222,1,2,0:3:0:0:
125,210,104329,1,2,0:3:0:0:
125,210,104437,1,2,0:3:0:0:
14,28,104651,6,0,P|30:50|60:47,1,41.9999987182618,2|0,0:2|0:0,0:2:0:0:
90,112,104865,1,0,0:2:0:0:
94,116,104972,2,0,P|114:114|134:107,1,41.9999987182618,2|0,0:2|0:2,0:2:0:0:
200,62,105187,2,0,P|230:59|275:87,1,83.9999974365235,2|0,0:2|0:2,0:2:0:0:
354,149,105508,5,2,0:3:0:0:
354,149,105615,1,2,0:2:0:0:
354,149,105722,1,2,0:2:0:0:
354,149,105830,1,2,0:2:0:0:
354,149,105937,2,0,P|358:126|361:107,1,41.9999987182618,2|0,0:2|0:0,0:2:0:0:
440,125,106151,2,0,P|436:148|432:166,1,41.9999987182618,2|0,0:2|0:0,0:0:0:0:
501,330,106365,6,0,P|437:296|400:300,1,83.9999974365235,2|2,0:2|0:2,0:0:0:0:
354,329,106687,1,2,0:2:0:0:
354,329,106794,2,0,P|316:345|290:338,1,41.9999987182618,2|2,0:2|0:2,0:0:0:0:
250,308,107008,2,0,P|258:267|261:254,1,41.9999987182618,2|2,0:2|0:2,0:0:0:0:
203,186,107222,5,2,0:2:0:0:
203,186,107330,1,2,0:2:0:0:
203,186,107437,2,0,L|147:197,1,41.9999987182618,2|2,0:2|0:2,0:0:0:0:
124,261,107651,2,0,L|82:269,1,41.9999987182618,2|2,0:2|0:2,0:0:0:0:
23,219,107865,2,0,L|31:177,1,41.9999987182618,2|2,0:2|0:2,0:0:0:0:
206,274,108080,5,2,0:2:0:0:
205,280,108187,1,2,0:2:0:0:
204,287,108294,1,2,0:2:0:0:
203,294,108401,1,2,0:2:0:0:
264,348,108508,5,2,0:2:0:0:
270,347,108615,1,2,0:2:0:0:
277,346,108722,1,2,0:2:0:0:
284,345,108829,1,2,0:2:0:0:
364,318,108937,6,0,B|395:325|395:325|368:316,1,60,2|0,0:2|0:2,0:2:0:0:
156,345,109794,6,0,B|329:298|460:268|460:268|476:243|488:231,1,360.000013732911,4|0,0:1|0:0,0:2:0:0:
391,64,110437,6,0,B|375:19|375:19|416:74,1,90.0000034332277,0|0,0:2|0:0,0:0:0:0:
430,131,110651,2,0,P|422:165|414:209,1,60,8|0,0:2|0:2,0:2:0:0:
343,237,110865,5,2,3:2:0:0:
333,234,110937,1,0,0:0:0:0:
323,232,111008,1,0,0:0:0:0:
313,230,111080,2,0,P|279:238|235:246,1,60,2|0,0:2|0:2,0:2:0:0:
141,337,111293,5,2,3:2:0:0:
132,337,111365,1,0,0:0:0:0:
122,340,111436,1,0,0:0:0:0:
113,342,111508,2,0,P|67:353|75:186,1,270.000010299683,2|0,1:2|0:2,0:2:0:0:
45,104,111937,6,0,P|73:116|101:126,1,60,2|0,1:2|0:2,0:2:0:0:
189,165,112151,2,0,P|185:135|181:105,1,60,2|0,0:2|0:2,0:2:0:0:
175,29,112365,1,10,0:2:0:0:
116,229,112580,6,0,P|203:207|300:314,1,240,2|0,1:2|0:2,0:2:0:0:
299,305,113115,1,0,0:2:0:0:
380,286,113222,6,0,P|392:263|384:216,1,60,4|0,1:1|0:0,0:2:0:0:
326,62,113437,1,0,0:0:0:0:
328,47,113544,1,0,0:2:0:0:
331,32,113651,1,2,0:2:0:0:
333,17,113758,1,2,0:2:0:0:
336,2,113865,1,2,0:2:0:0:
472,179,114080,6,0,B|504:183|504:183|463:162,1,60,8|0,0:2|0:2,0:2:0:0:
393,150,114294,5,0,3:2:0:0:
383,147,114366,1,0,0:0:0:0:
373,145,114437,1,0,0:0:0:0:
362,143,114509,2,0,P|328:151|284:159,1,60,2|0,0:2|0:2,0:2:0:0:
168,109,114722,2,0,P|202:101|246:93,1,60,2|0,0:2|0:2,0:2:0:0:
358,226,114937,5,2,1:2:0:0:
366,248,115044,1,2,0:2:0:0:
355,264,115151,1,2,1:2:0:0:
364,285,115258,1,2,0:2:0:0:
350,305,115365,1,2,1:2:0:0:
363,332,115472,1,2,0:2:0:0:
331,352,115580,2,0,P|305:362|275:373,1,60,0|0,0:0|0:2,0:0:0:0:
213,267,115794,2,0,P|203:293|191:322,1,60,8|0,0:2|1:2,0:0:0:0:
28,299,116008,5,0,0:2:0:0:
9,261,116115,5,2,1:2:0:0:
49,234,116222,5,2,1:2:0:0:
41,175,116330,5,0,0:2:0:0:
103,196,116437,5,10,0:2:0:0:
129,138,116544,5,10,0:2:0:0:
170,183,116651,6,0,P|261:168|296:84,1,180.000006866455,6|0,1:2|0:2,0:2:0:0:
427,260,116972,6,0,P|374:193|287:197,1,180.000006866455,6|0,1:2|0:2,0:2:0:0:
366,0,117294,6,0,P|335:80|382:153,1,180.000006866455,6|0,1:2|0:0,0:2:0:0:
382,153,117508,1,8,0:2:0:0:
351,337,117722,6,0,P|346:305|339:278,1,60,0|0,0:2|0:2,0:2:0:0:
435,268,117937,1,2,0:2:0:0:
435,268,118044,1,2,0:2:0:0:
435,268,118151,2,0,P|467:273|493:279,1,60,2|0,3:2|3:2,3:2:0:0:
265,353,118365,6,0,P|188:335|88:316,1,180.000006866455,6|0,1:2|0:2,0:2:0:0:
88,316,118687,1,2,0:2:0:0:
176,270,118794,2,0,L|185:320,6,45.0000017166138,0|0|2|0|0|0|0,1:2|0:0|0:2|0:0|0:0|0:0|0:2,0:0:0:0:
208,179,119222,2,0,L|242:149,6,45.0000017166138,10|0|0|0|0|0|2,0:2|0:0|0:0|0:0|0:2|0:0|0:2,0:2:0:0:
110,196,119651,2,0,L|67:180,6,45.0000017166138,2|0|0|0|2|0|0,1:2|0:0|0:2|0:0|0:3|0:0|0:2,0:2:0:0:
273,250,120080,5,2,1:2:0:0:
310,226,120187,5,2,0:2:0:0:
354,268,120294,5,2,0:2:0:0:
380,215,120401,5,2,0:2:0:0:
433,246,120508,5,2,1:2:0:0:
419,174,120615,5,2,0:2:0:0:
492,188,120722,6,0,P|502:142|512:100,1,90.0000034332277,2|2,0:2|0:2,0:0:0:0:
353,8,120937,5,10,0:2:0:0:
294,61,121044,5,2,0:2:0:0:
340,124,121151,6,0,P|328:167|319:211,1,90.0000034332277,2|2,1:2|0:2,0:0:0:0:
234,287,121365,5,2,0:2:0:0:
146,250,121472,1,2,1:2:0:0:
135,268,121580,5,2,0:2:0:0:
243,272,121687,1,2,0:2:0:0:
137,161,121794,5,2,1:2:0:0:
137,161,121901,1,2,1:2:0:0:
66,196,122008,2,2,B|19:215|19:215|76:170,1,90.0000034332277,2|2,1:2|0:2,0:2:0:0:
220,112,122222,6,2,P|297:122|297:238,1,180,2|0,1:2|0:0,0:2:0:0:
424,232,122437,6,2,P|347:217|311:328,1,180,2|0,1:2|0:0,0:2:0:0:
317,384,122651,6,0,P|342:234|373:28,1,360,8|0,3:2|0:0,0:0:0:0:
373,28,123080,5,2,0:3:0:0:
424,232,123222,1,2,0:3:0:0:
230,351,123365,1,2,0:3:0:0:
512,314,123508,6,0,B|368:250|223:212|223:212|210:178|190:142,1,360.000013732911,4|0,0:1|0:2,0:2:0:0:
0,315,124151,1,0,0:2:0:0:
141,227,124365,6,0,B|85:241|123:255|58:268,1,90.0000034332277,10|0,0:2|0:2,0:2:0:0:
4,227,124580,5,10,0:3:0:0:
46,224,124687,1,8,0:3:0:0:
62,267,124794,1,10,0:3:0:0:
141,227,124901,5,8,0:3:0:0:
175,266,125008,1,6,0:3:0:0:
169,319,125115,1,4,0:3:0:0:
239,365,125222,5,2,1:2:0:0:
305,326,125330,1,0,3:2:0:0:
377,348,125437,1,0,3:2:0:0:
443,300,125544,5,2,1:2:0:0:
382,355,125651,1,0,3:2:0:0:
306,334,125758,1,0,3:2:0:0:
234,375,125865,5,2,1:2:0:0:
307,341,125972,1,0,3:2:0:0:
383,361,126080,1,8,3:2:0:0:
502,181,126294,5,2,0:2:0:0:
487,197,126401,1,2,0:2:0:0:
452,211,126508,1,2,0:2:0:0:
392,199,126615,1,2,0:2:0:0:
322,159,126722,1,2,0:3:0:0:
303,83,126830,1,2,0:3:0:0:
351,19,126937,5,4,1:1:0:0:
422,54,127044,2,0,B|483:61|450:74|507:83,1,90.0000034332277,0|0,0:0|0:2,0:0:0:0:
238,146,127258,5,2,0:2:0:0:
236,154,127312,1,0,0:0:0:0:
235,162,127365,1,0,0:0:0:0:
152,128,127472,1,0,0:2:0:0:
98,188,127580,2,0,P|109:232|119:283,1,90.0000034332277,2|0,0:2|0:2,0:2:0:0:
209,61,127794,2,0,P|203:39|198:17,1,45.0000017166138,8|0,0:2|0:0,0:0:0:0:
319,286,128008,5,2,3:2:0:0:
322,292,128080,1,0,0:0:0:0:
327,299,128151,1,0,0:0:0:0:
331,305,128222,2,0,B|382:317|353:335|408:347,1,90.0000034332277,2|0,0:2|0:0,0:0:0:0:
487,319,128437,2,0,L|493:289,2,30.0000011444092,2|0|0,3:2|0:0|0:0,3:2:0:0:
223,364,128651,5,2,1:2:0:0:
200,338,128758,5,2,0:2:0:0:
158,352,128865,5,2,1:2:0:0:
149,304,128972,5,2,0:2:0:0:
100,312,129080,5,2,1:2:0:0:
130,258,129187,5,2,0:2:0:0:
77,243,129294,5,2,0:2:0:0:
141,210,129401,5,0,0:2:0:0:
101,170,129508,6,0,B|108:118|131:148|137:88,1,90.0000034332277,8|0,0:2|1:2,0:0:0:0:
55,31,129722,5,0,0:2:0:0:
59,46,129830,1,0,1:2:0:0:
90,76,129937,1,0,1:2:0:0:
136,90,130044,1,0,0:2:0:0:
196,73,130151,1,0,3:2:0:0:
257,103,130258,1,0,3:2:0:0:
296,171,130365,5,2,1:2:0:0:
291,182,130419,1,0,1:2:0:0:
287,191,130472,2,0,P|279:221|276:234,2,45.0000017166138,0|0|0,1:2|0:0|1:2,1:2:0:0:
383,143,130687,1,2,1:2:0:0:
388,131,130741,1,0,1:2:0:0:
393,119,130794,2,0,P|401:89|403:75,2,45.0000017166138,0|0|0,1:2|0:0|1:2,1:2:0:0:
427,217,131008,5,2,1:2:0:0:
510,243,131115,1,0,1:2:0:0:
491,160,131222,1,8,0:2:0:0:
464,375,131437,5,0,0:2:0:0:
447,370,131544,1,0,0:2:0:0:
428,361,131651,2,0,L|422:327,3,30,2|2|2|2,0:2|0:2|0:2|0:2,0:0:0:0:
347,301,132080,5,6,1:2:0:0:
303,290,132187,1,2,0:2:0:0:
277,330,132294,1,2,0:2:0:0:
195,293,132401,5,2,0:2:0:0:
151,304,132508,1,2,1:2:0:0:
125,264,132615,1,2,0:2:0:0:
52,301,132722,5,2,0:2:0:0:
49,312,132829,1,2,0:2:0:0:
47,323,132937,2,0,P|54:354|57:382,1,60,10|2,0:2|0:2,0:0:0:0:
200,213,133151,2,0,P|193:182|189:153,1,60,2|2,0:2|0:2,0:0:0:0:
5,104,133365,5,2,1:2:0:0:
5,104,133472,1,2,0:2:0:0:
5,104,133580,1,2,0:2:0:0:
5,104,133687,1,2,0:2:0:0:
45,26,133794,5,6,1:2:0:0:
97,82,133901,5,2,0:2:0:0:
144,37,134008,5,2,0:2:0:0:
154,100,134115,5,2,0:2:0:0:
221,79,134222,5,6,1:2:0:0:
193,127,134330,5,2,0:2:0:0:
246,140,134437,5,2,0:2:0:0:
211,149,134544,5,2,0:2:0:0:
236,175,134651,5,10,0:2:0:0:
316,177,134758,5,2,0:2:0:0:
307,240,134865,5,6,1:2:0:0:
365,206,134972,5,2,3:2:0:0:
390,260,135079,5,10,3:2:0:0:
409,201,135187,5,2,3:2:0:0:
452,232,135294,5,10,3:2:0:0:
438,179,135401,5,2,3:2:0:0:
474,184,135508,5,6,1:2:0:0:
447,142,135615,5,2,0:2:0:0:
474,127,135722,5,2,0:2:0:0:
441,115,135830,5,2,0:2:0:0:
455,100,135937,5,10,0:2:0:0:
428,100,136044,5,4,0:3:0:0:
428,82,136151,5,4,0:3:0:0:
411,86,136258,5,4,0:3:0:0:
402,76,136365,6,0,B|370:67|370:67|300:114|216:175|216:175|162:152,1,270.000010299683,4|0,0:3|0:2,0:2:0:0:
171,155,136794,6,0,P|138:185|111:212,1,60.0000022888184,2|0,0:3|0:0,0:0:0:0:
55,254,136937,2,0,P|46:210|36:173,1,60.0000022888184,2|0,0:3|0:0,0:0:0:0:
26,104,137080,2,0,P|67:118|104:128,1,60.0000022888184,2|0,0:3|0:0,0:0:0:0:
213,354,137222,6,0,P|256:341|299:330,1,90.0000034332277,6|0,1:2|0:2,0:2:0:0:
512,274,137437,2,0,P|468:262|425:250,1,90.0000034332277,6|0,1:2|0:2,0:2:0:0:
293,124,137651,2,0,P|307:166|318:210,1,90.0000034332277,6|0,1:2|0:2,0:2:0:0:
414,309,137865,6,0,P|418:287|426:241,1,60,0|0,3:2|3:2,3:2:0:0:
421,169,138080,2,0,L|474:178,3,30,0|0|0|0,3:2|3:2|3:2|3:2,0:2:0:0:
318,210,138508,6,0,P|288:215|259:223,1,60,10|0,0:2|0:2,0:2:0:0:
234,110,138722,2,0,P|263:115|292:123,1,60,2|0,0:2|0:2,0:2:0:0:
414,309,138937,6,0,P|378:299|326:289,1,90.0000034332277,6|0,0:2|0:2,0:2:0:0:
93,198,139151,2,0,P|137:190|180:178,1,90.0000034332277,6|0,1:2|0:2,0:2:0:0:
309,35,139365,2,0,P|300:80|292:123,1,90.0000034332277,14|0,0:2|0:2,0:2:0:0:
282,207,139580,1,0,0:2:0:0:
282,207,139687,1,0,0:2:0:0:
359,175,139794,6,0,P|402:179|434:221,1,90.0000034332277,6|0,1:2|0:2,0:2:0:0:
506,244,140008,2,0,P|525:284|505:332,1,90.0000034332277,2|0,0:2|0:2,0:2:0:0:
189,259,140222,6,0,P|168:219|186:170,1,90.0000034332277,14|0,0:2|0:2,0:2:0:0:
166,98,140436,2,0,P|188:59|240:50,1,90.0000034332277,2|0,0:2|0:2,0:2:0:0:
367,315,140651,6,0,P|320:304|279:295,1,90.0000034332277,6|0,1:2|0:2,0:2:0:0:
70,369,140865,2,0,P|114:360|157:349,1,90.0000034332277,4|0,1:2|0:2,0:2:0:0:
268,196,141080,2,0,P|224:185|180:176,1,90.0000034332277,14|0,0:2|0:2,0:2:0:0:
82,155,141294,5,2,3:2:0:0:
82,155,141401,1,0,3:2:0:0:
82,155,141508,1,2,0:2:0:0:
195,266,141722,1,2,0:2:0:0:
32,249,141937,6,0,P|68:241|90:236,1,60,10|0,3:2|3:2,3:2:0:0:
181,92,142151,2,0,P|210:97|239:104,1,60,8|0,3:2|0:2,0:0:0:0:
469,282,142365,6,0,P|486:242|514:191,1,90.0000034332277,6|0,1:2|0:2,0:2:0:0:
294,33,142580,2,2,P|314:72|333:113,1,90.0000034332277,6|0,1:2|0:2,0:2:0:0:
405,209,142794,2,0,P|422:169|450:118,1,90.0000034332277,14|0,0:2|0:2,0:2:0:0:
484,57,143008,1,2,0:2:0:0:
315,199,143222,6,0,B|235:220|286:244|199:262,1,135.000005149841,6|0,1:2|0:2,0:2:0:0:
21,282,143651,6,0,P|172:289|293:379,1,270.000010299683,6|0,1:2|0:2,2:2:0:0:
359,329,144080,6,0,P|386:272|374:225,1,90.0000034332277,6|0,1:2|0:2,0:2:0:0:
209,60,144294,2,0,P|244:111|291:124,1,90.0000034332277,6|0,1:2|0:2,0:2:0:0:
366,158,144508,2,0,P|428:152|463:118,1,90.0000034332277,6|0,1:2|0:2,0:2:0:0:
401,17,144722,6,0,P|396:48|391:76,1,60,2|0,1:2|0:2,0:2:0:0:
290,202,144937,2,0,L|299:238,3,30,2|0|0|0,0:2|0:2|0:2|0:2,0:2:0:0:
208,112,145365,6,0,P|240:116|267:121,1,60,8|0,0:2|0:2,0:2:0:0:
442,235,145580,2,0,P|419:238|382:247,1,60,0|0,0:2|0:2,0:2:0:0:
186,353,145794,6,0,P|92:331|68:328,1,90.0000034332277,6|0,1:2|0:2,0:2:0:0:
0,204,146008,2,0,P|87:186|113:176,1,90.0000034332277,6|0,1:2|0:2,0:2:0:0:
313,284,146222,2,0,P|219:262|195:259,1,90.0000034332277,14|0,1:2|0:2,0:2:0:0:
145,252,146437,1,0,0:2:0:0:
149,259,146544,1,0,0:2:0:0:
194,189,146651,6,0,P|205:128|181:98,1,90.0000034332277,6|0,1:2|0:2,0:2:0:0:
232,37,146865,2,0,P|188:-1|146:4,1,90.0000034332277,2|0,0:2|0:2,0:2:0:0:
0,204,147080,6,0,P|17:263|52:279,1,90.0000034332277,14|0,0:2|0:2,0:2:0:0:
52,353,147294,2,0,P|108:365|142:338,1,90.0000034332277,2|0,0:2|0:2,0:2:0:0:
210,306,147508,6,0,P|250:312|298:320,1,90.0000034332277,6|0,1:2|0:2,0:2:0:0:
512,194,147722,2,0,P|472:200|423:208,1,90.0000034332277,4|0,1:2|0:2,0:2:0:0:
393,380,147937,2,0,P|384:338|371:292,1,90.0000034332277,14|0,0:2|0:2,0:2:0:0:
339,184,148151,5,2,1:2:0:0:
339,184,148258,1,0,0:2:0:0:
339,184,148365,1,2,0:2:0:0:
467,285,148580,1,2,0:2:0:0:
298,319,148794,6,0,P|293:285|287:260,1,60,10|0,0:2|0:2,0:2:0:0:
423,208,149008,2,0,P|428:174|433:149,1,60,8|0,0:2|0:2,0:2:0:0:
294,74,149222,6,0,P|257:86|209:104,1,90.0000034332277,6|0,1:2|0:2,0:2:0:0:
0,172,149437,2,0,P|42:186|84:202,1,90.0000034332277,6|0,1:2|0:2,0:2:0:0:
190,279,149651,2,0,P|182:234|172:190,1,90.0000034332277,14|0,0:2|0:2,0:2:0:0:
112,121,149865,5,2,0:2:0:0:
266,311,150080,1,6,1:2:0:0:
276,313,150187,1,0,0:2:0:0:
287,316,150294,1,0,0:2:0:0:
298,319,150401,1,0,0:2:0:0:
356,269,150508,6,2,P|271:295|97:345,1,270.000010299683,6|0,1:2|0:2,0:1:0:0:
97,345,150937,6,0,L|119:231,1,90.0000034332277,6|0,1:2|0:2,0:2:0:0:
3,77,151151,2,0,L|91:153,1,90.0000034332277,6|0,1:2|0:2,0:2:0:0:
282,129,151365,2,0,L|172:167,1,90.0000034332277,6|0,1:2|0:2,0:2:0:0:
