osu file format v14

[General]
AudioFilename: audio.mp3
AudioLeadIn: 0
PreviewTime:33570
Countdown: 0
SampleSet: Soft
StackLeniency: 0.8
Mode: 0
LetterboxInBreaks: 0
WidescreenStoryboard: 1

[Editor]
Bookmarks: 13856,27570,30999,34427,44713,48142,54999,61856,68713,82320,82427,88856,89284,96142,109856,136856,137284,150999,151427
DistanceSpacing: 1.1
BeatDivisor: 4
GridSize: 16
TimelineZoom: 3.099999

[Metadata]
Title:ABC feat. Sophia Black
TitleUnicode:ABC feat. Sophia Black
Artist:Polyphia
ArtistUnicode:Polyphia
Creator:Ducky-
Version:Poka's Extra
Source:
Tags:japanese english pop prog metal vocal rock tim henson and the boys remember that you will die progressive clay gober aeschliman scott lepage PokaTetris Agllius xytoper kyrian
BeatmapID:4053883
BeatmapSetID:1941380

[Difficulty]
HPDrainRate:5.6
CircleSize:4.4
OverallDifficulty:9
ApproachRate:9
SliderMultiplier:1.8
SliderTickRate:1

[Events]
//Background and Video events
0,0,"78036181_p0 (1).jpg",0,0
//Break Periods
//Storyboard Layer 0 (Background)
//Storyboard Layer 1 (Fail)
//Storyboard Layer 2 (Pass)
//Storyboard Layer 3 (Foreground)
//Storyboard Layer 4 (Overlay)
//Storyboard Sound Samples

[TimingPoints]
142,428.571428571429,4,2,1,40,1,0
142,-100,4,2,1,40,0,0
2284,-166.666666666667,4,2,1,40,0,0
2713,-100,4,2,1,40,0,0
3142,-166.666666666667,4,2,1,40,0,0
3570,-100,4,2,1,40,0,0
12999,-200,4,2,1,40,0,0
13427,-71.4285714285714,4,2,1,40,0,0
13856,-100,4,2,1,60,0,0
27142,-100,4,2,2,60,0,0
27570,-100,4,2,1,60,0,0
30999,-166.666666666667,4,2,1,60,0,0
31749,-333.333333333333,4,2,1,60,0,0
31856,-333.333333333333,4,2,1,50,0,0
32713,-142.857142857143,4,2,2,40,0,0
33570,-142.857142857143,4,2,2,40,0,0
34427,-76.9230769230769,4,2,2,80,0,0
34856,-76.9230769230769,4,2,1,80,0,0
35070,-76.9230769230769,4,2,2,80,0,0
35284,-76.9230769230769,4,2,1,80,0,0
41284,-76.9230769230769,4,2,2,80,0,0
41713,-76.9230769230769,4,2,1,80,0,0
41927,-76.9230769230769,4,2,2,80,0,0
42142,-76.9230769230769,4,2,1,80,0,0
48142,-100,4,2,2,60,0,0
48356,-100,4,2,1,60,0,0
51142,-76.9230769230769,4,2,1,60,0,0
51570,-142.857142857143,4,2,1,60,0,0
52856,-100,4,2,1,60,0,0
53284,-71.4285714285714,4,2,2,60,0,0
53499,-71.4285714285714,4,2,1,60,0,0
54999,-100,4,2,1,60,0,0
60142,-71.4285714285714,4,2,1,60,0,0
64856,-62.5,4,2,1,60,0,0
65284,-142.857142857143,4,2,1,60,0,0
66142,-333.333333333333,4,2,1,50,0,0
66784,-166.666666666667,4,2,1,50,0,0
66999,-166.666666666667,4,2,2,40,0,0
67856,-166.666666666667,4,2,1,40,0,0
68713,-76.923076923077,4,2,2,80,0,0
69142,-76.923076923077,4,2,1,80,0,0
69356,-76.923076923077,4,2,2,80,0,0
69570,-76.923076923077,4,2,1,80,0,0
75570,-76.923076923077,4,2,2,80,0,0
75999,-76.923076923077,4,2,1,80,0,0
76213,-76.923076923077,4,2,2,80,0,0
76427,-76.923076923077,4,2,1,80,0,0
81999,-62.5,4,2,1,80,0,0
82427,-41.6666666666667,4,2,2,80,0,1
82642,-41.6666666666667,4,2,1,80,0,1
82856,-55.5555555555556,4,2,1,80,0,1
83070,-55.5555555555556,4,2,2,80,0,1
83284,-55.5555555555556,4,2,1,80,0,1
83713,-83.3333333333333,4,2,1,80,0,1
84142,-41.6666666666667,4,2,1,80,0,1
84999,-71.4285714285714,4,2,1,80,0,1
85213,-125,4,2,1,80,0,1
85427,-71.4285714285714,4,2,1,80,0,1
85641,-125,4,2,1,80,0,1
85856,-41.6666666666667,4,2,1,80,0,1
86284,-71.4285714285714,4,2,1,80,0,1
88427,-58.8235294117647,4,2,1,80,0,1
89284,-41.6666666666667,4,2,2,80,0,1
89499,-41.6666666666667,4,2,1,80,0,1
89713,-55.5555555555556,4,2,1,80,0,1
89927,-55.5555555555556,4,2,2,80,0,1
90142,-55.5555555555556,4,2,1,80,0,1
90570,-83.3333333333333,4,2,1,80,0,1
90999,-41.6666666666667,4,2,1,80,0,1
91856,-71.4285714285714,4,2,1,80,0,1
92070,-125,4,2,1,80,0,1
92284,-71.4285714285714,4,2,1,80,0,1
92498,-125,4,2,1,80,0,1
92713,-41.6666666666667,4,2,1,80,0,1
93141,-71.4285714285714,4,2,1,80,0,1
95284,-58.8235294117647,4,2,1,80,0,1
96142,-125,4,2,1,80,0,0
109856,-55.5555555555556,4,2,1,80,0,0
110713,-71.4285714285714,4,2,1,80,0,0
111570,-62.5,4,2,1,80,0,0
113284,-55.5555555555556,4,2,1,80,0,0
114570,-83.3333333333333,4,2,1,80,0,0
114999,-55.5555555555556,4,2,1,80,0,0
117356,-45.4545454545455,4,2,1,80,0,0
117570,-100,4,2,1,80,0,0
118427,-50,4,2,1,80,0,0
119713,-62.5,4,2,2,80,0,0
120142,-62.5,4,2,1,80,0,0
120999,-76.9230769230769,4,2,1,80,0,0
121856,-76.9230769230769,4,2,2,80,0,0
122499,-62.5,4,2,2,80,0,0
122713,-62.5,4,2,1,80,0,0
123999,-83.3333333333333,4,2,1,80,0,0
125284,-62.5,4,2,1,100,0,0
126142,-62.5,4,2,1,80,0,0
131499,-52.6315789473684,4,2,1,80,0,0
131713,-66.6666666666667,4,2,1,80,0,0
132142,-58.8235294117647,4,2,1,80,0,0
133856,-66.6666666666667,4,2,1,100,0,0
134284,-66.6666666666667,4,2,1,90,0,0
134713,-66.6666666666667,4,2,1,80,0,0
135142,-66.6666666666667,4,2,1,100,0,0
135570,-66.6666666666667,4,2,1,90,0,0
135999,-66.6666666666667,4,2,1,80,0,0
136856,-55.5555555555556,4,2,1,80,0,0
137284,-45.4545454545455,4,2,2,80,0,1
137499,-45.4545454545455,4,2,1,80,0,1
137713,-55.5555555555556,4,2,1,80,0,1
137927,-45.4545454545455,4,2,2,80,0,1
138142,-45.4545454545455,4,2,1,80,0,1
138570,-62.5,4,2,1,80,0,1
138999,-45.4545454545455,4,2,1,80,0,1
139213,-55.5555555555556,4,2,1,80,0,1
139427,-52.6315789473684,4,2,1,80,0,1
139856,-62.5,4,2,1,80,0,1
140070,-90.9090909090909,4,2,1,80,0,1
140284,-62.5,4,2,1,80,0,1
140498,-90.9090909090909,4,2,1,80,0,1
140713,-41.6666666666667,4,2,1,80,0,1
141142,-62.5,4,2,1,80,0,1
141356,-90.9090909090909,4,2,1,80,0,1
141999,-62.5,4,2,1,80,0,1
142427,-38.4615384615385,4,2,1,80,0,1
142642,-47.6190476190476,4,2,1,80,0,1
142856,-62.5,4,2,1,80,0,1
143284,-52.6315789473684,4,2,1,80,0,1
143713,-47.6190476190476,4,2,1,80,0,1
144142,-41.6666666666667,4,2,2,80,0,1
144356,-41.6666666666667,4,2,1,80,0,1
144784,-50,4,2,2,80,0,1
144999,-50,4,2,1,80,0,1
145427,-62.5,4,2,1,80,0,1
145856,-41.6666666666667,4,2,1,80,0,1
146284,-58.8235294117647,4,2,1,80,0,1
146713,-62.5,4,2,1,80,0,1
146927,-90.9090909090909,4,2,1,80,0,1
147141,-62.5,4,2,1,80,0,1
147355,-90.9090909090909,4,2,1,80,0,1
147570,-41.6666666666667,4,2,1,80,0,1
147999,-62.5,4,2,1,80,0,1
148856,-58.8235294117647,4,2,1,80,0,1
149284,-41.6666666666667,4,2,1,80,0,1
149713,-55.5555555555556,4,2,1,80,0,1
150142,-41.6666666666667,4,2,1,80,0,1
150570,-47.6190476190476,4,2,1,80,0,1
150999,-100,4,2,1,80,0,0

[Colours]
Combo1 : 199,202,205
Combo2 : 156,143,192

[HitObjects]
250,193,142,6,0,L|257:160,1,22.5,0|0,3:0|0:0,0:0:0:0:
249,177,463,1,2,0:2:0:0:
289,262,784,5,0,0:0:0:0:
250,335,999,5,2,0:2:0:0:
256,341,1213,1,2,0:2:0:0:
333,332,1427,5,2,0:2:0:0:
188,384,1642,1,2,0:2:0:0:
207,265,1856,6,0,P|201:200|159:136,1,135,2|0,1:2|0:0,0:0:0:0:
165,141,2284,2,0,P|168:171|150:200,1,53.9999983520508,2|0,0:2|0:0,0:0:0:0:
297,100,2713,6,0,P|303:165|345:229,1,135,2|0,1:2|0:0,0:0:0:0:
338,223,3142,2,0,P|335:193|353:164,1,53.9999983520508,2|0,0:2|0:0,0:0:0:0:
248,176,3570,5,2,3:2:0:0:
316,22,3999,5,2,0:2:0:0:
173,79,4427,5,2,0:2:0:0:
246,105,4856,5,2,0:2:0:0:
240,17,5284,6,0,P|156:33|80:101,1,180,2|2,3:2|0:2,0:0:0:0:
245,183,6142,5,2,0:2:0:0:
288,117,6356,1,2,0:2:0:0:
288,117,6463,1,0,0:0:0:0:
288,117,6570,1,2,0:2:0:0:
168,188,6784,1,2,0:2:0:0:
294,248,6999,2,0,P|362:265|423:328,1,135,2|0,1:2|0:0,0:0:0:0:
410,306,7642,5,2,1:2:0:0:
189,382,8070,5,0,0:0:0:0:
245,183,8284,1,2,1:2:0:0:
245,183,8392,1,2,0:2:0:0:
245,183,8499,1,2,0:2:0:0:
318,339,8713,6,0,P|297:300|296:246,1,90,2|2,3:2|0:2,0:0:0:0:
225,219,9034,1,2,0:2:0:0:
104,367,9249,6,0,P|124:327|129:274,1,90,2|0,0:2|0:0,0:0:0:0:
129,282,9570,2,0,P|111:269|88:262,1,45,2|2,1:2|0:2,0:0:0:0:
45,198,9784,1,2,0:2:0:0:
42,190,9892,1,2,0:2:0:0:
61,164,9999,5,2,0:2:0:0:
36,320,10213,5,2,0:2:0:0:
147,199,10427,6,0,P|167:186|192:181,3,45,2|2|2|2,1:2|0:2|0:2|0:2,0:0:0:0:
200,100,10856,6,0,P|220:113|245:118,3,45,2|2|2|2,1:2|0:2|0:2|0:2,0:0:0:0:
264,192,11284,5,2,1:2:0:0:
274,196,11392,1,2,0:2:0:0:
276,211,11499,1,2,0:2:0:0:
316,222,11606,1,2,0:2:0:0:
340,268,11713,2,0,P|359:252|389:248,3,45,2|2|2|2,1:2|0:2|0:2|0:2,0:0:0:0:
393,174,12142,5,2,1:2:0:0:
420,176,12249,1,2,0:2:0:0:
427,162,12356,1,2,0:2:0:0:
437,165,12463,1,2,0:2:0:0:
445,159,12570,6,0,P|464:170|503:171,1,45,2|2,1:2|0:2,0:0:0:0:
461,262,12784,5,2,0:2:0:0:
456,273,12892,1,2,0:2:0:0:
495,316,12999,2,0,P|476:334|471:376,1,67.5,2|0,1:2|0:0,0:0:0:0:
470,373,13427,6,0,P|435:311|316:275,1,188.999994232178,2|0,0:2|0:0,0:0:0:0:
328,273,13856,5,2,3:2:0:0:
391,225,14070,1,2,0:2:0:0:
226,140,14284,5,10,3:2:0:0:
305,113,14606,5,2,0:2:0:0:
301,103,14713,1,2,0:2:0:0:
255,248,15034,5,2,0:2:0:0:
252,259,15141,1,10,3:2:0:0:
226,140,15356,5,0,0:0:0:0:
216,129,15463,1,2,0:2:0:0:
216,146,15570,2,0,P|171:111|91:99,1,135,2|0,0:2|0:0,0:0:0:0:
95,98,15999,1,10,3:2:0:0:
214,3,16427,5,2,3:2:0:0:
236,10,16534,1,2,0:2:0:0:
236,52,16642,1,2,0:2:0:0:
289,75,16749,1,2,0:2:0:0:
288,91,16856,6,0,L|304:132,1,45,10|0,3:2|0:0,0:0:0:0:
135,146,17070,2,0,L|148:188,1,45,2|0,0:2|0:0,0:0:0:0:
243,219,17284,6,0,P|181:240|140:313,1,135,8|0,3:3|0:0,0:0:0:0:
143,295,17713,1,10,3:2:0:0:
63,262,17927,5,0,0:0:0:0:
49,265,18034,1,2,0:2:0:0:
26,245,18142,2,0,L|40:194,1,45,4|4,3:3|0:3,0:0:0:0:
198,286,18356,2,0,L|212:235,1,45,4|4,0:3|0:3,0:0:0:0:
79,378,18570,5,10,3:2:0:0:
95,383,18677,1,4,3:3:0:0:
120,357,18784,1,4,3:3:0:0:
168,361,18892,1,4,3:3:0:0:
208,289,18999,6,0,P|251:323|346:323,1,135,8|0,3:3|0:0,0:0:0:0:
328,329,19427,1,10,3:2:0:0:
344,342,19534,1,2,0:2:0:0:
334,349,19642,2,0,L|324:287,1,45,2|0,0:2|0:0,0:0:0:0:
466,230,19856,6,0,P|467:256|444:272,1,45,2|0,3:2|0:0,0:0:0:0:
501,332,20070,2,0,P|483:351|455:346,1,45,2|0,0:2|0:0,0:0:0:0:
281,255,20284,2,0,P|347:271|400:339,1,135,8|2,3:2|0:2,0:0:0:0:
391,318,20713,5,4,3:2:0:0:
351,211,20927,5,2,0:2:0:0:
352,221,21034,1,2,0:2:0:0:
363,216,21142,1,8,3:2:0:0:
459,141,21356,5,2,0:2:0:0:
459,141,21570,6,0,P|447:119|444:94,1,45,2|0,3:2|3:0,0:0:0:0:
323,178,21784,2,0,P|318:155|307:136,1,45,4|4,3:3|3:3,0:0:0:0:
360,72,21999,5,10,3:2:0:0:
337,53,22106,1,4,3:3:0:0:
352,5,22213,1,4,3:3:0:0:
440,218,22427,5,2,3:2:0:0:
323,178,22642,5,2,0:2:0:0:
315,168,22749,1,2,0:2:0:0:
314,182,22856,1,8,3:2:0:0:
245,273,23070,5,2,3:2:0:0:
245,273,23284,6,0,P|235:296|230:328,1,45,2|0,3:2|3:0,0:0:0:0:
65,258,23499,2,0,P|75:235|80:203,1,45,4|4,3:3|3:3,0:0:0:0:
139,355,23713,5,10,3:2:0:0:
127,334,23820,1,4,3:3:0:0:
160,280,23927,1,4,3:3:0:0:
57,165,24142,6,0,P|50:137|24:105,1,45,2|0,3:2|0:0,0:0:0:0:
139,112,24356,1,4,3:3:0:0:
150,108,24463,1,2,3:2:0:0:
176,154,24570,2,0,P|169:179|143:199,1,45,8|0,3:2|3:0,0:0:0:0:
236,257,24784,2,0,P|259:254|285:231,1,45,4|0,3:3|3:0,0:0:0:0:
320,177,24999,6,0,L|267:163,1,45,2|2,3:2|3:2,0:0:0:0:
270,360,25213,2,0,L|217:346,1,45,4|0,0:3|0:0,0:0:0:0:
386,327,25427,6,0,P|383:277|346:236,1,90,8|2,3:2|0:2,0:0:0:0:
229,104,25856,6,0,P|251:92|280:88,1,45,0|2,3:0|3:2,0:0:0:0:
157,153,26070,1,2,3:2:0:0:
180,0,26177,2,0,P|204:7|227:24,1,45,2|8,3:2|3:2,0:0:0:0:
281,170,26392,5,2,3:2:0:0:
288,174,26499,2,0,L|271:219,1,45,2|2,3:2|3:2,0:0:0:0:
387,163,26713,5,2,3:2:0:0:
409,147,26820,1,0,3:0:0:0:
399,107,26927,1,0,3:0:0:0:
454,90,27034,1,0,3:0:0:0:
433,16,27142,6,0,L|392:0,1,45,12|2,3:2|3:2,0:0:0:0:
387,171,27356,2,0,L|346:155,1,45,2|2,3:2|3:2,0:0:0:0:
297,87,27570,5,10,3:3:0:0:
305,73,27677,1,2,0:2:0:0:
274,35,27784,1,2,0:2:0:0:
261,163,27999,5,10,3:2:0:0:
261,163,28213,1,2,0:2:0:0:
341,0,28427,5,2,0:2:0:0:
211,94,28856,5,10,3:2:0:0:
197,111,28963,1,2,0:2:0:0:
146,98,29070,1,2,0:2:0:0:
67,214,29284,6,0,P|86:200|117:194,1,45,2|0,0:2|0:0,0:0:0:0:
59,73,29499,2,0,P|40:87|9:93,1,45,2|0,0:2|0:0,0:0:0:0:
112,184,29713,2,0,P|160:190|197:225,1,90,10|0,3:2|0:0,0:0:0:0:
281,328,30142,5,2,3:2:0:0:
294,312,30249,1,2,0:2:0:0:
279,263,30356,1,2,0:2:0:0:
325,214,30463,1,0,0:0:0:0:
317,212,30570,6,0,L|299:163,1,45,10|0,3:2|0:0,0:0:0:0:
179,250,30784,2,0,L|161:201,1,45,2|0,0:2|0:0,0:0:0:0:
289,331,30999,6,0,P|375:332|452:380,1,161.999995056153,2|0,3:2|0:0,0:0:0:0:
451,360,31749,5,0,0:0:0:0:
451,360,31856,2,0,P|433:328|433:303,1,53.9999983520508,2|0,3:2|0:0,0:0:0:0:
286,367,32499,5,0,0:0:0:0:
290,374,32606,1,0,0:0:0:0:
290,374,32713,2,0,P|328:307|339:191,1,188.999994232178,4|0,0:2|0:0,0:0:0:0:
339,197,33570,5,0,0:0:0:0:
75,44,34427,6,0,P|105:39|132:25,1,58.4999973220826,12|0,3:3|0:0,0:0:0:0:
118,228,34642,2,0,P|144:215|172:210,1,58.4999973220826,4|0,3:3|0:0,0:0:0:0:
6,83,34856,6,0,P|64:88|118:134,1,116.999994644165,8|4,3:2|3:3,0:0:0:0:
281,73,35284,5,2,0:2:0:0:
291,75,35392,1,0,0:0:0:0:
307,51,35499,2,0,P|306:21|288:1,1,58.4999973220826,2|2,0:2|0:0,0:0:0:0:
363,140,35713,2,0,P|390:86|439:31,1,116.999994644165,10|2,3:3|0:2,0:0:0:0:
422,31,36142,6,0,P|389:23|362:9,1,58.4999973220826,12|0,3:3|0:0,0:0:0:0:
351,230,36356,2,0,P|324:217|296:210,1,58.4999973220826,4|0,3:3|0:0,0:0:0:0:
266,132,36570,6,0,P|341:109|451:114,1,175.499991966248,8|0,3:2|0:0,0:0:0:0:
437,110,36999,6,0,P|435:146|457:173,1,58.4999973220826,6|0,3:3|0:0,0:0:0:0:
421,238,37213,1,0,0:0:0:0:
421,250,37320,1,0,0:0:0:0:
437,258,37427,6,0,P|466:243|504:247,1,58.4999973220826,4|0,3:2|0:0,0:0:0:0:
318,114,37642,2,0,P|289:129|251:125,1,58.4999973220826,0|0,3:0|0:0,0:0:0:0:
209,193,37856,6,0,P|238:200|266:213,1,58.4999973220826,14|0,3:3|0:0,0:0:0:0:
209,384,38070,2,0,P|179:376|152:364,1,58.4999973220826,4|0,0:2|0:0,0:0:0:0:
344,235,38284,6,0,P|285:257|257:319,1,116.999994644165,4|0,3:2|3:0,0:0:0:0:
134,270,38713,5,2,0:2:0:0:
124,262,38820,1,0,0:0:0:0:
135,241,38927,2,0,P|115:216|111:180,1,58.4999973220826
85,337,39142,2,0,P|47:291|-5:257,1,116.999994644165,10|2,3:2|0:2,0:0:0:0:
206,191,39570,6,0,P|211:160|222:127,1,58.4999973220826,14|0,3:3|0:0,0:0:0:0:
0,137,39784,2,0,P|8:109|13:81,1,58.4999973220826,4|0,3:3|0:0,0:0:0:0:
79,38,39999,6,0,P|110:90|116:223,1,175.499991966248,8|0,3:2|0:0,0:0:0:0:
121,203,40427,6,0,P|86:205|64:234,1,58.4999973220826,6|0,3:2|0:0,0:0:0:0:
184,102,40642,1,2,0:2:0:0:
179,110,40749,1,0,0:0:0:0:
162,108,40856,6,0,P|135:85|99:90,1,58.4999973220826,6|0,3:2|0:0,0:0:0:0:
279,52,41070,2,0,P|276:17|247:-4,1,58.4999973220826,2|0,0:2|0:0,0:0:0:0:
277,133,41284,6,0,P|303:124|340:109,1,58.4999973220826,12|0,3:3|0:0,0:0:0:0:
390,308,41499,2,0,P|364:317|327:332,1,58.4999973220826,4|0,3:3|0:0,0:0:0:0:
320,199,41713,5,8,3:2:0:0:
469,23,41927,2,0,P|431:57|419:136,1,116.999994644165,4|2,0:3|0:0,0:0:0:0:
496,200,42356,1,2,0:0:0:0:
496,200,42570,5,10,1:3:0:0:
503,191,42677,1,2,0:2:0:0:
509,206,42784,2,0,P|484:184|442:184,1,58.4999973220826,2|0,0:2|0:0,0:0:0:0:
337,122,42999,6,0,P|338:155|360:176,1,58.4999973220826,12|0,3:3|0:0,0:0:0:0:
476,111,43213,1,2,3:2:0:0:
348,251,43320,6,0,P|374:239|408:231,1,58.4999973220826,12|0,3:3|0:0,0:0:0:0:
415,73,43534,1,2,0:2:0:0:
415,73,43642,2,0,P|386:65|360:53,1,58.4999973220826,4|0,3:2|0:0,0:0:0:0:
310,2,43856,6,0,P|279:13|256:52,1,58.4999973220826,2|2,0:2|0:2,0:0:0:0:
234,105,44070,1,2,0:2:0:0:
253,118,44177,1,2,0:2:0:0:
250,158,44284,5,10,3:3:0:0:
190,0,44499,5,2,0:2:0:0:
292,223,44713,5,6,3:2:0:0:
301,271,44820,1,2,0:2:0:0:
256,294,44927,1,2,0:2:0:0:
258,317,45034,1,2,0:2:0:0:
249,323,45142,6,0,P|219:326|188:349,1,58.4999973220826,14|2,3:2|0:2,0:0:0:0:
165,201,45356,2,0,P|195:198|226:175,1,58.4999973220826,2|2,0:2|0:2,0:0:0:0:
134,282,45570,5,4,3:2:0:0:
79,292,45677,1,2,0:2:0:0:
59,255,45784,1,0,3:0:0:0:
32,258,45892,1,2,0:2:0:0:
0,189,45999,5,8,3:2:0:0:
4,181,46106,1,2,0:2:0:0:
13,182,46213,1,0,3:0:0:0:
17,175,46320,1,2,0:2:0:0:
33,151,46427,6,0,L|12:93,1,58.4999973220826,0|2,3:0|0:2,0:0:0:0:
135,49,46642,2,0,L|156:107,1,58.4999973220826,8|2,0:2|0:2,0:0:0:0:
121,184,46856,5,0,3:0:0:0:
165,206,46963,1,2,0:2:0:0:
199,177,47070,1,0,3:0:0:0:
230,179,47177,1,2,0:2:0:0:
242,170,47284,6,0,L|256:99,1,58.4999973220826,0|2,3:0|0:2,0:0:0:0:
299,42,47499,1,4,3:3:0:0:
308,38,47606,1,12,3:2:0:0:
287,0,47713,5,0,3:0:0:0:
333,166,47927,5,4,3:3:0:0:
333,166,48034,1,4,3:3:0:0:
333,166,48142,2,0,P|413:178|499:241,1,180,12|8,3:3|3:2,0:0:0:0:
410,135,49213,5,0,0:0:0:0:
414,149,49320,1,0,0:0:0:0:
424,141,49427,1,8,3:2:0:0:
287,234,50070,5,0,0:0:0:0:
278,248,50177,1,0,0:0:0:0:
240,257,50284,6,0,P|216:241|184:239,1,45,8|0,3:2|0:0,0:0:0:0:
257,88,50499,2,0,P|281:104|313:106,1,45
370,254,50713,6,0,P|286:300|276:360,1,135,10|0,3:3|0:0,0:0:0:0:
275,332,51142,6,0,P|284:254|231:162,1,175.499991966248,10|0,3:2|0:0,0:0:0:0:
240,170,51570,6,0,L|120:213,1,125.999996154785,14|8,3:3|3:2,0:0:0:0:
62,117,52427,5,0,0:0:0:0:
51,117,52534,1,0,0:0:0:0:
28,101,52642,1,0,0:0:0:0:
41,60,52749,1,0,0:0:0:0:
1,17,52856,6,0,P|26:10|43:-2,1,45,8|0,3:2|0:0,0:0:0:0:
113,182,53070,2,0,P|91:187|72:199,1,45
0,169,53284,6,0,P|21:117|147:72,1,188.999994232178,12|0,3:3|0:0,0:0:0:0:
184,6,53713,2,0,P|242:29|255:100,1,125.999996154785,8|0,3:2|0:0,0:0:0:0:
317,228,54142,6,0,P|299:254|254:258,1,62.9999980773926,4|0,3:3|0:0,0:0:0:0:
231,327,54356,1,0,3:0:0:0:
231,327,54463,1,0,0:0:0:0:
161,260,54570,2,0,P|269:291|336:360,1,188.999994232178,8|0,3:2|0:0,0:0:0:0:
323,341,54999,6,0,P|348:328|353:298,1,45,6|2,3:2|0:0,0:0:0:0:
434,324,55213,1,2,0:0:0:0:
446,329,55320,1,0,0:0:0:0:
463,304,55427,6,0,P|469:278|453:254,1,45,8|0,3:2|0:0,0:0:0:0:
512,202,55642,1,0,3:0:0:0:
476,133,55856,5,0,3:0:0:0:
476,133,56284,6,0,P|391:123|319:66,1,180,8|2,3:2|0:2,0:0:0:0:
302,162,56927,5,0,0:0:0:0:
302,162,57034,1,0,0:0:0:0:
302,162,57142,2,0,P|218:179|180:240,1,135,8|0,3:2|0:0,0:0:0:0:
115,227,57570,5,0,3:0:0:0:
95,223,57677,1,0,3:0:0:0:
96,190,57784,1,4,3:3:0:0:
49,157,57892,1,4,3:3:0:0:
91,91,57999,6,0,L|23:73,1,45,8|4,3:2|3:3,0:0:0:0:
5,228,58213,2,0,L|72:245,1,45,4|0,3:3|0:0,0:0:0:0:
199,88,58427,6,0,P|176:98|163:146,1,45,6|0,3:2|0:0,0:0:0:0:
282,156,58642,1,0,0:0:0:0:
277,168,58749,1,0,0:0:0:0:
281,188,58856,6,0,P|273:217|299:261,1,45,8|0,3:2|0:0,0:0:0:0:
399,175,59070,6,0,P|415:200|464:214,1,45,0|0,3:0|0:0,0:0:0:0:
466,280,59284,5,0,0:0:0:0:
456,301,59392,1,0,0:0:0:0:
477,343,59499,1,0,0:0:0:0:
477,343,59713,6,0,P|445:346|412:360,1,45,8|0,3:2|0:0,0:0:0:0:
419,209,59927,2,0,P|451:206|484:192,1,45,2|0,0:2|0:0,0:0:0:0:
357,384,60142,6,0,P|310:339|231:336,1,125.999996154785,0|4,3:0|3:3,0:0:0:0:
214,264,60463,1,4,3:3:0:0:
214,264,60570,6,0,P|184:271|151:289,1,62.9999980773926,4|0,3:3|0:0,0:0:0:0:
111,130,60784,2,0,P|141:123|174:105,1,62.9999980773926,0|0,3:0|3:0,0:0:0:0:
258,186,60999,5,0,3:0:0:0:
257,162,61106,1,0,0:0:0:0:
305,132,61213,1,0,3:0:0:0:
289,81,61320,1,0,3:0:0:0:
335,15,61427,2,0,L|267:0,1,62.9999980773926,8|0,3:2|0:0,0:0:0:0:
381,106,61642,5,8,3:2:0:0:
402,122,61749,1,8,3:2:0:0:
468,80,61856,1,4,3:2:0:0:
369,196,62070,1,0,0:0:0:0:
375,205,62177,6,0,P|405:208|441:225,1,62.9999980773926,8|0,0:2|0:0,0:0:0:0:
293,68,62499,6,0,P|264:89|224:99,1,62.9999980773926,8|0,0:2|0:0,0:0:0:0:
224,175,62713,5,0,0:0:0:0:
210,173,62820,1,0,0:0:0:0:
193,192,62927,2,0,P|165:173|124:166,1,62.9999980773926
86,103,63142,5,8,0:2:0:0:
77,95,63249,1,0,0:0:0:0:
96,34,63356,1,0,0:0:0:0:
5,197,63570,6,0,P|18:229|18:268,1,62.9999980773926,8|0,0:2|0:0,0:0:0:0:
165,322,63892,1,8,0:2:0:0:
177,328,63999,6,0,P|204:307|240:301,1,62.9999980773926
251,219,64213,2,0,P|280:239|317:250,1,62.9999980773926,8|0,0:2|0:0,0:0:0:0:
334,327,64427,5,0,3:0:0:0:
349,325,64534,1,0,0:0:0:0:
380,291,64642,2,0,P|385:255|401:229,1,62.9999980773926
123,126,64856,6,0,P|139:153|151:211,1,72,0|0,3:0|0:0,0:0:0:0:
440,112,65070,2,0,P|424:85|412:27,1,72
309,31,65284,6,0,P|267:131|245:234,1,188.999994232178,6|0,3:2|0:0,0:0:0:0:
248,209,66034,5,0,0:0:0:0:
248,209,66142,2,0,P|226:194|193:187,1,53.9999983520508,2|0,3:2|0:0,0:0:0:0:
186,31,66784,5,0,0:0:0:0:
186,31,66892,1,0,0:0:0:0:
186,31,66999,2,0,B|208:107|266:64|296:144,1,161.999995056153,4|0,0:2|0:0,0:0:0:0:
295,141,67856,1,0,0:0:0:0:
174,312,68713,6,0,P|144:316|115:337,1,58.4999973220826,12|0,3:3|0:0,0:0:0:0:
74,125,68927,2,0,P|104:121|133:100,1,58.4999973220826,4|0,3:3|0:0,0:0:0:0:
33,328,69142,2,0,P|65:263|115:246,1,116.999994644165,8|4,3:2|3:3,0:0:0:0:
275,292,69570,5,2,0:2:0:0:
279,303,69677,1,0,0:0:0:0:
260,312,69784,2,0,P|253:345|227:372,1,58.4999973220826,2|2,0:2|0:0,0:0:0:0:
335,231,69999,2,0,L|378:359,1,116.999994644165,10|2,3:3|0:2,0:0:0:0:
372,341,70427,6,0,P|399:344|432:360,1,58.4999973220826,12|0,3:3|0:0,0:0:0:0:
476,163,70642,2,0,P|448:160|416:144,1,58.4999973220826,4|0,3:3|0:0,0:0:0:0:
491,312,70856,6,0,P|439:253|336:226,1,175.499991966248,8|0,3:2|0:0,0:0:0:0:
336,137,71284,6,0,P|316:156|280:166,1,58.4999973220826,6|0,3:3|0:0,0:0:0:0:
227,269,71499,1,0,0:0:0:0:
233,260,71606,1,0,0:0:0:0:
224,234,71713,6,0,P|196:233|163:214,1,58.4999973220826,4|0,3:2|0:0,0:0:0:0:
63,253,71927,6,0,P|44:233|34:197,1,58.4999973220826,0|0,3:0|0:0,0:0:0:0:
0,125,72142,6,0,P|8:93|9:64,1,58.4999973220826,14|0,3:3|0:0,0:0:0:0:
228,92,72356,2,0,P|219:123|219:153,1,58.4999973220826,4|0,0:2|0:0,0:0:0:0:
48,0,72570,6,0,P|54:51|118:73,1,116.999994644165,4|0,3:2|3:0,0:0:0:0:
294,127,72999,5,2,0:2:0:0:
301,121,73106,1,0,0:0:0:0:
314,85,73213,2,0,P|289:64|283:33,1,58.4999973220826
380,148,73427,2,0,L|414:33,1,116.999994644165,10|2,3:2|0:2,0:0:0:0:
413,35,73856,6,0,P|447:29|475:16,1,58.4999973220826,14|0,3:3|0:0,0:0:0:0:
512,249,74070,2,0,P|478:255|450:268,1,58.4999973220826,4|0,3:3|0:0,0:0:0:0:
512,96,74284,6,0,P|416:133|383:218,1,175.499991966248,8|0,3:2|0:0,0:0:0:0:
311,199,74713,6,0,P|302:167|266:150,1,58.4999973220826,6|0,3:2|0:0,0:0:0:0:
402,273,74927,1,2,0:2:0:0:
412,271,75034,1,0,0:0:0:0:
448,240,75142,6,0,P|464:211|450:173,1,58.4999973220826,6|0,3:2|0:0,0:0:0:0:
457,375,75356,6,0,P|489:366|506:330,1,58.4999973220826,2|0,0:2|0:0,0:0:0:0:
385,350,75570,6,0,P|352:353|316:368,1,58.4999973220826,12|0,3:3|0:0,0:0:0:0:
286,132,75784,2,0,P|315:128|342:120,1,58.4999973220826,4|0,3:3|0:0,0:0:0:0:
329,250,75999,5,8,3:2:0:0:
140,105,76213,2,0,P|188:133|214:212,1,116.999994644165,4|2,0:3|0:0,0:0:0:0:
136,319,76642,1,2,0:0:0:0:
136,319,76856,5,10,1:3:0:0:
129,310,76963,1,2,0:2:0:0:
123,325,77070,2,0,P|148:303|190:303,1,58.4999973220826,2|0,0:2|0:0,0:0:0:0:
294,186,77284,6,0,P|294:212|266:246,1,58.4999973220826,12|0,3:3|0:0,0:0:0:0:
150,229,77499,1,2,0:2:0:0:
295,313,77606,6,0,L|236:335,1,58.4999973220826,12|0,3:3|0:0,0:0:0:0:
96,194,77820,1,2,0:2:0:0:
102,202,77927,6,0,L|156:222,1,58.4999973220826,4|0,3:2|0:0,0:0:0:0:
188,155,78142,5,2,0:2:0:0:
210,136,78249,1,2,0:2:0:0:
196,98,78356,1,2,0:2:0:0:
247,56,78463,1,2,0:2:0:0:
200,0,78570,5,10,3:3:0:0:
250,198,78784,5,2,0:2:0:0:
250,198,78999,5,6,3:2:0:0:
316,201,79106,1,2,0:2:0:0:
342,148,79213,1,2,0:2:0:0:
386,150,79320,1,2,0:2:0:0:
433,90,79427,5,14,3:2:0:0:
429,80,79534,1,2,0:2:0:0:
439,74,79642,1,2,0:2:0:0:
434,57,79749,1,2,0:2:0:0:
371,12,79856,6,0,P|345:29|305:36,1,58.4999973220826,4|2,3:2|0:2,0:0:0:0:
379,192,80070,2,0,P|405:175|445:168,1,58.4999973220826,0|2,3:0|0:2,0:0:0:0:
267,124,80284,5,8,3:2:0:0:
243,107,80392,1,2,0:2:0:0:
193,125,80499,1,0,3:0:0:0:
156,83,80606,1,2,0:2:0:0:
95,130,80713,6,0,P|62:136|33:150,1,58.4999973220826,0|2,3:0|0:2,0:0:0:0:
75,296,80927,2,0,P|108:290|137:276,1,58.4999973220826,8|2,0:2|0:2,0:0:0:0:
185,209,81142,5,0,3:0:0:0:
258,201,81249,1,2,0:2:0:0:
280,257,81356,1,0,3:0:0:0:
322,257,81463,1,2,0:2:0:0:
368,319,81570,5,0,3:0:0:0:
511,289,81784,5,4,3:3:0:0:
510,297,81892,1,12,3:2:0:0:
447,348,81999,6,0,P|415:332|365:329,1,72,0|0,3:0|0:0,0:0:0:0:
484,174,82213,2,0,P|450:171|416:152,1,72,4|4,3:3|3:3,0:0:0:0:
271,373,82427,6,0,B|266:301|336:261|336:261|330:236,1,161.999995056153,14|0,3:3|0:0,0:0:0:0:
254,223,82642,2,0,P|236:191|249:224,1,107.999996704102,2|0,0:2|0:0,0:0:0:0:
301,74,82856,6,0,P|280:107|233:113,1,80.9999975280763,10|0,3:2|0:0,0:0:0:0:
210,298,83070,2,0,P|169:258|97:253,1,121.499996292114,6|0,0:3|0:0,0:0:0:0:
99,247,83284,5,2,0:2:0:0:
90,264,83392,1,2,0:0:0:0:
62,264,83499,1,2,0:0:0:0:
26,287,83606,1,2,0:0:0:0:
9,217,83713,6,0,P|7:187|-4:157,1,53.9999983520508,10|0,3:2|0:0,0:0:0:0:
169,122,83927,2,0,P|171:152|182:182,1,53.9999983520508,2|0,0:2|0:0,0:0:0:0:
16,28,84142,6,0,B|-15:29|-15:29|63:40|92:101,1,161.999995056153,14|0,3:3|0:0,0:0:0:0:
148,45,84356,2,0,P|139:11|143:44,1,107.999996704102,6|0,3:3|0:0,0:0:0:0:
101,169,84570,6,0,P|158:102|287:94,1,215.999993408203,10|0,3:2|0:0,0:0:0:0:
279,90,84999,6,0,P|304:63|300:26,1,62.9999980773926,6|0,3:3|0:0,0:0:0:0:
212,2,85213,2,0,P|224:18|225:44,1,36,2|0,0:2|0:0,0:0:0:0:
283,220,85427,6,0,P|257:193|262:156,1,62.9999980773926,6|0,3:2|0:0,0:0:0:0:
350,132,85641,2,0,P|338:148|337:174,1,36,2|0,3:2|0:0,0:0:0:0:
512,208,85856,6,0,P|444:214|368:275,1,161.999995056153,14|0,3:3|0:0,0:0:0:0:
339,338,86070,2,0,B|369:342|378:369|378:369|387:339|423:330,1,107.999996704102,4|0,0:2|0:0,0:0:0:0:
297,214,86284,6,0,P|283:244|302:277,1,62.9999980773926,6|0,3:2|0:0,0:0:0:0:
190,287,86499,6,0,P|201:318|238:328,1,62.9999980773926,2|0,3:2|0:0,0:0:0:0:
412,190,86713,5,2,0:2:0:0:
414,180,86820,1,0,0:0:0:0:
456,164,86927,1,2,0:2:0:0:
459,111,87034,1,0,0:0:0:0:
512,208,87142,6,0,P|454:146|348:132,1,188.999994232178,10|0,3:2|0:0,0:0:0:0:
310,71,87570,6,0,P|290:92|249:99,1,62.9999980773926,14|0,3:3|0:0,0:0:0:0:
222,274,87784,5,6,3:3:0:0:
208,283,87892,1,0,0:0:0:0:
170,252,87999,6,0,P|143:234|106:236,1,62.9999980773926,10|0,3:2|0:0,0:0:0:0:
188,17,88213,6,0,P|198:49|166:83,1,62.9999980773926,2|0,0:2|0:0,0:0:0:0:
32,183,88427,6,0,B|29:208|28:245|28:245|45:164|106:151|106:151|105:129|131:114,1,229.500004377365,6|0,3:2|0:0,0:0:0:0:
65,68,88856,2,0,B|-23:-2|-23:-2|61:93,1,229.500004377365,2|0,3:3|0:0,0:0:0:0:
183,167,89284,6,0,B|205:171|205:171|246:86|336:110,1,161.999995056153,14|0,3:3|0:0,0:0:0:0:
382,67,89499,2,0,B|357:50|363:19|363:19|341:44|304:30,1,107.999996704102,2|0,0:2|0:0,0:0:0:0:
296,181,89713,6,0,P|329:188|373:153,1,80.9999975280763,10|0,3:2|0:0,0:0:0:0:
497,33,89927,2,0,P|462:67|440:147,1,121.499996292114,6|0,0:3|0:0,0:0:0:0:
446,139,90142,5,2,0:2:0:0:
438,152,90249,1,2,0:0:0:0:
457,172,90356,1,2,0:0:0:0:
443,217,90463,1,2,3:2:0:0:
484,285,90570,6,0,P|454:290|424:306,1,53.9999983520508,10|0,3:2|0:0,0:0:0:0:
388,149,90784,2,0,P|418:144|448:128,1,53.9999983520508,2|0,0:2|0:0,0:0:0:0:
353,358,90999,6,0,B|324:296|249:292|249:292|245:310|224:322,1,161.999995056153,14|0,3:3|0:0,0:0:0:0:
171,263,91213,2,0,B|148:247|151:213|151:213|153:241|177:261,1,107.999996704102,6|0,3:3|0:0,0:0:0:0:
175,384,91427,6,0,P|186:306|280:203,1,215.999993408203,10|0,3:2|0:0,0:0:0:0:
274,205,91856,6,0,P|305:181|302:148,1,62.9999980773926,6|0,3:3|0:0,0:0:0:0:
235,136,92070,2,0,P|225:110|208:105,1,36,2|0,0:2|0:0,0:0:0:0:
85,9,92284,6,0,P|54:33|57:66,1,62.9999980773926,6|0,3:2|0:0,0:0:0:0:
124,78,92498,2,0,P|134:104|151:109,1,36,2|0,3:2|0:0,0:0:0:0:
242,35,92713,6,0,P|197:86|167:184,1,161.999995056153,14|0,3:3|0:0,0:0:0:0:
116,228,92927,2,0,B|141:240|144:271|144:271|160:246|197:247,1,107.999996704102,4|0,0:2|0:0,0:0:0:0:
83,160,93142,6,0,P|51:173|44:207,1,62.9999980773926,6|0,3:2|0:0,0:0:0:0:
0,278,93356,2,0,P|9:313|36:325,1,62.9999980773926,2|0,3:2|0:0,0:0:0:0:
99,371,93570,5,2,0:2:0:0:
124,375,93677,1,0,0:0:0:0:
155,342,93784,1,2,0:2:0:0:
202,361,93892,1,0,0:0:0:0:
252,295,93999,6,0,P|240:262|229:226,1,62.9999980773926,10|0,3:2|0:0,0:0:0:0:
61,353,94213,2,0,P|51:322|40:293,1,62.9999980773926,8|0,3:3|0:0,0:0:0:0:
119,155,94427,6,0,P|140:181|178:184,1,62.9999980773926,14|0,3:3|0:0,0:0:0:0:
271,20,94642,1,6,3:3:0:0:
284,26,94749,1,0,0:0:0:0:
321,18,94856,6,0,P|341:44|335:84,1,62.9999980773926,10|0,3:2|0:0,0:0:0:0:
63,101,95070,2,0,P|63:67|92:45,1,62.9999980773926,2|0,0:2|0:0,0:0:0:0:
365,154,95284,6,0,P|296:166|232:244,1,153.000002918243,6|0,3:2|0:0,0:0:0:0:
166,248,95606,5,0,0:0:0:0:
170,253,95713,2,0,P|282:276|356:367,1,229.500004377365,2|0,3:3|0:0,0:0:0:0:
417,322,96142,6,0,P|464:309|475:219,1,144,8|0,3:3|0:0,0:0:0:0:
478,224,96784,1,2,0:2:0:0:
344,185,96999,5,10,0:2:0:0:
339,195,97106,1,0,0:0:0:0:
349,196,97213,1,2,0:2:0:0:
351,273,97427,6,0,P|346:291|335:318,1,36,2|0,0:2|0:0,0:0:0:0:
218,271,97642,2,0,P|222:252|234:226,1,36,2|0,0:2|0:0,0:0:0:0:
304,212,97856,6,0,B|296:138|240:168|236:87,1,144,2|2,1:2|0:2,0:0:0:0:
448,1,98713,6,0,B|444:77|388:47|380:121,1,144,10|2,0:2|0:2,0:0:0:0:
428,186,99356,5,0,0:0:0:0:
435,197,99463,1,0,0:0:0:0:
434,183,99570,1,6,3:2:0:0:
302,122,99999,5,2,0:2:0:0:
213,172,100427,5,10,0:2:0:0:
194,245,100856,5,2,0:2:0:0:
221,314,101284,6,0,P|192:281|90:262,1,144,2|2,1:2|0:2,0:0:0:0:
25,379,102142,5,10,0:2:0:0:
20,371,102356,1,2,0:2:0:0:
90,334,102570,5,2,0:2:0:0:
40,216,102784,1,2,0:2:0:0:
110,185,102999,5,2,1:2:0:0:
124,168,103106,1,2,0:2:0:0:
109,142,103213,1,2,0:2:0:0:
147,103,103320,6,0,P|155:61|181:34,1,72,2|2,0:2|0:2,0:0:0:0:
112,0,103642,1,2,0:2:0:0:
231,93,103856,5,10,0:2:0:0:
241,180,104070,5,2,0:2:0:0:
207,246,104284,5,10,0:2:0:0:
196,265,104392,1,10,0:2:0:0:
197,245,104499,1,10,0:2:0:0:
271,350,104713,6,0,P|253:341|226:337,1,36,10|0,3:3|0:0,0:0:0:0:
336,286,104927,5,2,0:2:0:0:
346,277,105034,2,0,P|339:257|323:235,1,36,2|0,1:2|0:0,0:0:0:0:
430,289,105249,6,0,P|439:271|443:244,1,36,2|8,0:2|0:2,0:0:0:0:
479,350,105463,5,0,0:0:0:0:
482,360,105570,5,10,1:2:0:0:
451,375,105677,1,2,0:2:0:0:
401,360,105784,1,2,0:2:0:0:
351,382,105892,1,2,0:2:0:0:
295,334,105999,5,2,0:2:0:0:
296,327,106213,5,2,0:2:0:0:
233,257,106427,5,2,1:2:0:0:
238,202,106534,1,0,0:0:0:0:
197,179,106642,1,0,0:0:0:0:
202,154,106749,1,0,0:0:0:0:
192,143,106856,6,0,P|167:138|148:129,3,36,2|0|0|0,0:2|0:0|0:0|0:0,0:0:0:0:
126,200,107284,5,10,0:2:0:0:
118,207,107392,1,0,0:0:0:0:
127,216,107499,1,0,0:0:0:0:
116,228,107606,1,0,0:0:0:0:
117,242,107713,6,0,P|92:246|70:261,3,36,2|0|0|0,0:2|0:0|0:0|0:0,0:0:0:0:
7,213,108142,5,0,3:0:0:0:
1,201,108249,1,2,0:2:0:0:
23,171,108356,1,2,0:2:0:0:
9,133,108463,1,2,0:2:0:0:
62,100,108570,5,2,0:2:0:0:
22,57,108677,1,2,0:2:0:0:
67,11,108784,1,2,0:2:0:0:
107,30,108892,1,2,0:2:0:0:
129,16,108999,5,8,0:2:0:0:
462,372,109856,6,0,B|493:320|496:132|268:85|212:244|337:327|384:277,1,445.499986404419,14|0,3:2|0:0,0:0:0:0:
378,282,110499,5,2,0:2:0:0:
469,215,110713,6,0,B|461:162|516:186|512:131,1,94.499997116089,10|0,0:2|0:0,0:0:0:0:
457,94,110927,1,2,0:2:0:0:
450,102,111034,1,0,0:0:0:0:
443,93,111142,2,0,P|409:90|375:76,1,62.9999980773926,2|0,0:2|0:0,0:0:0:0:
330,28,111356,1,2,0:2:0:0:
350,147,111463,1,0,0:0:0:0:
292,96,111570,6,0,P|243:99|136:240,1,216,2|0,3:2|0:0,0:0:0:0:
128,289,111999,6,0,P|162:291|194:263,1,72,12|0,3:3|0:0,0:0:0:0:
57,120,112213,2,0,P|31:142|29:184,1,72
3,299,112427,5,8,3:2:0:0:
121,183,112642,6,0,B|133:117|70:124|83:48,1,144,12|0,3:3|0:0,0:0:0:0:
25,9,112963,5,0,0:0:0:0:
11,12,113070,1,10,0:2:0:0:
12,41,113177,1,10,0:2:0:0:
0,83,113284,6,0,P|121:88|216:12,1,242.999992584229,14|2,3:3|3:2,0:0:0:0:
219,24,113713,6,0,P|256:42|312:45,1,80.9999975280763
176,171,113927,2,0,P|216:176|252:193,1,80.9999975280763,2|0,3:2|0:0,0:0:0:0:
352,126,114142,2,0,B|368:35|444:88|452:-3,1,161.999995056153,10|0,3:2|0:0,0:0:0:0:
496,160,114570,6,0,P|479:178|475:209,1,53.9999983520508,2|0,0:2|0:0,0:0:0:0:
440,275,114784,2,0,P|411:256|414:233,1,53.9999983520508,2|0,0:2|0:0,0:0:0:0:
343,212,114999,5,0,3:0:0:0:
325,205,115106,1,2,0:2:0:0:
301,251,115213,1,0,3:0:0:0:
234,245,115320,1,2,0:2:0:0:
196,307,115427,5,0,3:0:0:0:
188,302,115534,1,0,0:0:0:0:
153,312,115642,1,2,0:2:0:0:
110,280,115749,1,0,0:0:0:0:
56,338,115856,5,10,3:2:0:0:
161,179,116070,5,10,3:3:0:0:
253,353,116284,6,0,P|276:323|262:274,1,80.9999975280763,2|0,3:2|0:0,0:0:0:0:
282,206,116499,1,10,3:2:0:0:
198,300,116606,1,10,3:2:0:0:
360,283,116713,6,0,P|269:233|159:215,1,202.499993820191,10|0,3:2|0:0,0:0:0:0:
173,215,117034,5,2,3:2:0:0:
95,162,117142,2,0,P|60:138|68:99,1,80.9999975280763
228,11,117356,6,0,B|224:92|174:59|165:141,1,148.50000453186,2|0,3:2|0:0,0:0:0:0:
165,139,117570,6,0,P|161:91|122:58,1,90,10|2,3:2|0:2,0:0:0:0:
117,276,117999,5,2,0:2:0:0:
122,289,118106,1,2,0:2:0:0:
106,319,118213,1,2,0:2:0:0:
50,319,118320,1,0,0:0:0:0:
2,375,118427,6,0,B|44:245|138:210|138:210|172:229|203:203,1,270,4|0,3:2|0:0,0:0:0:0:
176,140,118856,1,0,3:0:0:0:
87,159,118963,2,0,P|178:159|264:207,1,180
322,176,119284,5,8,3:2:0:0:
470,88,119499,5,0,0:0:0:0:
483,78,119606,1,0,0:0:0:0:
457,36,119713,6,0,P|428:34|385:18,1,72,4|0,3:2|0:0,0:0:0:0:
411,197,119927,2,0,P|377:184|341:180,1,72,4|0,0:2|0:0,0:0:0:0:
305,99,120142,5,2,3:2:0:0:
256,74,120249,1,2,0:2:0:0:
199,101,120356,1,2,0:2:0:0:
205,167,120463,1,2,0:2:0:0:
150,216,120570,5,2,3:2:0:0:
139,219,120677,1,2,0:2:0:0:
140,249,120784,1,2,0:2:0:0:
100,283,120892,1,2,0:2:0:0:
114,352,120999,6,0,P|147:358|171:371,1,58.4999973220826,8|2,3:2|0:2,0:0:0:0:
211,291,121213,5,4,3:2:0:0:
217,301,121320,1,0,0:0:0:0:
256,304,121427,5,2,0:2:0:0:
296,362,121534,1,0,3:0:0:0:
347,332,121642,2,0,P|374:302|428:296,1,87.749995983124,2|0,0:2|0:0,0:0:0:0:
427,287,121856,5,6,3:2:0:0:
367,249,121963,1,2,3:2:0:0:
383,178,122070,2,0,P|411:189|448:195,1,58.4999973220826,2|0,3:2|0:0,0:0:0:0:
384,362,122284,6,0,P|351:344|348:314,1,58.4999973220826,2|0,3:2|0:0,0:0:0:0:
512,187,122499,2,0,P|514:223|488:246,1,72,4|0,3:2|0:0,0:0:0:0:
305,196,122713,6,0,B|292:85|215:141|207:10,1,216,6|0,3:2|0:0,0:0:0:0:
216,8,123142,5,2,3:2:0:0:
293,66,123284,5,2,0:2:0:0:
244,144,123427,5,2,0:2:0:0:
305,196,123570,6,0,P|230:206|132:312,1,216,6|0,3:2|0:0,0:0:0:0:
135,302,123999,6,0,P|166:304|190:318,1,53.9999983520508
158,189,124213,2,0,P|182:200|208:200,1,53.9999983520508
257,349,124427,5,8,3:2:0:0:
79,216,124642,5,4,3:3:0:0:
53,189,124749,1,4,3:3:0:0:
81,139,124856,1,4,3:3:0:0:
34,91,124963,1,0,3:0:0:0:
84,42,125070,5,0,3:0:0:0:
78,33,125177,1,0,3:0:0:0:
81,139,125284,6,0,P|106:114|152:117,1,72,6|6,3:2|3:3,0:0:0:0:
245,44,125499,1,6,3:3:0:0:
163,246,125606,6,0,P|133:218|135:189,1,72,6|6,3:2|3:3,0:0:0:0:
169,38,125820,1,6,3:3:0:0:
342,221,125927,6,0,P|303:185|236:181,1,108,6|0,3:2|0:0,0:0:0:0:
217,114,126142,1,8,3:2:0:0:
217,114,126356,5,2,0:2:0:0:
240,97,126463,1,2,0:2:0:0:
300,121,126570,1,2,0:2:0:0:
346,83,126677,1,2,0:2:0:0:
402,70,126784,1,2,0:2:0:0:
406,13,126892,1,2,0:2:0:0:
473,49,126999,6,0,P|409:94|384:199,1,180,14|0,3:3|0:0,0:0:0:0:
375,197,127320,5,2,3:2:0:0:
383,210,127427,2,0,P|421:213|460:229,1,72,2|0,0:2|0:0,0:0:0:0:
470,124,127642,2,0,P|434:121|400:109,1,72,0|0,3:0|0:0,0:0:0:0:
312,229,127856,1,8,3:2:0:0:
369,383,128070,6,0,B|349:332|418:338|398:278,1,108,2|0,0:2|0:0,0:0:0:0:
392,281,128284,1,2,0:2:0:0:
235,234,128499,6,0,B|229:179|170:216|161:153,1,108,2|0,0:2|0:0,0:0:0:0:
168,153,128713,1,2,3:2:0:0:
192,88,128820,1,2,0:2:0:0:
139,40,128927,2,0,P|102:35|53:17,1,72,0|2,3:0|0:2,0:0:0:0:
47,148,129142,2,0,P|84:153|133:171,1,72,0|2,3:0|0:2,0:0:0:0:
240,68,129356,1,2,0:2:0:0:
256,56,129463,1,2,0:2:0:0:
232,0,129570,5,10,3:2:0:0:
232,0,129784,5,2,3:2:0:0:
176,111,129892,2,0,P|216:153|240:289,1,180,2|0,3:2|0:0,0:0:0:0:
231,336,130213,2,0,B|251:338|259:353|259:353|266:334|286:326,1,72,2|2,0:2|0:2,0:0:0:0:
272,205,130427,6,0,L|288:162,2,36,6|0|0,3:2|3:0|3:0,0:0:0:0:
172,270,130642,1,0,3:0:0:0:
208,166,130749,6,0,L|188:124,2,36,6|0|0,3:2|3:0|3:0,0:0:0:0:
100,282,130963,1,0,3:2:0:0:
51,334,131070,5,4,3:2:0:0:
51,334,131177,1,0,0:0:0:0:
74,207,131284,1,8,0:2:0:0:
183,282,131499,6,0,P|242:288|318:339,1,128.249996575356,2|0,0:2|0:0,0:0:0:0:
309,314,131713,5,2,0:2:0:0:
337,320,131820,1,2,0:2:0:0:
393,275,131927,6,0,P|374:244|385:213,1,67.5000025749208,2|2,0:2|0:2,0:0:0:0:
416,369,132142,6,0,P|421:262|499:155,1,229.500004377365,4|0,3:2|3:0,0:0:0:0:
440,113,132570,6,0,P|405:132|358:140,1,76.5000014591217,0|0,3:0|0:0,0:0:0:0:
487,268,132784,2,0,P|449:276|416:294,1,76.5000014591217,0|0,0:0|3:0,0:0:0:0:
305,234,132999,6,0,P|290:176|221:146,1,114.750002188683,8|0,3:2|0:0,0:0:0:0:
220,83,133213,1,0,0:0:0:0:
224,77,133320,1,0,0:0:0:0:
215,220,133427,6,0,B|186:101|312:123|291:8,1,229.500004377365,2|0,3:3|0:0,0:0:0:0:
292,17,133856,5,4,3:2:0:0:
246,6,133963,1,2,0:2:0:0:
203,45,134070,1,2,0:2:0:0:
132,29,134177,1,2,0:2:0:0:
98,98,134284,5,12,3:2:0:0:
106,108,134392,1,2,0:2:0:0:
86,125,134499,1,2,0:2:0:0:
99,150,134606,1,2,0:2:0:0:
59,208,134713,6,0,P|21:215|-10:232,1,67.5000025749208
27,350,134927,2,0,P|65:343|96:326,1,67.5000025749208,0|2,3:0|0:2,0:0:0:0:
145,258,135142,5,10,3:2:0:0:
166,231,135249,1,2,0:2:0:0:
220,233,135356,1,6,3:3:0:0:
256,174,135463,1,2,0:2:0:0:
206,116,135570,6,0,P|172:104|129:97,1,67.5000025749208,6|2,3:2|0:2,0:0:0:0:
163,0,135784,2,0,P|197:12|240:19,1,67.5000025749208,2|2,0:2|0:2,0:0:0:0:
273,76,135999,5,10,3:2:0:0:
328,65,136106,1,2,0:2:0:0:
377,120,136213,1,2,0:2:0:0:
453,102,136320,1,0,3:0:0:0:
512,174,136427,6,0,P|421:203|354:290,1,202.500007724762,2|0,0:3|0:0,0:0:0:0:
356,284,136856,6,0,P|329:265|336:223,1,53.9999983520508,4|0,0:2|0:0,0:0:0:0:
250,265,136999,6,0,P|244:232|279:207,1,53.9999983520508,2|0,0:2|0:0,0:0:0:0:
205,167,137142,5,2,0:2:0:0:
152,354,137284,6,0,B|133:280|82:323|64:230,1,148.50000453186,14|0,3:3|0:0,0:0:0:0:
12,187,137499,2,0,B|33:170|30:143|30:143|46:166|77:162,1,99.0000030212403,2|0,0:2|0:0,0:0:0:0:
79,384,137713,6,0,P|57:352|69:306,1,80.9999975280763,10|0,3:2|0:0,0:0:0:0:
142,233,137927,2,0,P|176:187|264:173,1,148.50000453186,6|0,0:3|0:0,0:0:0:0:
272,162,138142,5,2,0:2:0:0:
262,123,138249,1,0,0:0:0:0:
312,87,138356,1,0,0:0:0:0:
288,32,138463,1,0,0:0:0:0:
290,22,138570,6,0,P|261:37|218:43,1,72,10|0,3:2|0:0,0:0:0:0:
332,225,138784,2,0,P|296:230|264:246,1,72,2|0,0:2|0:0,0:0:0:0:
193,176,138999,6,0,P|160:130|49:112,1,148.50000453186,14|0,3:3|0:0,0:0:0:0:
53,39,139213,2,0,P|8:53|-6:96,1,80.9999975280763,6|0,3:3|0:0,0:0:0:0:
27,245,139427,6,0,B|75:243|88:292|88:292|86:242|130:218,1,170.999995433807,10|0,3:2|0:0,0:0:0:0:
126,219,139856,6,0,P|112:179|131:145,1,72,6|0,3:3|0:0,0:0:0:0:
225,156,140070,2,0,P|198:166|188:194,1,49.5000015106202,2|0,0:2|0:0,0:0:0:0:
344,334,140284,6,0,P|344:298|320:272,1,72,6|0,3:2|0:0,0:0:0:0:
228,295,140499,2,0,P|251:301|264:322,1,49.5000015106202,2|0,3:2|0:0,0:0:0:0:
203,367,140713,6,0,P|226:269|266:217,1,161.999995056153,14|0,3:3|0:0,0:0:0:0:
231,154,140927,2,0,P|208:124|223:156,1,107.999996704102,4|0,0:2|0:0,0:0:0:0:
219,133,141142,6,0,P|191:104|198:68,1,72,6|0,3:2|0:0,0:0:0:0:
275,52,141356,2,0,P|294:72|295:96,1,49.5000015106202,2|0,3:2|0:0,0:0:0:0:
319,177,141570,5,2,0:2:0:0:
337,193,141677,1,0,0:0:0:0:
387,185,141784,1,2,0:2:0:0:
425,227,141892,1,0,0:0:0:0:
491,205,141999,6,0,P|476:170|472:128,1,72,10|0,3:2|0:0,0:0:0:0:
287,254,142213,2,0,P|282:218|267:185,1,72
462,341,142427,6,0,B|471:290|420:262|419:282|353:256|373:192,1,175.499991966248,14|0,3:3|0:0,0:0:0:0:
377,138,142642,2,0,P|387:106|383:139,1,94.499997116089,6|0,3:3|0:0,0:0:0:0:
396,290,142856,6,0,P|356:300|323:323,1,72,10|0,3:2|0:0,0:0:0:0:
268,115,143070,2,0,P|308:105|341:82,1,72,2|0,0:2|0:0,0:0:0:0:
298,384,143284,6,0,P|263:318|86:259,1,256.499993150711,6|0,3:2|0:0,0:0:0:0:
67,318,143713,6,0,B|48:385|48:385|178:286|178:286|167:261|190:233,1,283.499991348267,2|0,3:3|0:0,0:0:0:0:
260,245,144142,6,0,B|244:156|193:202|187:92,1,161.999995056153,14|0,3:3|0:0,0:0:0:0:
207,39,144356,2,0,P|212:6|209:40,1,107.999996704102,2|0,0:2|0:0,0:0:0:0:
169,238,144570,6,0,P|228:170|315:164,1,161.999995056153,10|0,3:2|0:0,0:0:0:0:
328,96,144784,2,0,P|379:113|388:169,1,90,6|0,0:3|0:0,0:0:0:0:
459,198,144999,5,2,0:2:0:0:
468,227,145106,1,0,0:0:0:0:
429,262,145213,1,0,0:0:0:0:
444,312,145320,1,0,0:0:0:0:
432,319,145427,6,0,P|399:300|344:294,1,72,10|0,3:2|0:0,0:0:0:0:
470,174,145642,2,0,P|434:166|403:148,1,72,2|0,0:2|0:0,0:0:0:0:
270,370,145856,6,0,P|258:300|214:213,1,161.999995056153,14|0,3:3|0:0,0:0:0:0:
156,255,146070,2,0,P|109:221|45:235,1,107.999996704102,6|0,3:3|0:0,0:0:0:0:
278,176,146284,6,0,P|308:155|303:42,1,153.000002918243,10|0,3:2|0:0,0:0:0:0:
127,13,146713,6,0,P|96:45|108:78,1,72,6|0,3:3|0:0,0:0:0:0:
49,115,146927,2,0,P|72:139|108:135,1,49.5000015106202,2|0,0:2|0:0,0:0:0:0:
307,57,147142,6,0,P|262:57|247:89,1,72,6|0,3:2|0:0,0:0:0:0:
179,73,147356,2,0,P|178:106|206:128,1,49.5000015106202,2|0,3:2|0:0,0:0:0:0:
270,186,147570,6,0,P|344:213|402:297,1,161.999995056153,14|0,3:3|0:0,0:0:0:0:
425,343,147784,2,0,B|387:345|377:367|377:367|379:341|344:326,1,107.999996704102,4|0,0:2|0:0,0:0:0:0:
394,276,147999,6,0,P|396:237|415:191,1,72,6|0,3:2|0:0,0:0:0:0:
257,174,148213,2,0,P|255:213|236:259,1,72,2|0,3:2|0:0,0:0:0:0:
296,384,148427,5,2,0:2:0:0:
276,356,148534,1,0,0:0:0:0:
210,349,148642,1,2,0:2:0:0:
210,281,148749,1,0,0:0:0:0:
140,254,148856,6,0,P|104:262|58:289,1,76.5000014591217,10|0,3:2|0:0,0:0:0:0:
23,88,149070,2,0,P|59:80|105:53,1,76.5000014591217,8|0,3:3|0:0,0:0:0:0:
111,184,149284,6,0,P|130:131|237:93,1,161.999995056153,14|0,3:3|0:0,0:0:0:0:
242,25,149499,2,0,P|292:30|317:81,1,107.999996704102,6|0,3:3|0:0,0:0:0:0:
199,222,149713,6,0,P|192:182|175:139,1,80.9999975280763,10|0,3:2|0:0,0:0:0:0:
392,90,149927,2,0,P|399:130|416:173,1,80.9999975280763,2|0,0:2|0:0,0:0:0:0:
390,343,150142,6,0,B|403:293|348:265|364:282|301:256|322:203,1,161.999995056153,6|0,3:2|0:0,0:0:0:0:
265,165,150356,1,0,0:0:0:0:
265,165,150463,1,0,0:0:0:0:
281,380,150570,6,0,B|253:295|353:271|341:292|456:244|410:162,1,283.499991348267,2|0,3:3|0:0,0:0:0:0:
468,121,150999,5,12,3:3:0:0:
345,94,151213,5,8,3:0:0:0:
189,57,151427,5,4,3:2:0:0:
