osu file format v14

[General]
AudioFilename: audio.mp3
AudioLeadIn: 0
PreviewTime:33570
Countdown: 0
SampleSet: Soft
StackLeniency: 0.3
Mode: 0
LetterboxInBreaks: 0
WidescreenStoryboard: 1

[Editor]
DistanceSpacing: 0.8
BeatDivisor: 2
GridSize: 32
TimelineZoom: 2.699999

[Metadata]
Title:ABC feat. Sophia Black
TitleUnicode:ABC feat. Sophia Black
Artist:Polyphia
ArtistUnicode:Polyphia
Creator:Ducky-
Version:Normal
Source:
Tags:japanese english pop prog metal vocal rock tim henson and the boys remember that you will die progressive clay gober aeschliman scott lepage PokaTetris Agllius xytoper kyrian
BeatmapID:4046572
BeatmapSetID:1941380

[Difficulty]
HPDrainRate:3
CircleSize:3
OverallDifficulty:4
ApproachRate:5
SliderMultiplier:1.3
SliderTickRate:1

[Events]
//Background and Video events
0,0,"78036181_p0 (1).jpg",0,0
//Break Periods
//Storyboard Layer 0 (Background)
//Storyboard Layer 1 (Fail)
//Storyboard Layer 2 (Pass)
//Storyboard Layer 3 (Foreground)
//Storyboard Layer 4 (Overlay)
//Storyboard Sound Samples

[TimingPoints]
142,428.571428571429,4,2,1,40,1,0
13856,-100,4,2,1,60,0,0
20713,-100,4,2,1,60,0,0
27142,-100,4,2,2,60,0,0
27570,-100,4,2,1,60,0,0
31856,-100,4,2,1,50,0,0
32713,-100,4,2,2,40,0,0
33570,-100,4,2,2,40,0,0
34427,-100,4,2,2,80,0,1
34856,-100,4,2,1,80,0,1
35070,-100,4,2,2,80,0,1
35284,-100,4,2,1,80,0,1
41284,-100,4,2,2,80,0,1
41713,-100,4,2,1,80,0,1
41927,-100,4,2,2,80,0,1
42142,-100,4,2,1,80,0,1
48142,-100,4,2,2,60,0,0
48356,-100,4,2,1,60,0,0
53284,-100,4,2,2,60,0,0
53499,-100,4,2,1,60,0,0
54999,-100,4,2,1,60,0,0
63142,-100,4,2,1,60,0,0
65284,-100,4,2,1,60,0,0
66142,-100,4,2,1,50,0,0
66999,-100,4,2,2,40,0,0
67856,-100,4,2,1,40,0,0
68713,-100,4,2,2,80,0,1
69142,-100,4,2,1,80,0,1
69356,-100,4,2,2,80,0,1
69570,-100,4,2,1,80,0,1
75570,-100,4,2,2,80,0,1
75999,-100,4,2,1,80,0,1
76213,-100,4,2,2,80,0,1
76427,-100,4,2,1,80,0,1
82427,-100,4,2,2,80,0,0
82642,-100,4,2,1,80,0,0
83070,-100,4,2,2,80,0,0
83284,-100,4,2,1,80,0,0
89284,-100,4,2,2,80,0,0
89499,-100,4,2,1,80,0,0
89927,-100,4,2,2,80,0,0
90142,-100,4,2,1,80,0,0
96142,-100,4,2,1,80,0,0
106427,-100,4,2,1,80,0,0
109856,-100,4,2,1,80,0,0
110713,-100,4,2,1,80,0,0
119713,-100,4,2,2,80,0,0
120142,-100,4,2,1,80,0,0
121856,-100,4,2,2,80,0,0
122713,-100,4,2,1,80,0,0
123570,-100,4,2,1,80,0,0
124427,-100,4,2,1,80,0,0
125284,-100,4,2,1,100,0,0
126142,-100,4,2,1,80,0,0
133856,-100,4,2,1,100,0,0
134284,-100,4,2,1,90,0,0
134713,-100,4,2,1,80,0,0
135142,-100,4,2,1,100,0,0
135570,-100,4,2,1,90,0,0
135999,-100,4,2,1,80,0,0
136856,-100,4,2,1,80,0,0
137284,-100,4,2,2,80,0,0
137499,-100,4,2,1,80,0,0
137927,-100,4,2,2,80,0,0
138142,-100,4,2,1,80,0,0
144142,-100,4,2,2,80,0,0
144356,-100,4,2,1,80,0,0
144784,-100,4,2,2,80,0,0
144999,-100,4,2,1,80,0,0
150999,-100,4,2,1,80,0,0

[Colours]
Combo1 : 199,202,205
Combo2 : 156,143,192

[HitObjects]
0,384,142,6,0,L|10:232,1,130,0|0,3:0|0:0,0:0:0:0:
47,157,999,1,2,0:2:0:0:
75,57,1427,1,2,0:2:0:0:
175,84,1856,2,0,P|214:89|286:20,1,130,2|2,1:2|0:2,0:0:0:0:
365,97,2713,2,0,P|450:126|466:173,1,130,2|2,1:2|0:2,0:0:0:0:
419,251,3570,6,0,P|359:274|295:318,2,130,2|2|2,3:2|0:2|0:2,0:0:0:0:
370,159,4856,1,2,0:2:0:0:
271,192,5284,2,0,P|201:187|187:121,1,130,2|2,3:2|0:2,0:0:0:0:
99,73,6142,1,2,0:2:0:0:
13,131,6570,1,2,0:2:0:0:
42,230,6999,6,0,P|35:275|25:338,2,97.5,2|0|2,1:2|0:0|1:2,0:0:0:0:
194,198,8284,2,1,P|196:235|206:272,1,65,2|2,1:2|0:2,0:0:0:0:
209,313,8713,6,0,P|262:298|309:291,1,97.5,2|2,3:2|0:2,0:0:0:0:
351,311,9249,1,2,0:2:0:0:
394,246,9570,2,1,P|395:194|324:145,1,130,2|2,1:2|0:2,0:0:0:0:
247,196,10427,6,1,P|211:184|180:176,1,65,2|2,1:2|0:2,0:0:0:0:
150,137,10856,1,2,1:2:0:0:
237,67,11284,2,1,P|267:56|300:47,1,65,2|2,1:2|0:2,0:0:0:0:
341,77,11713,1,2,1:2:0:0:
425,137,12142,2,1,P|419:178|412:223,1,65,2|2,1:2|0:2,0:0:0:0:
395,249,12570,2,1,P|354:243|309:236,1,65,2|2,1:2|0:2,0:0:0:0:
288,270,12999,2,1,P|254:278|137:313,1,130,2|2,1:2|0:2,0:0:0:0:
64,270,13856,6,0,P|52:225|39:188,1,65,2|2,3:2|0:2,0:0:0:0:
50,155,14284,2,1,P|112:127|112:48,1,130,10|2,3:2|0:2,0:0:0:0:
216,24,15142,2,0,P|252:37|295:44,1,65,10|0,3:2|0:0,0:0:0:0:
290,92,15570,2,0,P|357:100|411:38,1,130,2|10,0:2|3:2,0:0:0:0:
480,131,16427,6,1,P|457:180|440:264,1,130,2|10,3:2|3:2,0:0:0:0:
470,296,17070,1,2,0:2:0:0:
457,346,17284,1,8,3:3:0:0:
357,377,17713,1,10,3:2:0:0:
256,351,18142,6,1,P|242:301|241:267,1,65,4|4,3:3|0:3,0:0:0:0:
263,241,18570,2,1,P|276:193|295:169,1,65,10|4,3:2|3:3,0:0:0:0:
334,167,18999,1,8,3:3:0:0:
295,70,19427,2,1,P|284:33|245:24,1,65,10|2,3:2|0:2,0:0:0:0:
211,33,19856,2,0,P|179:24|148:14,2,65,2|2|8,3:2|0:2|3:2,0:0:0:0:
154,120,20713,6,0,P|163:161|160:258,1,130,4|8,3:2|3:2,0:0:0:0:
136,294,21356,1,2,0:2:0:0:
166,335,21570,2,1,P|208:324|246:320,1,65,2|4,3:2|3:3,0:0:0:0:
272,350,21999,1,10,3:2:0:0:
358,292,22427,6,0,P|417:267|455:217,1,130,2|8,3:2|3:2,0:0:0:0:
472,166,23070,1,2,3:2:0:0:
429,136,23284,2,0,L|413:50,1,65,2|4,3:2|3:3,0:0:0:0:
430,21,23713,1,10,3:2:0:0:
327,41,24142,6,0,P|290:49|251:52,1,65,2|4,3:2|3:3,0:0:0:0:
213,66,24570,2,0,P|225:104|228:137,1,65,8|4,3:2|3:3,0:0:0:0:
202,174,24999,1,2,3:2:0:0:
201,277,25427,1,8,3:2:0:0:
172,320,25642,1,2,0:2:0:0:
124,340,25856,2,1,P|92:328|45:326,1,65,0|2,3:0|3:2,0:0:0:0:
19,293,26284,2,1,P|22:253|22:209,1,65,8|2,3:2|3:2,0:0:0:0:
50,184,26713,2,0,P|49:121|45:40,1,130,2|12,3:2|3:2,0:0:0:0:
147,32,27570,5,10,3:3:0:0:
249,16,27999,1,10,3:2:0:0:
305,103,28427,2,1,P|369:109|432:126,1,130,2|10,0:2|3:2,0:0:0:0:
464,167,29070,1,2,0:2:0:0:
438,212,29284,1,2,0:2:0:0:
484,305,29713,1,10,3:2:0:0:
388,347,30142,6,0,P|348:356|253:370,2,130,2|10|2,3:2|3:2|3:2,0:0:0:0:
491,166,31856,1,2,3:2:0:0:
293,100,32713,2,0,B|142:108|239:-1|68:0,1,260,4|0,0:2|0:0,0:0:0:0:
31,203,34427,5,12,3:3:0:0:
43,260,34642,1,4,3:3:0:0:
98,278,34856,1,8,3:2:0:0:
176,364,35284,2,0,P|228:354|255:345,1,65,2|2,0:2|0:2,0:0:0:0:
292,376,35713,2,0,P|344:366|371:357,1,65,10|2,3:3|0:2,0:0:0:0:
402,328,36142,5,12,3:3:0:0:
411,271,36356,1,4,3:3:0:0:
393,215,36570,1,8,3:2:0:0:
289,160,36999,2,0,P|275:99|269:69,1,65,6|0,3:3|0:0,0:0:0:0:
300,44,37427,1,4,3:2:0:0:
411,8,37856,5,14,3:3:0:0:
459,40,38070,1,4,0:2:0:0:
487,91,38284,1,4,3:2:0:0:
417,185,38713,1,2,0:2:0:0:
301,165,39142,2,0,P|269:170|238:182,1,65,10|2,3:2|0:2,0:0:0:0:
183,164,39570,5,14,3:3:0:0:
177,105,39784,1,4,3:3:0:0:
213,58,39999,1,8,3:2:0:0:
101,23,40427,2,0,P|42:33|19:56,1,65,6|2,3:2|0:2,0:0:0:0:
7,84,40856,2,0,P|27:134|27:175,1,65,6|2,3:2|0:2,0:0:0:0:
1,195,41284,5,12,3:3:0:0:
19,250,41499,1,4,3:3:0:0:
51,298,41713,2,0,L|36:373,2,65,8|4|2,3:2|0:3|0:0,0:0:0:0:
160,338,42570,2,1,P|186:331|227:325,1,65,10|2,1:3|0:2,0:0:0:0:
277,347,42999,6,0,P|298:303|308:240,1,97.5,12|12,3:3|3:3,0:0:0:0:
277,205,43534,1,2,0:2:0:0:
355,165,43856,2,1,P|408:155|414:71,1,130,2|10,0:2|3:3,0:0:0:0:
333,15,44713,6,1,P|293:27|254:32,1,65,6|2,3:2|0:2,0:0:0:0:
217,57,45142,2,1,P|196:45|139:46,1,65,14|2,3:2|0:2,0:0:0:0:
127,92,45570,2,1,P|144:126|167:227,2,130,4|8|0,3:2|3:2|3:0,0:0:0:0:
90,45,46642,1,8,0:2:0:0:
33,57,46856,2,1,P|13:91|12:128,1,65,0|0,3:0|3:0,0:0:0:0:
26,172,47284,2,1,P|48:221|59:326,1,130,0|0,3:0|3:0,0:0:0:0:
151,369,48142,6,0,P|212:347|282:342,1,130,12|8,3:3|3:2,0:0:0:0:
452,230,49427,2,0,P|469:140|483:73,1,130,8|0,3:2|0:0,0:0:0:0:
395,36,50284,2,0,P|335:45|307:47,1,65,8|0,3:2|0:0,0:0:0:0:
284,21,50713,2,0,P|225:64|240:124,1,130,10|10,3:3|3:2,0:0:0:0:
179,203,51570,6,0,P|116:203|82:131,1,130,14|8,3:3|3:2,0:0:0:0:
24,64,52427,2,1,P|36:30|67:3,1,65,0|0,0:0|0:0,0:0:0:0:
108,10,52856,2,1,P|141:22|169:64,1,65,8|0,3:2|0:0,0:0:0:0:
192,84,53284,6,0,P|232:83|299:18,1,130,12|8,3:3|3:2,0:0:0:0:
400,16,54142,2,0,P|415:59|420:92,1,65,4|0,3:3|3:0,0:0:0:0:
459,110,54570,1,8,3:2:0:0:
398,194,54999,6,1,P|362:200|318:218,1,65,6|2,3:2|0:0,0:0:0:0:
292,238,55427,2,0,P|310:283|311:318,1,65,8|0,3:2|3:0,0:0:0:0:
284,343,55856,1,0,3:0:0:0:
182,321,56284,1,8,3:2:0:0:
83,353,56713,6,0,P|29:347|4:342,1,65,2|0,0:2|0:0,0:0:0:0:
8,293,57142,2,0,L|22:230,1,65,8|0,3:2|0:0,0:0:0:0:
63,197,57570,2,1,P|59:123|41:58,1,130,0|8,3:0|3:2,0:0:0:0:
131,11,58427,6,0,P|193:21|220:30,1,65,6|0,3:2|0:0,0:0:0:0:
231,59,58856,2,0,P|271:49|316:45,1,65,8|0,3:2|3:0,0:0:0:0:
340,70,59284,1,0,0:0:0:0:
435,28,59713,1,8,3:2:0:0:
489,116,60142,6,1,L|472:197,1,65,0|4,3:0|3:3,0:0:0:0:
436,213,60570,2,0,P|452:253|456:296,1,65,4|0,3:3|3:0,0:0:0:0:
409,299,60999,1,0,3:0:0:0:
325,310,61427,1,8,3:2:0:0:
296,353,61642,6,1,P|263:355|229:363,1,65,8|4,3:2|3:2,0:0:0:0:
161,314,62177,2,0,P|170:257|184:203,1,97.5,8|8,0:2|0:2,0:0:0:0:
220,186,62713,1,0,0:0:0:0:
166,96,63142,2,0,P|157:46|157:13,1,65,8|0,0:2|0:0,0:0:0:0:
107,14,63570,2,0,P|66:26|39:86,2,97.5,8|8|8,0:2|0:2|0:2,0:0:0:0:
159,13,64427,6,1,P|227:23|295:40,1,130,0|0,3:0|3:0,0:0:0:0:
375,91,65284,1,6,3:2:0:0:
252,258,66142,1,2,3:2:0:0:
434,357,66999,1,4,0:2:0:0:
512,0,68713,5,12,3:3:0:0:
454,14,68928,1,4,3:3:0:0:
413,56,69142,1,8,3:2:0:0:
332,140,69570,2,0,P|280:130|253:121,1,65,2|2,0:2|0:2,0:0:0:0:
231,81,69999,2,0,P|179:71|152:62,1,65,10|2,3:3|0:2,0:0:0:0:
126,25,70428,5,12,3:3:0:0:
67,27,70642,1,4,3:3:0:0:
27,70,70856,1,8,3:2:0:0:
83,172,71285,2,0,P|89:203|97:235,1,65,6|0,3:3|0:0,0:0:0:0:
77,290,71713,1,4,3:2:0:0:
168,363,72142,5,14,3:3:0:0:
222,383,72356,1,4,0:2:0:0:
275,359,72570,1,4,3:2:0:0:
389,383,72999,1,2,0:2:0:0:
482,312,73428,2,0,P|493:281|499:249,1,65,10|2,3:2|0:2,0:0:0:0:
478,195,73856,5,14,3:3:0:0:
507,144,74070,1,4,3:3:0:0:
497,86,74285,1,8,3:2:0:0:
400,19,74713,2,0,P|370:6|338:7,1,65,6|2,3:2|0:2,0:0:0:0:
283,27,75142,2,0,P|263:77|263:118,1,65,6|2,3:2|0:2,0:0:0:0:
295,135,75570,5,12,3:3:0:0:
308,192,75785,1,4,3:3:0:0:
273,235,75999,2,0,L|209:247,2,65,8|4|2,3:2|0:3|0:0,0:0:0:0:
310,346,76856,2,1,P|342:350|373:358,1,65,10|2,1:3|0:2,0:0:0:0:
429,377,77285,6,0,P|450:333|460:270,1,97.5,12|12,3:3|3:3,0:0:0:0:
439,230,77820,1,2,0:2:0:0:
494,161,78142,2,1,P|484:108|400:102,1,130,2|10,0:2|3:3,0:0:0:0:
322,159,78999,6,1,P|290:153|259:143,1,65,6|2,3:2|0:2,0:0:0:0:
232,90,79428,2,1,P|199:91|170:105,1,65,14|2,3:2|0:2,0:0:0:0:
124,131,79856,2,1,P|90:114|-11:91,2,130,4|8|0,3:2|3:2|3:0,0:0:0:0:
148,184,80928,1,8,0:2:0:0:
127,238,81142,2,1,P|147:272|148:309,1,65,0|0,3:0|3:0,0:0:0:0:
188,340,81570,6,1,P|237:318|342:307,1,130,0|0,3:0|3:0,0:0:0:0:
415,251,82427,5,14,3:3:0:0:
460,225,82642,1,2,0:2:0:0:
473,174,82856,2,0,L|462:95,2,65,10|6|2,3:2|0:3|0:2,0:0:0:0:
365,219,83713,1,10,3:2:0:0:
266,157,84142,5,14,3:3:0:0:
211,137,84356,1,6,3:3:0:0:
158,111,84570,1,10,3:2:0:0:
103,7,84999,1,6,3:3:0:0:
10,78,85427,2,0,P|0:126|-1:168,1,65,6|2,3:2|3:2,0:0:0:0:
40,182,85856,5,14,3:3:0:0:
11,232,86070,1,4,0:2:0:0:
25,288,86284,2,0,L|10:371,2,65,6|2|2,3:2|3:2|0:2,0:0:0:0:
137,254,87142,2,0,P|171:251|199:242,1,65,10|2,3:2|3:2,0:0:0:0:
251,270,87570,5,14,3:3:0:0:
296,233,87784,1,6,3:3:0:0:
306,175,87999,1,10,3:2:0:0:
384,88,88427,2,0,P|452:110|447:184,1,130,6|2,3:2|3:3,0:0:0:0:
494,272,89284,5,14,3:3:0:0:
438,290,89499,1,2,0:2:0:0:
418,345,89713,2,0,L|352:360,1,65,10|6,3:2|0:3,0:0:0:0:
295,358,90142,1,2,0:2:0:0:
207,280,90570,2,0,P|171:286|132:301,1,65,10|2,3:2|0:2,0:0:0:0:
110,343,90999,5,14,3:3:0:0:
58,370,91213,1,6,3:3:0:0:
16,328,91427,1,10,3:2:0:0:
65,221,91856,2,0,P|52:191|46:159,1,65,6|2,3:3|0:2,0:0:0:0:
59,102,92284,2,0,P|47:54|42:21,1,65,6|2,3:2|3:2,0:0:0:0:
89,1,92713,5,14,3:3:0:0:
133,39,92927,1,4,0:2:0:0:
189,21,93142,2,0,L|259:31,1,65,6|2,3:2|3:2,0:0:0:0:
284,79,93570,1,2,0:2:0:0:
390,31,93999,2,0,L|465:21,1,65,10|8,3:2|3:3,0:0:0:0:
503,53,94427,5,14,3:3:0:0:
508,111,94642,1,6,3:3:0:0:
480,162,94856,2,0,P|447:164|415:170,1,65,10|2,3:2|0:2,0:0:0:0:
368,205,95284,1,6,3:2:0:0:
262,154,95713,1,2,3:3:0:0:
176,233,96142,1,8,3:3:0:0:
72,23,96999,6,0,P|50:106|52:176,1,130,10|2,0:2|0:2,0:0:0:0:
68,198,97642,1,2,0:2:0:0:
118,207,97856,2,0,P|175:215|174:294,1,130,2|2,1:2|0:2,0:0:0:0:
250,360,98713,2,0,P|286:311|289:231,1,130,10|2,0:2|0:2,0:0:0:0:
321,143,99570,6,0,P|379:115|429:48,2,130,6|2|10,3:2|0:2|0:2,0:0:0:0:
226,187,100856,2,0,P|199:168|168:162,1,65,2|0,0:2|0:0,0:0:0:0:
120,181,101284,2,0,P|92:126|89:47,1,130,2|2,1:2|0:2,0:0:0:0:
182,16,102142,1,10,0:2:0:0:
271,68,102570,1,2,0:2:0:0:
367,32,102999,6,0,P|413:18|460:2,2,97.5,2|2|2,1:2|0:2|0:2,0:0:0:0:
352,82,103856,1,10,0:2:0:0:
249,95,104284,2,0,P|241:136|258:172,1,65,10|10,0:2|0:2,0:0:0:0:
275,201,104713,6,0,P|323:201|370:248,1,97.5,10|2,3:3|1:2,0:0:0:0:
379,278,105249,1,2,0:2:0:0:
308,349,105570,2,0,P|243:359|180:373,1,130,10|2,1:2|0:2,0:0:0:0:
145,334,106213,1,2,0:2:0:0:
93,330,106427,6,0,P|71:272|135:211,1,130,2|2,1:2|0:2,0:0:0:0:
201,178,107284,2,0,P|215:114|222:38,1,130,10|2,0:2|0:2,0:0:0:0:
322,77,108142,2,0,P|380:49|443:31,2,130,0|2|8,3:0|0:2|0:2,0:0:0:0:
239,267,109856,6,0,P|216:204|212:134,1,130,14|2,3:2|0:2,0:0:0:0:
117,71,110713,2,0,P|82:70|50:62,2,65,10|2|2,0:2|0:2|0:2,0:0:0:0:
163,35,111356,1,2,0:2:0:0:
218,17,111570,6,0,P|268:10|299:86,1,130,2|12,3:2|3:3,0:0:0:0:
408,124,112427,1,8,3:2:0:0:
366,165,112642,2,0,P|362:202|353:316,1,130,12|10,3:3|0:2,0:0:0:0:
316,339,113284,6,0,P|267:335|236:334,1,65,14|0,3:3|0:0,0:0:0:0:
200,305,113713,2,0,P|183:273|188:231,2,65,0|2|10,0:0|3:2|3:2,0:0:0:0:
97,361,114570,1,2,0:2:0:0:
43,338,114784,1,2,0:2:0:0:
18,284,114999,6,0,P|34:246|67:143,1,130,0|0,3:0|3:0,0:0:0:0:
40,107,115642,1,2,0:2:0:0:
57,51,115856,2,0,P|87:34|136:34,1,65,10|10,3:2|3:3,0:0:0:0:
166,61,116284,2,0,P|202:80|232:84,1,65,2|10,3:2|3:2,0:0:0:0:
281,66,116713,6,0,P|343:53|390:49,2,97.5,10|2|2,3:2|3:2|3:2,0:0:0:0:
260,120,117570,1,10,3:2:0:0:
360,180,117999,2,0,P|374:229|376:248,1,65,2|2,0:2|0:2,0:0:0:0:
326,275,118427,6,0,P|239:292|197:339,1,130,4|0,3:2|3:0,0:0:0:0:
105,371,119284,2,0,P|56:328|55:249,1,130,8|4,3:2|3:2,0:0:0:0:
90,224,119927,1,4,0:2:0:0:
95,165,120142,6,0,P|87:113|79:11,1,130,2|2,3:2|3:2,0:0:0:0:
195,17,120999,1,8,3:2:0:0:
245,45,121213,2,0,P|258:91|264:197,1,130,4|2,3:2|0:2,0:0:0:0:
250,229,121856,2,0,P|222:236|172:251,1,65,6|2,3:2|3:2,0:0:0:0:
156,295,122284,2,0,P|128:302|78:317,1,65,2|4,3:2|3:2,0:0:0:0:
49,273,122713,1,6,3:2:0:0:
66,157,123142,2,0,L|118:147,2,43.3333333333333,2|2|2,3:2|0:2|0:2,0:0:0:0:
38,128,123570,5,6,3:2:0:0:
181,1,124427,2,0,P|211:12|244:18,1,65,8|4,3:2|3:3,0:0:0:0:
284,60,124856,2,0,P|315:52|346:42,1,65,4|0,3:3|3:0,0:0:0:0:
404,47,125284,6,0,P|452:36|483:-24,2,97.5,6|6|6,3:2|3:2|3:2,0:0:0:0:
424,102,126142,1,8,3:2:0:0:
403,156,126356,2,0,P|307:179|264:204,1,130,2|2,0:2|0:2,0:0:0:0:
233,228,126999,6,0,P|189:184|209:117,1,130,14|2,3:3|0:2,0:0:0:0:
85,121,127856,2,0,P|77:89|66:58,1,65,8|2,3:2|0:2,0:0:0:0:
86,3,128284,2,0,P|129:6|176:17,1,65,2|2,0:2|0:2,0:0:0:0:
206,27,128713,5,2,3:2:0:0:
260,6,128927,1,0,3:0:0:0:
310,36,129142,2,0,L|297:120,1,65,0|2,3:0|0:2,0:0:0:0:
298,158,129570,2,0,P|371:172|411:116,1,130,10|0,3:2|3:0,0:0:0:0:
479,227,130427,6,0,L|462:323,2,97.5,6|6|4,3:2|3:2|3:2,0:0:0:0:
443,180,131284,1,8,0:2:0:0:
388,202,131499,2,0,P|328:212|245:223,1,130,2|2,0:2|0:2,0:0:0:0:
202,233,132142,6,0,P|153:209|157:120,1,130,4|0,3:2|3:0,0:0:0:0:
84,38,132999,2,0,P|27:59|20:141,1,130,8|2,3:2|3:3,0:0:0:0:
24,237,133856,6,0,P|55:244|102:272,1,65,4|2,3:2|0:2,0:0:0:0:
126,299,134284,2,0,P|180:293|208:273,1,65,12|2,3:2|0:2,0:0:0:0:
237,255,134713,2,0,P|245:213|252:172,2,65,0|0|10,0:0|3:0|3:2,0:0:0:0:
346,296,135570,2,0,P|354:342|366:379,1,65,6|2,3:2|0:2,0:0:0:0:
413,380,135999,2,0,P|476:368|495:363,1,65,10|2,3:2|0:2,0:0:0:0:
512,331,136427,1,2,0:3:0:0:
487,216,136856,2,0,L|498:164,2,43.3333333333333,4|2|2,0:2|0:2|0:2,0:0:0:0:
449,228,137284,5,14,3:3:0:0:
402,191,137499,1,2,0:2:0:0:
345,174,137713,2,0,L|262:182,1,65,10|6,3:2|0:3,0:0:0:0:
231,148,138142,1,2,0:2:0:0:
200,260,138570,2,0,P|162:265|125:280,1,65,10|2,3:2|0:2,0:0:0:0:
87,305,138999,5,14,3:3:0:0:
37,274,139213,1,6,3:3:0:0:
23,217,139427,1,10,3:2:0:0:
79,114,139856,1,6,3:3:0:0:
189,150,140284,2,0,P|225:143|279:138,1,65,6|2,3:2|3:2,0:0:0:0:
298,102,140713,6,0,P|283:39|261:9,2,97.5,14|0|2,3:3|0:0|3:2,0:0:0:0:
345,136,141570,2,0,P|407:154|444:150,2,97.5,2|0|0,0:2|0:0|0:0,0:0:0:0:
301,174,142427,2,0,P|288:227|308:292,2,97.5,14|0|2,3:3|0:0|0:2,0:0:0:0:
256,136,143284,2,0,P|180:116|109:115,1,130,6|2,3:2|3:3,0:0:0:0:
37,187,144142,5,14,3:3:0:0:
46,244,144356,1,2,0:2:0:0:
88,283,144570,2,0,L|172:280,1,65,10|6,3:2|0:3,0:0:0:0:
200,314,144999,1,2,0:2:0:0:
299,252,145427,2,0,P|330:244|362:241,1,65,10|2,3:2|0:2,0:0:0:0:
416,217,145856,5,14,3:3:0:0:
463,182,146070,1,6,3:3:0:0:
460,123,146284,1,10,3:2:0:0:
387,31,146713,1,6,3:3:0:0:
286,91,147142,2,0,P|242:90|208:89,1,65,6|2,3:2|3:2,0:0:0:0:
167,66,147570,5,14,3:3:0:0:
108,71,147784,1,4,0:2:0:0:
62,107,147999,2,0,L|68:171,1,65,6|2,3:2|3:2,0:0:0:0:
40,223,148427,1,2,0:2:0:0:
145,272,148856,2,0,P|149:304|155:347,1,65,10|8,3:2|3:3,0:0:0:0:
205,362,149284,5,14,3:3:0:0:
258,337,149499,1,6,3:3:0:0:
298,294,149713,2,0,P|296:261|289:229,1,65,10|2,3:2|0:2,0:0:0:0:
247,188,150142,1,6,3:2:0:0:
289,79,150570,1,2,3:3:0:0:
394,130,150999,5,12,3:3:0:0:
446,105,151213,1,8,3:0:0:0:
466,50,151427,1,4,3:2:0:0:
