osu file format v14

[General]
AudioFilename: audio.mp3
AudioLeadIn: 0
PreviewTime:33570
Countdown: 0
SampleSet: Soft
StackLeniency: 0.3
Mode: 0
LetterboxInBreaks: 0
WidescreenStoryboard: 1

[Editor]
DistanceSpacing: 0.9
BeatDivisor: 8
GridSize: 32
TimelineZoom: 2.899999

[Metadata]
Title:ABC feat. Sophia Black
TitleUnicode:ABC feat. Sophia Black
Artist:Polyphia
ArtistUnicode:Polyphia
Creator:Ducky-
Version:Insane
Source:
Tags:japanese english pop prog metal vocal rock tim henson and the boys remember that you will die progressive clay gober aeschliman scott lepage PokaTetris Agllius xytoper kyrian
BeatmapID:4015406
BeatmapSetID:1941380

[Difficulty]
HPDrainRate:5
CircleSize:3.8
OverallDifficulty:8.7
ApproachRate:8.8
SliderMultiplier:1.8
SliderTickRate:1

[Events]
//Background and Video events
0,0,"78036181_p0 (1).jpg",0,0
//Break Periods
//Storyboard Layer 0 (Background)
//Storyboard Layer 1 (Fail)
//Storyboard Layer 2 (Pass)
//Storyboard Layer 3 (Foreground)
//Storyboard Layer 4 (Overlay)
//Storyboard Sound Samples

[TimingPoints]
142,428.571428571429,4,2,1,40,1,0
999,-125,4,2,1,40,0,0
1856,-100,4,2,1,40,0,0
6999,-90.9090909090909,4,2,1,40,0,0
13856,-111.111111111111,4,2,1,60,0,0
20713,-111.111111111111,4,2,1,60,0,0
27142,-111.111111111111,4,2,2,60,0,0
27570,-111.111111111111,4,2,1,60,0,0
31856,-111.111111111111,4,2,1,50,0,0
32713,-111.111111111111,4,2,2,40,0,0
33570,-111.111111111111,4,2,1,40,0,0
34427,-83.3333333333333,4,2,2,80,0,1
34856,-83.3333333333333,4,2,1,80,0,1
35070,-83.3333333333333,4,2,2,80,0,1
35284,-83.3333333333333,4,2,1,80,0,1
41284,-83.3333333333333,4,2,2,80,0,1
41713,-83.3333333333333,4,2,1,80,0,1
41927,-83.3333333333333,4,2,2,80,0,1
42142,-83.3333333333333,4,2,1,80,0,1
48142,-83.3333333333333,4,2,2,60,0,0
48356,-83.3333333333333,4,2,1,60,0,0
49427,-133.333333333333,4,2,1,60,0,0
50713,-100,4,2,1,60,0,0
51570,-133.333333333333,4,2,1,60,0,0
53284,-133.333333333333,4,2,2,60,0,0
53499,-133.333333333333,4,2,1,60,0,0
53713,-83.3333333333333,4,2,1,60,0,0
54999,-83.3333333333333,4,2,1,60,0,0
63142,-83.3333333333333,4,2,1,60,0,0
65284,-83.3333333333333,4,2,1,60,0,0
66142,-83.3333333333333,4,2,1,50,0,0
66999,-584.795321637427,4,2,2,40,0,0
67856,-584.795321637427,4,2,1,40,0,0
68499,-584.795321637427,4,2,2,40,0,0
68713,-83.3333333333333,4,2,2,80,0,1
69142,-83.3333333333333,4,2,1,80,0,1
69356,-83.3333333333333,4,2,2,80,0,1
69570,-83.3333333333333,4,2,1,80,0,1
75570,-83.3333333333333,4,2,2,80,0,1
75999,-83.3333333333333,4,2,1,80,0,1
76213,-83.3333333333333,4,2,2,80,0,1
76427,-83.3333333333333,4,2,1,80,0,1
82213,-83.3333333333333,4,2,1,80,0,0
82427,-66.6666666666667,4,2,2,80,0,0
82642,-66.6666666666667,4,2,1,80,0,0
83070,-66.6666666666667,4,2,2,80,0,0
83284,-133.333333333333,4,2,1,80,0,0
84142,-66.6666666666667,4,2,1,80,0,0
84999,-100,4,2,1,80,0,0
85856,-66.6666666666667,4,2,1,80,0,0
86713,-133.333333333333,4,2,1,80,0,0
87570,-66.6666666666667,4,2,1,80,0,0
88427,-55.5555555555556,4,2,1,80,0,0
89284,-66.6666666666667,4,2,2,80,0,0
89499,-66.6666666666667,4,2,1,80,0,0
89927,-66.6666666666667,4,2,2,80,0,0
90142,-133.333333333333,4,2,1,80,0,0
90999,-66.6666666666667,4,2,1,80,0,0
95713,-50,4,2,1,80,0,0
96142,-399.999999999997,4,2,1,80,0,0
97856,-100,4,2,1,80,0,0
98713,-133.333333333333,4,2,1,80,0,0
99570,-83.3333333333333,4,2,1,80,0,0
99999,-133.333333333333,4,2,1,80,0,0
101284,-100,4,2,1,80,0,0
104713,-83.3333333333333,4,2,1,80,0,0
106427,-83.3333333333333,4,2,1,80,0,0
107284,-133.333333333333,4,2,1,80,0,0
109856,-100,4,2,1,80,0,0
110713,-100,4,2,1,80,0,0
116713,-83.3333333333333,4,2,1,80,0,0
119713,-83.3333333333333,4,2,2,80,0,0
120142,-83.3333333333333,4,2,1,80,0,0
121856,-83.3333333333333,4,2,2,80,0,0
122713,-83.3333333333333,4,2,1,80,0,0
123570,-50,4,2,1,80,0,0
124427,-50,4,2,1,80,0,0
125284,-66.6666666666667,4,2,1,100,0,0
126142,-66.6666666666667,4,2,1,80,0,0
128070,-83.3333333333333,4,2,1,80,0,0
130427,-133.333333333333,4,2,1,80,0,0
133427,-83.3333333333333,4,2,1,80,0,0
133856,-83.3333333333333,4,2,1,100,0,0
134284,-83.3333333333333,4,2,1,90,0,0
134713,-83.3333333333333,4,2,1,80,0,0
135142,-83.3333333333333,4,2,1,100,0,0
135570,-83.3333333333333,4,2,1,90,0,0
135999,-83.3333333333333,4,2,1,80,0,0
136856,-83.3333333333333,4,2,1,80,0,0
137284,-66.6666666666667,4,2,2,80,0,0
137499,-66.6666666666667,4,2,1,80,0,0
137927,-66.6666666666667,4,2,2,80,0,0
138142,-66.6666666666667,4,2,1,80,0,0
139856,-100,4,2,1,80,0,0
140713,-66.6666666666667,4,2,1,80,0,0
143284,-55.5555555555556,4,2,1,80,0,0
144142,-66.6666666666667,4,2,2,80,0,0
144356,-66.6666666666667,4,2,1,80,0,0
144784,-66.6666666666667,4,2,2,80,0,0
144999,-66.6666666666667,4,2,1,80,0,0
148427,-100,4,2,1,80,0,0
149284,-66.6666666666667,4,2,1,80,0,0
150142,-55.5555555555556,4,2,1,80,0,0
150570,-50,4,2,1,80,0,0
150999,-50,4,2,1,80,0,0

[Colours]
Combo1 : 199,202,205
Combo2 : 156,143,192

[HitObjects]
512,0,142,6,0,P|443:16|464:85,1,135,0|2,3:0|0:2,0:0:0:0:
445,68,784,1,0,0:0:0:0:
382,121,999,2,0,P|332:111|316:66,1,72,2|2,0:2|0:2,0:0:0:0:
451,183,1427,2,0,P|408:211|365:190,1,72,2|2,0:2|0:2,0:0:0:0:
109,0,1856,6,0,P|163:14|202:131,1,180,2|2,1:2|0:2,0:0:0:0:
205,120,2713,6,0,P|151:106|112:-11,1,180,2|2,1:2|0:2,0:0:0:0:
108,0,3356,1,0,0:0:0:0:
23,181,3570,6,0,P|53:141|99:134,1,90,2|0,3:2|0:0,0:0:0:0:
103,223,3999,2,0,P|152:215|189:243,1,90,2|0,0:2|0:0,0:0:0:0:
49,384,4427,6,0,P|9:354|2:308,1,90,2|0,0:2|0:0,0:0:0:0:
91,304,4856,2,0,P|83:254|111:217,1,90,2|0,0:2|0:0,0:0:0:0:
229,164,5284,2,0,P|289:187|314:305,1,180,2|2,3:2|0:2,0:0:0:0:
319,290,6142,5,2,0:2:0:0:
319,290,6356,1,2,0:2:0:0:
209,373,6570,1,2,0:2:0:0:
209,373,6784,1,2,0:2:0:0:
132,191,6999,6,0,P|147:245|257:264,2,148.5,2|0|2,1:2|0:0|1:2,0:0:0:0:
211,196,8070,5,0,0:0:0:0:
380,370,8284,5,2,1:2:0:0:
377,353,8392,1,2,0:2:0:0:
373,338,8499,1,2,0:2:0:0:
486,341,8713,6,0,P|497:314|513:284,1,49.5,2|0,3:2|0:0,0:0:0:0:
415,262,9034,6,0,P|411:233|409:199,1,49.5,2|0,0:2|0:0,0:0:0:0:
451,147,9249,1,2,0:2:0:0:
512,0,9570,5,2,1:2:0:0:
511,12,9677,1,2,0:2:0:0:
504,23,9784,1,2,0:2:0:0:
487,31,9892,1,2,0:2:0:0:
459,32,9999,1,2,0:2:0:0:
384,88,10213,1,2,0:2:0:0:
164,14,10427,5,2,1:2:0:0:
164,14,10534,1,2,0:2:0:0:
164,14,10642,2,0,L|154:74,1,49.5,2|2,0:2|0:2,0:0:0:0:
348,14,10856,5,2,1:2:0:0:
348,14,10963,1,2,0:2:0:0:
348,14,11070,2,0,L|358:74,1,49.5,2|2,0:2|0:2,0:0:0:0:
256,128,11284,5,2,1:2:0:0:
256,128,11392,1,2,0:2:0:0:
256,128,11499,2,0,L|256:64,1,49.5,2|2,0:2|0:2,0:0:0:0:
256,256,11713,5,2,1:2:0:0:
256,256,11820,1,2,0:2:0:0:
256,256,11927,2,0,L|256:320,1,49.5,2|2,0:2|0:2,0:0:0:0:
192,192,12142,6,0,L|128:192,1,49.5,2|2,1:2|0:2,0:0:0:0:
320,192,12356,2,0,L|384:192,1,49.5,2|2,0:2|0:2,0:0:0:0:
256,128,12570,5,2,1:2:0:0:
256,116,12677,1,2,0:2:0:0:
256,104,12784,1,2,0:2:0:0:
256,92,12892,1,2,0:2:0:0:
256,80,12999,1,2,1:2:0:0:
256,80,13427,5,2,0:2:0:0:
0,0,13856,6,0,P|26:57|62:77,2,81.0000000000001,2|2|10,3:2|0:2|3:2,0:0:0:0:
156,81,14606,1,2,0:2:0:0:
142,76,14713,2,0,P|104:110|92:152,1,81.0000000000001,2|0,0:2|0:0,0:0:0:0:
26,200,15034,1,2,0:2:0:0:
13,212,15142,2,0,P|21:263|70:307,1,81.0000000000001,10|0,3:2|0:0,0:0:0:0:
46,367,15463,1,2,0:2:0:0:
60,375,15570,1,2,0:2:0:0:
347,286,15999,1,10,3:2:0:0:
199,349,16427,5,2,3:2:0:0:
186,341,16534,1,2,0:2:0:0:
192,326,16642,1,2,0:2:0:0:
204,327,16749,1,2,0:2:0:0:
206,339,16856,1,10,3:2:0:0:
233,235,17070,5,2,0:2:0:0:
264,143,17284,5,8,3:3:0:0:
212,85,17499,1,0,0:0:0:0:
228,6,17713,1,10,3:2:0:0:
228,6,18034,5,2,0:2:0:0:
246,10,18142,1,4,3:3:0:0:
306,12,18249,1,4,0:3:0:0:
346,33,18356,2,0,L|356:89,1,40.5,4|4,0:3|0:3,0:0:0:0:
362,179,18570,5,10,3:2:0:0:
350,165,18677,1,4,3:3:0:0:
357,147,18784,1,4,3:3:0:0:
380,153,18892,1,4,3:3:0:0:
380,173,18999,1,8,3:3:0:0:
225,276,19427,2,0,L|217:322,2,40.5,10|2|2,3:2|0:2|0:2,0:0:0:0:
261,156,19856,5,2,3:2:0:0:
306,237,20070,1,2,0:2:0:0:
391,267,20284,1,8,3:2:0:0:
398,262,20392,1,2,0:2:0:0:
409,257,20499,1,2,0:2:0:0:
429,252,20606,1,2,0:2:0:0:
456,243,20713,1,4,3:2:0:0:
367,384,20927,5,2,0:2:0:0:
351,372,21034,1,2,0:2:0:0:
338,356,21142,2,0,P|329:327|326:305,1,40.5,8|0,3:2|0:0,0:0:0:0:
352,177,21356,2,0,P|358:150|374:120,1,40.5,2|0,0:2|0:0,0:0:0:0:
264,243,21570,5,2,3:2:0:0:
251,243,21677,1,0,3:0:0:0:
239,244,21784,1,4,3:3:0:0:
227,247,21892,1,4,3:3:0:0:
177,260,21999,5,10,3:2:0:0:
166,257,22106,1,4,3:3:0:0:
154,254,22213,1,4,3:3:0:0:
262,0,22427,5,2,3:2:0:0:
212,114,22642,1,2,0:2:0:0:
200,113,22749,1,2,0:2:0:0:
187,105,22856,2,0,P|171:82|162:46,1,40.5,8|2,3:2|0:2,0:0:0:0:
134,183,23070,2,0,P|116:174|90:145,1,40.5,2|0,3:2|0:0,0:0:0:0:
33,41,23284,5,2,3:2:0:0:
53,9,23392,1,0,3:0:0:0:
98,16,23499,1,4,3:3:0:0:
121,62,23606,1,4,3:3:0:0:
99,111,23713,2,0,P|65:120|29:130,2,40.5,10|4|4,3:2|3:3|3:3,0:0:0:0:
252,384,24142,5,2,3:2:0:0:
248,370,24249,1,0,0:0:0:0:
238,353,24356,2,0,P|229:333|233:299,1,40.5,4|2,3:3|3:2,0:0:0:0:
129,325,24570,2,0,P|143:292|171:271,1,40.5,8|0,3:2|3:0,0:0:0:0:
51,274,24784,1,4,3:3:0:0:
50,261,24892,1,0,3:0:0:0:
58,242,24999,2,0,P|72:228|101:220,2,40.4999987640381,2|2|4,3:2|3:2|0:3,0:0:0:0:
59,384,25427,5,8,3:2:0:0:
0,156,25642,1,2,0:2:0:0:
244,258,25856,5,0,3:0:0:0:
250,255,25963,1,2,3:2:0:0:
255,249,26070,2,0,P|261:230|260:204,1,40.5,2|2,3:2|3:2,0:0:0:0:
349,205,26284,1,8,3:2:0:0:
354,192,26392,1,2,3:2:0:0:
351,160,26499,1,2,3:2:0:0:
326,133,26606,1,2,3:2:0:0:
290,115,26713,5,2,3:2:0:0:
282,73,26820,1,0,3:0:0:0:
291,33,26927,1,0,3:0:0:0:
332,5,27034,1,0,3:0:0:0:
341,10,27142,6,0,L|349:69,1,40.5,12|2,3:2|3:2,0:0:0:0:
459,145,27356,2,0,L|467:204,1,40.5,2|2,3:2|3:2,0:0:0:0:
392,350,27570,5,10,3:3:0:0:
387,343,27677,1,2,0:2:0:0:
390,335,27784,1,2,0:2:0:0:
316,251,27999,2,0,P|271:221|271:170,2,81.0000000000001,10|0|2,3:2|0:2|0:2,0:0:0:0:
76,384,28856,5,10,3:2:0:0:
88,369,28963,1,2,0:2:0:0:
116,365,29070,1,2,0:2:0:0:
171,228,29284,2,0,P|199:278|190:326,2,81.0000000000001,2|2|10,0:2|0:2|3:2,0:0:0:0:
7,134,30142,5,2,3:2:0:0:
12,147,30249,1,2,0:2:0:0:
19,162,30356,1,2,0:2:0:0:
106,213,30570,1,10,3:2:0:0:
87,303,30784,1,0,0:2:0:0:
0,384,30999,6,0,B|57:293|22:210|138:82,2,324,2|2|4,3:2|3:2|0:2,0:0:0:0:
132,89,33999,5,2,0:2:0:0:
132,89,34427,6,0,L|214:75,1,54,12|0,3:3|0:0,0:0:0:0:
302,0,34642,6,0,L|273:78,1,54,4|0,3:3|0:0,0:0:0:0:
294,191,34856,6,0,L|240:126,1,54,8|0,3:2|0:0,0:0:0:0:
251,146,35070,1,4,3:3:0:0:
400,87,35284,6,0,L|340:104,3,54,2|0|2|2,0:2|0:0|0:2|0:0,0:0:0:0:
461,31,35713,5,10,3:3:0:0:
512,141,35927,1,2,0:2:0:0:
432,263,36142,6,0,P|417:227|426:194,1,54,12|0,3:3|0:0,0:0:0:0:
460,358,36356,6,0,P|498:363|522:387,1,54,4|0,3:3|0:0,0:0:0:0:
363,334,36570,6,0,P|339:364|306:373,1,54,8|0,3:2|0:0,0:0:0:0:
316,372,36784,1,0,0:0:0:0:
302,368,36892,1,0,0:0:0:0:
293,365,36999,6,0,L|275:255,1,108,6|0,3:3|0:0,0:0:0:0:
191,243,37320,1,0,0:0:0:0:
179,238,37427,2,0,P|158:217|159:182,1,54,4|0,3:2|0:0,0:0:0:0:
245,177,37642,2,0,P|243:148|256:125,1,54,0|0,3:0|0:0,0:0:0:0:
419,36,37856,6,0,L|487:49,1,54,14|0,3:3|0:0,0:0:0:0:
330,50,38070,6,0,L|307:-15,1,54,4|0,0:2|0:0,0:0:0:0:
387,121,38284,6,0,L|341:173,1,54,4|0,3:2|0:0,0:0:0:0:
340,163,38499,1,0,3:0:0:0:
150,0,38713,6,0,L|157:66,3,54,2|0|0|0,0:2|0:0|0:0|0:0,0:0:0:0:
220,98,39142,1,10,3:2:0:0:
33,27,39356,1,2,0:2:0:0:
56,212,39570,6,0,P|31:209|-16:197,1,54,14|0,3:3|0:0,0:0:0:0:
161,233,39784,6,0,P|176:212|209:178,1,54,4|0,3:3|0:0,0:0:0:0:
90,313,39999,6,0,P|99:336|113:382,1,54,8|0,3:2|0:0,0:0:0:0:
107,376,40213,1,0,3:0:0:0:
299,265,40427,6,0,P|308:188|228:120,1,162,6|0,3:2|0:0,0:0:0:0:
186,71,40856,2,0,P|233:100|274:10,1,162,6|0,3:2|0:0,0:0:0:0:
284,15,41284,6,0,P|322:0|342:0,1,54,12|0,3:3|0:0,0:0:0:0:
479,16,41499,6,0,P|472:56|462:73,1,54,4|0,3:3|0:0,0:0:0:0:
380,184,41713,6,0,P|348:158|338:141,1,54,8|0,3:2|0:0,0:0:0:0:
342,137,41927,1,4,0:3:0:0:
472,158,42142,6,0,L|466:188,4,27,2|2|2|2|2,0:0|0:0|0:0|0:0|0:0,0:0:0:0:
424,264,42570,5,10,1:3:0:0:
436,345,42677,1,2,0:2:0:0:
512,342,42784,1,2,0:2:0:0:
282,384,42999,6,0,P|222:335|226:280,1,108,12|2,3:3|3:2,0:0:0:0:
301,301,43320,2,0,P|301:265|308:240,1,54,12|0,3:3|0:0,0:0:0:0:
383,278,43534,2,0,P|401:213|433:164,1,108,2|0,0:2|0:0,0:0:0:0:
432,90,43856,5,2,0:2:0:0:
435,84,43963,1,2,0:2:0:0:
434,74,44070,1,2,0:2:0:0:
425,48,44177,1,2,0:2:0:0:
392,35,44284,2,0,P|361:41|314:53,1,54,10|0,3:3|0:0,0:0:0:0:
437,172,44499,2,0,P|468:178|515:190,1,54,2|0,0:2|0:0,0:0:0:0:
280,107,44713,5,6,3:2:0:0:
270,109,44820,1,2,0:2:0:0:
258,104,44927,1,2,0:2:0:0:
250,97,45034,1,2,0:2:0:0:
243,87,45142,6,0,P|249:51|267:21,3,54,14|2|2|2,3:2|0:2|0:2|0:2,0:0:0:0:
343,171,45570,2,0,P|349:207|367:237,3,54,4|2|0|2,3:2|0:2|3:0|0:2,0:0:0:0:
271,302,45999,2,0,P|260:326|257:353,3,54,8|2|0|2,3:2|0:2|3:0|0:2,0:0:0:0:
227,230,46427,5,0,3:0:0:0:
220,219,46534,1,2,0:2:0:0:
201,208,46642,1,8,0:2:0:0:
175,201,46749,1,2,0:2:0:0:
124,232,46856,5,0,3:0:0:0:
73,221,46963,1,2,0:2:0:0:
52,178,47070,1,0,3:0:0:0:
53,131,47177,1,2,0:2:0:0:
97,102,47284,5,0,3:0:0:0:
124,61,47392,1,2,0:2:0:0:
109,20,47499,1,4,3:3:0:0:
86,12,47606,1,12,3:2:0:0:
61,37,47713,5,0,3:0:0:0:
35,30,47820,1,0,0:0:0:0:
27,38,47927,2,0,L|0:43,3,27,4|0|4|4,3:3|0:0|3:3|3:3,0:0:0:0:
0,11,48142,6,0,P|101:28|209:68,1,216,12|8,3:3|3:2,0:0:0:0:
207,67,49213,1,0,0:0:0:0:
209,76,49320,1,0,0:0:0:0:
210,86,49427,2,0,P|272:74|275:11,1,135,8|0,3:2|0:0,0:0:0:0:
121,150,50070,5,0,0:0:0:0:
128,147,50177,1,0,0:0:0:0:
136,145,50284,2,0,P|178:162|195:234,1,101.25,8|0,3:2|0:0,0:0:0:0:
162,311,50713,6,0,B|272:285|272:285|289:242,1,135,10|0,3:3|0:0,0:0:0:0:
282,252,51142,2,0,P|330:228|326:174,1,90,10|0,3:2|0:0,0:0:0:0:
0,331,51570,6,0,P|65:347|121:384,1,135,14|8,3:3|3:2,0:0:0:0:
121,384,52213,1,0,0:0:0:0:
296,329,52427,5,0,0:0:0:0:
299,317,52534,1,0,0:0:0:0:
300,305,52642,1,0,0:0:0:0:
303,292,52749,1,0,0:0:0:0:
327,283,52856,5,8,3:2:0:0:
332,255,52963,1,0,0:0:0:0:
340,222,53070,1,0,0:0:0:0:
347,191,53177,1,0,0:0:0:0:
354,161,53284,5,12,3:3:0:0:
303,0,53499,1,0,3:0:0:0:
404,28,53713,6,0,B|395:67|395:67|331:54|259:99|265:163,1,215.999993408203,8|4,3:2|3:3,0:0:0:0:
264,152,54356,1,0,3:0:0:0:
44,0,54570,2,0,B|152:11|77:72|201:76,1,162,8|0,3:2|0:0,0:0:0:0:
187,78,54999,6,0,P|192:47|207:12,1,54,6|2,3:2|0:0,0:0:0:0:
161,235,55213,1,2,0:0:0:0:
160,226,55320,1,0,0:0:0:0:
159,216,55427,2,0,P|154:185|139:150,1,54,8|0,3:2|0:0,0:0:0:0:
78,116,55642,1,0,3:0:0:0:
231,288,55856,1,0,3:0:0:0:
231,288,56284,6,0,P|288:284|290:173,1,162,8|0,3:2|0:0,0:0:0:0:
310,194,56713,6,0,P|276:189|247:182,1,54,2|0,0:2|0:0,0:0:0:0:
416,149,56927,1,0,0:0:0:0:
406,145,57034,1,0,0:0:0:0:
396,141,57142,2,0,P|366:127|339:113,1,54,8|0,3:2|0:0,0:0:0:0:
504,113,57356,2,0,P|478:92|460:75,1,54
400,4,57570,5,0,3:0:0:0:
394,11,57677,1,0,3:0:0:0:
400,17,57784,1,4,3:3:0:0:
404,12,57892,1,4,3:3:0:0:
366,3,57999,5,8,3:2:0:0:
305,16,58106,1,4,3:3:0:0:
250,27,58213,1,4,3:3:0:0:
192,43,58320,1,0,0:0:0:0:
186,49,58427,6,0,P|190:98|251:112,1,108,6|0,3:2|0:0,0:0:0:0:
298,183,58749,1,0,0:0:0:0:
307,178,58856,2,0,P|326:156|325:114,1,54,8|0,3:2|0:0,0:0:0:0:
262,268,59070,1,0,3:0:0:0:
256,258,59177,1,0,0:0:0:0:
231,254,59284,5,0,0:0:0:0:
203,237,59392,1,0,0:0:0:0:
197,218,59499,2,0,P|182:198|185:164,1,54
326,342,59713,2,0,P|357:282|411:278,1,108,8|2,3:2|0:2,0:0:0:0:
401,282,60034,1,0,0:0:0:0:
411,290,60142,6,0,P|445:268|449:235,1,54,0|0,3:0|3:0,0:0:0:0:
496,191,60356,1,4,3:3:0:0:
491,182,60463,1,4,3:3:0:0:
482,169,60570,1,4,3:3:0:0:
386,188,60784,1,0,3:0:0:0:
376,182,60892,1,0,3:0:0:0:
361,173,60999,5,0,3:0:0:0:
333,184,61106,1,0,0:0:0:0:
304,199,61213,1,0,3:0:0:0:
270,218,61320,1,0,3:0:0:0:
240,244,61427,2,0,P|248:263|259:315,1,54,8|0,3:2|0:0,0:0:0:0:
273,22,61642,1,8,3:2:0:0:
265,29,61749,1,8,3:2:0:0:
265,41,61856,6,0,B|274:145|323:87|337:211,2,162,4|8|8,3:2|0:2|0:2,0:0:0:0:
494,13,62713,5,0,0:0:0:0:
500,20,62820,1,0,0:0:0:0:
494,30,62927,1,0,0:0:0:0:
482,29,63034,1,0,0:0:0:0:
480,17,63142,1,8,0:2:0:0:
487,42,63249,1,0,0:0:0:0:
480,69,63356,1,0,0:0:0:0:
452,87,63463,1,0,0:0:0:0:
407,93,63570,6,0,B|309:79|390:18|237:0,2,162,8|8|8,0:2|0:2|0:2,0:0:0:0:
6,159,64427,5,0,3:0:0:0:
12,169,64534,1,0,0:0:0:0:
35,176,64642,1,0,0:0:0:0:
63,172,64749,1,0,0:0:0:0:
82,163,64856,2,0,P|134:108|94:13,1,162,0|0,3:0|0:0,0:0:0:0:
19,0,65284,6,0,P|0:27|23:0,1,108,6|0,3:2|0:0,0:0:0:0:
41,13,66142,6,0,P|9:40|19:0,1,108,2|0,3:2|0:0,0:0:0:0:
19,0,66999,6,0,P|9:40|41:13,1,107.73,4|0,0:2|0:0,0:0:0:0:
297,228,68713,6,0,P|322:239|343:256,1,54,12|0,3:3|0:0,0:0:0:0:
429,359,68927,6,0,P|426:331|430:305,1,54,4|0,3:3|0:0,0:0:0:0:
477,180,69142,6,0,P|454:196|429:205,1,54,8|0,3:2|0:0,0:0:0:0:
419,201,69356,1,4,3:3:0:0:
327,0,69570,6,0,L|320:61,3,54,2|0|2|2,0:2|0:0|0:2|0:0,0:0:0:0:
245,9,69999,1,10,3:3:0:0:
241,132,70213,1,2,0:2:0:0:
236,140,70320,1,0,0:0:0:0:
232,149,70427,6,0,P|271:138|303:131,1,54,12|0,3:3|0:0,0:0:0:0:
457,14,70642,6,0,P|496:3|528:-4,1,54,4|0,3:3|0:0,0:0:0:0:
342,65,70856,6,0,P|368:71|394:79,1,54,8|0,3:2|0:0,0:0:0:0:
404,88,71070,1,0,0:0:0:0:
409,97,71177,1,0,0:0:0:0:
412,106,71284,6,0,P|397:166|384:231,1,108,6|0,3:3|0:0,0:0:0:0:
301,219,71606,1,0,0:0:0:0:
305,227,71713,2,0,P|314:260|316:284,1,54,4|0,3:2|0:0,0:0:0:0:
221,201,71927,2,0,P|224:174|231:148,1,54,0|0,3:0|0:0,0:0:0:0:
512,384,72142,6,0,P|483:369|445:357,1,54,14|0,3:3|0:0,0:0:0:0:
237,289,72356,6,0,P|208:304|170:316,1,54,4|0,0:2|0:0,0:0:0:0:
377,384,72570,6,0,P|386:343|399:315,1,54,4|0,3:2|0:0,0:0:0:0:
398,323,72784,1,0,3:0:0:0:
512,176,72999,6,0,P|471:183|454:186,3,54,2|0|0|0,0:2|0:0|0:0|0:0,0:0:0:0:
405,242,73427,1,10,3:2:0:0:
451,12,73642,1,2,0:2:0:0:
337,57,73856,6,0,P|366:63|410:84,1,54,14|0,3:3|0:0,0:0:0:0:
127,14,74070,6,0,P|156:8|200:-13,1,54,4|0,3:3|0:0,0:0:0:0:
230,119,74284,6,0,P|237:77|243:54,1,54,8|0,3:2|0:0,0:0:0:0:
248,59,74499,1,0,3:0:0:0:
88,224,74713,6,0,P|88:168|-19:156,1,162,6|0,3:2|0:0,0:0:0:0:
35,317,75142,2,0,P|79:268|185:269,1,162,6|0,3:2|0:0,0:0:0:0:
246,210,75570,6,0,P|250:237|253:266,1,54,12|0,3:3|0:0,0:0:0:0:
408,180,75784,6,0,P|382:169|356:158,1,54,4|0,3:3|0:0,0:0:0:0:
352,335,75999,6,0,P|373:318|396:300,1,54,8|0,3:2|0:0,0:0:0:0:
406,310,76213,1,4,0:3:0:0:
506,213,76427,6,0,L|513:183,4,27,2|2|2|2|2,0:0|0:0|0:0|0:0|0:0,0:0:0:0:
486,292,76856,5,10,1:3:0:0:
419,233,76963,1,2,0:2:0:0:
440,150,77070,1,2,0:2:0:0:
512,0,77284,6,0,P|450:8|400:51,1,108,12|2,3:3|0:2,0:0:0:0:
340,4,77606,2,0,P|328:22|315:60,1,54,12|0,3:3|0:0,0:0:0:0:
231,12,77820,2,0,P|233:78|268:140,1,108,2|0,0:2|0:0,0:0:0:0:
373,227,78142,5,2,0:2:0:0:
376,220,78249,1,2,0:2:0:0:
375,211,78356,1,2,0:2:0:0:
368,192,78463,1,2,0:2:0:0:
347,174,78570,2,0,P|320:178|294:187,1,54,10|0,3:3|0:0,0:0:0:0:
154,334,78784,2,0,P|180:329|206:320,1,54,2|0,0:2|0:0,0:0:0:0:
171,128,78999,5,6,3:2:0:0:
168,114,79106,1,2,0:2:0:0:
156,117,79213,1,2,0:2:0:0:
144,128,79320,1,2,0:2:0:0:
139,142,79427,2,0,P|149:187|156:232,3,54,14|2|2|2,3:2|0:2|0:2|0:2,0:0:0:0:
298,319,79856,6,0,P|303:292|309:266,3,54,4|2|0|2,3:2|0:2|3:0|0:2,0:0:0:0:
60,332,80284,6,0,P|70:377|77:422,3,54,8|2|0|2,3:2|0:2|3:0|0:2,0:0:0:0:
9,196,80713,5,0,3:0:0:0:
7,202,80820,1,2,0:2:0:0:
13,213,80927,1,8,0:2:0:0:
22,223,81034,1,2,0:2:0:0:
44,249,81142,5,0,3:0:0:0:
69,230,81249,1,2,0:2:0:0:
109,226,81356,1,0,3:0:0:0:
164,230,81463,1,2,0:2:0:0:
209,263,81570,5,0,3:0:0:0:
238,264,81677,1,2,0:2:0:0:
248,247,81784,1,4,3:3:0:0:
270,238,81892,1,12,3:2:0:0:
295,251,81999,5,0,3:0:0:0:
340,219,82106,1,0,0:0:0:0:
342,184,82213,2,0,L|333:155,3,27,4|0|4|0,3:3|0:0|3:3|0:0,0:0:0:0:
351,191,82427,6,0,L|366:106,1,67.5,14|0,3:3|0:0,0:0:0:0:
464,147,82642,6,0,L|449:62,1,67.5,2|0,0:2|0:0,0:0:0:0:
248,71,82856,6,0,L|263:-14,1,67.5,10|0,3:2|0:0,0:0:0:0:
271,0,83070,1,6,0:3:0:0:
123,210,83284,6,0,L|169:200,3,33.7500000000001,2|2|2|2,0:2|0:0|0:0|0:0,0:0:0:0:
185,166,83713,1,10,3:2:0:0:
129,384,83927,1,2,0:2:0:0:
60,317,84142,6,0,L|31:237,1,67.5,14|0,3:3|0:0,0:0:0:0:
199,306,84356,6,0,L|235:228,1,67.5,6|0,3:3|0:0,0:0:0:0:
285,382,84570,6,0,L|460:368,1,135,10|0,3:2|0:0,0:0:0:0:
419,371,84999,6,0,L|285:361,1,135,6|0,3:3|0:0,0:0:0:0:
496,336,85427,6,0,L|438:278,1,45,6|0,3:2|0:0,0:0:0:0:
512,239,85642,2,0,L|495:185,1,45,2|0,3:2|0:0,0:0:0:0:
512,0,85856,6,0,P|501:31|473:49,1,67.5,14|0,3:3|0:0,0:0:0:0:
431,137,86070,6,0,P|412:109|381:99,1,67.5,4|0,0:2|0:0,0:0:0:0:
319,20,86284,6,0,P|294:41|261:43,1,67.5,6|0,3:2|0:0,0:0:0:0:
248,35,86499,1,2,3:2:0:0:
315,182,86713,6,0,L|366:173,3,33.7500000000001,2|0|2|0,0:2|0:0|0:2|0:0,0:0:0:0:
250,132,87142,1,10,3:2:0:0:
315,384,87356,1,2,3:2:0:0:
74,236,87570,6,0,L|172:256,1,67.5,14|0,3:3|0:0,0:0:0:0:
208,303,87784,2,0,L|306:323,1,67.5,6|0,3:3|0:0,0:0:0:0:
34,341,87999,6,0,L|100:327,1,67.5,10|0,3:2|0:0,0:0:0:0:
235,214,88213,2,0,L|301:200,1,67.5,2|0,0:2|0:0,0:0:0:0:
116,51,88427,6,0,B|103:-17|202:-29|226:53|182:100|146:84|129:133|146:162,1,243,6|0,3:2|0:0,0:0:0:0:
116,51,88856,2,0,B|93:-14|1:22|20:106|81:126|105:95|144:129|143:163,1,243,2|0,3:3|0:0,0:0:0:0:
158,226,89284,6,0,P|161:249|156:226,1,67.5,14|0,3:3|0:0,0:0:0:0:
256,153,89499,6,0,P|235:141|258:146,1,67.5,2|0,0:2|0:0,0:0:0:0:
343,94,89713,6,0,P|361:78|344:95,1,67.5,10|0,3:2|0:0,0:0:0:0:
350,90,89927,1,6,0:3:0:0:
512,238,90142,6,0,L|481:232,4,16.875,2|2|2|2|2,0:2|0:0|0:0|0:0|0:0,0:0:0:0:
437,184,90463,1,2,3:2:0:0:
422,189,90570,1,10,3:2:0:0:
485,378,90784,1,2,0:2:0:0:
348,295,90999,6,0,P|381:295|409:314,1,67.5,14|0,3:3|0:0,0:0:0:0:
167,284,91213,6,0,P|200:284|228:265,1,67.5,6|0,3:3|0:0,0:0:0:0:
344,191,91427,6,0,P|313:265|289:394,1,202.5,10|0,3:2|0:0,0:0:0:0:
289,384,91856,6,0,P|271:284|234:190,1,202.5,6|0,3:3|0:0,0:0:0:0:
156,201,92284,2,0,P|124:176|130:128,1,67.5,6|0,3:2|0:0,0:0:0:0:
290,132,92499,2,0,P|295:91|340:72,1,67.5,2|0,3:2|0:0,0:0:0:0:
207,18,92713,6,0,P|201:58|156:77,1,67.5,14|0,3:3|0:0,0:0:0:0:
0,6,92927,6,0,P|37:-9|76:19,1,67.5,4|0,0:2|0:0,0:0:0:0:
94,192,93142,6,0,P|62:166|68:119,1,67.5,6|0,3:2|0:0,0:0:0:0:
66,133,93356,1,2,3:2:0:0:
207,305,93570,6,0,L|199:351,2,33.75,2|0|0,0:2|0:0|0:0,0:0:0:0:
234,281,93784,1,2,0:2:0:0:
224,265,93892,1,0,0:0:0:0:
211,246,93999,6,0,B|220:214|220:214|283:201,1,67.5,10|0,3:2|0:0,0:0:0:0:
338,116,94213,2,0,B|347:148|347:148|410:161,1,67.5,8|0,3:3|0:0,0:0:0:0:
352,297,94427,6,0,L|329:212,1,67.5,14|0,3:3|0:0,0:0:0:0:
241,108,94642,2,0,L|218:23,1,67.5,6|0,3:3|0:0,0:0:0:0:
150,170,94856,5,10,3:2:0:0:
418,91,95070,1,2,0:2:0:0:
512,302,95284,6,0,P|465:260|464:176,1,135,6|0,3:2|0:0,0:0:0:0:
457,191,95713,6,0,B|511:212|511:212|371:273|376:397,1,270,2|0,3:3|0:0,0:0:0:0:
377,364,96142,6,0,L|373:329,1,33.7500000000003,8|0,3:3|0:0,0:0:0:0:
318,0,96784,5,2,0:2:0:0:
318,0,96999,5,10,0:2:0:0:
316,28,97106,1,0,0:0:0:0:
293,41,97213,1,2,0:2:0:0:
303,67,97320,1,0,0:0:0:0:
287,77,97427,1,2,0:2:0:0:
358,155,97642,1,2,0:2:0:0:
213,0,97856,6,0,P|136:1|124:110,1,180,2|2,1:2|0:2,0:0:0:0:
109,88,98713,2,0,P|154:97|196:110,1,67.5000000000002,10|0,0:2|0:0,0:0:0:0:
234,163,99142,1,2,0:2:0:0:
180,232,99356,2,0,L|174:205,3,16.875
234,163,99570,6,0,P|200:232|174:338,1,162,6|0,3:2|0:0,0:0:0:0:
134,379,99999,2,0,P|102:369|88:334,1,67.5000000000002,2|0,0:2|0:0,0:0:0:0:
52,141,100427,5,10,0:2:0:0:
88,184,100642,1,0,0:0:0:0:
76,228,100856,1,2,0:2:0:0:
58,243,101070,1,0,0:0:0:0:
0,319,101284,6,0,P|48:270|165:253,1,180,2|2,1:2|0:2,0:0:0:0:
217,209,101927,1,0,0:0:0:0:
261,276,102142,1,10,0:2:0:0:
281,356,102356,1,2,0:2:0:0:
364,384,102570,2,0,P|383:365|393:347,1,45,2|0,0:2|0:0,0:0:0:0:
474,361,102784,2,0,P|481:330|485:300,1,45,2|0,0:2|0:0,0:0:0:0:
405,241,102999,5,2,1:2:0:0:
403,249,103106,1,2,0:2:0:0:
409,257,103213,1,2,0:2:0:0:
419,264,103320,5,2,0:2:0:0:
413,238,103427,1,2,0:2:0:0:
432,221,103534,1,2,0:2:0:0:
465,208,103642,1,2,0:2:0:0:
512,128,103856,1,10,0:2:0:0:
473,46,104070,1,2,0:2:0:0:
352,96,104284,5,10,0:2:0:0:
271,83,104392,1,10,0:2:0:0:
247,4,104499,1,10,0:2:0:0:
247,4,104713,6,0,P|231:62|168:61,1,108,10|2,3:3|0:2,0:0:0:0:
118,113,105034,2,0,P|112:79|102:44,1,54,2|0,1:2|0:0,0:0:0:0:
57,0,105249,2,0,P|8:16|0:67,1,108,2|0,0:2|0:0,0:0:0:0:
32,152,105570,5,10,1:2:0:0:
36,159,105677,1,2,0:2:0:0:
39,168,105784,1,2,0:2:0:0:
41,174,105892,1,2,0:2:0:0:
44,181,105999,1,2,0:2:0:0:
130,222,106213,1,2,0:2:0:0:
7,317,106427,5,2,1:2:0:0:
24,307,106534,1,0,0:0:0:0:
44,297,106642,1,0,0:0:0:0:
65,295,106749,1,0,0:0:0:0:
76,319,106856,5,2,0:2:0:0:
100,338,106963,1,0,0:0:0:0:
129,352,107070,1,0,0:0:0:0:
167,353,107177,1,0,0:0:0:0:
193,337,107284,6,0,L|202:285,3,33.7500000000001,10|0|0|0,0:2|0:0|0:0|0:0,0:0:0:0:
221,272,107713,2,0,L|212:220,3,33.7500000000001,2|0|0|0,0:2|0:0|0:0|0:0,0:0:0:0:
207,144,108142,5,0,3:0:0:0:
196,151,108249,1,2,0:2:0:0:
201,159,108356,1,2,0:2:0:0:
209,165,108463,1,2,0:2:0:0:
220,154,108570,5,2,0:2:0:0:
211,113,108677,1,2,0:2:0:0:
202,75,108784,1,2,0:2:0:0:
189,28,108892,1,2,0:2:0:0:
193,17,108999,1,8,0:2:0:0:
510,105,109856,6,0,P|419:67|442:-18,1,180,14|2,3:2|0:2,0:0:0:0:
425,0,110499,1,2,0:2:0:0:
339,91,110713,6,0,L|283:78,1,45,10|0,0:2|0:0,0:0:0:0:
221,27,110927,2,0,L|226:65,2,22.5,2|0|0,0:2|0:0|0:0,0:0:0:0:
113,194,111142,6,0,L|169:181,1,45,2|0,0:2|0:0,0:0:0:0:
232,136,111356,2,0,L|227:174,2,22.5,2|0|0,0:2|0:0|0:0,0:0:0:0:
236,251,111570,5,2,3:2:0:0:
138,85,111784,1,0,0:0:0:0:
0,186,111999,6,0,B|9:212|9:212|62:225|78:310,1,135,12|0,3:3|0:0,0:0:0:0:
73,290,112427,2,0,L|21:311,1,45,8|0,3:2|0:0,0:0:0:0:
139,384,112642,2,0,P|149:331|168:289,1,90,12|0,3:3|0:0,0:0:0:0:
363,216,112963,5,0,0:0:0:0:
356,226,113070,1,10,0:2:0:0:
351,238,113177,1,10,0:2:0:0:
345,247,113284,2,0,P|318:235|253:316,1,135,14|2,3:3|3:2,0:0:0:0:
275,373,113713,5,0,0:0:0:0:
351,337,113820,1,0,0:0:0:0:
425,384,113927,2,0,L|439:329,1,45,2|0,3:2|0:0,0:0:0:0:
484,172,114142,5,10,3:2:0:0:
484,172,114570,6,0,L|491:218,1,45,2|0,0:2|0:0,0:0:0:0:
512,289,114784,2,0,L|501:320,2,22.5,2|0|0,0:2|0:0|0:0,0:0:0:0:
425,263,114999,5,0,3:0:0:0:
413,257,115106,1,2,0:2:0:0:
400,252,115213,1,0,3:0:0:0:
388,247,115320,1,2,0:2:0:0:
338,175,115427,5,0,3:0:0:0:
309,187,115534,1,0,0:0:0:0:
277,199,115642,1,2,0:2:0:0:
248,213,115749,1,0,0:0:0:0:
198,279,115856,6,0,L|188:333,1,45,10|0,3:2|3:0,0:0:0:0:
158,156,116070,2,0,L|168:210,1,45,10|0,3:3|3:0,0:0:0:0:
214,101,116284,5,2,3:2:0:0:
200,59,116392,1,0,0:0:0:0:
231,31,116499,1,10,3:2:0:0:
217,0,116606,1,10,3:2:0:0:
229,11,116713,6,0,L|103:44,1,108,10|0,3:2|0:0,0:0:0:0:
0,34,117034,6,0,L|91:126,1,108,2|0,3:2|0:0,0:0:0:0:
148,167,117356,6,0,L|162:115,1,54,2|0,3:2|0:0,0:0:0:0:
82,234,117570,5,10,3:2:0:0:
160,384,117784,1,2,0:2:0:0:
31,314,117999,5,2,0:2:0:0:
21,327,118106,1,2,0:2:0:0:
43,325,118213,2,0,L|77:318,2,27,2|0|0,0:2|0:0|0:0,0:0:0:0:
110,384,118427,6,0,P|118:324|214:310,1,162,4|0,3:2|0:0,0:0:0:0:
261,201,118856,6,0,P|287:273|369:266,1,162,0|0,3:0|0:0,0:0:0:0:
423,349,119284,6,0,P|436:296|464:248,1,108,8|0,3:2|0:0,0:0:0:0:
403,199,119606,1,0,0:0:0:0:
391,194,119713,2,0,P|375:163|377:134,1,54,4|0,3:2|0:0,0:0:0:0:
477,169,119927,2,0,P|487:135|509:116,1,54,4|0,0:2|0:0,0:0:0:0:
502,17,120142,5,2,3:2:0:0:
489,40,120249,1,2,0:2:0:0:
468,57,120356,1,2,0:2:0:0:
449,64,120463,1,2,0:2:0:0:
433,65,120570,2,0,L|375:54,3,54,2|2|2|2,3:2|0:2|0:2|0:2,0:0:0:0:
272,0,120999,6,0,L|280:64,1,54,8|2,3:2|0:2,0:0:0:0:
193,197,121213,2,0,L|201:261,1,54,4|0,3:2|0:0,0:0:0:0:
246,126,121427,5,2,0:2:0:0:
239,124,121534,1,0,3:0:0:0:
237,132,121642,1,2,0:2:0:0:
240,140,121749,1,2,0:2:0:0:
215,108,121856,5,6,3:2:0:0:
161,83,121963,1,2,3:2:0:0:
106,92,122070,2,0,L|97:152,1,54,2|0,3:2|0:0,0:0:0:0:
55,9,122284,5,2,3:2:0:0:
155,216,122499,1,4,3:2:0:0:
11,384,122713,6,0,B|2:336|29:308|42:321|83:288|64:231,1,162,6|0,3:2|0:0,0:0:0:0:
3,194,123142,2,0,B|-1:180|-1:180|10:154|10:154|-6:112,2,72,2|2|2,3:2|0:2|0:2,0:0:0:0:
163,384,123570,6,0,B|160:351|129:336|129:336|140:288|196:272|196:272|263:318|349:294|420:211|378:52|202:44|165:163,1,630,6|0,3:2|0:0,0:0:0:0:
103,186,124427,6,0,B|73:219|73:219|114:198,1,90,8|0,3:2|0:0,0:0:0:0:
164,144,124642,1,4,3:3:0:0:
198,155,124749,1,4,3:3:0:0:
236,167,124856,1,4,3:3:0:0:
277,179,124963,1,0,3:0:0:0:
330,198,125070,1,0,3:0:0:0:
388,220,125177,1,0,3:0:0:0:
457,245,125284,6,0,B|466:266|466:266|458:290|458:290|474:323,2,67.5,6|6|6,3:2|3:3|3:3,0:0:0:0:
447,80,125606,6,0,B|456:58|456:58|448:35|448:35|464:2,2,67.5,6|6|6,3:2|3:3|3:3,0:0:0:0:
512,121,125927,1,6,3:2:0:0:
280,267,126142,5,8,3:2:0:0:
280,267,126356,5,2,0:2:0:0:
291,253,126463,1,2,0:2:0:0:
298,236,126570,1,2,0:2:0:0:
298,216,126677,1,2,0:2:0:0:
287,199,126784,1,2,0:2:0:0:
263,188,126892,1,2,0:2:0:0:
238,201,126999,6,0,B|226:170|197:157|197:157|248:9,1,202.5,14|2,3:3|3:2,0:0:0:0:
335,0,127427,1,2,0:2:0:0:
350,12,127534,1,0,0:0:0:0:
343,36,127642,1,0,3:0:0:0:
322,38,127749,1,0,0:0:0:0:
315,19,127856,1,8,3:2:0:0:
169,80,128070,6,0,L|163:47,3,27,2|0|2|0,0:2|0:0|0:2|0:0,0:0:0:0:
125,143,128284,1,2,0:2:0:0:
4,0,128499,2,0,L|0:26,3,27,2|0|0|0,0:2|0:0|0:0|0:0,0:0:0:0:
32,90,128713,5,2,3:2:0:0:
14,106,128820,1,2,0:2:0:0:
25,137,128927,5,0,3:0:0:0:
7,153,129034,1,2,0:2:0:0:
15,190,129142,2,0,B|24:207|24:207|14:255,3,54,0|2|2|2,3:0|0:2|0:2|0:2,0:0:0:0:
52,312,129570,5,10,3:2:0:0:
102,299,129677,1,2,3:0:0:0:
148,336,129784,1,2,3:2:0:0:
198,328,129892,1,2,3:2:0:0:
242,360,129999,5,0,3:0:0:0:
276,318,130106,1,2,0:2:0:0:
262,269,130213,1,2,0:2:0:0:
292,240,130320,1,2,0:2:0:0:
281,199,130427,6,0,L|286:178,2,16.875,6|0|0,3:2|3:0|3:0,0:0:0:0:
365,177,130642,1,0,3:0:0:0:
370,159,130749,2,0,L|365:138,2,16.875,6|0|0,3:2|3:0|3:0,0:0:0:0:
433,223,130963,5,0,3:2:0:0:
483,184,131070,1,4,3:2:0:0:
473,143,131177,1,0,0:0:0:0:
496,98,131284,1,8,0:2:0:0:
381,5,131499,5,2,0:2:0:0:
381,5,131606,1,2,0:2:0:0:
465,3,131713,5,2,0:2:0:0:
461,39,131820,1,2,0:2:0:0:
444,75,131927,1,2,0:2:0:0:
404,95,132034,1,2,0:2:0:0:
361,103,132142,6,0,L|314:111,3,33.7500000000001,4|0|0|0,3:2|3:0|3:0|3:0,0:0:0:0:
258,60,132570,2,0,L|250:86,4,16.875,0|0|0|0|0,3:0|0:0|0:0|0:0|0:0,0:0:0:0:
199,204,132999,5,8,3:2:0:0:
142,0,133213,1,0,0:0:0:0:
0,136,133427,6,0,P|31:122|46:88,1,54,2|0,3:3|0:0,0:0:0:0:
116,133,133642,2,0,P|128:101|114:66,1,54
17,12,133856,5,4,3:2:0:0:
6,15,133963,1,2,0:2:0:0:
5,21,134070,1,2,0:2:0:0:
8,32,134177,1,2,0:2:0:0:
14,35,134284,2,0,P|46:30|63:12,3,54,12|2|2|2,3:2|0:2|0:2|0:2,0:0:0:0:
171,111,134713,2,0,P|139:106|122:88,3,54,0|0|0|2,0:0|0:0|3:0|0:2,0:0:0:0:
18,220,135142,2,0,P|50:215|67:197,1,54,10|2,3:2|0:2,0:0:0:0:
124,280,135356,2,0,P|149:259|154:235,1,54,6|2,3:3|0:2,0:0:0:0:
243,267,135570,5,6,3:2:0:0:
271,226,135677,1,2,0:2:0:0:
276,182,135784,1,2,0:2:0:0:
260,129,135892,1,2,0:2:0:0:
225,70,135999,5,10,3:2:0:0:
224,88,136106,1,2,0:2:0:0:
239,95,136213,1,2,0:2:0:0:
251,80,136320,1,0,3:0:0:0:
241,63,136427,2,0,L|234:32,6,27,2|0|0|0|0|0|0,0:3|0:0|0:0|0:0|0:0|0:0|0:0,0:0:0:0:
348,64,136856,6,0,P|372:18|405:-4,2,71.9999978027344,4|2|2,0:2|0:2|0:2,0:0:0:0:
418,126,137284,6,0,P|454:134|474:183,1,67.5,14|0,3:3|0:0,0:0:0:0:
464,267,137499,6,0,P|439:294|386:286,1,67.5,2|0,0:2|0:0,0:0:0:0:
318,236,137713,6,0,P|306:200|339:159,1,67.5,10|0,3:2|0:0,0:0:0:0:
326,169,137927,2,0,L|362:179,3,33.75,6|0|0|0,0:3|0:0|0:0|0:0,0:0:0:0:
254,132,138142,5,2,0:2:0:0:
224,141,138249,1,0,0:0:0:0:
190,125,138356,1,0,0:0:0:0:
158,139,138463,1,0,0:0:0:0:
116,130,138570,5,10,3:2:0:0:
0,0,138784,1,2,0:2:0:0:
117,19,138999,6,0,P|99:47|52:55,1,67.5,14|0,3:3|0:0,0:0:0:0:
0,152,139213,6,0,P|18:180|65:188,1,67.5,6|0,3:3|0:0,0:0:0:0:
122,266,139427,6,0,P|82:295|-17:302,1,135,10|0,3:2|0:0,0:0:0:0:
0,306,139856,6,0,P|81:324|124:366,1,135,6|0,3:3|0:0,0:0:0:0:
190,384,140284,6,0,P|207:368|216:348,1,45,6|0,3:2|0:0,0:0:0:0:
296,344,140499,2,0,P|297:321|289:300,1,45,2|0,3:2|0:0,0:0:0:0:
189,184,140713,6,0,L|209:253,1,67.5,14|0,3:3|0:0,0:0:0:0:
298,171,140927,6,0,L|316:106,1,67.5,4|0,0:2|0:0,0:0:0:0:
195,8,141142,6,0,L|215:77,1,67.5,6|0,3:2|0:0,0:0:0:0:
210,87,141356,1,2,3:2:0:0:
391,40,141570,6,0,L|534:14,2,135,2|2|10,0:2|0:2|3:2,0:0:0:0:
512,129,142213,2,0,L|431:105,1,67.5
305,21,142427,6,0,P|305:58|334:94,1,67.5,14|0,3:3|0:0,0:0:0:0:
358,224,142642,2,0,P|358:187|387:151,1,67.5,6|0,3:3|0:0,0:0:0:0:
207,167,142856,6,0,L|313:153,1,67.5,10|0,3:2|0:0,0:0:0:0:
444,212,143070,2,0,L|510:220,1,67.5,2|0,0:2|0:0,0:0:0:0:
141,262,143284,6,0,B|128:194|227:182|251:264|207:311|171:295|154:344|171:373,1,243,6|0,3:2|0:0,0:0:0:0:
141,262,143713,2,0,B|118:197|26:233|45:317|106:339|130:306|169:340|168:374,1,243,2|0,3:3|0:0,0:0:0:0:
111,154,144142,6,0,B|101:135|101:135|124:123|124:123|137:146,1,67.5,14|0,3:3|0:0,0:0:0:0:
278,63,144356,6,0,B|268:80|268:80|245:68|245:68|255:49,1,67.5,2|0,0:2|0:0,0:0:0:0:
95,13,144570,6,0,B|85:-6|85:-6|108:-18|108:-18|121:5,1,67.5,10|0,3:2|0:0,0:0:0:0:
125,2,144784,1,6,0:3:0:0:
0,99,144999,6,0,L|38:106,6,33.75,2|0|0|0|0|0|0,0:2|0:0|0:0|0:0|0:0|0:0|0:0,0:0:0:0:
64,175,145427,1,10,3:2:0:0:
341,132,145642,1,2,0:2:0:0:
238,384,145856,6,0,P|244:337|268:304,1,67.5,14|0,3:3|0:0,0:0:0:0:
168,263,146070,2,0,P|205:234|245:227,1,67.5,6|0,3:3|0:0,0:0:0:0:
210,138,146284,6,0,B|340:138|273:215|404:205,1,202.5,10|0,3:2|0:0,0:0:0:0:
405,194,146713,6,0,P|377:96|338:2,1,202.5,6|0,3:3|0:0,0:0:0:0:
444,47,147142,6,0,P|461:16|493:-2,1,67.5,6|0,3:2|0:0,0:0:0:0:
281,77,147356,2,0,P|316:76|347:94,1,67.5,2|0,3:2|0:0,0:0:0:0:
451,191,147570,6,0,P|443:164|423:109,1,67.5,14|0,3:3|0:0,0:0:0:0:
445,306,147784,6,0,P|472:312|530:322,1,67.5,4|0,0:2|0:0,0:0:0:0:
348,243,147999,6,0,P|328:263|290:308,1,67.5,6|0,3:2|0:0,0:0:0:0:
291,289,148213,1,2,3:2:0:0:
129,384,148427,6,0,L|123:330,3,45,2|0|2|0,0:2|0:0|0:2|0:0,0:0:0:0:
205,314,148856,2,0,L|214:250,1,45,10|0,3:2|0:0,0:0:0:0:
141,215,149070,2,0,L|132:151,1,45,8|0,3:3|0:0,0:0:0:0:
252,47,149284,6,0,P|280:30|292:0,1,67.5,14|0,3:3|0:0,0:0:0:0:
45,159,149499,2,0,P|16:142|4:111,1,67.5,6|0,3:3|0:0,0:0:0:0:
226,134,149713,5,10,3:2:0:0:
33,7,149927,1,2,0:2:0:0:
126,152,150142,2,0,B|98:89|152:18|219:11|219:11|239:44|251:46,1,243,6|0,3:2|0:0,0:0:0:0:
408,18,150570,6,0,B|356:60|315:125|315:125|304:123|304:123|330:67|338:8,1,270,2|0,3:3|0:0,0:0:0:0:
215,118,150999,5,12,3:3:0:0:
381,188,151213,1,8,3:0:0:0:
255,274,151427,1,4,3:2:0:0:
