osu file format v14

[General]
AudioFilename: audio.mp3
AudioLeadIn: 0
PreviewTime: 151347
Countdown: 0
SampleSet: Normal
StackLeniency: 0.7
Mode: 0
LetterboxInBreaks: 0
WidescreenStoryboard: 0

[Editor]
Bookmarks: 16158
DistanceSpacing: 0.6
BeatDivisor: 4
GridSize: 8
TimelineZoom: 1

[Metadata]
Title:Czlowiek jest najwazniejszy
TitleUnicode:Człowiek jest najważniejszy
Artist:Polskie Stronnictwo Ludowe
ArtistUnicode:Polskie Stronnictwo Ludowe
Creator:Chalwa
Version:Waldemar Pawlak
Source:
Tags:polish jump polska spot wyborczy PSL wybory fun dla polski wstaje nowy dzien
BeatmapID:1554358
BeatmapSetID:736473

[Difficulty]
HPDrainRate:5
CircleSize:3.8
OverallDifficulty:8.6
ApproachRate:9.3
SliderMultiplier:1.8
SliderTickRate:1

[Events]
//Background and Video events
0,0,"116394_pole_droga.jpg",0,0
//Break Periods
//Storyboard Layer 0 (Background)
//Storyboard Layer 1 (Fail)
//Storyboard Layer 2 (Pass)
//Storyboard Layer 3 (Foreground)
//Storyboard Layer 4 (Overlay)
//Storyboard Sound Samples

[TimingPoints]
748,342.465753424658,4,1,1,50,1,0
6227,-125,4,1,1,50,0,0
11706,-100,4,1,1,50,0,0
22665,-142.857142857143,4,2,1,40,0,0
33624,-111.111111111111,4,1,1,40,0,0
37734,-71.4285714285714,4,1,1,50,0,0
39104,-111.111111111111,4,1,1,40,0,0
41843,-111.111111111111,4,1,1,50,0,0
44583,-90.9090909090909,4,1,1,60,0,1
66501,-111.111111111111,4,1,1,50,0,0
77460,-142.857142857143,4,2,1,40,0,0
88419,-100,4,1,1,40,0,0
92528,-66.6666666666667,4,1,1,50,0,0
93213,-55.5555555555556,4,1,1,50,0,0
93898,-100,4,1,1,40,0,0
99378,-83.3333333333333,4,1,1,60,0,1
121295,-100,4,1,1,50,0,0
132254,-125,4,2,1,40,0,0
143213,-100,4,1,1,40,0,0
147323,-62.5,4,1,1,50,0,0
148008,-50,4,1,1,50,0,0
148693,-100,4,1,1,40,0,0
154172,-166.666666666667,4,2,1,60,0,0
174720,-83.3333333333333,4,1,1,60,0,0
176110,342.465753424658,4,1,1,70,1,1
176110,-66.6666666666667,4,1,1,70,0,1
198029,-66.6666666666667,4,1,1,50,0,0
199398,-66.6666666666667,4,1,1,20,0,0

[HitObjects]
400,295,11706,5,6,0:3:0:0:
345,97,11878,1,2,0:0:0:0:
266,250,12049,2,0,L|171:257,1,90,8|2,0:0|0:0,0:0:0:0:
155,97,12391,1,4,0:0:0:0:
161,141,12477,1,0,0:0:0:0:
167,186,12563,1,2,0:0:0:0:
88,319,12734,1,8,0:0:0:0:
94,274,12819,1,0,0:0:0:0:
100,229,12905,1,6,0:0:0:0:
202,38,13076,5,6,0:0:0:0:
266,250,13248,1,2,0:0:0:0:
312,94,13419,2,0,L|403:85,1,90,8|2,0:0|0:0,0:0:0:0:
355,258,13761,1,4,0:0:0:0:
310,253,13847,1,0,0:0:0:0:
265,249,13932,1,2,0:0:0:0:
124,118,14104,1,8,0:0:0:0:
168,113,14189,1,0,0:0:0:0:
213,109,14275,1,4,0:0:0:0:
52,244,14446,5,4,0:0:0:0:
69,52,14617,1,2,0:0:0:0:
203,180,14789,2,0,L|316:185,1,90,8|2,0:0|0:0,0:0:0:0:
427,150,15131,1,4,0:0:0:0:
287,292,15302,1,2,0:0:0:0:
341,112,15474,1,8,0:0:0:0:
425,292,15645,1,4,0:0:0:0:
292,183,15816,6,0,L|203:180,1,90,4|2,0:0|0:0,0:0:0:0:
209,23,16158,2,0,L|298:26,1,90,8|2,0:0|0:0,0:0:0:0:
369,63,16415,1,0,0:0:0:0:
369,63,16501,2,0,P|377:110|365:155,1,90,4|2,0:0|0:0,0:0:0:0:
247,260,16843,1,8,0:0:0:0:
257,105,17015,1,4,0:0:0:0:
331,314,17186,5,6,0:3:0:0:
168,313,17357,1,2,0:0:0:0:
240,173,17528,2,0,P|254:214|245:263,1,90,8|2,0:0|0:0,0:0:0:0:
83,180,17871,1,4,0:0:0:0:
112,146,17956,1,0,0:0:0:0:
154,131,18042,1,2,0:0:0:0:
168,313,18213,1,8,0:0:0:0:
124,304,18299,1,0,0:0:0:0:
90,276,18384,1,6,0:0:0:0:
240,173,18556,5,6,0:0:0:0:
237,363,18727,1,2,0:0:0:0:
396,265,18898,2,0,P|410:216|397:177,1,90,8|2,0:0|0:0,0:0:0:0:
239,277,19241,1,4,0:0:0:0:
225,319,19326,1,0,0:0:0:0:
236,362,19412,1,2,0:0:0:0:
325,168,19583,1,8,0:0:0:0:
338,125,19669,1,0,0:0:0:0:
327,82,19754,1,4,0:0:0:0:
310,273,19926,5,4,0:0:0:0:
432,154,20097,1,2,0:0:0:0:
260,125,20268,2,0,L|154:120,1,90,8|2,0:0|0:0,0:0:0:0:
162,270,20611,2,0,L|219:180,1,90,4|2,0:0|0:0,0:0:0:0:
82,113,20953,2,0,L|130:207,1,90,8|4,0:0|0:0,0:0:0:0:
204,343,21295,5,4,0:0:0:0:
352,170,21467,1,8,0:0:0:0:
123,192,21638,1,8,0:0:0:0:
287,226,21809,1,2,0:0:0:0:
150,47,21980,1,12,0:0:0:0:
123,192,22152,1,2,0:0:0:0:
299,62,22323,1,8,0:0:0:0:
299,62,22494,1,12,0:0:0:0:
352,170,22665,6,0,L|364:317,1,125.999996154785,6|8,0:3|0:0,0:0:0:0:
432,372,23179,1,0,0:0:0:0:
487,285,23350,2,0,L|340:297,1,125.999996154785,4|8,0:3|0:0,0:0:0:0:
267,344,23864,1,4,0:3:0:0:
166,223,24035,6,0,L|161:145,1,62.9999980773926
233,268,24378,2,0,P|191:298|108:279,2,125.999996154785,8|4|8,0:0|0:3|0:0,0:0:0:0:
282,184,25234,1,4,0:3:0:0:
340,375,25405,5,0,0:0:0:0:
352,267,25576,1,0,0:0:0:0:
282,184,25748,2,0,L|271:100,1,62.9999980773926,8|0,0:0|0:0,0:0:0:0:
196,194,26090,2,0,L|207:278,1,62.9999980773926,4|0,0:3|0:0,0:0:0:0:
111,204,26432,2,0,L|100:120,1,62.9999980773926,8|4,0:0|0:3,0:0:0:0:
154,16,26775,5,0,0:0:0:0:
154,16,26946,1,0,0:0:0:0:
102,141,27117,2,0,P|71:147|30:139,1,62.9999980773926,8|0,0:0|0:0,0:0:0:0:
112,259,27460,2,0,P|122:229|149:197,1,62.9999980773926,4|0,0:3|0:0,0:0:0:0:
5,208,27802,2,0,P|25:231|39:271,1,62.9999980773926,8|4,0:0|0:3,0:0:0:0:
120,365,28145,5,0,0:0:0:0:
112,259,28316,1,0,0:0:0:0:
205,354,28487,2,0,L|283:344,1,62.9999980773926,8|0,0:0|0:0,0:0:0:0:
317,231,28830,2,0,L|190:247,1,125.999996154785,4|8,0:3|0:0,0:0:0:0:
320,301,29343,1,4,0:3:0:0:
317,150,29515,5,0,0:0:0:0:
236,86,29686,2,0,L|166:95,1,62.9999980773926,0|8,0:0|0:0,0:0:0:0:
112,180,30028,1,0,0:0:0:0:
192,247,30200,2,0,P|197:206|188:179,1,62.9999980773926,4|0,0:3|0:0,0:0:0:0:
108,254,30542,2,0,P|103:295|112:322,1,62.9999980773926,8|4,0:0|0:3,0:0:0:0:
215,384,30884,5,0,0:0:0:0:
285,314,31056,2,0,P|291:283|285:252,1,62.9999980773926,0|8,0:0|0:0,0:0:0:0:
246,163,31398,1,0,0:0:0:0:
313,90,31569,2,0,L|377:88,1,62.9999980773926,4|0,0:3|0:0,0:0:0:0:
443,166,31912,2,0,L|379:168,1,62.9999980773926,8|4,0:0|0:3,0:0:0:0:
246,163,32254,6,0,P|211:105|231:39,1,125.999996154785,0|8,0:0|0:0,0:0:0:0:
313,90,32768,1,0,0:0:0:0:
246,163,32939,2,0,L|162:171,1,62.9999980773926,4|0,0:3|0:0,0:0:0:0:
16,280,33282,1,8,0:1:0:0:
76,167,33453,1,4,0:3:0:0:
28,365,33624,5,6,0:3:0:0:
5,205,33795,1,0,0:0:0:0:
160,328,33967,2,0,L|254:319,1,80.9999975280763,8|0,0:0|0:0,0:0:0:0:
176,170,34309,2,0,P|172:212|189:251,1,80.9999975280763,4|0,0:0|0:0,0:0:0:0:
258,104,34652,1,12,0:0:0:0:
97,116,34823,1,4,0:0:0:0:
264,199,34994,6,0,B|307:214|307:214|436:197,1,161.999995056153,4|8,0:0|0:0,0:0:0:0:
313,120,35508,1,0,0:0:0:0:
340,286,35679,2,0,L|436:272,1,80.9999975280763,4|0,0:0|0:0,0:0:0:0:
393,108,36021,2,0,L|297:122,1,80.9999975280763,12|4,0:0|0:0,0:0:0:0:
127,147,36364,5,4,0:0:0:0:
246,78,36535,1,0,0:0:0:0:
247,300,36706,1,8,0:0:0:0:
128,231,36878,1,0,0:0:0:0:
298,230,37049,2,0,L|391:230,1,80.9999975280763,4|0,0:0|0:0,0:0:0:0:
246,148,37391,1,12,0:0:0:0:
247,300,37563,1,4,0:0:0:0:
323,155,37734,6,0,P|299:61|252:154,1,251.999992309571,6|8,0:3|0:0,0:0:0:0:
247,300,38248,1,0,0:0:0:0:
386,200,38419,6,0,P|412:106|325:163,1,251.999992309571,6|12,0:3|0:0,0:0:0:0:
248,304,38932,1,4,0:0:0:0:
460,295,39104,5,6,0:3:0:0:
386,200,39275,1,2,0:0:0:0:
328,306,39446,2,0,L|231:303,1,80.9999975280763,8|2,0:0|0:0,0:0:0:0:
164,165,39789,2,0,L|261:168,1,80.9999975280763,4|2,0:0|0:0,0:0:0:0:
107,263,40131,1,12,0:0:0:0:
107,74,40302,1,6,0:0:0:0:
307,94,40474,6,0,P|340:148|309:240,1,161.999995056153,4|8,0:0|0:0,0:0:0:0:
200,334,40987,1,2,0:0:0:0:
233,166,41158,1,4,0:0:0:0:
290,329,41330,1,2,0:0:0:0:
158,244,41501,1,12,0:0:0:0:
312,237,41672,1,6,0:0:0:0:
132,382,41843,5,6,0:3:0:0:
148,169,42015,1,2,0:0:0:0:
58,372,42186,5,8,0:0:0:0:
206,218,42357,1,2,0:0:0:0:
13,313,42528,5,6,0:3:0:0:
225,290,42700,1,2,0:0:0:0:
29,244,42871,5,12,0:0:0:0:
206,362,43042,1,6,0:0:0:0:
75,174,43213,5,6,0:3:0:0:
279,347,43384,1,8,0:0:0:0:
191,98,43556,1,8,0:0:0:0:
29,244,43727,1,2,0:0:0:0:
320,285,43898,1,12,0:0:0:0:
116,112,44069,5,2,0:0:0:0:
206,362,44241,1,8,0:0:0:0:
379,158,44412,1,12,0:0:0:0:
176,32,44583,6,0,P|80:24|16:112,1,198.000006042481,6|8,0:3|0:0,0:0:0:0:
0,254,45097,1,2,0:0:0:0:
116,109,45268,1,4,0:0:0:0:
109,273,45439,1,2,0:0:0:0:
18,95,45611,1,12,0:0:0:0:
224,81,45782,1,6,0:0:0:0:
264,336,45953,6,0,P|216:353|107:258,1,198.000006042481,6|8,0:3|0:0,0:0:0:0:
16,176,46467,1,2,0:0:0:0:
208,157,46638,2,0,P|223:201|208:256,1,99.0000030212403,4|2,0:0|0:0,0:0:0:0:
74,66,46980,1,12,0:0:0:0:
272,35,47152,1,6,0:0:0:0:
211,250,47323,5,6,0:3:0:0:
175,55,47494,1,2,0:0:0:0:
308,228,47665,1,8,0:0:0:0:
113,264,47837,1,2,0:0:0:0:
269,30,48008,5,6,0:3:0:0:
74,66,48179,1,2,0:0:0:0:
211,250,48350,1,12,0:0:0:0:
175,55,48521,1,6,0:0:0:0:
113,264,48693,5,6,0:3:0:0:
296,112,48864,1,2,0:0:0:0:
183,315,49035,1,8,0:0:0:0:
224,80,49206,2,0,P|255:45|307:34,1,99.0000030212403,2|4,0:0|0:0,0:0:0:0:
489,176,49549,1,2,0:0:0:0:
408,2,49720,1,12,0:0:0:0:
323,170,49891,1,6,0:0:0:0:
128,209,50063,6,0,P|61:202|2:86,1,198.000006042481,6|8,0:3|0:0,0:0:0:0:
202,132,50576,1,2,0:0:0:0:
120,309,50748,1,4,0:0:0:0:
103,106,50919,1,2,0:0:0:0:
225,306,51090,2,0,L|333:311,1,99.0000030212403,12|6,0:0|0:0,0:0:0:0:
501,167,51432,5,6,0:3:0:0:
442,329,51604,1,2,0:0:0:0:
409,101,51775,1,8,0:0:0:0:
344,259,51946,1,2,0:0:0:0:
501,167,52117,2,0,P|510:124|501:66,1,99.0000030212403,4|2,0:0|0:0,0:0:0:0:
282,74,52460,2,0,P|273:117|282:175,1,99.0000030212403,12|6,0:0|0:0,0:0:0:0:
332,322,52802,5,6,0:3:0:0:
105,276,52974,1,2,0:0:0:0:
279,270,53145,5,8,0:0:0:0:
29,320,53316,1,2,0:0:0:0:
277,126,53487,5,6,0:3:0:0:
84,363,53658,1,2,0:0:0:0:
208,81,53830,5,12,0:0:0:0:
159,382,54001,1,6,0:0:0:0:
126,89,54172,5,6,0:3:0:0:
234,374,54343,1,2,0:0:0:0:
401,126,54515,1,8,0:0:0:0:
116,234,54686,1,2,0:0:0:0:
400,334,54857,1,4,0:0:0:0:
292,49,55028,5,2,0:0:0:0:
192,286,55200,1,12,0:0:0:0:
401,126,55371,1,6,0:0:0:0:
118,13,55542,5,6,0:3:0:0:
139,149,55713,1,2,0:0:0:0:
292,49,55884,2,0,P|341:36|401:49,1,99.0000030212403,8|2,0:0|0:0,0:0:0:0:
454,201,56227,1,4,0:0:0:0:
347,126,56398,1,2,0:0:0:0:
413,342,56569,1,12,0:0:0:0:
454,201,56741,1,6,0:0:0:0:
246,289,56912,6,0,P|158:303|81:227,1,198.000006042481,6|8,0:3|0:0,0:0:0:0:
198,166,57426,1,2,0:0:0:0:
315,341,57597,1,4,0:0:0:0:
302,210,57768,1,2,0:0:0:0:
70,364,57939,1,12,0:0:0:0:
83,233,58111,1,6,0:0:0:0:
315,341,58282,5,6,0:3:0:0:
335,124,58453,1,2,0:0:0:0:
436,364,58624,1,8,0:0:0:0:
456,147,58795,1,2,0:0:0:0:
315,341,58967,5,6,0:3:0:0:
98,321,59138,1,2,0:0:0:0:
338,220,59309,1,12,0:0:0:0:
121,200,59480,1,6,0:0:0:0:
315,341,59652,5,6,0:3:0:0:
229,106,59823,1,2,0:0:0:0:
98,321,59994,1,8,0:0:0:0:
338,220,60165,2,0,L|456:215,1,99.0000030212403,2|4,0:0|0:0,0:0:0:0:
229,106,60508,5,2,0:0:0:0:
239,338,60679,1,12,0:0:0:0:
436,215,60850,1,6,0:0:0:0:
229,106,61021,6,0,P|157:82|45:122,1,198.000006042481,6|8,0:3|0:0,0:0:0:0:
147,204,61535,1,2,0:0:0:0:
137,0,61706,1,4,0:0:0:0:
229,106,61878,1,2,0:0:0:0:
44,259,62049,1,12,0:0:0:0:
142,106,62220,1,6,0:0:0:0:
286,311,62391,5,6,0:3:0:0:
147,204,62563,1,2,0:0:0:0:
379,150,62734,2,0,P|395:199|383:243,1,99.0000030212403,8|2,0:0|0:0,0:0:0:0:
265,74,63076,1,4,0:0:0:0:
438,35,63248,1,2,0:0:0:0:
304,247,63419,1,12,0:0:0:0:
265,74,63590,1,6,0:0:0:0:
477,208,63761,5,6,0:3:0:0:
224,255,63932,1,2,0:0:0:0:
434,272,64104,5,8,0:0:0:0:
191,186,64275,1,2,0:0:0:0:
378,324,64446,5,6,0:3:0:0:
160,69,64617,1,2,0:0:0:0:
434,272,64789,5,12,0:0:0:0:
117,160,64960,1,6,0:0:0:0:
477,208,65131,5,6,0:3:0:0:
146,269,65302,1,2,0:0:0:0:
286,49,65474,1,8,0:0:0:0:
347,380,65645,1,2,0:0:0:0:
460,90,65816,1,4,0:0:0:0:
129,151,65987,1,2,0:0:0:0:
477,208,66158,1,12,0:0:0:0:
146,269,66330,1,6,0:0:0:0:
286,49,66501,5,6,0:3:0:0:
308,222,66672,1,2,0:0:0:0:
189,114,66843,2,0,L|82:108,1,80.9999975280763,8|2,0:0|0:0,0:0:0:0:
146,269,67186,1,4,0:0:0:0:
155,229,67271,1,0,0:0:0:0:
148,189,67357,1,2,0:0:0:0:
73,305,67528,1,8,0:0:0:0:
63,344,67614,1,0,0:0:0:0:
70,384,67700,1,6,0:0:0:0:
224,267,67871,5,6,0:0:0:0:
61,223,68042,1,2,0:0:0:0:
202,139,68213,2,0,P|211:96|196:57,1,80.9999975280763,8|2,0:0|0:0,0:0:0:0:
41,99,68556,1,4,0:0:0:0:
81,100,68641,1,0,0:0:0:0:
121,101,68727,1,2,0:0:0:0:
141,221,68898,1,8,0:0:0:0:
101,222,68984,1,0,0:0:0:0:
61,223,69069,1,4,0:0:0:0:
249,270,69241,5,4,0:0:0:0:
292,108,69412,1,2,0:0:0:0:
396,237,69583,2,0,L|404:327,1,80.9999975280763,8|2,0:0|0:0,0:0:0:0:
249,270,69926,2,0,L|322:218,1,80.9999975280763,4|2,0:0|0:0,0:0:0:0:
351,375,70268,2,0,L|269:336,1,80.9999975280763,8|4,0:0|0:0,0:0:0:0:
108,252,70611,5,4,0:0:0:0:
253,183,70782,1,2,0:0:0:0:
162,334,70953,1,8,0:0:0:0:
72,190,71124,1,2,0:0:0:0:
72,190,71210,1,0,0:0:0:0:
72,190,71295,1,4,0:0:0:0:
253,183,71467,1,2,0:0:0:0:
362,317,71638,2,0,P|405:332|486:310,1,121.499996292114,8|0,0:0|0:0,0:0:0:0:
503,297,71980,6,0,L|507:208,1,80.9999975280763,6|2,0:3|0:0,0:0:0:0:
358,236,72323,2,0,L|361:316,1,80.9999975280763,8|2,0:0|0:0,0:0:0:0:
413,158,72665,1,4,0:0:0:0:
376,140,72751,1,0,0:0:0:0:
336,142,72837,1,2,0:0:0:0:
195,228,73008,1,8,0:0:0:0:
231,210,73093,1,0,0:0:0:0:
271,212,73179,1,6,0:0:0:0:
136,302,73350,5,6,0:0:0:0:
130,133,73521,1,2,0:0:0:0:
271,212,73693,2,0,P|295:239|302:291,1,80.9999975280763,8|2,0:0|0:0,0:0:0:0:
389,140,74035,1,4,0:0:0:0:
427,127,74121,1,0,0:0:0:0:
466,115,74206,1,2,0:0:0:0:
319,47,74378,1,8,0:0:0:0:
281,34,74463,1,0,0:0:0:0:
242,22,74549,1,4,0:0:0:0:
216,245,74720,5,4,0:0:0:0:
280,114,74891,1,2,0:0:0:0:
133,253,75063,1,8,0:0:0:0:
279,319,75234,1,2,0:0:0:0:
199,107,75405,1,4,0:0:0:0:
133,253,75576,1,2,0:0:0:0:
345,173,75748,1,8,0:0:0:0:
279,319,75919,1,4,0:0:0:0:
280,114,76090,5,4,0:0:0:0:
509,253,76261,1,8,0:0:0:0:
423,12,76432,1,8,0:0:0:0:
329,213,76604,1,2,0:0:0:0:
503,53,76775,1,12,0:0:0:0:
332,3,76946,1,2,0:0:0:0:
282,173,77117,1,8,0:0:0:0:
453,223,77289,1,12,0:0:0:0:
250,67,77460,6,0,P|186:54|111:78,1,125.999996154785,6|8,0:3|0:0,0:0:0:0:
189,162,77974,1,0,0:0:0:0:
128,256,78145,2,0,P|189:269|250:255,1,125.999996154785,4|8,0:3|0:0,0:0:0:0:
342,191,78658,1,4,0:3:0:0:
416,339,78830,6,0,L|419:268,1,62.9999980773926
342,191,79172,2,0,L|335:41,2,125.999996154785,8|4|8,0:0|0:3|0:0,0:0:0:0:
297,278,80028,1,4,0:3:0:0:
184,204,80200,6,0,P|218:196|246:197,1,62.9999980773926
193,316,80542,2,0,P|159:324|131:323,1,62.9999980773926,8|0,0:0|0:0,0:0:0:0:
65,254,80884,1,4,0:3:0:0:
65,254,81056,1,0,0:0:0:0:
40,384,81227,1,8,0:0:0:0:
40,384,81398,1,4,0:3:0:0:
152,229,81569,6,0,P|172:182|152:113,1,125.999996154785,0|8,0:0|0:0,0:0:0:0:
70,65,82083,1,0,0:0:0:0:
28,162,82254,2,0,P|61:172|102:169,1,62.9999980773926,4|0,0:3|0:0,0:0:0:0:
246,121,82597,1,8,0:0:0:0:
138,24,82768,1,4,0:3:0:0:
188,211,82939,6,0,B|215:267|215:267|276:291,1,125.999996154785,0|8,0:0|0:0,0:0:0:0:
287,185,83453,1,0,0:0:0:0:
194,133,83624,2,0,P|147:142|111:219,1,125.999996154785,4|8,0:3|0:0,0:0:0:0:
95,330,84138,1,4,0:3:0:0:
25,201,84309,6,0,L|18:135,1,62.9999980773926
109,205,84652,2,0,L|92:356,2,125.999996154785,8|4|8,0:0|0:3|0:0,0:0:0:0:
180,130,85508,1,4,0:3:0:0:
341,216,85679,6,0,L|418:222,1,62.9999980773926
338,107,86021,2,0,L|275:111,1,62.9999980773926,8|0,0:0|0:0,0:0:0:0:
194,167,86364,1,4,0:3:0:0:
219,38,86535,1,0,0:0:0:0:
373,38,86706,1,8,0:0:0:0:
398,167,86878,1,4,0:3:0:0:
299,268,87049,5,0,0:0:0:0:
307,107,87220,1,0,0:0:0:0:
485,198,87391,1,8,0:0:0:0:
324,190,87563,1,0,0:0:0:0:
320,30,87734,1,4,0:3:0:0:
481,22,87905,1,0,0:0:0:0:
324,190,88076,2,0,P|293:195|246:185,1,62.9999980773926,8|4,0:1|0:3,0:0:0:0:
61,150,88419,5,6,0:3:0:0:
71,282,88590,1,0,0:0:0:0:
261,190,88761,1,8,0:0:0:0:
151,116,88932,1,0,0:0:0:0:
213,281,89104,2,0,P|259:294|307:281,1,90,4|0,0:0|0:0,0:0:0:0:
365,102,89446,1,12,0:0:0:0:
261,190,89617,1,4,0:0:0:0:
466,93,89789,6,0,P|446:39|315:10,1,180,4|8,0:0|0:0,0:0:0:0:
250,99,90302,1,0,0:0:0:0:
359,188,90474,2,0,P|373:143|361:95,1,90,4|0,0:0|0:0,0:0:0:0:
262,271,90816,1,12,0:0:0:0:
418,292,90987,1,4,0:0:0:0:
278,137,91158,6,0,L|167:133,1,90,4|0,0:0|0:0,0:0:0:0:
2,256,91501,1,8,0:0:0:0:
64,100,91672,1,0,0:0:0:0:
123,262,91843,2,0,P|135:303|124:354,1,90,4|0,0:0|0:0,0:0:0:0:
0,162,92186,1,12,0:0:0:0:
188,133,92357,1,4,0:0:0:0:
365,280,92528,6,0,B|404:222|470:201|470:201|386:176|355:94,1,270.000010299683,6|8,0:3|0:0,0:0:0:0:
200,194,93042,1,0,0:0:0:0:
374,289,93213,6,0,B|416:225|489:202|489:202|397:174|363:84,1,323.999990112305,6|12,0:3|0:0,0:0:0:0:
182,195,93727,1,4,0:0:0:0:
382,294,93898,6,0,P|423:304|475:293,1,90,6|2,0:3|0:0,0:0:0:0:
269,196,94241,2,0,P|228:186|176:197,1,90,8|2,0:0|0:0,0:0:0:0:
57,306,94583,1,4,0:0:0:0:
84,165,94754,1,2,0:0:0:0:
199,357,94926,5,12,0:0:0:0:
11,223,95097,1,6,0:0:0:0:
206,100,95268,1,4,0:0:0:0:
96,256,95439,1,2,0:0:0:0:
133,48,95611,1,8,0:0:0:0:
289,158,95782,1,2,0:0:0:0:
34,120,95953,1,4,0:0:0:0:
34,120,96124,1,2,0:0:0:0:
281,28,96295,1,12,0:0:0:0:
281,28,96467,1,6,0:0:0:0:
239,225,96638,5,6,0:3:0:0:
133,48,96809,1,2,0:0:0:0:
287,150,96980,5,8,0:0:0:0:
83,117,97152,1,2,0:0:0:0:
262,73,97323,5,6,0:3:0:0:
92,193,97494,1,2,0:0:0:0:
177,40,97665,5,12,0:0:0:0:
180,309,97837,1,6,0:0:0:0:
396,233,98008,5,6,0:3:0:0:
127,236,98179,1,8,0:0:0:0:
333,331,98350,1,8,0:0:0:0:
333,136,98521,1,2,0:0:0:0:
180,309,98693,1,12,0:0:0:0:
180,114,98864,1,2,0:0:0:0:
423,332,99035,1,8,0:0:0:0:
423,137,99206,1,12,0:0:0:0:
180,309,99378,6,0,P|99:332|3:241,1,215.999993408203,6|8,0:3|0:0,0:0:0:0:
119,207,99891,1,2,0:0:0:0:
278,330,100063,1,4,0:0:0:0:
236,92,100234,1,2,0:0:0:0:
180,309,100405,1,12,0:0:0:0:
396,249,100576,1,6,0:0:0:0:
236,92,100748,6,0,B|133:63|133:63|27:104,1,215.999993408203,6|8,0:3|0:0,0:0:0:0:
139,185,101261,1,2,0:0:0:0:
324,134,101432,2,0,P|334:78|307:25,1,107.999996704102,4|2,0:0|0:0,0:0:0:0:
241,178,101775,2,0,P|231:234|258:287,1,107.999996704102,12|6,0:0|0:0,0:0:0:0:
355,378,102117,5,6,0:3:0:0:
161,306,102289,1,2,0:0:0:0:
418,290,102460,1,8,0:0:0:0:
224,362,102632,1,2,0:0:0:0:
347,188,102802,5,6,0:3:0:0:
355,378,102974,1,2,0:0:0:0:
478,179,103145,1,12,0:0:0:0:
486,369,103317,1,6,0:0:0:0:
270,253,103487,6,0,P|249:211|290:105,1,161.999995056153,6|0,0:3|0:0,0:0:0:0:
320,81,103830,1,8,0:0:0:0:
162,41,104001,1,2,0:0:0:0:
173,229,104172,1,4,0:0:0:0:
331,189,104343,1,2,0:0:0:0:
113,136,104515,2,0,L|-14:141,1,107.999996704102,12|6,0:0|0:0,0:0:0:0:
192,305,104857,6,0,P|300:330|378:245,1,215.999993408203,6|8,0:3|0:0,0:0:0:0:
445,158,105371,1,2,0:0:0:0:
271,139,105542,2,0,P|255:188|277:250,1,107.999996704102,4|2,0:0|0:0,0:0:0:0:
429,351,105884,1,12,0:0:0:0:
445,158,106056,1,6,0:0:0:0:
287,332,106227,5,6,0:3:0:0:
271,139,106399,1,2,0:0:0:0:
119,319,106569,1,8,0:0:0:0:
135,126,106741,1,2,0:0:0:0:
322,238,106912,1,4,0:0:0:0:
129,222,107084,1,2,0:0:0:0:
379,140,107254,1,12,0:0:0:0:
363,333,107426,1,6,0:0:0:0:
268,55,107597,5,6,0:3:0:0:
491,72,107769,1,2,0:0:0:0:
275,136,107939,5,8,0:0:0:0:
456,5,108111,1,2,0:0:0:0:
454,203,108282,5,6,0:3:0:0:
200,19,108454,1,2,0:0:0:0:
479,115,108624,5,12,0:0:0:0:
166,137,108796,1,6,0:0:0:0:
431,44,108967,5,6,0:3:0:0:
205,262,109139,1,2,0:0:0:0:
310,21,109309,1,8,0:0:0:0:
362,233,109481,1,2,0:0:0:0:
194,79,109652,1,4,0:0:0:0:
403,139,109824,1,2,0:0:0:0:
186,176,109994,2,0,P|128:182|71:162,1,107.999996704102,12|6,0:0|0:0,0:0:0:0:
270,96,110337,6,0,P|298:147|229:286,1,215.999993408203,6|8,0:3|0:0,0:0:0:0:
127,337,110850,1,2,0:0:0:0:
324,352,111021,2,0,P|368:314|393:260,1,107.999996704102,4|2,0:0|0:0,0:0:0:0:
186,176,111364,1,12,0:0:0:0:
239,280,111535,1,6,0:0:0:0:
372,155,111706,6,0,P|285:119|178:189,1,215.999993408203,6|8,0:3|0:0,0:0:0:0:
132,279,112220,1,2,0:0:0:0:
73,93,112391,1,4,0:0:0:0:
13,249,112563,1,2,0:0:0:0:
34,22,112734,1,12,0:0:0:0:
94,178,112906,1,6,0:0:0:0:
251,6,113076,5,6,0:3:0:0:
185,175,113248,1,2,0:0:0:0:
398,61,113419,1,8,0:0:0:0:
218,87,113591,1,2,0:0:0:0:
424,241,113761,5,6,0:3:0:0:
398,61,113933,1,2,0:0:0:0:
244,267,114104,1,12,0:0:0:0:
218,87,114276,1,6,0:0:0:0:
346,321,114446,6,0,P|284:376|195:374,1,161.999995056153,6|0,0:3|0:0,0:0:0:0:
169,364,114789,1,8,0:0:0:0:
60,207,114960,1,2,0:0:0:0:
326,95,115131,1,4,0:0:0:0:
244,267,115302,1,2,0:0:0:0:
126,28,115474,1,12,0:0:0:0:
315,13,115645,1,6,0:0:0:0:
154,217,115816,6,0,P|105:155|130:22,1,215.999993408203,6|8,0:3|0:0,0:0:0:0:
230,109,116330,1,2,0:0:0:0:
202,306,116501,1,4,0:0:0:0:
305,178,116672,1,2,0:0:0:0:
333,375,116843,1,12,0:0:0:0:
202,306,117014,1,6,0:0:0:0:
432,266,117186,5,6,0:3:0:0:
316,64,117357,1,2,0:0:0:0:
478,197,117528,1,8,0:0:0:0:
259,116,117699,1,2,0:0:0:0:
275,337,117871,2,0,P|327:345|384:330,1,107.999996704102,4|2,0:0|0:0,0:0:0:0:
195,269,118213,2,0,P|143:261|86:276,1,107.999996704102,12|6,0:0|0:0,0:0:0:0:
275,337,118556,5,6,0:3:0:0:
295,133,118727,1,2,0:0:0:0:
351,315,118898,5,8,0:0:0:0:
220,156,119069,1,2,0:0:0:0:
419,256,119241,5,6,0:3:0:0:
99,224,119412,1,2,0:0:0:0:
351,315,119583,5,12,0:0:0:0:
147,67,119754,1,6,0:0:0:0:
275,337,119926,5,6,0:3:0:0:
307,17,120097,1,2,0:0:0:0:
216,269,120268,1,8,0:0:0:0:
387,129,120439,1,2,0:0:0:0:
126,112,120611,1,4,0:0:0:0:
297,252,120782,1,2,0:0:0:0:
100,184,120953,1,12,0:0:0:0:
306,105,121124,1,6,0:0:0:0:
271,322,121295,5,6,0:3:0:0:
211,166,121467,1,2,0:0:0:0:
373,225,121638,2,0,L|463:254,1,90,8|2,0:0|0:0,0:0:0:0:
398,96,121980,1,4,0:0:0:0:
377,56,122065,1,0,0:0:0:0:
340,31,122151,1,2,0:0:0:0:
191,110,122323,1,8,0:0:0:0:
234,112,122408,1,0,0:0:0:0:
274,92,122494,1,6,0:0:0:0:
90,30,122665,5,6,0:0:0:0:
139,192,122837,1,2,0:0:0:0:
274,92,123008,2,0,P|318:81|362:92,1,90,8|2,0:0|0:0,0:0:0:0:
331,254,123350,1,4,0:0:0:0:
323,209,123435,1,0,0:0:0:0:
316,165,123521,1,2,0:0:0:0:
458,252,123693,1,8,0:0:0:0:
451,296,123779,1,0,0:0:0:0:
443,341,123864,1,4,0:0:0:0:
267,382,124035,5,4,0:0:0:0:
331,254,124206,1,2,0:0:0:0:
184,305,124378,2,0,B|142:322|142:322|89:314,1,90,8|2,0:0|0:0,0:0:0:0:
199,187,124720,2,0,B|234:214|234:214|254:264,1,90,4|2,0:0|0:0,0:0:0:0:
87,230,125063,2,0,B|93:185|93:185|126:143,1,90,8|4,0:0|0:0,0:0:0:0:
257,333,125405,5,4,0:0:0:0:
24,283,125576,1,2,0:0:0:0:
186,112,125748,1,8,0:0:0:0:
136,345,125919,1,2,0:0:0:0:
136,345,126004,1,0,0:0:0:0:
136,345,126090,1,4,0:0:0:0:
51,131,126261,1,2,0:0:0:0:
275,170,126432,2,0,B|362:184|362:184|417:173,1,135,8|0,0:0|0:0,0:0:0:0:
449,183,126775,6,0,P|465:225|459:272,1,90,6|2,0:3|0:0,0:0:0:0:
314,346,127117,2,0,P|298:304|304:257,1,90,8|2,0:0|0:0,0:0:0:0:
477,353,127460,1,4,0:0:0:0:
433,364,127545,1,0,0:0:0:0:
389,375,127631,1,2,0:0:0:0:
286,183,127802,1,8,0:0:0:0:
329,171,127887,1,0,0:0:0:0:
373,160,127973,1,6,0:0:0:0:
223,352,128145,5,6,0:0:0:0:
329,171,128316,1,2,0:0:0:0:
477,353,128487,2,0,L|371:380,1,90,8|2,0:0|0:0,0:0:0:0:
191,266,128830,1,4,0:0:0:0:
177,223,128915,1,0,0:0:0:0:
183,179,129001,1,2,0:0:0:0:
329,171,129172,1,8,0:0:0:0:
299,204,129257,1,0,0:0:0:0:
257,220,129343,1,4,0:0:0:0:
327,70,129515,5,4,0:0:0:0:
457,196,129686,1,2,0:0:0:0:
257,136,129857,1,8,0:0:0:0:
472,112,130028,1,2,0:0:0:0:
271,275,130200,1,4,0:0:0:0:
247,60,130371,1,2,0:0:0:0:
382,267,130542,1,8,0:0:0:0:
183,180,130713,1,4,0:0:0:0:
472,112,130884,5,4,0:0:0:0:
271,275,131056,1,8,0:0:0:0:
498,190,131227,5,8,0:0:0:0:
239,208,131399,1,2,0:0:0:0:
479,265,131569,5,12,0:0:0:0:
256,131,131741,1,2,0:0:0:0:
423,318,131912,5,8,0:0:0:0:
317,80,132084,1,12,0:0:0:0:
202,315,132254,6,0,P|158:329|57:281,1,144,6|8,0:3|0:0,0:0:0:0:
143,237,132768,1,0,0:0:0:0:
90,159,132939,2,0,P|133:144|234:192,1,144,4|8,0:3|0:0,0:0:0:0:
280,257,133453,1,4,0:3:0:0:
340,158,133624,6,0,L|347:79,1,72
416,179,133967,2,0,P|434:218|410:326,2,144,8|4|8,0:0|0:3|0:0,0:0:0:0:
346,86,134823,1,4,0:3:0:0:
247,174,134994,5,0,0:0:0:0:
151,87,135165,1,0,0:0:0:0:
76,185,135337,2,0,L|74:270,1,72,8|0,0:0|0:0,0:0:0:0:
164,322,135679,2,0,L|166:237,1,72,4|0,0:3|0:0,0:0:0:0:
70,355,136021,1,8,0:0:0:0:
70,355,136193,1,4,0:3:0:0:
252,301,136364,5,0,0:0:0:0:
168,163,136535,1,0,0:0:0:0:
167,331,136706,1,8,0:0:0:0:
251,193,136877,1,0,0:0:0:0:
80,139,137049,2,0,L|-7:136,1,72,4|0,0:3|0:0,0:0:0:0:
169,74,137391,2,0,L|240:76,1,72,8|4,0:0|0:3,0:0:0:0:
313,174,137734,6,0,P|248:198|165:172,1,144,0|8,0:0|0:0,0:0:0:0:
241,97,138248,1,0,0:0:0:0:
313,174,138419,2,0,L|324:322,1,144,4|8,0:3|0:0,0:0:0:0:
409,363,138932,1,4,0:3:0:0:
497,269,139104,6,0,P|461:263|417:271,1,72
323,317,139446,2,0,P|251:328|164:313,2,144,8|4|8,0:0|0:3|0:0,0:0:0:0:
252,227,140302,1,4,0:3:0:0:
94,303,140474,5,0,0:0:0:0:
94,303,140645,1,0,0:0:0:0:
81,158,140816,1,8,0:0:0:0:
81,158,140987,1,0,0:0:0:0:
232,213,141158,1,4,0:3:0:0:
87,226,141329,1,0,0:0:0:0:
211,141,141501,1,8,0:0:0:0:
149,273,141672,1,4,0:3:0:0:
130,58,141843,5,0,0:0:0:0:
287,215,142015,1,0,0:0:0:0:
264,0,142186,1,8,0:0:0:0:
206,214,142358,1,0,0:0:0:0:
370,100,142528,1,4,0:3:0:0:
155,156,142700,1,0,0:0:0:0:
418,340,142871,1,8,0:1:0:0:
370,100,143042,1,4,0:3:0:0:
215,292,143213,6,0,P|167:303|116:298,1,90,6|0,0:3|0:0,0:0:0:0:
269,190,143556,1,8,0:0:0:0:
302,363,143727,1,0,0:0:0:0:
159,212,143898,1,4,0:0:0:0:
192,39,144069,1,0,0:0:0:0:
269,190,144241,1,12,0:0:0:0:
109,112,144412,1,4,0:0:0:0:
373,139,144583,6,0,P|388:178|311:299,1,180,4|8,0:0|0:0,0:0:0:0:
219,347,145097,1,0,0:0:0:0:
203,202,145268,2,0,P|251:192|300:201,1,90,4|0,0:0|0:0,0:0:0:0:
165,281,145611,2,0,P|117:291|68:282,1,90,12|4,0:0|0:0,0:0:0:0:
4,203,145953,5,4,0:0:0:0:
108,36,146124,1,0,0:0:0:0:
113,205,146295,1,8,0:0:0:0:
19,31,146466,1,0,0:0:0:0:
178,109,146638,1,4,0:0:0:0:
4,203,146809,1,0,0:0:0:0:
108,36,146980,1,12,0:0:0:0:
202,210,147151,1,4,0:0:0:0:
365,211,147323,6,0,B|463:107|422:46|422:46|357:52|343:128,1,288,6|8,0:3|0:0,0:0:0:0:
287,265,147837,1,0,0:0:0:0:
405,235,148008,6,0,B|517:115|470:45|470:45|395:51|379:139,1,360,6|12,0:3|0:0,0:0:0:0:
297,295,148522,1,4,0:0:0:0:
156,141,148693,5,6,0:3:0:0:
132,315,148864,1,2,0:0:0:0:
237,182,149035,1,8,0:0:0:0:
63,158,149206,1,2,0:0:0:0:
220,310,149378,1,4,0:0:0:0:
46,286,149549,1,2,0:0:0:0:
156,141,149720,1,12,0:0:0:0:
132,315,149891,1,6,0:0:0:0:
63,158,150063,6,0,P|67:96|169:49,1,180,4|8,0:0|0:0,0:0:0:0:
269,18,150576,1,2,0:0:0:0:
254,228,150748,1,4,0:0:0:0:
232,95,150919,1,2,0:0:0:0:
298,307,151090,1,12,0:0:0:0:
320,174,151261,1,6,0:0:0:0:
246,374,151432,5,6,0:3:0:0:
473,270,151604,1,2,0:0:0:0:
207,263,151775,5,8,0:0:0:0:
441,349,151947,1,2,0:0:0:0:
153,368,152117,5,6,0:3:0:0:
380,264,152289,1,2,0:0:0:0:
114,257,152460,5,12,0:0:0:0:
348,343,152632,1,6,0:0:0:0:
156,158,152802,5,6,0:3:0:0:
260,384,152974,1,8,0:0:0:0:
238,169,153145,1,8,0:0:0:0:
94,372,153317,1,2,0:0:0:0:
301,218,153487,1,12,0:0:0:0:
53,194,153659,1,2,0:0:0:0:
319,296,153830,1,8,0:0:0:0:
274,14,154001,1,12,0:0:0:0:
53,194,154172,5,6,0:3:0:0:
368,139,154515,1,8,0:1:0:0:
151,33,154857,1,4,0:1:0:0:
180,168,155028,1,0,0:0:0:0:
209,303,155199,1,8,0:1:0:0:
348,27,155542,5,4,0:1:0:0:
76,80,155884,1,8,0:1:0:0:
222,270,156227,1,4,0:1:0:0:
365,251,156398,1,0,0:0:0:0:
508,232,156569,2,0,P|511:190|504:168,1,53.9999983520508,8|8,0:1|0:1,0:0:0:0:
399,92,156912,6,0,B|369:79|349:90|344:90|339:90|321:100|287:90,1,107.999996704102,4|8,0:1|0:1,0:0:0:0:
136,149,157597,2,0,B|128:178|133:202|133:202|156:194|191:199,1,107.999996704102,4|8,0:1|0:1,0:0:0:0:
377,323,158282,5,4,0:1:0:0:
373,212,158453,1,0,0:0:0:0:
291,351,158624,1,8,0:1:0:0:
287,240,158795,2,0,L|284:182,1,53.9999983520508,0|4,0:0|0:1,0:0:0:0:
203,373,159138,1,0,0:0:0:0:
199,262,159309,2,0,L|196:204,1,53.9999983520508,8|8,0:1|0:1,0:0:0:0:
186,59,159652,5,6,0:3:0:0:
422,215,159994,1,8,0:1:0:0:
159,161,160337,1,4,0:1:0:0:
292,128,160508,1,0,0:0:0:0:
425,95,160679,1,8,0:1:0:0:
156,281,161021,5,4,0:1:0:0:
251,32,161364,1,8,0:1:0:0:
401,254,161706,1,4,0:1:0:0:
278,266,161877,1,0,0:0:0:0:
156,281,162048,1,8,0:1:0:0:
206,179,162220,1,8,0:1:0:0:
218,362,162391,6,0,P|164:383|95:370,1,107.999996704102,4|8,0:1|0:1,0:0:0:0:
206,179,163076,2,0,B|213:125|213:125|197:74,2,107.999996704102,4|8|4,0:1|0:1|0:1,0:0:0:0:
156,281,163932,5,8,0:0:0:0:
100,186,164104,1,8,0:1:0:0:
100,186,164275,1,4,0:1:0:0:
231,254,164446,2,0,P|258:260|299:251,1,53.9999983520508,8|4,0:0|0:1,0:0:0:0:
366,175,164789,2,0,P|339:169|298:178,1,53.9999983520508,8|8,0:1|0:1,0:0:0:0:
433,285,165131,5,6,0:3:0:0:
211,30,165474,1,8,0:1:0:0:
266,306,165816,1,4,0:1:0:0:
283,178,165987,1,0,0:0:0:0:
300,50,166158,1,8,0:1:0:0:
102,350,166501,5,4,0:1:0:0:
433,285,166844,1,8,0:1:0:0:
136,47,167186,1,4,0:1:0:0:
170,190,167357,1,0,0:0:0:0:
204,333,167528,2,0,L|280:337,1,53.9999983520508,8|8,0:1|0:1,0:0:0:0:
263,233,167871,6,0,P|248:266|260:339,1,107.999996704102,4|8,0:1|0:1,0:0:0:0:
429,207,168556,2,0,B|400:194|384:172|384:172|367:187|336:196,1,107.999996704102,4|8,0:1|0:1,0:0:0:0:
489,354,169241,2,0,P|504:321|492:248,1,107.999996704102,4|8,0:1|0:1,0:0:0:0:
439,179,169754,1,0,0:0:0:0:
373,116,169926,2,0,L|364:43,1,53.9999983520508,4|0,0:1|0:0,0:0:0:0:
283,136,170268,2,0,L|292:63,1,53.9999983520508,8|8,0:1|0:1,0:0:0:0:
344,194,170611,5,6,0:3:0:0:
76,93,170953,1,8,0:1:0:0:
356,57,171295,1,4,0:1:0:0:
344,194,171467,1,0,0:0:0:0:
332,332,171639,1,8,0:1:0:0:
203,55,171980,5,4,0:1:0:0:
249,337,172322,1,8,0:1:0:0:
385,121,172665,1,4,0:1:0:0:
254,152,172837,1,0,0:0:0:0:
123,183,173008,1,8,0:1:0:0:
216,281,173179,1,8,0:1:0:0:
180,118,173350,5,4,0:1:0:0:
398,207,174720,6,0,P|319:230|236:197,1,161.999995056153,6|0,0:3|0:0,0:0:0:0:
206,180,175063,2,0,P|130:154|53:177,1,161.999995056153,8|0,0:1|0:0,0:0:0:0:
32,200,175405,1,6,0:3:0:0:
123,290,175576,5,4,0:1:0:0:
338,131,175748,1,8,0:1:0:0:
93,25,175919,1,8,0:1:0:0:
298,282,176110,6,0,L|444:269,1,135.000005149842,6|2,0:3|0:0,0:0:0:0:
346,163,176452,1,8,0:0:0:0:
211,240,176624,1,2,0:0:0:0:
211,240,176709,1,0,0:0:0:0:
211,240,176795,2,0,P|149:255|80:224,1,135.000005149842,4|2,0:0|0:0,0:0:0:0:
43,143,177052,1,0,0:0:0:0:
43,143,177137,2,0,L|29:-11,1,135.000005149842,12|6,0:0|0:0,0:0:0:0:
157,153,177480,5,6,0:3:0:0:
74,315,177651,1,2,0:0:0:0:
43,143,177822,1,8,0:0:0:0:
204,261,177994,1,2,0:0:0:0:
204,261,178079,1,0,0:0:0:0:
204,261,178165,1,4,0:0:0:0:
229,29,178336,1,2,0:0:0:0:
101,234,178507,1,12,0:0:0:0:
343,243,178678,1,6,0:0:0:0:
222,31,178850,5,6,0:3:0:0:
209,272,179021,1,2,0:0:0:0:
320,73,179192,5,8,0:0:0:0:
126,217,179363,1,2,0:0:0:0:
358,170,179535,5,6,0:3:0:0:
122,113,179706,1,2,0:0:0:0:
416,104,179877,5,12,0:0:0:0:
180,161,180048,1,6,0:0:0:0:
478,161,180220,5,6,0:3:0:0:
242,104,180391,1,2,0:0:0:0:
242,104,180476,1,0,0:0:0:0:
242,104,180562,1,8,0:0:0:0:
300,327,180733,2,0,P|334:272|329:194,1,135.000005149842,2|4,0:0|0:0,0:0:0:0:
172,324,181076,5,2,0:0:0:0:
412,350,181247,1,12,0:0:0:0:
315,130,181418,1,6,0:0:0:0:
172,324,181589,6,0,B|109:350|109:350|45:328,1,135.000005149842,6|2,0:3|0:0,0:0:0:0:
196,223,181932,1,8,0:0:0:0:
327,304,182103,1,2,0:0:0:0:
327,304,182189,1,0,0:0:0:0:
327,304,182274,2,0,B|391:326|391:326|454:300,1,135.000005149842,4|2,0:0|0:0,0:0:0:0:
512,236,182531,1,0,0:0:0:0:
512,236,182617,2,0,L|486:96,1,135.000005149842,12|6,0:0|0:0,0:0:0:0:
345,25,182959,5,6,0:3:0:0:
317,203,183131,1,2,0:0:0:0:
481,10,183302,1,8,0:0:0:0:
344,128,183474,1,2,0:0:0:0:
344,128,183559,1,0,0:0:0:0:
344,128,183644,1,4,0:0:0:0:
502,217,183815,1,2,0:0:0:0:
345,25,183987,1,12,0:0:0:0:
257,256,184159,1,6,0:0:0:0:
474,66,184329,5,6,0:3:0:0:
229,105,184501,1,2,0:0:0:0:
409,104,184672,5,8,0:0:0:0:
164,65,184844,1,2,0:0:0:0:
347,59,185014,5,6,0:3:0:0:
68,165,185186,1,2,0:0:0:0:
280,20,185357,5,12,0:0:0:0:
91,251,185529,1,6,0:0:0:0:
279,95,185699,5,6,0:3:0:0:
0,201,185871,1,2,0:0:0:0:
287,358,186041,1,8,0:0:0:0:
234,180,186213,1,2,0:0:0:0:
30,346,186384,1,4,0:0:0:0:
309,240,186556,1,2,0:0:0:0:
104,87,186726,1,12,0:0:0:0:
210,366,186898,1,6,0:0:0:0:
399,135,187069,6,0,P|419:78|396:5,1,135.000005149842,6|2,0:3|0:0,0:0:0:0:
295,154,187411,1,8,0:0:0:0:
372,301,187583,1,2,0:0:0:0:
372,301,187668,1,0,0:0:0:0:
372,301,187754,2,0,L|514:306,1,135.000005149842,4|2,0:0|0:0,0:0:0:0:
462,226,188011,1,0,0:0:0:0:
462,226,188097,2,0,L|320:221,1,135.000005149842,12|6,0:0|0:0,0:0:0:0:
108,213,188439,5,6,0:3:0:0:
291,93,188610,1,2,0:0:0:0:
197,302,188781,1,8,0:0:0:0:
173,130,188952,1,2,0:0:0:0:
173,130,189038,1,0,0:0:0:0:
173,130,189124,1,4,0:0:0:0:
333,195,189295,1,2,0:0:0:0:
89,295,189466,2,0,P|31:250|32:181,1,135.000005149842,12|6,0:0|0:0,0:0:0:0:
173,0,189809,5,6,0:3:0:0:
108,213,189980,1,2,0:0:0:0:
106,40,190151,5,8,0:0:0:0:
171,253,190322,1,2,0:0:0:0:
56,98,190494,5,6,0:3:0:0:
242,219,190665,1,2,0:0:0:0:
33,172,190836,5,12,0:0:0:0:
253,145,191007,1,6,0:0:0:0:
107,157,191178,5,6,0:3:0:0:
344,185,191349,1,2,0:0:0:0:
170,71,191521,1,8,0:0:0:0:
142,308,191692,2,0,L|287:326,1,135.000005149842,2|4,0:0|0:0,0:0:0:0:
470,296,192035,5,2,0:0:0:0:
279,102,192206,1,12,0:0:0:0:
207,365,192377,1,6,0:0:0:0:
420,151,192548,6,0,P|443:91|416:10,1,135.000005149842,6|2,0:3|0:0,0:0:0:0:
321,183,192891,1,8,0:0:0:0:
180,70,193062,1,2,0:0:0:0:
180,70,193148,1,0,0:0:0:0:
180,70,193233,2,0,B|118:53|118:53|51:79,1,135.000005149842,4|2,0:0|0:0,0:0:0:0:
16,174,193490,1,0,0:0:0:0:
16,174,193576,2,0,P|4:239|31:299,1,135.000005149842,12|6,0:0|0:0,0:0:0:0:
256,358,193918,5,6,0:3:0:0:
103,227,194089,1,2,0:0:0:0:
353,342,194261,1,8,0:0:0:0:
154,305,194432,1,2,0:0:0:0:
154,305,194518,1,0,0:0:0:0:
154,305,194603,1,4,0:0:0:0:
297,119,194774,1,2,0:0:0:0:
440,305,194946,1,12,0:0:0:0:
226,204,195117,1,6,0:0:0:0:
512,177,195288,5,6,0:3:0:0:
238,364,195459,1,2,0:0:0:0:
455,94,195631,5,8,0:0:0:0:
181,281,195802,1,2,0:0:0:0:
477,374,195973,5,6,0:3:0:0:
271,72,196144,1,2,0:0:0:0:
392,382,196315,5,12,0:0:0:0:
332,20,196486,1,6,0:0:0:0:
310,384,196658,5,6,0:3:0:0:
408,30,196829,1,2,0:0:0:0:
494,344,197000,1,8,0:0:0:0:
210,265,197171,1,2,0:0:0:0:
408,30,197343,1,4,0:0:0:0:
329,314,197514,1,2,0:0:0:0:
278,101,197685,1,12,0:0:0:0:
488,164,197857,1,6,0:0:0:0:
210,265,198028,5,14,0:3:0:0:
256,192,198113,12,0,199398,0:0:0:0:
