osu file format v14

[General]
AudioFilename: audio.mp3
AudioLeadIn: 0
PreviewTime: 139465
Countdown: 0
SampleSet: None
StackLeniency: 0.4
Mode: 0
LetterboxInBreaks: 0
WidescreenStoryboard: 0

[Editor]
Bookmarks: 41850,194011,202193,203952,204920,226738,230829
DistanceSpacing: 1.2
BeatDivisor: 4
GridSize: 32
TimelineZoom: 3.099999

[Metadata]
Title:Shoujo No Tsuzuki
TitleUnicode:少女のつづき
Artist:Polkadot Stingray
ArtistUnicode:ポルカドットスティングレイ
Creator:Rdzeniu
Version:Extra
Source:恋のはじまりは放課後のチャイムから
Tags:polkadot stingray kraszi konojo no tsuzuki shizuku bananas
BeatmapID:1658048
BeatmapSetID:790110

[Difficulty]
HPDrainRate:6
CircleSize:4
OverallDifficulty:8.8
ApproachRate:9.3
SliderMultiplier:1.8
SliderTickRate:1

[Events]
//Background and Video events
0,0,"bg.jpg",0,0
//Break Periods
2,117902,128057
2,183357,193512
//Storyboard Layer 0 (Background)
//Storyboard Layer 1 (Fail)
//Storyboard Layer 2 (Pass)
//Storyboard Layer 3 (Foreground)
//Storyboard Sound Samples

[TimingPoints]
430,340.909090909091,4,3,33,70,1,0
5032,-100,4,2,22,70,0,0
5884,-100,4,3,33,70,0,0
8611,-83.3333333333333,4,3,22,100,0,0
9293,-83.3333333333333,4,3,22,5,0,0
9464,-83.3333333333333,4,3,22,100,0,0
9975,-83.3333333333333,4,3,22,5,0,0
10145,-100,4,3,22,100,0,0
10486,-125,4,3,22,100,0,0
11168,-83.3333333333333,4,3,22,100,0,0
12787,-83.3333333333333,4,3,22,5,0,0
12873,-83.3333333333333,4,3,22,100,0,0
13214,-100,4,3,22,100,0,0
13640,-100,4,3,22,5,0,0
13725,-100,4,3,22,100,0,0
14577,-83.3333333333333,4,3,22,100,0,0
14748,-83.3333333333333,4,3,22,5,0,0
14918,-83.3333333333333,4,3,22,100,0,0
15430,-83.3333333333333,4,3,22,5,0,0
15600,-100,4,3,22,100,0,0
15941,-125,4,3,22,100,0,0
16452,-100,4,3,22,100,0,0
16537,-83.3333333333333,4,3,22,100,0,0
18157,-83.3333333333333,4,2,22,70,0,0
19520,-83.3333333333333,4,3,33,70,0,0
19861,-100,4,3,33,70,0,0
27702,-100,4,3,22,100,0,0
27873,-100,4,2,22,70,0,0
28043,-100,4,2,0,55,0,0
28555,-100,4,2,22,70,0,0
28725,-100,4,3,22,100,0,0
29577,-100,4,2,22,70,0,0
30430,-100,4,3,22,100,0,0
38611,-86.9565217391304,4,3,22,100,0,0
41339,-111.111111111111,4,2,0,30,0,0
50857,340.909090909091,4,3,33,70,1,0
51225,340.909090909091,4,3,33,70,1,0
51225,-111.111111111111,4,2,0,30,0,0
51736,-111.111111111111,4,2,22,70,0,0
52248,-111.111111111111,4,2,0,30,0,0
60430,-83.3333333333333,4,3,22,100,0,0
62816,-83.3333333333333,4,2,22,85,0,0
63156,-83.3333333333333,4,2,22,85,0,1
63327,-83.3333333333333,4,3,22,100,0,1
84975,-83.3333333333333,4,3,22,100,0,0
94691,-83.3333333333333,4,2,22,70,0,0
95287,-83.3333333333333,4,2,22,70,0,0
95969,-83.3333333333333,4,3,22,100,0,0
96225,-83.3333333333333,4,3,33,70,0,0
104066,-83.3333333333333,4,2,22,70,0,0
104407,-83.3333333333333,4,3,22,100,0,0
104748,-83.3333333333333,4,2,22,70,0,0
105430,-83.3333333333333,4,3,22,100,0,0
105941,-83.3333333333333,4,2,22,70,0,0
106793,-83.3333333333333,4,3,33,70,0,0
114975,-83.3333333333333,4,3,22,100,0,0
117020,-83.3333333333333,4,2,22,70,0,0
128611,-83.3333333333333,4,3,33,100,0,0
136793,-83.3333333333333,4,3,22,100,0,0
139520,-71.4285714285714,4,3,22,100,0,1
142248,-66.6666666666667,4,3,22,100,0,1
143782,-71.4285714285714,4,3,22,100,0,1
149918,-71.4285714285714,4,2,22,70,0,1
150430,-71.4285714285714,4,3,22,100,0,1
161424,-86.9565217391304,4,3,33,70,0,0
180430,-71.4285714285714,4,3,22,100,0,0
194066,-125,4,3,33,70,0,0
202248,-125,4,3,22,100,0,0
204975,-76.9230769230769,4,3,22,100,0,1
215287,-76.9230769230769,4,2,22,70,0,1
215884,-76.9230769230769,4,3,22,100,0,1
226793,-76.9230769230769,4,3,22,100,0,0
244180,-76.9230769230769,4,2,22,70,0,0
244520,-76.9230769230769,4,3,33,100,0,0

[Colours]
Combo1 : 169,255,145
Combo2 : 255,255,0
Combo3 : 0,99,147
Combo4 : 253,217,193

[HitObjects]
281,336,430,6,0,B|348:327|428:260|405:193|405:193|280:178|176:222|176:222|140:145|236:31|366:78,1,720
162,56,3157,2,0,B|51:33|26:128|26:128|32:215|133:246|199:169|199:169|183:300|381:312|380:166|309:129|260:185,1,720
290,186,5032,1,4,0:0:0:0:
337,17,5373,1,4,0:0:0:0:
326,255,5543,1,4,0:0:0:0:
396,88,5884,2,0,B|478:102|500:202|500:202|372:229|386:352|386:352|288:365|242:243,1,540
343,182,7248,2,0,P|263:142|173:178,1,180
170,208,8611,5,0,0:0:0:0:
239,63,8782,1,0,0:0:0:0:
94,197,8952,1,4,0:0:0:0:
283,214,9123,2,0,P|309:159|303:92,1,107.999996704102
170,208,9464,2,0,P|195:263|250:301,1,107.999996704102,0|4,0:0|0:0,0:0:0:0:
422,137,9805,2,0,P|463:138|531:167,1,107.999996704102
358,201,10145,2,0,P|399:214|450:248,1,90,0|4,0:0|0:0,0:0:0:0:
296,267,10486,2,0,P|373:293|428:333,1,144,0|4,0:0|0:0,0:0:0:0:
204,363,10998,1,0,0:0:0:0:
412,145,11339,5,0,0:0:0:0:
265,32,11509,1,0,0:0:0:0:
391,213,11680,1,4,0:0:0:0:
441,50,11850,2,0,P|486:85|515:146,1,107.999996704102
267,137,12191,2,0,P|255:81|272:15,1,107.999996704102,0|4,0:0|0:0,0:0:0:0:
460,266,12532,2,0,L|346:305,1,107.999996704102
164,171,12873,2,0,L|278:132,1,107.999996704102
456,169,13214,2,0,L|266:234,1,180
285,227,13725,1,4,0:0:0:0:
240,69,13895,1,0,0:0:0:0:
130,224,14066,5,0,0:0:0:0:
329,122,14236,1,0,0:0:0:0:
150,31,14407,1,4,0:0:0:0:
160,257,14577,2,0,P|181:317|237:375,1,107.999996704102
207,351,14918,1,0,0:0:0:0:
184,135,15089,1,0,0:0:0:0:
337,220,15259,2,0,P|396:224|464:279,1,107.999996704102
245,214,15600,2,0,P|267:163|325:132,1,90,0|4,0:0|0:0,0:0:0:0:
202,296,15941,2,0,P|165:243|191:128,1,180
184,135,16452,5,0,0:0:0:0:
56,125,16623,2,0,P|59:67|114:18,1,107.999996704102
264,127,16964,1,0,0:0:0:0:
66,197,17134,1,4,0:0:0:0:
309,198,17305,6,0,P|341:155|342:102,1,107.999996704102
141,193,17645,1,0,0:0:0:0:
311,287,17816,6,8,P|361:269|390:225,1,107.999996704102,4|0,0:0|0:0,0:0:0:0:
155,78,18157,1,0,0:0:0:0:
100,81,18242,1,0,0:0:0:0:
56,109,18327,1,0,0:0:0:0:
29,156,18412,1,0,0:0:0:0:
29,210,18498,1,0,0:0:0:0:
296,177,18668,1,8,0:0:0:0:
312,149,18753,1,8,0:0:0:0:
318,117,18839,1,8,0:0:0:0:
153,243,19009,5,2,0:0:0:0:
155,264,19094,1,2,0:0:0:0:
162,284,19180,1,2,0:0:0:0:
259,334,19350,1,4,0:0:0:0:
460,341,19520,6,0,P|407:360|351:349,1,107.999996704102
420,261,19861,2,0,P|440:217|465:177,1,90
392,263,20202,2,0,P|399:215|413:170,1,90
369,270,20543,2,0,P|364:221|365:174,1,90
390,77,20884,1,0,0:0:0:0:
260,155,21225,1,0,0:0:0:0:
162,35,21566,1,0,0:0:0:0:
37,123,21907,1,0,0:0:0:0:
162,35,22248,5,0,0:0:0:0:
260,155,22589,1,0,0:0:0:0:
390,77,22930,1,0,0:0:0:0:
390,77,23270,1,0,0:0:0:0:
260,155,23611,1,0,0:0:0:0:
162,35,23952,1,0,0:0:0:0:
38,123,24293,1,0,0:0:0:0:
38,123,24634,1,0,0:0:0:0:
155,202,24975,6,0,P|130:249|112:318,1,90
238,208,25316,2,0,P|223:250|200:289,1,90
322,228,25657,2,0,P|306:270|283:308,1,90
359,337,25998,2,0,P|382:299|398:257,1,90
429,173,26339,1,0,0:0:0:0:
349,139,26680,1,0,0:0:0:0:
271,105,27020,1,0,0:0:0:0:
193,70,27361,1,0,0:0:0:0:
268,174,27702,5,0,0:0:0:0:
193,70,27873,1,4,0:0:0:0:
395,155,28043,1,0,0:0:0:0:
220,287,28214,1,2,0:0:0:0:
268,174,28384,1,0,0:0:0:0:
350,269,28555,1,8,0:0:0:0:
350,269,28640,1,8,0:0:0:0:
350,269,28725,1,10,0:0:0:0:
175,359,29066,5,0,0:0:0:0:
175,165,29236,1,0,0:0:0:0:
342,262,29407,1,8,0:0:0:0:
130,262,29577,1,4,0:0:0:0:
104,225,29662,1,4,0:0:0:0:
95,181,29748,1,4,0:0:0:0:
165,70,29918,1,8,0:0:0:0:
287,31,30089,1,4,0:0:0:0:
405,77,30259,1,8,0:0:0:0:
262,168,30430,5,0,0:0:0:0:
449,215,30600,2,0,P|390:260|350:267,1,90,0|4,0:0|0:0,0:0:0:0:
188,217,30941,2,0,P|247:172|287:165,1,90
197,347,31282,2,0,P|125:367|85:360,1,90,0|4,0:0|0:0,0:0:0:0:
9,240,31623,1,0,0:0:0:0:
121,109,31793,2,0,P|117:179|142:226,1,90
231,39,32134,1,4,0:0:0:0:
197,192,32305,2,0,P|234:250|282:274,1,90
306,148,32645,1,0,0:0:0:0:
147,273,32816,1,4,0:0:0:0:
352,274,32986,1,0,0:0:0:0:
222,133,33157,6,0,P|245:88|301:65,1,90
112,186,33498,2,0,P|78:215|58:255,1,90,4|0,0:0|0:0,0:0:0:0:
222,250,33839,1,0,0:0:0:0:
137,109,34009,6,0,P|174:133|192:173,1,90
257,349,34350,5,0,0:0:0:0:
275,194,34520,1,0,0:0:0:0:
411,283,34691,1,0,0:0:0:0:
251,275,34861,1,0,0:0:0:0:
338,140,35032,2,0,P|382:135|423:152,1,90,0|4,0:0|0:0,0:0:0:0:
478,234,35373,1,0,0:0:0:0:
483,48,35543,2,0,P|435:44|386:70,1,90,0|4,0:0|0:0,0:0:0:0:
319,193,35884,6,0,P|310:239|251:287,1,90
162,166,36225,1,4,0:0:0:0:
162,166,36395,2,0,P|153:120|33:83,1,180
102,247,36907,2,0,L|74:161,1,90,4|0,0:0|0:0,0:0:0:0:
211,247,37248,2,0,L|183:332,1,90
340,359,37589,2,0,L|312:273,1,90,4|0,0:0|0:0,0:0:0:0:
239,128,37930,1,0,0:0:0:0:
391,177,38100,2,0,L|489:205,2,90,0|4|0,0:0|0:0|0:0,0:0:0:0:
171,107,38611,6,0,P|155:166|184:269,1,155.250002961159,2|0,0:0|0:0,0:0:0:0:
228,281,38952,2,0,P|285:260|353:177,1,155.250002961159,2|0,0:0|0:0,0:0:0:0:
347,133,39293,2,0,P|301:91|196:71,1,155.250002961159,2|0,0:0|0:0,0:0:0:0:
180,76,39634,1,6,0:0:0:0:
393,61,39805,6,0,P|423:96|427:160,1,103.500001974106
485,27,40145,1,0,0:0:0:0:
384,224,40316,1,0,0:0:0:0:
274,46,40486,1,12,0:0:0:0:
274,46,40572,1,12,0:0:0:0:
274,46,40657,1,12,0:0:0:0:
347,153,40827,1,8,0:0:0:0:
258,232,40998,1,4,0:0:0:0:
313,317,41168,1,8,0:0:0:0:
200,165,41339,6,0,B|156:190|162:237|169:282|115:336,1,161.999995056153
82,365,41850,6,0,B|50:337|57:292|63:245|19:220,1,161.999995056153
20,221,42361,2,0,P|61:200|96:154,1,80.9999975280763
69,80,42702,2,0,P|147:104|221:64,1,161.999995056153
304,108,43214,2,0,P|292:188|343:255,1,161.999995056153
336,251,43725,2,0,P|331:291|313:327,1,80.9999975280763
221,357,44066,1,0,0:0:0:0:
145,292,44236,1,0,0:0:0:0:
182,201,44407,1,0,0:0:0:0:
274,198,44577,2,0,B|317:156|357:166|397:176|421:102,1,161.999995056153
411,124,45089,1,0,0:0:0:0:
223,121,45430,5,0,0:0:0:0:
274,198,45600,2,0,P|254:238|146:276,1,161.999995056153
19,322,46111,2,0,L|114:364,1,80.9999975280763
94,184,46452,2,0,L|20:217,1,80.9999975280763
160,157,46793,2,0,P|235:141|299:102,1,121.499996292114
274,120,47134,1,0,0:0:0:0:
201,55,47305,1,0,0:0:0:0:
296,40,47475,1,0,0:0:0:0:
370,102,47645,1,0,0:0:0:0:
353,195,47816,2,0,P|382:165|380:112,1,80.9999975280763
419,274,48157,6,0,P|469:213|471:83,1,202.499993820191
445,92,48668,2,0,B|401:116|339:85|275:51|201:83,1,242.999992584229
316,194,49520,6,0,P|291:276|152:97,1,485.999985168458
202,209,50857,1,0,0:0:0:0:
202,209,50942,1,0,0:0:0:0:
202,209,51028,1,0,0:0:0:0:
277,102,51225,2,0,L|323:32,1,80.9999975280763
353,20,51736,1,4,0:0:0:0:
462,102,51907,1,2,0:0:0:0:
341,143,52077,1,4,0:0:0:0:
511,263,52248,6,0,P|474:254|413:261,1,80.9999975280763
337,268,52588,1,0,0:0:0:0:
267,330,52759,1,0,0:0:0:0:
176,362,52930,1,0,0:0:0:0:
88,320,53100,1,0,0:0:0:0:
81,227,53270,2,0,P|127:173|161:160,1,80.9999975280763
178,253,53611,6,0,P|217:219|224:168,1,80.9999975280763
170,106,53952,2,0,P|276:109|319:231,1,242.999992584229
322,315,54634,2,0,P|371:325|428:303,1,80.9999975280763
473,254,54975,1,0,0:0:0:0:
402,187,55145,1,0,0:0:0:0:
473,121,55315,1,0,0:0:0:0:
401,54,55486,2,0,P|323:52|269:118,1,161.999995056153
269,207,55998,2,0,P|227:196|174:150,1,80.9999975280763
146,25,56339,1,0,0:0:0:0:
74,123,56509,2,0,P|101:198|64:277,1,161.999995056153
195,264,57020,2,0,P|218:323|253:350,1,80.9999975280763
318,294,57361,2,0,P|328:356|312:397,1,80.9999975280763
287,198,57702,6,0,P|333:168|368:160,1,80.9999975280763
444,201,58043,1,0,0:0:0:0:
501,274,58214,1,0,0:0:0:0:
449,351,58384,1,0,0:0:0:0:
359,326,58555,2,0,P|333:279|346:226,1,80.9999975280763
231,354,58895,1,0,0:0:0:0:
188,243,59066,2,0,L|149:147,1,80.9999975280763
106,34,59407,2,0,P|192:28|266:83,1,161.999995056153
125,191,60089,2,0,P|162:246|216:261,1,121.499996292114
245,251,60430,5,8,0:0:0:0:
28,308,60600,1,8,0:0:0:0:
194,139,60770,5,8,0:0:0:0:
133,357,60941,1,8,0:0:0:0:
355,270,61111,5,8,0:0:0:0:
103,170,61282,1,8,0:0:0:0:
356,171,61452,5,8,0:0:0:0:
101,264,61623,1,8,0:0:0:0:
298,99,61793,5,12,0:0:0:0:
97,182,61964,1,8,0:0:0:0:
93,146,62049,1,8,0:0:0:0:
105,118,62134,1,8,0:0:0:0:
336,269,62305,1,8,0:0:0:0:
322,302,62390,1,8,0:0:0:0:
298,321,62475,1,8,0:0:0:0:
199,122,62645,1,0,0:0:0:0:
44,350,62816,1,0,2:0:0:0:
89,336,62901,1,0,2:0:0:0:
121,300,62986,1,0,2:0:0:0:
127,253,63071,1,0,2:0:0:0:
100,215,63157,6,0,P|38:174|50:83,1,161.999995056153
109,135,63497,2,0,P|147:87|196:50,1,107.999996704102
301,137,63839,1,0,0:0:0:0:
194,237,64009,1,0,0:0:0:0:
92,118,64180,1,4,0:0:0:0:
201,27,64350,2,0,P|264:32|363:102,1,161.999995056153
347,82,64690,1,0,0:0:0:0:
235,273,64861,1,0,0:0:0:0:
373,305,65032,5,0,0:0:0:0:
156,180,65202,1,0,0:0:0:0:
342,192,65373,1,0,0:0:0:0:
194,352,65543,1,4,0:0:0:0:
156,180,65714,1,0,0:0:0:0:
352,117,65884,6,0,P|303:77|281:21,1,107.999996704102
461,133,66225,1,4,0:0:0:0:
224,160,66395,1,0,0:0:0:0:
506,68,66566,2,0,P|431:58|383:134,1,161.999995056153
391,158,66907,1,4,0:0:0:0:
387,293,67077,2,0,P|452:293|513:264,1,107.999996704102
491,278,67418,1,0,0:0:0:0:
319,355,67588,1,0,0:0:0:0:
246,177,67759,5,0,0:0:0:0:
319,355,67930,1,0,0:0:0:0:
174,220,68100,1,0,0:0:0:0:
175,358,68270,1,4,0:0:0:0:
175,144,68441,1,0,0:0:0:0:
114,285,68611,6,0,P|91:232|104:163,1,107.999996704102
251,73,68952,2,0,P|274:126|261:195,1,107.999996704102,4|0,0:0|0:0,0:0:0:0:
42,262,69293,2,0,P|42:204|82:146,1,107.999996704102
319,112,69634,2,0,P|315:165|287:210,1,107.999996704102,4|0,0:0|0:0,0:0:0:0:
111,66,69975,2,0,P|155:36|208:31,1,107.999996704102
229,298,70316,2,0,P|182:324|129:325,1,107.999996704102,4|0,0:0|0:0,0:0:0:0:
180,58,70657,2,0,P|233:60|279:87,1,107.999996704102
163,297,70998,2,0,P|109:291|65:260,1,107.999996704102,4|0,0:0|0:0,0:0:0:0:
345,173,71338,5,0,0:0:0:0:
220,357,71508,1,0,0:0:0:0:
124,157,71679,1,0,0:0:0:0:
367,312,71849,5,0,0:0:0:0:
231,77,72020,1,0,0:0:0:0:
98,311,72190,1,0,0:0:0:0:
345,173,72360,5,0,0:0:0:0:
220,357,72530,1,0,0:0:0:0:
124,157,72701,1,0,0:0:0:0:
280,205,72872,5,0,0:0:0:0:
226,284,73042,1,0,0:0:0:0:
189,197,73213,1,0,0:0:0:0:
345,173,73383,5,0,0:0:0:0:
220,357,73553,1,0,0:0:0:0:
124,157,73724,1,0,0:0:0:0:
163,113,73809,1,0,0:0:0:0:
220,110,73894,1,0,0:0:0:0:
264,147,73979,1,0,0:0:0:0:
280,205,74065,6,0,P|229:267|155:287,1,107.999996704102
124,42,74407,2,0,P|174:25|228:31,1,107.999996704102,4|0,0:0|0:0,0:0:0:0:
56,105,74748,1,0,0:0:0:0:
242,44,74918,1,0,0:0:0:0:
43,120,75089,1,4,0:0:0:0:
171,153,75259,2,0,P|135:202|54:230,1,107.999996704102
151,72,75600,2,0,P|210:84|268:147,1,107.999996704102,0|4,0:0|0:0,0:0:0:0:
288,262,75941,1,0,0:0:0:0:
292,53,76111,1,0,0:0:0:0:
477,181,76282,6,0,L|495:131,1,53.9999983520508
440,31,76452,2,0,L|380:29,1,53.9999983520508,0|8,3:0|3:0,3:0:0:0:
332,133,76622,2,0,L|351:191,1,53.9999983520508,4|0,0:0|0:0,0:0:0:0:
370,239,76793,5,0,0:0:0:0:
292,53,76964,1,0,0:0:0:0:
477,189,77134,1,4,0:0:0:0:
266,188,77305,1,0,0:0:0:0:
487,71,77475,2,0,P|428:45|314:40,1,161.999995056153
293,52,77816,1,4,0:0:0:0:
477,189,77986,2,0,P|452:238|384:279,1,107.999996704102
153,232,78327,2,0,B|178:292|244:327,1,107.999996704102,0|4,0:0|0:0,0:0:0:0:
204,170,78668,5,0,0:0:0:0:
304,258,78839,1,0,0:0:0:0:
176,95,79009,1,0,0:0:0:0:
85,265,79180,1,4,0:0:0:0:
282,257,79350,1,0,0:0:0:0:
89,149,79520,6,0,P|31:164|-21:228,1,107.999996704102
196,246,79861,2,0,P|225:201|230:147,1,107.999996704102,4|0,0:0|0:0,0:0:0:0:
63,321,80202,2,0,P|95:363|143:387,1,107.999996704102
35,191,80543,2,0,P|2:242|8:324,1,107.999996704102,4|0,0:0|0:0,0:0:0:0:
179,189,80884,2,0,P|170:136|137:94,1,107.999996704102
133,335,81225,2,0,P|186:344|237:328,1,107.999996704102,4|0,0:0|0:0,0:0:0:0:
210,50,81566,2,0,P|164:21|111:17,1,107.999996704102
288,260,81907,5,4,0:0:0:0:
318,74,82077,1,0,0:0:0:0:
135,130,82248,1,4,0:0:0:0:
249,153,82418,5,4,0:0:0:0:
219,339,82588,1,0,0:0:0:0:
402,283,82759,1,4,0:0:0:0:
317,183,82930,5,0,0:0:0:0:
121,205,83100,1,0,0:0:0:0:
121,205,83185,1,0,0:0:0:0:
121,205,83270,1,4,0:0:0:0:
206,25,83441,1,0,0:0:0:0:
411,49,83611,5,0,0:0:0:0:
378,67,83696,1,0,0:0:0:0:
356,97,83781,1,0,0:0:0:0:
345,134,83866,1,0,0:0:0:0:
339,171,83951,1,0,0:0:0:0:
329,207,84037,1,0,0:0:0:0:
305,236,84122,1,0,0:0:0:0:
271,251,84207,1,0,0:0:0:0:
228,256,84293,5,0,0:0:0:0:
186,246,84378,1,0,0:0:0:0:
150,223,84464,1,0,0:0:0:0:
122,190,84549,1,0,0:0:0:0:
107,149,84634,1,0,0:0:0:0:
106,97,84719,1,0,0:0:0:0:
125,47,84805,1,0,0:0:0:0:
167,13,84890,1,0,0:0:0:0:
219,3,84975,5,0,0:0:0:0:
188,165,85145,1,0,0:0:0:0:
49,31,85316,1,4,0:0:0:0:
251,96,85486,2,0,P|301:131|329:190,1,107.999996704102
113,355,85827,2,0,P|63:320|35:261,1,107.999996704102,0|4,0:0|0:0,0:0:0:0:
323,170,86168,2,0,P|338:228|322:292,1,107.999996704102,0|0,3:0|3:0,3:0:0:0:
40,280,86509,2,0,P|24:221|40:157,1,107.999996704102,0|4,3:0|3:0,3:0:0:0:
202,358,86850,2,0,P|217:299|201:235,1,107.999996704102,0|0,3:0|3:0,3:0:0:0:
106,131,87191,1,0,0:0:0:0:
126,289,87361,1,4,0:0:0:0:
265,194,87532,2,0,P|241:158|236:113,1,53.9999983520508
234,114,87702,5,0,0:0:0:0:
108,209,87873,1,0,0:0:0:0:
258,272,88043,1,4,0:0:0:0:
236,31,88214,2,0,P|180:56|142:110,1,107.999996704102,0|0,3:0|3:0,3:0:0:0:
332,227,88555,2,0,P|387:201|425:147,1,107.999996704102,0|4,3:0|3:0,3:0:0:0:
215,265,88895,2,0,P|237:322|288:363,1,107.999996704102,0|0,3:0|3:0,3:0:0:0:
248,107,89236,1,0,0:0:0:0:
132,283,89407,1,4,0:0:0:0:
169,127,89577,2,0,P|151:76|113:38,1,107.999996704102,0|0,3:0|3:0,3:0:0:0:
37,138,89918,1,0,0:0:0:0:
130,241,90089,1,4,0:0:0:0:
168,125,90259,1,0,0:0:0:0:
66,317,90430,5,0,0:0:0:0:
208,226,90600,1,0,0:0:0:0:
81,349,90770,1,4,0:0:0:0:
238,365,90941,2,0,P|259:315|299:280,1,107.999996704102
449,329,91282,2,0,P|408:293|387:244,1,107.999996704102,0|4,0:0|0:0,0:0:0:0:
512,152,91623,2,0,P|458:146|412:119,1,107.999996704102
256,90,91964,2,0,P|296:54|317:5,1,107.999996704102,0|4,0:0|0:0,0:0:0:0:
152,95,92305,2,0,P|173:144|213:179,1,107.999996704102
362,236,92645,1,0,0:0:0:0:
135,217,92816,1,4,0:0:0:0:
316,97,92986,6,0,P|266:53|205:36,1,107.999996704102,0|8,0:0|0:0,0:0:0:0:
76,173,93327,1,0,0:0:0:0:
321,202,93498,6,0,P|271:246|210:263,1,107.999996704102
36,240,93839,1,8,0:0:0:0:
300,313,94009,1,0,0:0:0:0:
33,361,94180,6,0,P|82:340|121:303,1,107.999996704102
252,107,94520,2,0,L|330:151,1,71.9999978027344
398,181,94748,1,0,0:0:0:0:
398,181,94861,2,0,L|457:140,2,71.9999978027344
330,243,95202,1,0,0:0:0:0:
330,243,95315,2,0,L|271:202,2,71.9999978027344
397,295,95657,2,0,L|340:340,1,71.9999978027344
263,383,95884,1,0,0:0:0:0:
244,377,96225,6,0,L|297:264,1,107.999996704102
233,337,96566,2,0,L|254:214,1,107.999996704102
201,311,96907,2,0,L|190:186,1,107.999996704102
119,203,97248,2,0,L|66:90,1,107.999996704102
130,163,97589,2,0,L|108:40,1,107.999996704102
162,137,97930,2,0,L|172:12,1,107.999996704102
261,123,98270,2,0,L|250:247,1,107.999996704102
152,317,98611,1,0,0:0:0:0:
280,351,98952,1,0,0:0:0:0:
337,227,99293,5,0,0:0:0:0:
429,331,99634,1,0,0:0:0:0:
478,201,99975,1,0,0:0:0:0:
337,227,100316,1,0,0:0:0:0:
429,331,100657,1,0,0:0:0:0:
478,201,100998,1,0,0:0:0:0:
337,227,101168,1,0,0:0:0:0:
337,227,101339,6,0,P|355:166|412:139,1,107.999996704102
389,142,101680,2,0,P|430:109|441:57,1,107.999996704102
334,42,102020,1,0,0:0:0:0:
429,28,102191,1,0,0:0:0:0:
309,116,102361,2,0,P|267:83|256:31,1,107.999996704102
212,152,102702,1,0,0:0:0:0:
110,158,102873,1,0,0:0:0:0:
110,158,103043,2,0,P|128:211|193:252,1,107.999996704102
294,244,103384,2,0,P|334:278|350:329,1,107.999996704102
226,343,103725,1,0,0:0:0:0:
164,223,103895,1,0,0:0:0:0:
276,133,104066,6,0,P|297:187|297:207,1,53.9999983520508
293,220,104236,1,4,0:0:0:0:
363,28,104407,1,0,0:0:0:0:
151,115,104577,1,0,0:0:0:0:
276,133,104748,1,0,0:0:0:0:
191,273,104918,1,0,0:0:0:0:
196,294,105003,1,0,0:0:0:0:
208,314,105089,1,4,0:0:0:0:
208,314,105430,5,0,0:0:0:0:
393,195,105600,1,8,0:0:0:0:
276,133,105770,1,0,0:0:0:0:
296,304,105941,1,0,0:0:0:0:
321,323,106026,1,0,0:0:0:0:
351,335,106111,1,0,0:0:0:0:
465,257,106282,1,8,0:0:0:0:
489,137,106452,1,2,0:0:0:0:
446,19,106623,1,8,0:0:0:0:
175,55,106793,5,0,0:0:0:0:
352,201,106964,1,0,0:0:0:0:
384,159,107049,1,0,0:0:0:0:
380,106,107134,1,0,0:0:0:0:
271,259,107304,2,0,P|298:284|340:299,2,53.9999983520508
266,106,107645,1,0,0:0:0:0:
172,275,107816,2,0,P|155:218|176:157,1,107.999996704102
314,292,108157,5,0,0:0:0:0:
296,341,108242,1,0,0:0:0:0:
249,366,108327,1,0,0:0:0:0:
303,187,108497,2,0,P|330:187|356:195,2,53.9999983520508,0|0|0,0:3|0:0|0:0,0:0:0:0:
166,172,108839,2,0,P|184:119|234:86,1,107.999996704102
223,250,109180,1,0,0:0:0:0:
120,80,109350,1,0,0:0:0:0:
321,84,109520,1,0,0:0:0:0:
223,250,109691,5,0,0:0:0:0:
171,249,109776,1,0,0:0:0:0:
133,212,109861,1,0,0:0:0:0:
331,217,110031,2,0,P|318:193|299:173,2,53.9999983520508,0|0|0,0:3|0:0|0:0,0:0:0:0:
207,137,110373,1,0,0:0:0:0:
210,348,110543,1,0,0:0:0:0:
56,239,110714,1,0,0:0:0:0:
240,164,110884,1,0,0:0:0:0:
66,34,111055,5,0,0:0:0:0:
118,20,111140,1,0,0:0:0:0:
171,23,111225,1,0,0:0:0:0:
168,245,111395,2,0,P|144:231|125:212,1,53.9999983520508
90,175,111566,1,0,0:0:0:0:
235,281,111736,1,0,0:0:0:0:
129,97,111907,1,0,0:0:0:0:
258,278,112077,1,0,0:0:0:0:
197,132,112248,6,0,P|251:119|313:136,1,107.999996704102
301,129,112503,1,0,0:0:0:0:
301,129,112589,1,0,0:0:0:0:
152,215,112759,1,0,0:0:0:0:
113,177,112844,1,0,0:0:0:0:
103,125,112930,1,0,0:0:0:0:
250,248,113100,1,0,0:0:0:0:
195,49,113270,2,0,P|249:36|311:53,1,107.999996704102
103,125,113611,6,0,P|49:138|-13:121,1,107.999996704102
195,49,113952,1,0,0:0:0:0:
216,97,114037,1,0,0:0:0:0:
218,151,114123,1,0,0:0:0:0:
103,208,114293,1,0,0:0:0:0:
81,256,114378,1,0,0:0:0:0:
79,310,114464,1,0,0:0:0:0:
187,379,114634,2,0,P|201:319|241:274,1,107.999996704102
394,263,114975,5,4,0:0:0:0:
32,183,115316,1,4,0:0:0:0:
493,110,115657,1,6,0:0:0:0:
320,37,115827,1,0,0:0:0:0:
512,86,115998,1,4,0:0:0:0:
298,56,116168,1,0,0:0:0:0:
374,188,116339,2,0,L|332:315,1,107.999996704102
298,56,116679,6,0,P|245:41|178:52,1,107.999996704102
165,54,116935,1,0,0:0:0:0:
138,69,117020,1,0,0:0:0:0:
37,148,117191,1,0,0:0:0:0:
143,222,117361,1,4,0:0:0:0:
36,286,117532,1,8,0:0:0:0:
142,352,117702,5,8,0:0:0:0:
116,188,128611,5,0,0:0:0:0:
194,139,128782,1,0,0:0:0:0:
103,203,128952,2,0,P|119:263|145:307,1,107.999996704102
236,344,129293,1,4,0:0:0:0:
338,360,129464,1,0,0:0:0:0:
436,344,129634,6,0,P|475:298|498:244,1,107.999996704102
443,185,129975,1,4,0:0:0:0:
394,104,130145,1,0,0:0:0:0:
458,42,130316,1,0,0:0:0:0:
381,123,130486,2,0,P|361:168|375:249,1,107.999996704102,0|4,0:0|0:0,0:0:0:0:
355,311,130827,1,0,0:0:0:0:
248,354,130998,6,0,P|268:309|254:228,1,107.999996704102
203,189,131339,1,4,0:0:0:0:
124,153,131509,1,0,0:0:0:0:
39,172,131680,1,0,0:0:0:0:
82,85,131850,2,0,P|84:28|29:42,1,107.999996704102,0|4,0:0|0:0,0:0:0:0:
0,107,132191,1,0,0:0:0:0:
26,189,132361,1,0,0:0:0:0:
41,274,132532,1,0,0:0:0:0:
122,301,132702,6,0,P|175:315|217:351,1,107.999996704102,4|0,0:0|0:0,0:0:0:0:
252,271,133043,1,0,0:0:0:0:
244,184,133214,1,0,0:0:0:0:
183,123,133384,2,0,P|154:180|149:234,1,107.999996704102,4|0,0:0|0:0,0:0:0:0:
252,271,133725,1,0,0:0:0:0:
359,227,133895,1,0,0:0:0:0:
318,107,134066,6,0,P|379:96|420:63,1,107.999996704102,4|0,0:0|0:0,0:0:0:0:
442,194,134407,2,0,P|453:255|486:296,1,107.999996704102
380,362,134748,1,4,0:0:0:0:
342,241,134918,1,0,0:0:0:0:
306,363,135089,1,0,0:0:0:0:
233,306,135259,1,0,0:0:0:0:
162,371,135430,6,0,P|145:315|158:248,1,107.999996704102,4|0,0:0|0:0,0:0:0:0:
70,164,135770,2,0,P|38:207|25:259,1,107.999996704102
97,125,136111,1,4,0:0:0:0:
239,191,136282,1,0,0:0:0:0:
143,62,136452,2,0,P|220:33|307:56,1,161.999995056153
321,75,136793,5,8,0:0:0:0:
209,284,136964,1,8,0:0:0:0:
207,109,137134,5,8,0:0:0:0:
177,344,137305,1,8,0:0:0:0:
121,155,137475,5,8,0:0:0:0:
297,345,137645,1,8,0:0:0:0:
374,135,137816,5,8,0:0:0:0:
198,325,137986,1,8,0:0:0:0:
497,322,138157,5,8,0:0:0:0:
232,182,138327,1,8,0:0:0:0:
487,122,138498,5,8,0:0:0:0:
476,97,138583,1,8,0:0:0:0:
461,74,138668,1,8,0:0:0:0:
442,55,138753,1,8,0:0:0:0:
419,40,138839,1,8,0:0:0:0:
385,29,138924,1,8,0:0:0:0:
347,24,139009,1,8,0:0:0:0:
313,39,139094,1,8,0:0:0:0:
280,78,139180,1,8,0:0:0:0:
233,105,139265,1,8,0:0:0:0:
180,107,139350,1,8,0:0:0:0:
131,85,139435,1,8,0:0:0:0:
100,41,139520,6,0,L|53:253,1,188.999994232178
70,275,139861,2,0,L|154:286,1,62.9999980773926,4|0,0:0|0:0,0:0:0:0:
251,221,140032,2,0,L|167:210,1,62.9999980773926
278,303,140202,2,0,L|362:314,1,62.9999980773926
402,319,140373,1,0,0:0:0:0:
324,116,140543,1,4,0:0:0:0:
205,293,140714,2,0,P|222:350|284:378,1,125.999996154785
204,141,141054,2,0,P|144:155|114:208,1,125.999996154785
299,191,141395,2,0,P|315:133|279:76,1,125.999996154785
189,215,141736,1,0,0:0:0:0:
383,61,141907,1,4,0:0:0:0:
349,248,142077,1,0,0:0:0:0:
53,277,142248,6,0,P|118:291|161:348,1,135.000005149842
126,138,142589,1,4,0:0:0:0:
76,360,142759,1,0,0:0:0:0:
323,242,142930,6,0,P|284:187|289:121,1,135.000005149842
392,288,143270,1,4,0:0:0:0:
351,58,143441,6,0,P|288:36|221:63,1,135.000005149842
307,246,143782,2,0,P|362:275|424:274,1,125.999996154785,0|4,0:0|0:0,0:0:0:0:
395,112,144123,1,0,0:0:0:0:
276,215,144293,1,0,0:0:0:0:
426,274,144464,1,0,0:0:0:0:
376,93,144634,1,4,0:0:0:0:
248,216,144805,1,0,0:0:0:0:
435,251,144975,6,0,L|448:102,1,125.999996154785
248,216,145316,2,0,L|235:365,1,125.999996154785,4|0,0:0|0:0,0:0:0:0:
397,121,145657,2,0,L|282:24,1,125.999996154785
261,254,145998,2,0,L|375:350,1,125.999996154785,4|0,0:0|0:0,0:0:0:0:
181,221,146339,2,0,L|244:112,1,125.999996154785
461,113,146680,2,0,L|399:223,1,125.999996154785,4|0,0:0|0:0,0:0:0:0:
189,94,147020,2,0,L|313:72,1,125.999996154785
451,240,147361,2,0,L|259:273,1,188.999994232178,4|0,0:0|0:0,0:0:0:0:
231,278,147702,5,4,0:0:0:0:
340,157,147873,1,0,0:0:0:0:
357,344,148043,5,0,0:0:0:0:
225,127,148214,1,4,0:0:0:0:
371,240,148384,5,0,0:0:0:0:
214,283,148555,1,0,0:0:0:0:
214,283,148640,1,0,0:0:0:0:
214,283,148725,5,4,0:0:0:0:
309,107,148895,1,4,0:0:0:0:
302,284,149066,5,0,0:0:0:0:
209,55,149236,1,4,0:0:0:0:
181,228,149407,5,0,0:0:0:0:
346,132,149577,1,0,0:0:0:0:
340,352,149748,1,4,0:0:0:0:
448,182,149918,5,0,3:0:0:0:
450,172,150003,1,0,3:0:0:0:
458,161,150088,5,0,0:0:0:0:
476,114,150173,1,0,0:0:0:0:
463,65,150258,1,0,0:0:0:0:
427,30,150343,1,0,0:0:0:0:
377,18,150430,6,0,P|288:32|226:72,1,125.999996154785
96,192,150770,1,4,0:0:0:0:
316,108,150941,1,0,0:0:0:0:
148,19,151111,1,0,0:0:0:0:
233,204,151282,1,0,0:0:0:0:
148,19,151452,2,0,L|182:99,1,62.9999980773926,4|0,0:0|0:0,0:0:0:0:
196,133,151623,2,0,P|134:130|72:187,1,125.999996154785
316,251,151964,2,0,P|378:254|440:197,1,125.999996154785,0|4,0:0|0:0,0:0:0:0:
320,64,152305,5,0,0:0:0:0:
243,235,152475,1,0,0:0:0:0:
338,154,152645,1,0,0:0:0:0:
273,342,152816,1,4,0:0:0:0:
366,267,152986,1,0,0:0:0:0:
272,224,153157,6,0,L|303:159,1,62.9999980773926
158,297,153327,2,0,L|130:353,1,62.9999980773926
153,165,153498,2,0,L|184:100,1,62.9999980773926,4|0,0:0|0:0,0:0:0:0:
200,63,153668,1,0,0:0:0:0:
329,190,153839,2,0,P|361:135|348:65,1,125.999996154785
241,225,154180,1,4,0:0:0:0:
351,292,154350,1,0,0:0:0:0:
163,292,154520,2,0,P|120:299|87:329,2,62.9999980773926
320,348,154861,1,0,0:0:0:0:
467,180,155032,5,0,0:0:0:0:
320,348,155202,1,0,0:0:0:0:
511,248,155373,1,0,0:0:0:0:
264,292,155543,1,4,0:0:0:0:
487,320,155714,1,0,0:0:0:0:
467,180,155884,6,0,P|407:143|371:50,1,125.999996154785
393,51,156225,2,0,P|292:59|222:26,1,125.999996154785,4|0,0:0|0:0,0:0:0:0:
235,21,156566,2,0,P|173:101|103:132,1,125.999996154785
63,125,156907,1,4,0:0:0:0:
219,212,157077,1,0,0:0:0:0:
135,54,157248,2,0,L|274:132,1,125.999996154785
429,126,157589,2,0,L|290:48,1,125.999996154785,4|0,0:0|0:0,0:0:0:0:
119,247,157930,2,0,L|273:209,1,125.999996154785
414,23,158270,2,0,L|260:66,1,125.999996154785,4|0,0:0|0:0,0:0:0:0:
107,109,158611,5,4,0:0:0:0:
292,135,158782,1,0,0:0:0:0:
79,297,158952,1,0,0:0:0:0:
208,88,159123,5,4,0:0:0:0:
321,211,159293,1,0,0:0:0:0:
128,159,159464,1,0,0:0:0:0:
128,159,159549,1,0,0:0:0:0:
128,159,159634,1,4,0:0:0:0:
386,158,159805,2,0,P|404:230|357:281,1,125.999996154785
135,361,160145,5,0,0:0:0:0:
125,331,160230,1,0,0:0:0:0:
124,299,160315,1,0,0:0:0:0:
132,269,160400,1,0,0:0:0:0:
147,241,160485,1,0,0:0:0:0:
181,216,160572,1,0,0:0:0:0:
216,203,160657,5,0,0:0:0:0:
243,177,160742,1,0,0:0:0:0:
256,142,160827,1,0,0:0:0:0:
254,105,160912,1,0,0:0:0:0:
236,72,160998,1,0,0:0:0:0:
215,42,161083,1,0,0:0:0:0:
182,24,161169,1,0,0:0:0:0:
145,22,161254,1,0,0:0:0:0:
111,39,161339,1,0,0:0:0:0:
122,236,161680,5,2,0:0:0:0:
335,204,162020,1,0,0:0:0:0:
269,58,162191,1,0,0:0:0:0:
226,124,162361,2,0,L|227:254,1,103.500001974106,2|0,0:0|0:0,0:0:0:0:
244,299,162702,5,0,0:0:0:0:
84,293,162873,1,0,0:0:0:0:
57,222,163043,2,0,L|143:120,1,103.500001974106,2|0,0:0|0:0,0:0:0:0:
196,60,163384,5,0,0:0:0:0:
42,30,163555,1,0,0:0:0:0:
25,103,163725,2,0,L|58:222,1,103.500001974106,2|0,0:0|0:0,0:0:0:0:
122,234,164066,5,0,0:0:0:0:
263,167,164236,1,0,0:0:0:0:
310,226,164407,2,0,L|396:330,1,103.500001974106,2|0,0:0|0:0,0:0:0:0:
448,332,164748,5,0,0:0:0:0:
450,172,164918,1,0,0:0:0:0:
396,119,165089,2,0,L|495:57,1,103.500001974106,2|0,0:0|0:0,0:0:0:0:
423,18,165430,5,0,0:0:0:0:
294,108,165600,1,0,0:0:0:0:
234,54,165770,2,0,L|199:171,1,103.500001974106,2|0,0:0|0:0,0:0:0:0:
135,158,166111,5,0,0:0:0:0:
89,7,166282,1,0,0:0:0:0:
25,46,166452,2,0,B|28:158|28:158|39:186|39:186|37:214,1,155.250002961159,2|0,0:0|0:0,0:0:0:0:
77,240,166793,6,0,B|158:325,1,103.500001974106
220,352,167134,2,0,B|220:310|220:310|276:253,1,103.500001974106,2|0,0:0|0:0,0:0:0:0:
322,217,167475,1,0,0:0:0:0:
444,116,167645,1,0,0:0:0:0:
494,173,167816,2,0,B|500:200|500:200|490:297|490:297|495:331,1,155.250002961159,2|0,0:0|0:0,0:0:0:0:
503,346,168157,1,0,0:0:0:0:
305,322,168327,5,0,0:0:0:0:
305,322,168412,1,0,0:0:0:0:
305,322,168497,1,0,0:0:0:0:
355,243,168668,1,0,0:0:0:0:
282,138,168839,1,0,0:0:0:0:
376,56,169009,1,0,0:0:0:0:
261,22,169180,2,0,B|232:24|232:24|143:63,1,103.500001974106,2|0,0:0|0:0,0:0:0:0:
191,95,169520,6,0,L|99:189,1,103.500001974106
146,210,169861,2,0,L|84:319,1,103.500001974106,2|0,0:0|0:0,0:0:0:0:
82,327,170202,1,0,0:0:0:0:
271,368,170373,1,0,0:0:0:0:
230,243,170543,1,2,0:0:0:0:
284,187,170714,2,0,L|372:95,1,103.500001974106
233,44,171055,1,0,0:0:0:0:
233,44,171140,1,0,0:0:0:0:
233,44,171225,2,0,L|132:109,1,103.500001974106,2|0,0:0|0:0,0:0:0:0:
60,151,171566,5,0,0:0:0:0:
89,228,171679,1,0,0:0:0:0:
36,290,171793,1,0,0:0:0:0:
80,350,171907,2,0,L|215:287,1,103.500001974106,2|0,0:0|0:0,0:0:0:0:
173,306,172162,2,0,L|400:334,1,207.000003948212
379,331,172589,1,2,0:0:0:0:
340,178,172930,1,0,0:0:0:0:
454,227,173100,1,0,0:0:0:0:
448,98,173270,1,2,0:0:0:0:
340,178,173441,1,0,0:0:0:0:
448,98,173611,6,0,B|429:79|429:79|382:54|382:54|361:22,1,103.500001974106
230,174,173952,1,2,0:0:0:0:
165,104,174123,2,0,B|121:111|121:111|21:39|21:39|22:-8,1,207.000003948212
20,169,174634,1,2,0:0:0:0:
173,222,174805,2,0,B|129:215|129:215|33:288|33:288|26:333,1,207.000003948212
242,345,175315,2,0,L|184:359,2,51.7500009870529
284,197,175657,2,0,P|343:199|394:247,1,103.500001974106
395,253,175912,1,0,0:0:0:0:
409,296,175998,2,0,P|441:229|434:118,1,155.250002961159,2|0,0:0|0:0,0:0:0:0:
430,116,176339,5,0,0:0:0:0:
410,85,176424,1,0,0:0:0:0:
383,61,176509,1,0,0:0:0:0:
350,46,176594,1,0,0:0:0:0:
314,41,176679,1,2,0:0:0:0:
325,114,176850,2,0,B|285:144|285:144|250:248|250:248|200:295,1,207.000003948212
161,129,177361,2,0,P|106:157|74:215,1,103.500001974106,2|0,0:0|0:0,0:0:0:0:
66,319,177702,5,0,0:0:0:0:
66,319,177787,1,0,0:0:0:0:
66,319,177873,1,0,0:0:0:0:
266,364,178043,1,2,0:0:0:0:
305,331,178128,1,0,0:0:0:0:
315,281,178213,1,0,0:0:0:0:
303,235,178299,1,0,0:0:0:0:
313,185,178384,1,0,0:0:0:0:
353,153,178469,1,0,0:0:0:0:
404,144,178555,6,0,P|365:101|308:75,1,103.500001974106,0|2,0:0|0:0,0:0:0:0:
98,63,178895,1,0,0:0:0:0:
187,25,179066,5,0,0:0:0:0:
190,76,179151,1,0,0:0:0:0:
169,123,179236,1,0,0:0:0:0:
130,155,179321,1,0,0:0:0:0:
85,179,179407,1,2,0:0:0:0:
46,211,179492,1,0,0:0:0:0:
25,258,179577,1,0,0:0:0:0:
29,310,179662,5,0,0:0:0:0:
61,346,179748,1,0,0:0:0:0:
110,356,179833,1,0,0:0:0:0:
157,337,179918,1,0,0:0:0:0:
185,294,180003,1,0,0:0:0:0:
188,245,180089,2,0,P|238:300|288:321,1,103.500001974106,2|0,0:0|0:0,0:0:0:0:
224,46,180430,6,0,P|191:63|156:104,1,62.9999980773926
318,194,180600,2,0,P|346:180|369:159,1,62.9999980773926
165,165,180770,2,0,P|188:186|217:200,1,62.9999980773926
362,86,180941,2,0,P|339:65|311:52,1,62.9999980773926
340,293,181111,6,0,P|373:276|408:235,1,62.9999980773926
181,108,181281,2,0,P|152:121|129:142,1,62.9999980773926
396,145,181451,2,0,P|372:124|344:110,1,62.9999980773926
142,264,181622,2,0,P|165:284|193:298,1,62.9999980773926
256,192,181793,12,0,183157,0:0:0:0:
166,123,194066,5,0,0:0:0:0:
166,123,194151,1,0,0:0:0:0:
166,123,194236,1,0,0:0:0:0:
166,123,194322,1,0,0:0:0:0:
166,123,194407,1,0,0:0:0:0:
272,55,194748,5,0,0:0:0:0:
271,181,195089,1,0,0:0:0:0:
379,116,195430,1,0,0:0:0:0:
403,239,195770,1,0,0:0:0:0:
298,309,196111,1,0,0:0:0:0:
271,185,196452,1,0,0:0:0:0:
170,261,196793,5,0,0:0:0:0:
170,261,196878,1,0,0:0:0:0:
170,261,196964,1,0,0:0:0:0:
170,261,197049,1,0,0:0:0:0:
170,261,197134,1,0,0:0:0:0:
17,214,197475,6,0,L|79:152,1,72
94,181,197816,2,0,L|161:115,1,72
171,148,198157,2,0,L|234:83,1,72
264,73,198498,2,0,L|335:144,1,72
341,106,198839,2,0,L|411:175,1,72
418,139,199180,2,0,L|491:211,1,72
466,281,199520,5,0,0:0:0:0:
466,281,199606,1,0,0:0:0:0:
466,281,199691,1,0,0:0:0:0:
466,281,199776,1,0,0:0:0:0:
466,281,199861,1,0,0:0:0:0:
325,354,200202,5,0,0:0:0:0:
330,195,200543,1,0,0:0:0:0:
186,263,200884,1,0,0:0:0:0:
199,105,201225,1,0,0:0:0:0:
58,178,201566,1,0,0:0:0:0:
186,263,201907,1,0,0:0:0:0:
289,88,202248,5,0,0:0:0:0:
374,263,202418,1,0,0:0:0:0:
352,35,202588,5,0,0:0:0:0:
261,237,202758,1,0,0:0:0:0:
431,102,202929,5,0,0:0:0:0:
185,169,203099,1,0,0:0:0:0:
422,202,203270,5,0,0:3:0:0:
170,64,203440,1,0,0:3:0:0:
146,232,203611,5,0,0:0:0:0:
160,264,203696,1,0,0:0:0:0:
185,290,203781,1,0,0:0:0:0:
218,305,203866,1,0,0:0:0:0:
255,301,203952,5,0,3:0:0:0:
290,293,204037,1,0,3:0:0:0:
326,298,204122,1,0,3:0:0:0:
358,315,204207,1,0,3:0:0:0:
392,297,204293,5,8,0:0:0:0:
427,262,204378,1,8,0:0:0:0:
433,213,204463,1,8,0:0:0:0:
404,176,204549,1,8,0:0:0:0:
368,143,204634,5,8,0:0:0:0:
349,97,204719,1,8,0:0:0:0:
362,50,204804,1,8,0:0:0:0:
404,27,204890,1,8,0:0:0:0:
452,20,204975,6,0,L|273:30,1,175.499991966248
238,35,205316,1,4,0:0:0:0:
330,217,205486,1,0,0:0:0:0:
151,216,205657,2,0,P|201:265|238:365,1,175.499991966248
215,380,205998,1,4,0:0:0:0:
275,199,206168,2,0,P|302:147|360:120,1,116.999994644165
308,296,206509,2,0,P|249:300|195:265,1,116.999994644165,0|4,3:0|3:0,3:0:0:0:
362,209,206850,1,0,0:0:0:0:
183,136,207020,1,0,0:0:0:0:
420,156,207191,1,0,0:0:0:0:
141,205,207361,2,0,P|88:228|36:277,1,116.999994644165,4|0,0:0|0:0,0:0:0:0:
206,360,207702,5,0,0:0:0:0:
240,139,207873,1,0,0:0:0:0:
35,201,208043,1,4,0:0:0:0:
317,270,208214,1,0,0:0:0:0:
63,298,208384,2,0,P|111:263|136:192,1,116.999994644165
26,58,208725,1,4,0:0:0:0:
212,281,208895,2,0,P|235:226|219:152,1,116.999994644165
4,269,209236,2,0,P|39:316|109:341,1,116.999994644165,0|4,0:0|0:0,0:0:0:0:
293,355,209577,1,0,0:0:0:0:
142,241,209748,2,0,P|177:193|247:168,1,116.999994644165
37,204,210089,1,4,0:0:0:0:
246,285,210259,1,0,0:0:0:0:
202,69,210430,6,0,P|268:76|332:123,1,116.999994644165
246,285,210770,2,0,P|180:278|116:231,1,116.999994644165,4|0,0:0|0:0,0:0:0:0:
354,164,211111,2,0,P|345:229|297:293,1,116.999994644165
94,187,211452,2,0,P|103:122|151:58,1,116.999994644165
231,324,211793,2,0,P|165:317|101:270,1,116.999994644165
218,34,212134,2,0,P|284:41|348:88,1,116.999994644165,4|0,0:0|0:0,0:0:0:0:
61,181,212475,2,0,P|69:115|117:51,1,116.999994644165
381,173,212816,2,0,P|372:238|284:317,1,175.499991966248,4|0,0:0|0:0,0:0:0:0:
263,321,213157,5,4,0:0:0:0:
219,158,213327,1,0,0:0:0:0:
452,194,213498,1,0,0:0:0:0:
183,272,213668,5,4,0:0:0:0:
226,116,213839,1,0,0:0:0:0:
405,304,214009,1,0,0:0:0:0:
405,304,214094,1,0,0:0:0:0:
405,304,214180,5,4,0:0:0:0:
205,193,214350,1,0,0:0:0:0:
360,136,214520,1,0,0:0:0:0:
130,103,214691,5,4,0:0:0:0:
255,331,214861,1,0,0:0:0:0:
413,136,215032,1,4,0:0:0:0:
130,103,215202,5,4,0:0:0:0:
101,132,215287,1,0,0:0:0:0:
82,168,215372,1,0,0:0:0:0:
75,208,215457,1,0,0:0:0:0:
80,249,215542,1,0,0:0:0:0:
96,284,215628,1,0,0:0:0:0:
119,316,215713,1,0,0:0:0:0:
152,340,215798,1,0,0:0:0:0:
194,350,215884,6,0,P|222:263|290:209,1,175.499991966248
321,218,216225,1,0,0:0:0:0:
150,85,216395,1,0,0:0:0:0:
399,185,216566,2,0,P|351:144|249:178,1,175.499991966248
231,200,216907,1,4,0:0:0:0:
436,276,217077,2,0,P|483:239|496:178,1,116.999994644165
242,261,217418,2,0,P|257:316|302:351,1,116.999994644165,0|4,0:0|0:0,0:0:0:0:
388,203,217759,1,0,0:0:0:0:
265,112,217930,1,0,0:0:0:0:
244,263,218100,1,0,0:0:0:0:
113,172,218270,1,0,0:0:0:0:
93,316,218441,1,0,0:0:0:0:
94,105,218611,6,0,P|141:71|266:93,1,175.499991966248
278,108,218952,1,4,0:0:0:0:
151,237,219123,1,0,0:0:0:0:
334,54,219293,2,0,P|364:107|354:225,1,175.499991966248
338,249,219634,1,4,0:0:0:0:
495,110,219805,2,0,P|458:60|401:31,1,116.999994644165
357,218,220145,2,0,P|394:268|451:297,1,116.999994644165,0|4,0:0|0:0,0:0:0:0:
403,127,220486,5,0,0:0:0:0:
278,241,220657,1,0,0:0:0:0:
268,142,220827,1,0,0:0:0:0:
161,269,220998,1,4,0:0:0:0:
268,142,221168,1,0,0:0:0:0:
334,301,221339,6,0,P|284:334|205:343,1,116.999994644165
157,164,221680,2,0,P|207:131|286:122,1,116.999994644165,4|0,0:0|0:0,0:0:0:0:
283,344,222020,2,0,P|226:333|178:301,1,116.999994644165
249,120,222361,2,0,P|306:131|355:164,1,116.999994644165,4|0,0:0|0:0,0:0:0:0:
101,345,222702,2,0,L|101:223,1,116.999994644165
321,229,223043,2,0,L|321:351,1,116.999994644165,4|0,0:0|0:0,0:0:0:0:
101,228,223384,2,0,L|101:106,1,116.999994644165
321,112,223725,2,0,L|321:234,1,116.999994644165,4|0,0:0|0:0,0:0:0:0:
158,364,224066,5,4,0:0:0:0:
97,217,224236,1,0,0:0:0:0:
313,274,224407,1,0,0:0:0:0:
154,97,224577,5,4,0:0:0:0:
239,312,224748,1,0,0:0:0:0:
340,155,224918,1,0,0:0:0:0:
340,155,225003,1,0,0:0:0:0:
340,155,225089,5,4,0:0:0:0:
405,303,225259,1,0,0:0:0:0:
123,332,225430,5,0,0:0:0:0:
97,317,225515,1,0,0:0:0:0:
76,297,225600,1,0,0:0:0:0:
62,271,225685,1,0,0:0:0:0:
55,243,225770,1,0,0:0:0:0:
55,214,225856,1,0,0:0:0:0:
64,186,225941,1,0,0:0:0:0:
83,155,226026,1,0,0:0:0:0:
107,130,226111,5,8,0:0:0:0:
140,118,226196,1,8,0:0:0:0:
174,123,226281,1,8,0:0:0:0:
206,144,226367,1,8,0:0:0:0:
240,149,226452,1,8,0:0:0:0:
273,137,226537,1,8,0:0:0:0:
297,112,226622,1,8,0:0:0:0:
314,79,226708,1,8,0:0:0:0:
334,51,226793,6,0,P|391:32|459:58,1,116.999994644165
328,232,227134,2,0,P|284:190|275:118,1,116.999994644165
451,265,227475,2,0,P|421:317|353:343,1,116.999994644165
361,149,227816,1,4,0:0:0:0:
295,348,227986,1,0,0:0:0:0:
145,190,228157,6,0,P|159:250|137:317,1,116.999994644165
44,134,228498,2,0,P|89:92|158:79,1,116.999994644165,4|0,0:0|0:0,0:0:0:0:
145,302,228839,2,0,P|99:343|30:356,1,116.999994644165
131,165,229180,1,4,0:0:0:0:
256,335,229350,1,0,0:0:0:0:
255,172,229520,6,0,P|242:113|198:65,1,116.999994644165
66,212,229861,1,4,0:0:0:0:
258,255,230032,1,0,0:0:0:0:
450,212,230202,1,0,0:0:0:0:
348,156,230373,1,0,0:0:0:0:
448,95,230543,1,4,0:0:0:0:
450,212,230714,1,0,0:0:0:0:
246,212,230884,5,0,0:0:0:0:
346,273,231054,1,0,0:0:0:0:
348,156,231225,1,4,0:0:0:0:
251,90,231395,1,0,0:0:0:0:
347,23,231566,1,0,0:0:0:0:
446,84,231736,1,0,0:0:0:0:
346,271,231907,1,4,0:0:0:0:
246,212,232077,1,0,0:0:0:0:
454,212,232248,6,0,P|409:171|345:155,1,116.999994644165
155,155,232589,2,0,P|100:172|57:212,1,116.999994644165,4|0,0:0|0:0,0:0:0:0:
211,299,232930,2,0,P|168:338|113:355,1,116.999994644165
399,354,233271,2,0,P|343:336|301:297,1,116.999994644165,4|0,0:0|0:0,0:0:0:0:
256,116,233611,1,0,0:0:0:0:
255,261,233782,1,0,0:0:0:0:
256,57,233952,2,0,L|256:192,1,116.999994644165,4|0,0:0|0:0,0:0:0:0:
255,378,234293,2,0,L|255:261,1,116.999994644165
168,143,234634,2,0,P|265:101|339:142,1,175.499991966248,4|0,0:0|0:0,0:0:0:0:
346,155,234975,5,0,0:0:0:0:
245,240,235145,1,0,0:0:0:0:
117,217,235316,1,4,0:0:0:0:
249,335,235486,1,0,0:0:0:0:
377,312,235657,5,0,0:0:0:0:
239,141,235827,1,0,0:0:0:0:
381,139,235998,1,4,0:0:0:0:
160,38,236168,1,0,0:0:0:0:
319,40,236339,5,0,0:0:0:0:
136,140,236509,1,0,0:0:0:0:
406,53,236680,1,4,0:0:0:0:
71,77,236850,2,0,P|31:150|39:265,1,175.499991966248
45,274,237191,1,0,0:0:0:0:
136,140,237361,2,0,P|131:200|172:274,1,116.999994644165,6|0,0:0|0:0,0:0:0:0:
232,80,237702,5,0,0:0:0:0:
335,201,237873,2,0,L|377:253,1,58.4999973220826
480,179,238043,2,0,L|438:127,1,58.4999973220826,4|0,0:0|0:0,0:0:0:0:
323,112,238214,2,0,P|268:147|241:209,1,116.999994644165
378,332,238555,2,0,P|433:297|460:235,1,116.999994644165,0|4,0:0|0:0,0:0:0:0:
274,313,238895,1,0,0:0:0:0:
404,155,239066,6,0,P|408:97|383:45,1,116.999994644165
328,167,239407,2,0,P|321:212|338:252,1,58.4999973220826,4|0,0:0|0:0,0:0:0:0:
340,255,239577,1,0,0:0:0:0:
489,213,239748,1,0,0:0:0:0:
347,288,239918,1,0,0:0:0:0:
488,175,240089,1,4,0:0:0:0:
511,362,240259,1,0,0:0:0:0:
399,214,240430,2,0,P|340:201|278:226,1,116.999994644165
128,349,240770,2,0,P|115:290|140:228,1,116.999994644165,4|0,0:0|0:0,0:0:0:0:
207,93,241111,5,0,0:0:0:0:
208,133,241196,1,0,0:0:0:0:
209,174,241281,1,0,0:0:0:0:
210,215,241366,1,0,0:0:0:0:
214,259,241452,2,0,P|268:227|283:161,1,116.999994644165,4|0,0:0|0:0,0:0:0:0:
286,141,241708,1,0,0:0:0:0:
286,103,241793,2,0,P|347:103|453:38,1,175.499991966248
461,24,242134,1,4,0:0:0:0:
490,150,242305,2,0,P|491:236|449:313,1,175.499991966248
416,325,242645,1,0,0:0:0:0:
266,290,242816,1,4,0:0:0:0:
241,323,242901,1,0,0:0:0:0:
232,362,242986,1,0,0:0:0:0:
380,242,243157,6,0,P|341:194|262:168,1,116.999994644165
331,356,243498,1,4,0:0:0:0:
316,96,243668,1,0,0:0:0:0:
414,316,243839,5,4,0:0:0:0:
220,143,244009,1,0,0:0:0:0:
26,316,244180,5,0,0:0:0:0:
218,348,244350,1,0,0:0:0:0:
142,69,244520,1,2,0:0:0:0:
