osu file format v14

[General]
AudioFilename: audio.mp3
AudioLeadIn: 0
PreviewTime: 176723
Countdown: 0
SampleSet: None
StackLeniency: 0.4
Mode: 0
LetterboxInBreaks: 0
WidescreenStoryboard: 0

[Editor]
Bookmarks: 17272,53636,64727,121814,136360,141814,162178,200360,206360,217450,223269,228541,229087,229996
DistanceSpacing: 0.6
BeatDivisor: 4
GridSize: 32
TimelineZoom: 2.4

[Metadata]
Title:Himitsu
TitleUnicode:ヒミツ
Artist:Polkadot Stingray
ArtistUnicode:ポルカドットスティングレイ
Creator:Rdzeniu
Version:Secret
Source:
Tags:secret himitsu polkadot polka dot stin gray stingray kraszi
BeatmapID:1831696
BeatmapSetID:876417

[Difficulty]
HPDrainRate:6
CircleSize:4
OverallDifficulty:8.5
ApproachRate:9.4
SliderMultiplier:1.9
SliderTickRate:2

[Events]
//Background and Video events
0,0,"fan-zhen-472-xiao.jpg",0,0
//Break Periods
//Storyboard Layer 0 (Background)
//Storyboard Layer 1 (Fail)
//Storyboard Layer 2 (Pass)
//Storyboard Layer 3 (Foreground)
//Storyboard Sound Samples

[TimingPoints]
182,363.636363636364,4,2,0,70,1,0
182,-66.6666666666667,4,2,0,70,0,0
1454,-83.3333333333333,4,2,0,70,0,0
1818,-76.9230769230769,4,2,0,70,0,0
2182,-71.4285714285714,4,2,0,70,0,0
2545,-66.6666666666667,4,2,0,70,0,0
7272,-83.3333333333333,4,2,0,70,0,0
7636,-76.9230769230769,4,2,0,70,0,0
8000,-71.4285714285714,4,2,0,70,0,0
8363,-66.6666666666667,4,2,0,70,0,0
11091,-66.6666666666667,4,3,0,70,0,0
11636,-100,4,3,0,70,0,0
11818,-100,4,2,0,70,0,0
12363,-90.9090909090909,4,2,0,70,0,0
12727,-83.3333333333333,4,2,0,70,0,0
13272,-83.3333333333333,4,2,0,70,0,0
19091,-83.3333333333333,4,3,0,70,0,0
20545,-83.3333333333333,4,2,0,70,0,0
27454,-133.333333333333,4,2,0,70,0,0
27818,-83.3333333333333,4,2,0,70,0,0
35272,-76.9230769230769,4,2,0,70,0,0
35727,-76.9230769230769,4,3,0,70,0,0
36545,-66.6666666666667,4,2,0,70,0,0
37454,-100,4,2,0,70,0,0
38000,-100,4,2,0,30,0,0
39454,-76.9230769230769,4,2,0,70,0,0
45818,-76.9230769230769,4,3,0,70,0,0
46727,-133.333333333333,4,2,0,5,0,0
48182,-66.6666666666667,4,2,0,70,0,0
51454,-62.5,4,2,0,70,0,0
51818,-58.8235294117647,4,2,0,70,0,0
52182,-55.5555555555556,4,2,0,70,0,0
52545,-52.6315789473684,4,2,0,70,0,0
53091,-66.6666666666667,4,2,0,70,0,0
58363,-66.6666666666667,4,3,0,70,0,0
59818,-66.6666666666667,4,2,0,70,0,0
63091,-62.5,4,2,0,70,0,0
63454,-58.8235294117647,4,2,0,70,0,0
63818,-55.5555555555556,4,2,0,70,0,0
64182,-52.6315789473684,4,2,0,70,0,0
65272,-52.6315789473684,4,3,0,70,0,0
65636,-66.6666666666667,4,2,0,70,0,0
70000,-66.6666666666667,4,3,0,70,0,0
71454,-66.6666666666667,4,2,0,70,0,0
72000,-76.9230769230769,4,2,0,70,0,0
73272,-100,4,2,0,70,0,0
73818,-166.666666666667,4,2,0,70,0,0
76363,-166.666666666667,4,3,0,70,0,0
76724,363.636363636364,4,2,0,70,1,0
88360,727.272727272727,4,2,0,40,1,0
105814,-83.3333333333333,4,2,0,45,0,0
107269,-71.4285714285714,4,2,0,50,0,0
108360,363.636363636364,4,2,0,70,1,0
108360,-76.9230769230769,4,2,0,70,0,0
110541,-76.9230769230769,4,3,0,70,0,0
111269,-66.6666666666667,4,2,0,70,0,0
112723,-133.333333333333,4,2,0,30,0,0
114178,-66.6666666666667,4,2,0,70,0,0
115632,-76.9230769230769,4,2,0,70,0,0
116723,-66.6666666666667,4,2,0,70,0,0
119632,-66.6666666666667,4,3,0,70,0,0
119996,-66.6666666666667,4,2,0,70,0,0
120541,-66.6666666666667,4,3,0,70,0,0
121450,-133.333333333333,4,2,0,30,0,0
121814,-111.111111111111,4,2,0,30,0,0
122178,-76.9230769230769,4,2,0,30,0,0
122541,-133.333333333333,4,2,0,30,0,0
122905,-66.6666666666667,4,2,0,70,0,0
126178,-62.5,4,2,0,70,0,0
126541,-58.8235294117647,4,2,0,70,0,0
126905,-55.5555555555556,4,2,0,70,0,0
127269,-52.6315789473684,4,2,0,70,0,0
127814,-66.6666666666667,4,2,0,70,0,0
128360,-66.6666666666667,4,3,0,70,0,0
128723,-66.6666666666667,4,2,0,70,0,0
133087,-66.6666666666667,4,3,0,70,0,0
134632,-66.6666666666667,4,2,0,70,0,0
137814,-62.5,4,2,0,70,0,0
138178,-58.8235294117647,4,2,0,70,0,0
138541,-55.5555555555556,4,2,0,70,0,0
138905,-52.6315789473684,4,2,0,70,0,0
139632,-66.6666666666667,4,2,0,70,0,0
139814,-66.6666666666667,4,3,0,70,0,0
140450,-66.6666666666667,4,2,0,70,0,0
144541,-66.6666666666667,4,3,0,70,0,0
144814,-66.6666666666667,4,2,0,70,0,0
145814,-66.6666666666667,4,3,0,70,0,0
146269,-66.6666666666667,4,2,0,70,0,0
147087,-55.5555555555556,4,2,0,70,0,0
147450,-66.6666666666667,4,2,0,70,0,0
150541,-66.6666666666667,4,3,0,70,0,0
152087,-66.6666666666667,4,2,0,70,0,0
161996,-83.3333333333333,4,2,0,70,0,0
162360,-83.3333333333333,4,3,0,70,0,0
163723,-83.3333333333333,4,2,0,70,0,0
175269,-133.333333333333,4,2,0,30,0,0
175632,-76.9230769230769,4,2,0,60,0,0
175996,-133.333333333333,4,2,0,65,0,0
176178,-76.9230769230769,4,2,0,60,0,0
176723,-66.6666666666667,4,2,0,70,0,0
179996,-62.5,4,2,0,70,0,0
180360,-58.8235294117647,4,2,0,70,0,0
180723,-55.5555555555556,4,2,0,70,0,0
181087,-52.6315789473684,4,2,0,70,0,0
181814,-66.6666666666667,4,2,0,70,0,0
182178,-66.6666666666667,4,3,0,70,0,0
182632,-66.6666666666667,4,2,0,70,0,0
187087,-66.6666666666667,4,3,0,70,0,0
187450,-66.6666666666667,4,2,0,70,0,0
187814,-66.6666666666667,4,3,0,70,0,0
188450,-66.6666666666667,4,2,0,70,0,0
191632,-62.5,4,2,0,70,0,0
191996,-58.8235294117647,4,2,0,70,0,0
192360,-55.5555555555556,4,2,0,70,0,0
192723,-52.6315789473684,4,2,0,70,0,0
193450,-66.6666666666667,4,2,0,70,0,0
197450,-100,4,2,0,70,0,0
197814,-100,4,2,0,70,0,0
198541,-100,4,3,0,70,0,0
198996,-100,4,2,0,70,0,0
199269,-100,4,3,0,70,0,0
199996,-66.6666666666667,4,2,0,70,0,0
202541,-83.3333333333333,4,2,0,70,0,0
202905,-66.6666666666667,4,2,0,70,0,0
204360,-66.6666666666667,4,3,0,70,0,0
205814,-66.6666666666667,4,2,0,70,0,0
207450,-62.5,4,2,0,70,0,0
207814,-55.5555555555556,4,2,0,70,0,0
208178,-52.6315789473684,4,2,0,70,0,0
208723,-66.6666666666667,4,2,0,70,0,0
210723,-58.8235294117647,4,2,0,70,0,0
211450,-66.6666666666667,4,2,0,70,0,0
212905,-62.5,4,2,0,70,0,0
216541,-58.8235294117647,4,2,0,70,0,0
217269,-58.8235294117647,4,3,0,70,0,0
217450,-66.6666666666667,4,2,0,70,0,0
217541,-66.6666666666667,4,2,0,70,0,0
219087,-62.5,4,2,0,70,0,0
219450,-58.8235294117647,4,2,0,70,0,0
220360,-62.5,4,2,0,70,0,0
223087,-62.5,4,3,0,70,0,0
223360,-62.5,4,2,0,70,0,0
229087,-133.333333333333,4,2,0,70,0,0

[Colours]
Combo1 : 255,192,0
Combo2 : 255,255,0
Combo3 : 234,141,38
Combo4 : 242,24,57

[HitObjects]
231,171,183,6,0,B|135:162|134:109|96:109|63:149|79:185|115:194|144:183|127:135,1,213.750008153916
165,232,546,1,8,0:0:0:0:
390,280,728,1,0,0:0:0:0:
311,139,910,1,0,0:0:0:0:
288,353,1092,2,0,B|254:316|294:275|279:245|236:247|227:278|255:294,1,142.500005435944,0|8,0:0|0:0,0:0:0:0:
439,349,1455,2,0,P|472:297|446:219,1,113.999996520996
248,289,1819,2,0,P|192:310|130:273,1,123.499994346619,0|8,0:0|0:0,0:0:0:0:
194,59,2183,2,0,P|254:27|325:43,1,132.999995941162
495,311,2546,2,0,P|435:344|354:312,1,142.500005435944,0|8,0:0|0:0,0:0:0:0:
486,142,2910,1,0,0:0:0:0:
368,325,3092,6,0,P|300:306|227:360,1,142.500005435944
240,338,3364,1,0,0:0:0:0:
240,338,3455,1,8,0:0:0:0:
242,128,3637,2,0,L|202:292,1,142.500005435944
339,77,4001,2,0,L|379:241,1,142.500005435944,0|8,0:0|0:0,0:0:0:0:
149,103,4364,2,0,B|95:118|62:71|25:80|25:112|47:122|69:112,1,142.500005435944
372,215,4728,2,0,B|382:207|404:217|404:249|367:258|334:211|283:226,1,142.500005435944,0|8,0:0|0:0,0:0:0:0:
100,357,5092,2,0,P|49:346|43:253,1,142.500005435944
284,226,5454,2,0,P|350:315|339:369,1,142.500005435944,0|8,0:0|0:0,0:0:0:0:
452,159,5819,1,0,0:0:0:0:
446,194,5910,1,0,0:0:0:0:
440,232,6001,6,0,B|474:277|426:319|469:358|489:344|488:315|462:297,1,142.500005435944,4|0,0:0|0:0,0:0:0:0:
473,308,6273,1,0,0:0:0:0:
473,308,6364,1,8,0:0:0:0:
231,275,6546,2,0,P|314:307|356:366,1,142.500005435944
154,314,6910,2,0,B|120:241|185:244|138:140,1,142.500005435944,0|8,0:0|0:0,0:0:0:0:
33,335,7273,2,0,B|23:344|43:358|70:303|38:277|69:235,1,113.999996520996
170,91,7637,2,0,P|233:151|230:210,1,123.499994346619,0|8,0:0|0:0,0:0:0:0:
46,306,8001,2,0,B|17:329|17:329|64:352|154:333,1,132.999995941162
306,130,8363,2,0,P|226:95|158:143,1,142.500005435944,0|8,0:0|0:0,0:0:0:0:
355,265,8728,1,0,0:0:0:0:
111,342,8910,6,0,P|187:320|212:256,1,142.500005435944
211,266,9183,1,0,0:0:0:0:
211,266,9273,1,8,0:0:0:0:
455,340,9455,2,0,P|379:318|354:254,1,142.500005435944
388,53,9819,2,0,L|364:211,1,142.500005435944,0|8,0:0|0:0,0:0:0:0:
119,113,10183,2,0,B|101:67|99:10|99:10|129:19|147:40,1,142.500005435944
258,257,10546,1,0,0:0:0:0:
273,289,10637,1,0,0:0:0:0:
292,322,10728,2,0,B|316:348|316:348|344:306|331:237,1,142.500005435944,12|0,0:0|0:0,0:0:0:0:
109,129,11092,5,0,0:0:0:0:
63,146,11183,1,0,0:0:0:0:
35,187,11273,1,0,0:0:0:0:
34,236,11364,1,0,0:0:0:0:
81,273,11455,1,0,0:0:0:0:
147,248,11546,1,0,0:0:0:0:
217,261,11637,2,0,P|254:285|269:322,1,47.5
283,360,11819,6,0,P|320:328|330:275,2,95
285,219,12364,2,0,P|279:166|299:113,1,104.500003189087
375,216,12728,2,0,P|407:264|408:324,1,113.999996520996
119,120,13273,5,4,0:0:0:0:
257,40,13455,1,0,0:0:0:0:
159,187,13637,1,8,0:0:0:0:
79,49,13819,1,0,0:0:0:0:
236,176,14001,2,0,P|218:239|153:266,1,113.999996520996
168,335,14273,1,0,0:0:0:0:
103,274,14364,6,0,P|94:332|103:388,2,113.999996520996,8|0|0,0:0|0:0|0:0,0:0:0:0:
162,149,14910,1,0,0:0:0:0:
298,152,15092,1,8,0:0:0:0:
105,91,15273,2,0,L|40:229,1,113.999996520996
231,105,15637,1,0,0:0:0:0:
248,68,15728,1,0,0:0:0:0:
266,34,15819,2,0,P|341:23|367:32,1,56.9999982604981,8|0,0:0|0:0,0:0:0:0:
375,115,16001,2,0,P|346:111|320:101,1,56.9999982604981
402,30,16183,5,0,0:0:0:0:
367,215,16364,1,0,0:0:0:0:
231,105,16546,1,8,0:0:0:0:
263,289,16728,1,0,0:0:0:0:
131,157,16910,2,0,P|181:125|246:102,1,113.999996520996
227,357,17273,2,0,P|173:336|126:305,1,113.999996520996,8|0,0:0|0:0,0:0:0:0:
310,233,17637,5,0,0:0:0:0:
128,230,17819,1,0,0:0:0:0:
309,328,18001,1,8,0:0:0:0:
312,146,18183,1,0,0:0:0:0:
409,298,18364,2,0,L|400:383,2,56.9999982604981
422,98,18728,1,8,0:0:0:0:
481,296,18910,1,0,0:0:0:0:
477,256,19001,1,0,0:0:0:0:
470,212,19092,6,0,P|441:202|398:205,3,56.9999982604981
361,229,19455,1,8,0:0:0:0:
297,244,19546,1,0,0:0:0:0:
249,200,19637,1,0,0:0:0:0:
259,135,19728,1,0,0:0:0:0:
319,108,19819,1,0,0:0:0:0:
502,142,20001,1,0,0:0:0:0:
256,59,20183,1,8,0:0:0:0:
409,298,20364,1,4,0:0:0:0:
158,213,20546,5,0,0:0:0:0:
144,369,20728,1,0,0:0:0:0:
89,130,20910,1,8,0:0:0:0:
103,286,21092,1,0,0:0:0:0:
238,194,21273,1,0,0:0:0:0:
82,208,21455,1,0,0:0:0:0:
263,153,21637,1,8,0:0:0:0:
58,251,21819,6,0,P|31:322|33:370,1,113.999996520996
189,364,22183,1,0,0:0:0:0:
163,175,22364,1,8,0:0:0:0:
239,289,22546,1,0,0:0:0:0:
256,318,22637,1,0,0:0:0:0:
285,345,22728,2,0,P|328:358|365:349,1,56.9999982604981
414,284,22910,2,0,P|369:279|334:295,1,56.9999982604981
459,353,23092,2,0,P|493:284|475:233,1,113.999996520996,0|8,0:0|0:0,0:0:0:0:
316,98,23455,5,0,0:0:0:0:
291,128,23546,1,0,0:0:0:0:
274,167,23637,2,0,P|266:214|236:250,1,56.9999982604981
198,179,23819,1,8,0:0:0:0:
351,215,24001,2,0,P|406:266|422:328,1,113.999996520996
478,122,24364,1,0,0:0:0:0:
462,85,24455,1,0,0:0:0:0:
430,54,24546,2,0,B|305:36|305:36|365:86,1,170.999994781494,4|0,0:0|0:0,0:0:0:0:
276,108,24910,5,0,0:0:0:0:
98,31,25092,1,0,0:0:0:0:
137,219,25273,1,8,0:0:0:0:
146,32,25455,1,0,0:0:0:0:
88,220,25637,1,0,0:0:0:0:
266,160,25819,1,0,0:0:0:0:
115,293,26001,1,8,0:0:0:0:
177,97,26183,6,0,B|190:139|190:139|226:61|322:92,1,170.999994781494
371,111,26546,1,0,0:0:0:0:
239,270,26728,1,8,0:0:0:0:
369,125,26910,1,0,0:0:0:0:
300,321,27092,2,0,P|314:253|287:208,1,113.999996520996
115,205,27455,2,0,L|234:188,1,106.875004076958,8|0,0:0|0:0,0:0:0:0:
221,190,27819,5,0,0:0:0:0:
155,17,28001,1,0,0:0:0:0:
300,196,28183,1,8,0:0:0:0:
366,22,28364,1,0,0:0:0:0:
227,195,28546,2,0,L|214:317,1,113.999996520996
150,130,28910,1,8,0:0:0:0:
126,326,29092,1,0,0:0:0:0:
290,273,29273,5,0,0:0:0:0:
101,251,29455,1,0,0:0:0:0:
364,282,29637,1,8,0:0:0:0:
176,258,29819,2,0,P|220:217|280:193,1,113.999996520996
268,195,30092,1,0,0:0:0:0:
268,195,30183,1,0,0:0:0:0:
212,25,30364,1,8,0:0:0:0:
344,148,30546,1,0,0:0:0:0:
361,183,30637,1,0,0:0:0:0:
362,227,30728,6,0,P|346:293|362:361,1,113.999996520996
431,122,31092,1,8,0:0:0:0:
400,75,31183,1,0,0:0:0:0:
347,54,31273,1,0,0:0:0:0:
293,66,31364,1,0,0:0:0:0:
255,107,31455,1,0,0:0:0:0:
261,115,31546,1,0,0:0:0:0:
260,114,31637,2,0,P|195:78|186:27,1,113.999996520996,0|8,0:0|0:0,0:0:0:0:
200,234,32001,1,4,0:0:0:0:
143,48,32183,5,0,0:0:0:0:
28,168,32364,1,0,0:0:0:0:
178,114,32546,1,8,0:0:0:0:
20,93,32728,1,0,0:0:0:0:
110,162,32910,1,0,0:0:0:0:
34,247,33092,1,0,0:0:0:0:
186,303,33273,6,0,P|259:300|309:274,2,113.999996520996,8|0|0,0:0|0:0|0:0,0:0:0:0:
34,247,33819,1,0,0:0:0:0:
164,63,34001,1,8,0:0:0:0:
144,192,34183,1,0,0:0:0:0:
353,108,34364,1,8,0:0:0:0:
274,212,34546,1,0,0:0:0:0:
498,188,34728,1,8,0:0:0:0:
353,183,34910,6,0,P|344:252|296:298,1,113.999996520996,8|0,0:0|0:0,0:0:0:0:
179,328,35273,2,0,P|244:322|274:337,1,61.7499971733095
113,281,35455,2,0,B|106:219|153:232|135:135,1,123.499994346619,8|0,0:0|0:0,0:0:0:0:
138,162,35728,1,0,0:0:0:0:
138,162,35819,1,0,0:0:0:0:
91,21,36001,1,0,0:0:0:0:
60,187,36183,1,0,0:0:0:0:
10,26,36364,1,0,0:0:0:0:
315,81,36546,6,0,B|357:68|417:103|417:103|387:149|297:176,1,213.750008153916
313,172,36910,1,0,0:0:0:0:
100,83,37092,2,0,L|270:110,1,142.500005435944
468,185,37455,2,0,L|372:224,1,95
258,257,37819,1,0,0:0:0:0:
383,254,38001,6,0,L|386:312,1,47.5
378,178,38273,2,0,L|375:120,1,47.5
373,91,38455,1,0,0:0:0:0:
361,48,38546,2,0,P|309:34|257:37,2,95
448,88,39092,1,0,0:0:0:0:
477,178,39273,1,0,0:0:0:0:
186,187,39455,6,0,B|238:176|290:186|290:186|248:227,1,123.499994346619
63,288,39819,1,0,0:0:0:0:
63,288,40001,2,0,L|85:158,1,123.499994346619
162,70,40364,1,0,0:0:0:0:
285,70,40546,1,0,0:0:0:0:
360,167,40728,1,0,0:0:0:0:
285,70,40910,6,0,P|347:47|426:63,2,123.499994346619,0|8|8,0:0|0:0|0:0,0:0:0:0:
211,169,41455,1,0,0:0:0:0:
308,295,41637,1,8,0:0:0:0:
153,248,41819,1,8,0:0:0:0:
305,197,42001,1,4,0:0:0:0:
212,327,42183,1,0,0:0:0:0:
211,169,42364,6,0,P|252:113|309:89,1,123.499994346619
459,56,42728,1,0,0:0:0:0:
459,56,42910,2,0,L|454:211,1,123.499994346619
444,302,43273,1,0,0:0:0:0:
331,353,43455,1,0,0:0:0:0:
346,230,43637,1,0,0:0:0:0:
331,353,43819,6,0,P|208:329|167:289,1,185.249991519928,2|0,0:0|0:0,0:0:0:0:
211,205,44183,2,0,P|108:252|81:242,1,123.499994346619,2|0,0:0|0:0,0:0:0:0:
115,128,44546,1,2,0:0:0:0:
20,257,44728,1,0,0:0:0:0:
36,97,44910,1,0,0:0:0:0:
51,70,45001,1,0,0:0:0:0:
76,51,45092,1,0,0:0:0:0:
105,43,45183,1,0,0:0:0:0:
136,46,45273,5,0,0:0:0:0:
203,251,45455,1,0,0:0:0:0:
114,121,45637,1,0,0:0:0:0:
145,315,45819,1,0,0:0:0:0:
177,331,45910,1,0,0:0:0:0:
214,333,46001,1,0,0:0:0:0:
248,319,46092,1,0,0:0:0:0:
273,292,46183,1,0,0:0:0:0:
284,257,46273,1,0,0:0:0:0:
288,210,46364,5,0,0:0:0:0:
293,167,46455,1,0,0:0:0:0:
307,118,46546,1,0,0:0:0:0:
349,95,46637,1,0,0:0:0:0:
394,113,46728,6,0,L|394:240,1,106.875004076958
439,253,47092,2,0,L|462:124,1,106.875004076958
495,209,47455,2,0,L|439:363,1,142.500005435944
124,345,48183,5,0,0:0:0:0:
102,299,48273,1,0,0:0:0:0:
86,253,48364,2,0,P|86:178|96:149,1,71.2500027179719
125,85,48546,1,8,0:0:0:0:
146,130,48637,1,0,0:0:0:0:
163,177,48728,2,0,P|162:236|178:291,1,71.2500027179719
185,292,48910,1,0,0:0:0:0:
221,101,49092,1,0,0:0:0:0:
255,324,49273,1,8,0:0:0:0:
270,166,49455,1,0,0:0:0:0:
353,87,49637,6,0,P|395:78|453:108,1,71.2500027179719
428,178,49819,2,0,P|393:187|359:180,1,71.2500027179719
404,263,50001,2,0,P|410:297|401:331,1,71.2500027179719,8|0,0:0|0:0,0:0:0:0:
323,356,50183,2,0,P|327:318|244:248,1,142.500005435944
65,300,50546,1,0,0:0:0:0:
100,295,50636,1,0,0:0:0:0:
130,278,50727,1,8,0:0:0:0:
298,155,50910,1,0,0:0:0:0:
328,172,51001,1,0,0:0:0:0:
359,180,51092,6,0,P|436:113|374:14,1,213.750008153916
358,96,51455,2,0,P|285:137|346:267,1,228,8|0,0:0|0:0,0:0:0:0:
404,278,51819,2,0,P|289:263|215:365,1,242.250004620552
293,358,52183,2,0,P|230:266|68:274,1,256.499992172241,8|0,0:0|0:0,0:0:0:0:
118,330,52546,6,0,P|169:247|29:297,1,360.99999036026,0|8,0:0|0:0,0:0:0:0:
157,119,53092,1,0,0:0:0:0:
116,106,53183,1,0,0:0:0:0:
70,104,53273,2,0,B|33:108|33:108|56:61|115:42,1,142.500005435944
388,119,53637,2,0,B|444:100|467:53|467:53|430:57,1,142.500005435944,8|0,0:0|0:0,0:0:0:0:
324,73,53910,1,0,0:0:0:0:
324,73,54001,6,0,B|293:147|338:155|323:215,1,142.500005435944
320,240,54273,1,0,0:0:0:0:
320,268,54364,1,8,0:0:0:0:
471,205,54546,2,0,P|435:197|385:195,1,71.2500027179719
241,207,54728,1,0,0:0:0:0:
427,288,54910,1,0,0:0:0:0:
195,213,55092,1,8,0:0:0:0:
271,343,55273,6,0,P|325:291|312:204,1,142.500005435944
164,119,55637,2,0,P|238:121|310:92,1,142.500005435944,0|8,0:0|0:0,0:0:0:0:
479,32,56001,1,0,0:0:0:0:
411,182,56183,2,0,P|401:236|481:283,1,142.500005435944
436,63,56546,1,8,0:0:0:0:
262,228,56728,2,0,L|278:132,1,71.2500027179719
296,43,56910,5,0,0:0:0:0:
192,167,57092,1,0,0:0:0:0:
362,81,57273,1,8,0:0:0:0:
120,150,57455,2,0,L|117:303,1,142.500005435944
394,292,57819,1,0,0:0:0:0:
393,249,57910,1,0,0:0:0:0:
393,206,58001,1,8,0:0:0:0:
391,37,58183,2,0,L|391:154,1,71.2500027179719
456,146,58364,5,0,0:0:0:0:
423,130,58454,1,0,0:0:0:0:
389,122,58546,1,0,0:0:0:0:
353,120,58637,1,0,0:0:0:0:
317,185,58728,1,8,0:0:0:0:
281,183,58819,1,0,0:0:0:0:
241,113,58910,2,0,P|200:177|215:209,1,71.2500027179719
317,185,59092,6,0,P|329:217|358:237,1,71.2500027179719
467,231,59273,1,0,0:0:0:0:
467,231,59363,1,0,0:0:0:0:
434,280,59455,1,8,0:0:0:0:
378,311,59545,1,0,0:0:0:0:
317,315,59636,1,0,0:0:0:0:
259,288,59727,1,0,0:0:0:0:
197,279,59819,6,0,B|109:313|62:375|62:375|90:314|66:231,1,285.000010871888,4|8,0:0|0:0,0:0:0:0:
18,39,60364,1,0,0:0:0:0:
139,226,60546,1,0,0:0:0:0:
203,13,60728,1,0,0:0:0:0:
197,279,60910,1,8,0:0:0:0:
133,66,61092,1,0,0:0:0:0:
329,82,61273,5,0,0:0:0:0:
113,145,61455,1,0,0:0:0:0:
401,186,61637,1,8,0:0:0:0:
191,126,61819,2,0,P|210:198|296:217,1,142.500005435944
268,222,62092,1,0,0:0:0:0:
268,222,62183,1,0,0:0:0:0:
256,30,62364,1,8,0:0:0:0:
256,309,62546,1,0,0:0:0:0:
403,105,62728,6,0,L|168:127,1,213.750008153916
110,114,63092,2,0,L|352:137,1,228,8|0,0:0|0:0,0:0:0:0:
429,152,63455,2,0,L|173:177,1,242.250004620552
92,190,63819,2,0,P|54:287|191:289,1,256.499992172241,8|0,0:0|0:0,0:0:0:0:
124,257,64183,2,0,B|240:202|226:354|431:213,1,270.749992770195
412,169,64545,1,8,0:0:0:0:
494,355,64727,2,0,L|399:319,1,90.2499975900651
286,192,64909,2,0,P|258:81|340:171,1,270.749992770195
320,130,65273,5,8,0:0:0:0:
267,142,65364,1,0,0:0:0:0:
214,137,65455,1,0,0:0:0:0:
166,112,65546,1,0,0:0:0:0:
115,98,65637,2,0,P|47:128|20:187,1,142.500005435944,4|0,0:0|0:0,0:0:0:0:
87,222,65910,1,0,0:0:0:0:
35,279,66001,2,0,P|61:358|113:395,1,142.500005435944,8|0,0:0|0:0,0:0:0:0:
184,149,66364,1,0,0:0:0:0:
184,373,66546,1,0,0:0:0:0:
345,257,66728,1,8,0:0:0:0:
121,257,66910,1,0,0:0:0:0:
237,63,67092,5,0,0:0:0:0:
237,63,67183,1,0,0:0:0:0:
237,63,67273,1,0,0:0:0:0:
250,301,67455,1,8,0:0:0:0:
312,153,67637,2,0,P|241:140|167:161,1,142.500005435944
362,248,68001,1,0,0:0:0:0:
132,276,68183,1,8,0:0:0:0:
362,291,68364,1,0,0:0:0:0:
135,231,68546,6,0,P|48:232|26:330,1,142.500005435944
22,313,68819,2,0,L|17:167,1,142.500005435944
17,170,69092,1,0,0:0:0:0:
238,136,69273,2,0,P|151:135|129:37,1,142.500005435944
197,67,69546,2,0,L|41:49,1,142.500005435944
55,50,69819,1,0,0:0:0:0:
311,68,70001,6,0,L|434:55,1,71.2500027179719
198,228,70273,1,0,0:0:0:0:
198,228,70364,1,8,0:0:0:0:
427,206,70546,1,0,0:0:0:0:
189,111,70728,1,0,0:0:0:0:
365,305,70910,1,0,0:0:0:0:
394,325,71001,1,0,0:0:0:0:
431,334,71092,1,8,0:0:0:0:
208,304,71273,1,0,0:0:0:0:
178,323,71364,1,0,0:0:0:0:
145,335,71455,6,0,P|109:328|24:241,1,142.500005435944,4|0,0:0|0:0,0:0:0:0:
50,38,71819,1,0,0:0:0:0:
31,259,72001,2,0,P|92:192|107:125,1,123.499994346619
128,37,72364,2,0,P|201:63|274:97,1,123.499994346619
237,247,72728,1,0,0:0:0:0:
346,47,72910,1,0,0:0:0:0:
399,205,73092,2,0,L|382:270,2,61.7499971733095
215,340,73455,1,0,0:0:0:0:
303,315,73637,1,0,0:0:0:0:
76,266,73818,38,0,B|124:265|178:268|232:267|263:241|351:195|357:119|357:119|293:107|251:114|239:148|197:164|197:164|152:167|121:148|79:151|22:203|22:203|20:234|34:252,1,740.999977386475
46,347,76364,1,0,0:0:0:0:
46,347,76455,1,0,0:0:0:0:
46,347,76546,1,0,0:0:0:0:
76,192,76725,5,4,0:0:0:0:
120,282,76906,1,0,0:0:0:0:
152,122,77088,1,0,0:0:0:0:
188,213,77270,1,0,0:0:0:0:
76,192,77452,2,0,P|50:134|58:76,1,95
120,267,77815,2,0,P|109:346|81:380,1,95
188,213,78179,5,0,0:0:0:0:
210,371,78361,1,0,0:0:0:0:
254,132,78543,1,0,0:0:0:0:
209,293,78725,2,0,P|140:279|126:159,1,190
337,186,79270,1,0,0:0:0:0:
177,124,79452,1,0,0:0:0:0:
342,80,79634,5,0,0:0:0:0:
257,160,79815,1,0,0:0:0:0:
238,41,79997,1,0,0:0:0:0:
247,185,80179,1,0,0:0:0:0:
133,51,80361,2,0,L|53:155,1,95
147,146,80634,1,0,0:0:0:0:
117,214,80725,2,0,L|101:335,1,95
231,253,81088,6,0,L|244:348,2,95
197,96,81634,2,0,P|245:64|303:53,1,95
441,100,81997,1,0,0:0:0:0:
461,125,82087,1,0,0:0:0:0:
475,155,82178,1,0,0:0:0:0:
401,305,82361,1,0,0:0:0:0:
231,253,82543,6,0,P|302:231|357:162,1,142.5
357,96,82906,2,0,L|343:286,1,190
259,162,83452,1,0,0:0:0:0:
259,162,83543,1,0,0:0:0:0:
259,162,83634,1,0,0:0:0:0:
231,253,83815,1,0,0:0:0:0:
163,174,83997,5,0,0:0:0:0:
71,307,84179,1,0,0:0:0:0:
63,145,84361,2,0,L|74:45,1,95
124,104,84634,1,0,0:0:0:0:
171,47,84725,2,0,L|285:33,1,95
456,75,85088,1,0,0:0:0:0:
266,80,85270,1,0,0:0:0:0:
453,116,85452,6,0,L|431:158,3,47.5
498,197,85815,1,0,0:0:0:0:
358,157,85997,1,0,0:0:0:0:
446,263,86179,2,0,L|337:307,1,95
328,224,86452,1,0,0:0:0:0:
281,288,86543,2,0,L|245:345,3,47.5
252,215,86906,5,0,0:0:0:0:
239,140,87087,1,0,0:0:0:0:
175,262,87270,2,0,P|103:196|73:126,1,142.5,2|0,0:0|0:0,0:0:0:0:
164,116,87634,2,0,L|14:191,1,142.5
25,186,87997,1,0,0:0:0:0:
197,185,88179,1,0,0:0:0:0:
43,65,88361,6,0,B|78:87|119:75|122:37|152:32|187:38|224:52|232:96,1,190
281,315,89815,2,0,B|228:223|328:228|259:120,1,190
267,134,90906,1,0,0:0:0:0:
97,186,91270,6,0,P|89:78|182:18,1,190
143,27,92361,1,0,0:0:0:0:
332,30,92724,2,0,P|391:84|434:167,1,142.5
485,283,93451,1,0,0:0:0:0:
307,321,93815,2,0,P|320:294|349:264,1,47.5
472,195,94179,6,0,P|368:193|351:105,1,190
134,26,95633,2,0,B|117:119|212:104|178:233,1,190
184,203,96724,1,0,0:0:0:0:
16,265,97088,2,0,P|69:348|185:381,1,190
150,381,98179,1,0,0:0:0:0:
294,270,98542,2,0,L|304:189,1,47.5
229,141,98815,2,0,L|219:222,2,47.5
244,34,99270,1,0,0:0:0:0:
474,34,99997,6,0,B|498:130|417:121|450:254,1,190
493,367,101088,1,0,0:0:0:0:
493,367,101451,2,0,P|400:334|281:338,1,190
145,360,102542,1,0,0:0:0:0:
145,360,102906,2,0,B|114:262|191:270|169:148,1,190
96,35,103997,1,0,0:0:0:0:
96,35,104361,2,0,B|169:20|168:74|256:63,1,142.5
339,49,105088,1,0,0:0:0:0:
254,154,105451,2,0,P|288:142|326:110,1,47.5
232,64,105815,6,0,B|306:178|349:108|409:210,1,227.999993041992
377,363,106906,2,0,P|399:343|415:311,1,56.9999982604981
290,361,107270,2,0,P|267:298|271:215,1,132.999995941162
328,92,107997,2,0,P|307:120|292:157,1,66.4999979705811
388,44,108360,6,0,P|436:23|514:32,1,123.499994346619
453,262,108723,1,0,0:0:0:0:
459,102,108905,1,0,0:0:0:0:
374,279,109087,1,0,0:0:0:0:
293,105,109268,1,0,0:0:0:0:
466,185,109450,1,0,0:0:0:0:
216,254,109632,2,0,L|229:384,1,123.499994346619
211,172,109996,1,0,0:0:0:0:
324,359,110178,2,0,L|392:248,1,123.499994346619
473,76,110541,5,0,0:0:0:0:
430,97,110632,1,0,0:0:0:0:
384,106,110723,1,0,0:0:0:0:
338,94,110814,1,0,0:0:0:0:
288,67,110905,1,0,0:0:0:0:
238,40,110996,1,0,0:0:0:0:
181,38,111087,1,0,0:0:0:0:
131,63,111178,1,0,0:0:0:0:
91,103,111269,6,0,P|55:198|77:306,1,213.750008153916
203,238,111632,2,0,P|166:233|121:249,1,71.2500027179719
205,349,111814,2,0,P|278:306|282:162,1,213.750008153916
295,186,112178,1,0,0:0:0:0:
394,350,112359,1,0,0:0:0:0:
353,127,112541,1,0,0:0:0:0:
422,260,112723,6,0,L|444:181,1,71.2500027179719
464,116,112996,2,0,L|483:47,2,71.2500027179719
441,191,113450,2,0,P|391:148|385:108,1,106.875004076958
388,93,113814,1,0,0:0:0:0:
346,243,113996,1,0,0:0:0:0:
161,47,114178,6,0,P|233:32|315:55,1,142.500005435944
194,249,114541,1,0,0:0:0:0:
396,143,114723,2,0,P|358:84|299:46,1,142.500005435944
90,127,115087,1,0,0:0:0:0:
264,118,115268,1,0,0:0:0:0:
45,61,115450,1,0,0:0:0:0:
198,297,115632,6,0,L|181:169,1,123.499994346619
161,99,115905,2,0,L|96:233,1,123.499994346619
71,281,116178,1,0,0:0:0:0:
272,250,116359,1,0,0:0:0:0:
37,246,116541,1,0,0:0:0:0:
246,294,116723,1,0,0:0:0:0:
236,118,116905,1,0,0:0:0:0:
249,345,117087,6,0,P|335:327|369:275,1,142.500005435944
328,134,117450,1,0,0:0:0:0:
436,359,117632,2,0,P|464:290|432:209,1,142.500005435944
236,146,117996,1,0,0:0:0:0:
236,274,118178,1,0,0:0:0:0:
347,210,118359,1,0,0:0:0:0:
356,176,118450,1,0,0:0:0:0:
364,138,118541,6,0,P|332:67|265:30,1,142.500005435944
62,32,118905,2,0,P|134:59|208:38,1,142.500005435944
64,137,119268,1,0,0:0:0:0:
101,258,119450,1,0,0:0:0:0:
186,161,119632,1,0,0:0:0:0:
218,136,119723,1,0,0:0:0:0:
258,123,119814,1,0,0:0:0:0:
300,130,119905,1,0,0:0:0:0:
342,124,119996,6,0,P|405:102|450:71,1,71.2500027179719
302,25,120178,2,0,P|239:47|194:78,1,71.2500027179719
201,65,120359,1,0,0:0:0:0:
341,219,120541,1,0,0:0:0:0:
298,213,120632,1,0,0:0:0:0:
255,207,120723,1,0,0:0:0:0:
34,177,120996,1,0,0:0:0:0:
478,177,121268,1,0,0:0:0:0:
350,74,121450,6,0,L|243:115,1,106.875004076958
182,107,121814,2,0,L|322:166,1,128.249996086121
373,187,122178,2,0,P|390:251|291:245,1,185.249991519928
282,228,122541,2,0,L|280:349,1,106.875004076958
280,357,122905,5,0,0:0:0:0:
96,303,123087,1,0,0:0:0:0:
76,257,123178,1,0,0:0:0:0:
76,207,123269,2,0,L|109:114,1,71.2500027179719
175,207,123450,1,0,0:0:0:0:
195,161,123541,1,0,0:0:0:0:
195,111,123632,2,0,L|162:18,1,71.2500027179719
76,36,123814,1,0,0:0:0:0:
271,32,123996,1,0,0:0:0:0:
34,102,124178,1,0,0:0:0:0:
217,268,124359,6,0,B|202:254|203:235|229:229|262:241|298:240|340:172,1,142.500005435944
381,22,124723,1,0,0:0:0:0:
411,183,124905,1,0,0:0:0:0:
454,60,125087,1,0,0:0:0:0:
298,87,125268,1,0,0:0:0:0:
498,191,125450,1,0,0:0:0:0:
370,330,125632,1,0,0:0:0:0:
370,330,125814,6,0,P|266:299|274:197,1,213.750008153916
316,147,126178,2,0,P|278:54|178:63,1,213.750008153916
109,101,126541,2,0,L|45:344,1,242.250004620552
132,348,126905,2,0,P|231:341|216:204,1,256.499992172241
157,249,127269,6,0,P|254:179|449:198,1,270.749992770195
453,236,127632,1,0,0:0:0:0:
480,34,127814,1,0,0:0:0:0:
444,33,127905,1,0,0:0:0:0:
406,34,127996,2,0,P|340:46|259:96,1,142.500005435944
168,285,128359,1,0,0:0:0:0:
210,249,128450,1,0,0:0:0:0:
217,194,128541,1,0,0:0:0:0:
184,149,128632,1,0,0:0:0:0:
126,141,128723,6,0,P|63:83|81:19,1,142.500005435944
66,207,129087,1,0,0:0:0:0:
64,242,129178,1,0,0:0:0:0:
62,278,129268,1,0,0:0:0:0:
141,65,129450,1,0,0:0:0:0:
210,249,129632,1,0,0:0:0:0:
324,96,129814,1,0,0:0:0:0:
140,165,129996,1,0,0:0:0:0:
387,248,130178,6,0,B|402:234|401:215|375:209|342:221|306:220|264:152,1,142.500005435944
416,36,130541,1,0,0:0:0:0:
482,227,130723,2,0,P|475:268|438:323,1,71.2500027179719
392,331,130905,2,0,L|306:369,2,71.2500027179719
286,181,131268,1,0,0:0:0:0:
480,179,131450,1,0,0:0:0:0:
287,230,131632,6,0,P|186:229|141:265,1,142.500005435944
154,327,131905,2,0,L|89:192,1,142.500005435944
75,164,132178,1,0,0:0:0:0:
373,112,132359,6,0,P|272:113|227:77,1,142.500005435944
240,15,132632,2,0,L|175:150,1,142.500005435944
161,178,132905,1,0,0:0:0:0:
450,284,133087,5,0,0:0:0:0:
417,300,133178,1,0,0:0:0:0:
383,308,133268,1,0,0:0:0:0:
347,310,133359,1,0,0:0:0:0:
311,245,133450,1,0,0:0:0:0:
275,247,133541,1,0,0:0:0:0:
235,317,133632,2,0,P|194:253|209:221,1,71.2500027179719
311,245,133814,6,0,P|323:213|352:193,1,71.2500027179719
461,199,133996,1,0,0:0:0:0:
461,199,134087,1,0,0:0:0:0:
428,150,134178,1,0,0:0:0:0:
372,119,134268,1,0,0:0:0:0:
311,115,134359,1,0,0:0:0:0:
253,142,134450,1,0,0:0:0:0:
192,155,134541,6,0,P|116:123|73:41,1,142.500005435944
137,25,134814,1,0,0:0:0:0:
82,75,134905,2,0,P|34:172|27:270,1,142.500005435944
166,355,135268,1,0,0:0:0:0:
117,163,135450,1,0,0:0:0:0:
79,359,135632,1,0,0:0:0:0:
271,330,135814,1,0,0:0:0:0:
73,312,135996,5,0,0:0:0:0:
269,279,136178,1,0,0:0:0:0:
148,235,136359,1,0,0:0:0:0:
344,202,136541,1,0,0:0:0:0:
344,202,136632,1,0,0:0:0:0:
344,202,136723,2,0,B|364:202|377:188|363:165|331:151|306:124|324:47,1,142.500005435944
398,85,136996,1,0,0:0:0:0:
356,17,137087,2,0,P|256:30|180:16,1,142.500005435944
28,97,137450,6,0,P|108:77|56:160,1,213.750008153916
6,166,137814,2,0,L|254:245,1,228
237,164,138178,2,0,P|297:251|196:303,1,242.250004620552
136,263,138541,2,0,L|201:13,1,256.499992172241
275,27,138905,2,0,P|388:53|249:140,1,360.99999036026
320,96,139450,1,0,0:0:0:0:
475,132,139632,6,0,P|446:197|411:102,1,213.750008153916
487,168,139996,1,0,0:0:0:0:
497,209,140086,1,0,0:0:0:0:
494,251,140177,1,0,0:0:0:0:
480,291,140268,1,0,0:0:0:0:
457,323,140359,6,0,P|402:357|311:340,1,142.500005435944
100,289,140632,1,0,0:0:0:0:
100,289,140723,2,0,P|102:325|123:353,1,71.2500027179719
271,301,140905,2,0,P|268:265|247:237,1,71.2500027179719
186,299,141087,2,0,L|151:206,1,71.2500027179719
100,80,141268,1,0,0:0:0:0:
20,230,141450,1,0,0:0:0:0:
211,91,141632,2,0,L|246:184,1,71.2500027179719
325,351,141814,6,0,B|365:363|392:338|406:306|429:292|443:305|443:325,1,142.500005435944
491,258,142087,1,0,0:0:0:0:
417,233,142178,2,0,L|496:89,1,142.500005435944
203,36,142541,1,0,0:0:0:0:
404,84,142723,1,0,0:0:0:0:
312,262,142905,1,0,0:0:0:0:
252,104,143087,1,0,0:0:0:0:
138,212,143268,6,0,L|138:376,1,142.500005435944
64,333,143541,1,0,0:0:0:0:
67,314,143632,2,0,P|36:293|-8:287,2,71.2500027179719
64,65,143996,2,0,L|53:236,1,142.500005435944
248,278,144359,1,0,0:0:0:0:
219,14,144541,1,0,0:0:0:0:
223,34,144632,1,0,0:0:0:0:
227,54,144723,6,0,P|262:83|320:98,1,71.2500027179719
358,57,144905,2,0,P|395:65|430:84,1,71.2500027179719
475,142,145087,2,0,P|451:179|441:228,1,71.2500027179719
448,295,145268,1,0,0:0:0:0:
448,295,145359,1,0,0:0:0:0:
448,295,145450,6,0,P|456:339|474:375,1,71.2500027179719
371,251,145632,2,0,P|354:281|318:326,1,71.2500027179719
284,324,145814,1,0,0:0:0:0:
237,308,145905,1,0,0:0:0:0:
200,274,145996,1,0,0:0:0:0:
179,229,146087,1,0,0:0:0:0:
177,180,146178,5,0,0:0:0:0:
83,375,146359,1,0,0:0:0:0:
35,91,146541,1,0,0:0:0:0:
22,313,146723,2,0,L|91:160,1,142.500005435944
260,40,147087,2,0,B|295:62|303:93|278:116|268:148|301:182|343:176|349:122|301:132,1,170.999994781494
261,180,147359,1,0,0:0:0:0:
322,227,147450,2,0,L|302:319,1,71.2500027179719
233,348,147632,6,0,P|334:345|409:375,1,142.500005435944
489,248,147996,2,0,P|450:335|384:358,1,142.500005435944
385,282,148268,1,0,0:0:0:0:
421,213,148359,2,0,L|384:118,1,71.2500027179719
439,80,148541,2,0,P|377:119|296:129,1,142.500005435944
122,58,148905,2,0,L|207:95,1,71.2500027179719
256,49,149087,6,0,P|205:104|181:194,1,142.500005435944
195,243,149359,1,0,0:0:0:0:
182,166,149450,2,0,P|128:167|57:169,1,71.2500027179719
19,168,149632,2,0,P|81:236|-16:321,1,213.750008153916
4,245,149996,2,0,L|157:343,1,142.500005435944
348,357,150359,2,0,L|263:303,1,71.2500027179719
229,269,150541,5,0,0:0:0:0:
231,219,150632,1,0,0:0:0:0:
260,180,150723,1,0,0:0:0:0:
306,162,150814,1,0,0:0:0:0:
356,177,150905,5,0,0:0:0:0:
402,160,150996,1,0,0:0:0:0:
429,119,151087,1,0,0:0:0:0:
428,70,151178,1,0,0:0:0:0:
395,31,151268,5,0,0:0:0:0:
338,26,151359,1,0,0:0:0:0:
290,55,151450,1,0,0:0:0:0:
235,54,151541,1,0,0:0:0:0:
184,26,151632,5,0,0:0:0:0:
117,43,151723,1,0,0:0:0:0:
92,107,151814,1,0,0:0:0:0:
128,165,151905,1,0,0:0:0:0:
198,185,151996,6,0,B|232:169|244:131|244:131|285:142|339:116,1,142.500005435944
312,126,152268,1,0,0:0:0:0:
312,126,152359,1,0,0:0:0:0:
231,294,152541,2,0,L|33:268,1,142.500005435944
276,206,152905,1,0,0:0:0:0:
175,370,153087,1,0,0:0:0:0:
53,212,153268,1,0,0:0:0:0:
231,294,153450,6,0,L|429:268,1,142.500005435944
438,317,153723,1,0,0:0:0:0:
372,275,153814,2,0,L|393:170,1,71.2500027179719
401,126,153996,2,0,P|315:182|257:139,1,142.500005435944
130,63,154360,2,0,L|230:78,1,71.2500027179719
125,35,154541,2,0,L|25:50,1,71.2500027179719
133,144,154723,1,0,0:0:0:0:
274,47,154905,6,0,P|275:105|186:151,1,142.500005435944
133,144,155178,1,0,0:0:0:0:
166,217,155269,2,0,L|157:318,1,71.2500027179719
89,210,155450,2,0,L|72:395,1,142.500005435944
291,348,155814,2,0,L|391:333,1,71.2500027179719
276,364,155996,2,0,L|176:349,1,71.2500027179719
292,269,156178,1,0,0:0:0:0:
326,261,156268,1,0,0:0:0:0:
363,254,156359,6,0,P|433:191|439:140,1,142.500005435944
439,147,156632,1,0,0:0:0:0:
439,147,156723,1,0,0:0:0:0:
232,216,156905,2,0,P|213:137|242:48,1,142.500005435944
385,61,157268,1,0,0:0:0:0:
151,74,157450,1,0,0:0:0:0:
271,287,157632,1,0,0:0:0:0:
306,282,157723,1,0,0:0:0:0:
344,275,157814,6,0,L|196:356,1,142.500005435944
144,353,158087,1,0,0:0:0:0:
173,283,158178,2,0,L|181:198,1,71.2500027179719
98,281,158359,2,0,L|113:117,1,142.500005435944
234,27,158723,1,0,0:0:0:0:
17,74,158905,1,0,0:0:0:0:
189,98,159087,1,0,0:0:0:0:
102,27,159268,6,0,L|112:202,1,142.500005435944
119,245,159541,1,0,0:0:0:0:
179,182,159632,2,0,P|145:171|110:169,1,71.2500027179719
118,244,159814,2,0,P|185:262|247:229,1,142.500005435944
249,127,160178,1,0,0:0:0:0:
248,323,160359,1,0,0:0:0:0:
331,196,160541,2,0,L|330:296,1,71.2500027179719
330,344,160723,6,0,P|374:285|443:276,1,142.500005435944
438,275,160996,1,0,0:0:0:0:
438,275,161087,1,0,0:0:0:0:
338,122,161268,2,0,P|382:181|451:190,1,142.500005435944
334,38,161632,1,0,0:0:0:0:
300,229,161814,1,0,0:0:0:0:
380,50,161996,6,0,B|259:23|259:23|196:47,1,170.999994781494
179,57,162359,1,0,0:0:0:0:
146,79,162450,1,0,0:0:0:0:
121,111,162541,1,0,0:0:0:0:
106,147,162632,1,0,0:0:0:0:
100,187,162723,1,0,0:0:0:0:
105,226,162814,1,0,0:0:0:0:
135,257,162905,5,0,0:0:0:0:
184,228,162996,1,0,0:0:0:0:
239,232,163087,1,0,0:0:0:0:
292,254,163178,1,0,0:0:0:0:
345,247,163268,1,0,0:0:0:0:
381,204,163359,1,0,0:0:0:0:
436,195,163450,1,0,0:0:0:0:
485,223,163541,1,0,0:0:0:0:
500,274,163632,6,0,P|467:332|398:336,1,113.999996520996
301,147,163996,1,0,0:0:0:0:
287,367,164178,1,0,0:0:0:0:
133,195,164359,2,0,B|129:133|157:96|157:96|153:34|93:50|99:101|157:96|157:96|227:9|347:65,1,398.999987823487
350,178,165087,2,0,P|283:153|262:111,1,113.999996520996
451,133,165450,5,0,0:0:0:0:
441,171,165541,1,0,0:0:0:0:
431,210,165632,1,0,0:0:0:0:
422,249,165723,1,0,0:0:0:0:
410,288,165814,2,0,L|440:360,2,56.9999982604981
274,195,166178,6,0,P|337:241|229:256,1,227.999993041992
114,136,166723,1,0,0:0:0:0:
166,324,166905,1,0,0:0:0:0:
221,130,167087,2,0,L|233:66,2,56.9999982604981
50,181,167450,2,0,P|121:214|163:198,1,113.999996520996
398,143,167814,6,0,P|327:110|285:126,2,113.999996520996
379,328,168359,1,0,0:0:0:0:
332,188,168541,1,0,0:0:0:0:
447,368,168723,2,0,P|447:290|359:248,1,170.999994781494
337,265,169087,1,0,0:0:0:0:
298,275,169178,1,0,0:0:0:0:
259,271,169268,1,0,0:0:0:0:
223,253,169359,1,0,0:0:0:0:
197,224,169450,5,0,0:0:0:0:
212,42,169632,2,0,L|199:142,1,56.9999982604981
281,194,169814,2,0,L|294:94,1,56.9999982604981
376,29,169996,2,0,L|363:129,1,56.9999982604981
401,221,170178,2,0,B|417:147|417:147|449:186|516:201,1,170.999994781494
502,119,170541,2,0,L|489:308,1,170.999994781494
490,289,170905,5,0,0:0:0:0:
297,183,171087,1,0,0:0:0:0:
343,368,171268,1,0,0:0:0:0:
437,84,171450,2,0,P|355:63|186:53,1,227.999993041992
212,51,171905,1,0,0:0:0:0:
212,51,171996,2,0,P|187:168|131:227,1,170.999994781494
79,227,172359,6,0,P|51:221|8:197,2,56.9999982604981
211,254,172632,2,0,P|236:270|259:297,1,56.9999982604981
309,343,172814,1,0,0:0:0:0:
368,293,172905,2,0,P|387:272|411:256,1,56.9999982604981
485,259,173087,1,0,0:0:0:0:
258,196,173268,1,0,0:0:0:0:
484,156,173450,1,0,0:0:0:0:
337,220,173632,2,0,P|326:152|301:126,1,56.9999982604981
314,134,173814,5,0,0:0:0:0:
285,115,173905,1,0,0:0:0:0:
252,105,173996,1,0,0:0:0:0:
219,92,174087,1,0,0:0:0:0:
182,65,174178,1,0,0:0:0:0:
168,21,174268,1,0,0:0:0:0:
125,49,174359,1,0,0:0:0:0:
96,91,174450,1,0,0:0:0:0:
91,142,174541,1,0,0:0:0:0:
247,19,174723,1,0,0:0:0:0:
190,277,174905,1,0,0:0:0:0:
447,214,175087,1,0,0:0:0:0:
304,146,175269,6,0,L|191:126,1,106.875004076958
145,118,175632,2,0,P|133:210|190:277,1,185.249991519928
296,248,175996,2,0,P|270:245|227:250,2,35.625001358986
408,351,176359,2,0,P|449:285|414:156,1,185.249991519928
429,171,176723,5,0,0:0:0:0:
296,248,176905,1,0,0:0:0:0:
290,283,176996,1,0,0:0:0:0:
286,318,177087,2,0,L|215:372,1,71.2500027179719
219,237,177268,1,0,0:0:0:0:
225,202,177359,1,0,0:0:0:0:
229,167,177450,2,0,L|300:113,1,71.2500027179719
413,125,177632,2,0,L|342:179,1,71.2500027179719
220,106,177814,2,0,L|333:81,1,71.2500027179719
460,158,177996,2,0,L|347:182,1,71.2500027179719
225,202,178178,5,0,0:0:0:0:
346,16,178359,1,0,0:0:0:0:
303,227,178541,1,0,0:0:0:0:
132,93,178723,2,0,P|88:156|80:237,1,142.500005435944
87,296,178996,1,0,0:0:0:0:
78,219,179087,2,0,P|166:235|219:288,1,142.500005435944
7,362,179450,1,0,0:0:0:0:
226,355,179632,6,0,B|276:359|303:330|303:330|322:330|338:336|338:336|372:301|386:295|399:292|410:295|419:301|427:311|427:320,1,213.750008153916
432,355,179996,2,0,P|421:254|519:137,1,228
495,228,180360,2,0,P|411:167|505:82,1,242.250004620552
511,86,180723,2,0,L|253:37,1,256.499992172241
186,27,181087,6,0,P|270:93|134:67,1,360.99999036026
215,293,181632,1,0,0:0:0:0:
349,127,181814,2,0,P|320:193|238:248,1,142.500005435944
432,353,182178,1,0,0:0:0:0:
424,311,182268,1,0,0:0:0:0:
430,269,182359,1,0,0:0:0:0:
449,231,182450,1,0,0:0:0:0:
464,187,182541,6,0,P|465:129|409:66,1,142.500005435944
336,56,182814,1,0,0:0:0:0:
285,112,182905,2,0,P|205:113|145:43,1,142.500005435944
382,152,183268,1,0,0:0:0:0:
239,29,183450,1,0,0:0:0:0:
146,251,183632,1,0,0:0:0:0:
285,112,183814,1,0,0:0:0:0:
41,34,183996,6,0,B|26:48|27:67|53:73|86:61|122:62|164:130,1,142.500005435944
77,149,184268,1,0,0:0:0:0:
56,225,184359,2,0,P|71:305|131:351,1,142.500005435944
395,264,184723,2,0,P|364:297|303:331,1,71.2500027179719
206,295,184905,2,0,P|266:318|345:311,1,142.500005435944
501,205,185268,1,0,0:0:0:0:
213,211,185450,6,0,P|131:258|124:319,1,142.500005435944
410,346,185814,1,0,0:0:0:0:
307,132,185996,2,0,P|269:202|202:208,1,142.500005435944
379,34,186359,2,0,L|377:220,1,142.500005435944
260,340,186723,1,0,0:0:0:0:
166,90,186905,5,0,0:0:0:0:
69,298,187087,1,0,0:0:0:0:
111,302,187178,1,0,0:0:0:0:
153,298,187268,1,0,0:0:0:0:
71,88,187450,1,0,0:0:0:0:
376,173,187632,1,0,0:0:0:0:
152,89,187814,5,0,0:0:0:0:
179,131,187905,1,0,0:0:0:0:
150,176,187996,1,0,0:0:0:0:
177,218,188087,1,0,0:0:0:0:
150,263,188178,1,0,0:0:0:0:
177,305,188269,1,0,0:0:0:0:
147,350,188359,6,0,P|239:305|297:368,1,142.500005435944
316,379,188632,1,0,0:0:0:0:
266,318,188723,2,0,P|299:231|257:128,1,142.500005435944
132,33,189087,1,0,0:0:0:0:
371,130,189268,1,0,0:0:0:0:
106,76,189450,1,0,0:0:0:0:
359,81,189632,1,0,0:0:0:0:
177,253,189814,5,0,0:0:0:0:
274,14,189996,1,0,0:0:0:0:
220,279,190178,1,0,0:0:0:0:
226,26,190359,2,0,L|284:212,1,142.500005435944
267,373,190723,2,0,P|316:308|300:214,1,142.500005435944
160,77,191087,1,0,0:0:0:0:
391,72,191268,6,0,P|461:109|366:176,1,213.750008153916
377,184,191632,2,0,B|280:122|257:227|133:171,1,228
111,169,191996,2,0,P|37:229|120:318,1,242.250004620552
153,323,192360,2,0,B|261:378|290:275|407:334,1,256.499992172241
436,346,192723,6,0,P|474:227|291:243,1,360.99999036026
482,115,193269,1,0,0:0:0:0:
482,115,193450,2,0,P|415:91|328:92,1,142.500005435944
116,264,193814,2,0,P|146:199|208:138,1,142.500005435944
266,108,194087,1,0,0:0:0:0:
344,89,194178,6,0,P|415:91|482:115,1,142.500005435944
482,115,194450,1,0,0:0:0:0:
482,115,194541,1,0,0:0:0:0:
405,358,194723,1,0,0:0:0:0:
401,168,194905,1,0,0:0:0:0:
227,263,195087,1,0,0:0:0:0:
417,259,195268,1,0,0:0:0:0:
227,305,195450,2,0,L|289:379,1,71.2500027179719
327,302,195632,6,0,P|321:217|269:154,1,142.500005435944
212,157,195905,1,0,0:0:0:0:
134,164,195996,2,0,P|97:191|78:245,1,71.2500027179719
78,287,196178,2,0,L|15:112,1,142.500005435944
10,323,196541,1,0,0:0:0:0:
87,99,196723,1,0,0:0:0:0:
249,321,196905,1,0,0:0:0:0:
172,97,197087,6,0,P|257:58|337:143,1,213.750008153916
250,139,197450,2,0,L|277:187,1,47.5
332,254,197632,2,0,L|355:212,1,47.5
463,129,197814,6,0,P|384:105|328:139,1,142.5
201,220,198178,2,0,L|257:260,1,47.5
419,264,198359,2,0,L|430:192,1,47.5
358,34,198541,5,0,0:0:0:0:
310,38,198632,1,0,0:0:0:0:
268,58,198723,1,0,0:0:0:0:
224,35,198814,1,0,0:0:0:0:
176,39,198905,1,0,0:0:0:0:
108,256,199087,1,0,0:0:0:0:
325,353,199268,1,0,0:0:0:0:
296,315,199359,1,0,0:0:0:0:
295,269,199450,1,0,0:0:0:0:
321,230,199541,1,0,0:0:0:0:
367,200,199632,5,0,0:0:0:0:
406,148,199723,1,0,0:0:0:0:
404,83,199814,1,0,0:0:0:0:
361,34,199905,1,0,0:0:0:0:
296,24,199996,6,0,P|226:48|201:88,1,71.2500027179719
194,140,200178,2,0,P|162:156|127:160,1,71.2500027179719
119,17,200359,2,0,P|135:48|139:83,1,71.2500027179719
44,211,200541,2,0,B|29:138|66:73|66:73|51:123|58:158,1,213.750008153916
97,265,200905,2,0,P|61:337|6:353,1,142.500005435944
16,266,201178,1,0,0:0:0:0:
97,265,201269,2,0,P|144:262|193:268,1,71.2500027179719
215,345,201450,6,0,P|257:268|239:199,1,142.500005435944
200,147,201723,1,0,0:0:0:0:
249,217,201814,2,0,P|307:255|377:250,1,142.500005435944
357,51,202178,1,0,0:0:0:0:
458,224,202359,2,0,L|447:324,1,71.2500027179719
369,346,202541,2,0,L|164:346,1,170.999994781494
181,345,202905,5,0,0:0:0:0:
255,99,203087,1,0,0:0:0:0:
33,227,203268,1,0,0:0:0:0:
268,91,203450,2,0,B|356:37|356:37|336:83,1,142.500005435944
62,115,203814,2,0,P|171:143|222:185,1,142.500005435944
350,357,204178,2,0,P|399:340|421:301,1,71.2500027179719
436,289,204359,5,0,0:0:0:0:
438,239,204450,1,0,0:0:0:0:
413,197,204541,1,0,0:0:0:0:
377,165,204632,1,0,0:0:0:0:
374,115,204723,1,0,0:0:0:0:
399,73,204814,1,0,0:0:0:0:
441,66,204905,1,0,0:0:0:0:
471,85,204996,1,0,0:0:0:0:
44,173,205814,6,0,B|31:27|31:27|82:80,1,213.750008153916
147,135,206178,2,0,L|135:251,1,71.2500027179719
231,175,206359,2,0,L|210:-11,1,142.500005435944
461,205,206723,2,0,P|397:255|325:225,1,142.500005435944
215,33,207087,2,0,L|356:17,1,142.500005435944
198,118,207450,2,0,L|42:99,1,152
229,203,207814,2,0,L|398:183,1,170.999994781494
200,288,208178,2,0,L|16:265,1,180.49999518013
20,265,208541,1,0,0:0:0:0:
63,39,208723,6,0,B|40:183|40:183|94:132,1,213.750008153916
175,94,209087,2,0,L|188:11,1,71.2500027179719
272,78,209268,2,0,L|242:263,1,142.500005435944
379,27,209632,2,0,L|409:212,1,142.500005435944
152,313,209996,2,0,L|337:343,1,142.500005435944
494,256,210359,2,0,L|309:286,1,142.500005435944
11,335,210723,2,0,L|201:305,1,161.500003080368
494,256,211087,2,0,L|301:288,1,161.500003080368
253,296,211450,1,0,0:0:0:0:
179,84,211632,6,0,P|100:138|80:208,1,142.500005435944
349,166,211996,1,0,0:0:0:0:
106,98,212178,2,0,P|57:180|68:252,1,142.500005435944
314,366,212541,2,0,P|362:283|351:211,1,142.500005435944
30,206,212905,2,0,L|28:398,1,152
339,214,213268,2,0,L|337:62,1,152
188,346,213632,2,0,L|380:348,1,152
196,37,213996,2,0,L|44:38,1,152
44,38,214359,1,0,0:0:0:0:
104,259,214541,6,0,B|92:308|55:357|55:357|35:339|32:307,1,152
149,187,214905,2,0,P|173:211|189:274,1,76
85,137,215087,2,0,P|189:148|256:192,1,152
360,323,215450,2,0,B|360:340|380:358|380:358|417:309|429:260,1,152
375,15,215814,2,0,L|467:149,1,152
275,286,216178,2,0,L|361:160,1,152
161,58,216541,2,0,L|257:197,1,161.500003080368
61,329,216905,2,0,L|156:189,1,161.500003080368
279,17,217268,1,0,0:0:0:0:
301,50,217359,1,0,0:0:0:0:
324,83,217450,6,0,L|426:236,1,142.500005435944
371,295,217723,1,0,0:0:0:0:
311,219,217814,2,0,L|226:275,1,71.2500027179719
165,304,217996,2,0,L|252:157,1,142.500005435944
80,19,218359,2,0,L|7:141,1,142.500005435944
237,181,218723,2,0,L|194:15,1,142.500005435944
311,219,219087,2,0,L|266:387,1,152
382,182,219450,2,0,L|338:22,1,161.500003080368
493,78,219814,5,0,0:0:0:0:
269,108,219996,1,0,0:0:0:0:
495,201,220178,1,0,0:0:0:0:
264,222,220360,6,0,L|231:393,1,152
192,180,220723,2,0,P|225:152|273:138,1,76
167,254,220905,2,0,P|141:163|153:80,1,152
138,335,221268,2,0,P|82:258|64:179,1,152
345,130,221632,2,0,P|371:221|358:308,1,152
374,49,221996,2,0,P|429:125|445:208,1,152
142,40,222359,2,0,P|97:96|66:174,1,152
168,349,222723,1,0,0:0:0:0:
272,173,222905,1,0,0:0:0:0:
68,170,223087,1,0,0:0:0:0:
55,203,223178,1,0,0:0:0:0:
42,236,223268,6,0,L|18:390,1,152
156,193,223632,2,0,P|155:153|142:115,1,76
76,33,223814,2,0,P|148:47|249:21,1,152
451,128,224178,2,0,P|379:114|276:141,1,152
136,278,224541,2,0,P|161:336|255:302,1,152
311,125,224905,2,0,P|286:67|183:94,1,152
308,332,225268,2,0,P|394:333|422:252,1,152
238,135,225632,1,0,0:0:0:0:
186,366,225814,1,0,0:0:0:0:
271,145,225996,1,0,0:0:0:0:
36,177,226178,6,0,B|43:333|43:333|85:260,1,228
129,148,226541,2,0,L|133:257,1,76
219,114,226723,2,0,L|227:289,1,152
433,358,227087,2,0,L|439:206,1,152
131,208,227450,2,0,L|139:383,1,152
454,363,227814,2,0,L|460:211,1,152
111,210,228178,2,0,L|119:385,1,152
389,188,228541,1,0,0:0:0:0:
38,190,228723,1,0,0:0:0:0:
295,189,228905,1,0,0:0:0:0:
480,187,229087,6,0,P|466:142|434:107,2,71.2500027179719
443,346,229632,2,0,P|462:316|471:282,1,71.2500027179719
470,101,229996,2,0,P|461:66|443:37,1,71.2500027179719
