osu file format v14

[General]
AudioFilename: audio.mp3
AudioLeadIn: 0
PreviewTime: 88022
Countdown: 0
SampleSet: Soft
StackLeniency: 0.3
Mode: 0
LetterboxInBreaks: 0
EpilepsyWarning: 1
WidescreenStoryboard: 1

[Editor]
Bookmarks: 15756,44847,73938,89392,118483,118710,118824,119051,119278,119392,119847,120074,120301,120528,120642,120869,121097,121210,121324,121437,121551,121665,121892,125756,125983,126097,126324,126551,126665,127119,127347,129392
DistanceSpacing: 1
BeatDivisor: 8
GridSize: 16
TimelineZoom: 2.9

[Metadata]
Title:FREE
TitleUnicode:FREE
Artist:POLKADOT STINGRAY
ArtistUnicode:ポルカドットスティングレイ
Creator:Plaudible
Version:Flake's Laziness
Source:
Tags:alternative japanese pop rock flake lokidoki 何者 Nanimono Nani mono What 3rd third full album j-pop jpop jrock j-rock
BeatmapID:2842819
BeatmapSetID:1261605

[Difficulty]
HPDrainRate:5
CircleSize:4.2
OverallDifficulty:8.2
ApproachRate:9.5
SliderMultiplier:2.5
SliderTickRate:1

[Events]
//Background and Video events
0,0,"bg.jpg",0,0
//Break Periods
2,58903,72042
2,103448,108178
//Storyboard Layer 0 (Background)
//Storyboard Layer 1 (Fail)
//Storyboard Layer 2 (Pass)
//Storyboard Layer 3 (Foreground)
Sprite,Foreground,Centre,"sb\sbar.png",0,0 F,2,14981,15381,0,0.25 C,0,15181,,136,207,239 V,0,15181,,1,10 M,0,15181,15237,320,240,104.2681,219.162 P,0,15181,29812,A M,0,15237,15294,104.2681,219.162,142.5361,211.3239 M,1,15294,15408,142.5361,211.3239,384,168 M,1,15408,15522,384,168,316,124 M,0,15522,15578,316,124,278.7507,135.7629 M,0,15578,15635,278.7507,135.7629,265,171 M,1,15635,15749,265,171,182,315 M,0,15749,15805,182,315,228.346,322.0221 M,0,15805,15862,228.346,322.0221,257.0442,350.4367 M,0,15862,15919,257.0442,350.4367,289.9288,373.0868 M,0,15919,15976,289.9288,373.0868,336.4752,378.628 M,1,15976,16090,336.4752,378.628,390,320 M,1,16090,16203,390,320,546,344 M,0,16203,16259,546,344,501.3501,336.2956 M,0,16259,16316,501.3501,336.2956,465.0325,363.3283 M,1,16316,16431,465.0325,363.3283,523,420 M,1,16431,16544,523,420,466,350 M,0,16544,16600,466,350,495.6825,326.4193 M,0,16600,16657,495.6825,326.4193,533.3378,328.8346 M,1,16657,16772,533.3378,328.8346,408,417 M,1,16772,16885,408,417,404,423 M,1,16885,16999,404,423,336,378 M,0,16999,17055,336,378,341.7086,339.3569 M,0,17055,17112,341.7086,339.3569,347.4173,300.7138 M,1,17112,17226,347.4173,300.7138,311,229 M,1,17226,17340,311,229,172,139 M,0,17340,17396,172,139,132.9667,140.0369 M,0,17396,17453,132.9667,140.0369,106.7836,169.0253 M,1,17453,17567,106.7836,169.0253,72,241 M,1,17567,17681,72,241,78,250 M,1,17681,17794,78,250,74,327 M,1,17794,17908,74,327,149,307 M,1,17908,18022,149,307,223,286 M,1,18022,18135,223,286,204,363 M,1,18135,18249,204,363,199,371 M,0,18249,18305,199,371,193.3509,332.3481 M,0,18305,18362,193.3509,332.3481,187.7018,293.6963 M,0,18362,18419,187.7018,293.6963,182.0526,255.0444 M,0,18419,18476,182.0526,255.0444,159.1696,227.4149 M,1,18476,18703,159.1696,227.4149,473,251 M,0,18703,18759,473,251,457.6474,215.3 M,0,18759,18816,457.6474,215.3,454.9989,179.1576 M,0,18816,18873,454.9989,179.1576,424.721,203.4871 M,0,18873,18930,424.721,203.4871,387.5223,214.6043 M,1,18930,19044,387.5223,214.6043,195,157 M,1,19044,19158,195,157,261,123 M,0,19158,19214,261,123,297.3439,135.1381 M,0,19214,19271,297.3439,135.1381,320.6551,165.3824 M,1,19271,19385,320.6551,165.3824,427,359 M,0,19385,19441,427,359,469.5544,376.7152 M,0,19441,19498,469.5544,376.7152,512.4645,361.2896 M,0,19498,19555,512.4645,361.2896,532.6827,320.0388 M,0,19555,19612,532.6827,320.0388,517.2412,321.6683 M,1,19612,19726,517.2412,321.6683,473,251 M,1,19726,19840,473,251,272,279 M,0,19840,19896,272,279,318.1963,286.9478 M,0,19896,19953,318.1963,286.9478,364.3926,294.8955 M,1,19953,20067,364.3926,294.8955,337,208 M,1,20067,20181,337,208,356,307 M,0,20181,20237,356,307,317.5031,300.3769 M,0,20237,20294,317.5031,300.3769,279.0062,293.7538 M,0,20294,20351,279.0062,293.7538,317.5031,300.3769 M,0,20351,20408,317.5031,300.3769,356,307 M,1,20408,20522,356,307,142,325 M,1,20522,20635,142,325,149,338 M,0,20635,20691,149,338,142.2881,299.5185 M,0,20691,20748,142.2881,299.5185,135.5762,261.0369 M,1,20748,20862,135.5762,261.0369,220,437 M,0,20862,20918,220,437,226.5029,398.4826 M,0,20918,20975,226.5029,398.4826,233,360 M,1,20975,21090,233,360,82,126 M,0,21090,21146,82,126,74.92334,164.4161 M,0,21146,21203,74.92334,164.4161,68,202 M,1,21203,21317,68,202,74,214 M,1,21317,21431,74,214,164,149 M,1,21431,21544,164,149 M,1,21544,21658,164,149 M,0,21658,21714,164,149,189.3558,119.8909 M,0,21714,21771,189.3558,119.8909,224.9978,105.0005 M,1,21771,21885,224.9978,105.0005,350,134 M,0,21885,21941,350,134,378.0395,160.6822 M,0,21941,21998,378.0395,160.6822,393,194 M,1,21998,22112,393,194,260,254 M,0,22112,22168,260,254,238.9318,221.5663 M,0,22168,22225,238.9318,221.5663,232.9911,183.3318 M,1,22225,22340,232.9911,183.3318,523,285 M,0,22340,22396,523,285,556,305 M,1,22396,22453,556,305,565,311 M,0,22453,22509,565,311,526.5104,316.7863 M,0,22509,22566,526.5104,316.7863,490.6966,332.0192 M,1,22566,22681,490.6966,332.0192,355,365 M,1,22681,22794,355,365,291,419 M,0,22794,22850,291,419,252.6357,412.291 M,0,22850,22907,252.6357,412.291,216.8097,397.0226 M,1,22907,23022,216.8097,397.0226,328,211 M,0,23022,23078,328,211,359.0925,175.9212 M,0,23078,23135,359.0925,175.9212,355.1605,199.8875 M,0,23135,23192,355.1605,199.8875,339.283,243.9916 M,0,23192,23249,339.283,243.9916,323.4055,288.0957 M,1,23249,23362,323.4055,288.0957,245,280 M,1,23362,23476,245,280,355,365 M,0,23476,23532,355,365,401.0316,356.1478 M,0,23532,23589,401.0316,356.1478,447.0631,347.2956 M,1,23589,23703,447.0631,347.2956,416,433 M,1,23703,23817,416,433,436,339 M,0,23817,23873,436,339,397.5602,345.947 M,0,23873,23930,397.5602,345.947,359.1204,352.8939 M,1,23930,24044,359.1204,352.8939,284,417 M,1,24044,24158,284,417,291,419 M,1,24158,24272,291,419,208,429 M,0,24272,24328,208,429,175.2043,407.7792 M,0,24328,24385,175.2043,407.7792,136.8392,412.9119 M,1,24385,24499,136.8392,412.9119,74,366 M,1,24499,24612,74,366,173,263 M,0,24612,24668,173,263,205.7957,284.2208 M,0,24668,24725,205.7957,284.2208,244,279 M,1,24725,24839,244,279,305,221 M,1,24839,24953,305,221,311,216 M,1,24953,25067,311,216,419,97 M,1,25067,25181,419,97,407,174 M,1,25181,25294,407,174,396,250 M,1,25294,25408,396,250,469,273 M,1,25408,25522,469,273,472,264 M,0,25522,25578,472,264,433.7142,271.7511 M,0,25578,25635,433.7142,271.7511,395.4285,279.5022 M,0,25635,25692,395.4285,279.5022,357.1427,287.2533 M,0,25692,25749,357.1427,287.2533,318.857,295.0044 M,1,25749,25976,318.857,295.0044,130,404 M,0,25976,26032,130,404,166.8226,415.5582 M,0,26032,26089,166.8226,415.5582,204.7996,409.2019 M,0,26089,26146,204.7996,409.2019,235.5623,386.0192 M,0,26146,26203,235.5623,386.0192,252.1537,351.2312 M,1,26203,26317,252.1537,351.2312,215,197 M,1,26317,26431,215,197,143,226 M,0,26431,26487,143,226,107.5363,240.9987 M,0,26487,26544,107.5363,240.9987,83.77345,271.2807 M,1,26544,26658,83.77345,271.2807,248,268 M,0,26658,26714,248,268,283.8925,253.5118 M,0,26714,26771,283.8925,253.5118,308.6221,223.7462 M,0,26771,26828,308.6221,223.7462,312.3664,260.6396 M,0,26828,26885,312.3664,260.6396,334.0898,292.7219 M,1,26885,26999,334.0898,292.7219,402,233 M,1,26999,27112,402,233,396,363 M,0,27112,27168,396,363,426.7401,328.2374 M,0,27168,27225,426.7401,328.2374,471.3752,342.5543 M,1,27225,27340,471.3752,342.5543,455,427 M,1,27340,27453,455,427,468,353 M,0,27453,27509,468,353,431.0405,340.356 M,0,27509,27566,431.0405,340.356,405.2126,368.7534 M,0,27566,27623,405.2126,368.7534,431.0405,340.356 M,0,27623,27680,431.0405,340.356,468,353 M,1,27680,27794,468,353,548,396 M,1,27794,27908,548,396,544,403 M,0,27908,27964,544,403,552.2088,364.8107 M,0,27964,28021,552.2088,364.8107,559.6487,326.4641 M,1,28021,28135,559.6487,326.4641,334,292 M,0,28135,28191,334,292,325.7912,330.1893 M,0,28191,28248,325.7912,330.1893,318.3513,368.5359 M,1,28248,28362,318.3513,368.5359,263,419 M,1,28362,28476,263,419,192,377 M,1,28476,28590,192,377,187,370 M,0,28590,28646,187,370,150.8539,355.473 M,0,28646,28703,150.8539,355.473,112.4101,349.2924 M,1,28703,28817,112.4101,349.2924,130,249 M,1,28817,28931,130,249,135,256 M,0,28931,28987,135,256,171.4,269.9014 M,0,28987,29044,171.4,269.9014,209.9088,275.7165 M,1,29044,29385,209.9088,275.7165,471,105 M,0,29385,29441,471,105,491.8271,115.7494 M,0,29441,29498,491.8271,115.7494,490.3029,118.3682 M,0,29498,29555,490.3029,118.3682,467.4371,113.2233 F,0,29612,,0.25,0
Sprite,Foreground,Centre,"sb\sbar.png",0,0 F,2,128503,128903,0,0.25 C,0,128703,,136,207,239 V,0,128703,,1,10 M,0,128703,128759,320,240,296.9638,240.3625 P,0,128703,170721,A M,0,128759,128816,296.9638,240.3625,259.8042,268.2575 M,1,128816,128930,259.8042,268.2575,515,337 M,1,128930,129043,515,337 M,1,129043,129157,515,337 M,0,129157,129213,515,337,516.6719,290.5292 M,0,129213,129270,516.6719,290.5292,501,248 M,1,129270,129384,501,248,320,200 M,1,129384,129497,320,200 M,1,129497,129612,320,200 M,0,129612,129668,320,200,296.9638,240.3625 M,0,129668,129725,296.9638,240.3625,259.8042,268.2575 M,1,129725,129839,259.8042,268.2575,124,123 M,0,129839,129895,124,123,180.2087,102.3434 M,0,129895,129952,180.2087,102.3434,229.5079,136.3862 M,0,129952,130009,229.5079,136.3862,228.9212,196.4047 M,1,130009,130066,228.9212,196.4047,112,272 M,0,130066,130122,112,272,97.32556,219.7983 M,0,130122,130179,97.32556,219.7983,150.6275,213.6391 M,1,130179,130293,150.6275,213.6391,295,380 M,0,130293,130349,295,380,331.2993,408.1349 M,0,130349,130406,331.2993,408.1349,377.23,409.2047 M,1,130406,130521,377.23,409.2047,395,305 M,0,130521,130577,395,305,382.9277,307.5943 M,0,130577,130634,382.9277,307.5943,371.5299,312.5081 M,0,130634,130691,371.5299,312.5081,362.4696,321.0174 M,1,130691,130748,362.4696,321.0174,357,332 M,0,130748,130804,357,332,328.4862,269.7192 M,0,130804,130861,328.4862,269.7192,318.597,201.9383 M,0,130861,130918,318.597,201.9383,328.5137,134.164 M,1,130918,130975,328.5137,134.164,337,119 M,1,130975,131089,337,119,339,196 M,0,131089,131145,339,196,317.5987,191.5388 M,0,131145,131202,317.5987,191.5388,296.6192,185.3882 M,0,131202,131259,296.6192,185.3882,317.5987,191.5388 M,0,131259,131316,317.5987,191.5388,339,196 M,1,131316,131430,339,196,491,335 M,0,131430,131486,491,335,502.2098,273.6383 M,0,131486,131543,502.2098,273.6383,500.6709,211.2861 M,0,131543,131600,500.6709,211.2861,486.3396,150.5725 M,0,131600,131657,486.3396,150.5725,459.6674,94.18547 M,1,131657,131771,459.6674,94.18547,149,399 M,0,131771,131827,149,399,147.8535,336.9176 M,0,131827,131884,147.8535,336.9176,169.3896,278.6858 M,1,131884,131998,169.3896,278.6858,235,411 M,0,131998,132054,235,411,256.8462,352.9134 M,0,132054,132111,256.8462,352.9134,255,291 M,1,132111,132225,255,291,154,134 M,1,132225,132339,154,134 M,0,132339,132395,154,134,180.3726,99.51602 M,0,132395,132452,180.3726,99.51602,218.1961,78.30101 M,1,132452,132566,218.1961,78.30101,327,222 M,0,132566,132622,327,222,379.1101,214.3334 M,0,132622,132679,379.1101,214.3334,429.7795,228.648 M,1,132679,132793,429.7795,228.648,123,230 M,1,132793,132907,123,230,87,291 M,0,132907,132963,87,291,146.5247,275.9335 M,0,132963,133020,146.5247,275.9335,203.7605,298.0101 M,0,133020,133077,203.7605,298.0101,237.5042,349.351 M,0,133077,133134,237.5042,349.351,234.7859,410.762 M,1,133134,133248,234.7859,410.762,421,406 M,0,133248,133304,421,406,381.7573,387.0381 M,0,133304,133361,381.7573,387.0381,338.7439,380.0326 M,1,133361,133475,338.7439,380.0326,457,160 M,0,133475,133531,457,160,481.9004,206.2997 M,0,133531,133588,481.9004,206.2997,524.938,236.498 M,1,133588,133703,524.938,236.498,158,322 M,1,133703,133816,158,322,196,257 M,0,133816,133872,196,257,250.035,285.7614 M,0,133872,133929,250.035,285.7614,310.1981,274.9184 M,0,133929,133986,310.1981,274.9184,350.5362,228.8855 M,0,133986,134043,350.5362,228.8855,352.9952,167.7607 M,1,134043,134157,352.9952,167.7607,224,152 M,0,134157,134213,224,152,220.0273,130.5076 M,0,134213,134270,220.0273,130.5076,218.2415,108.7308 M,0,134270,134327,218.2415,108.7308,218.5341,86.87894 M,1,134327,134384,218.5341,86.87894,218,78 M,0,134384,134440,218,78,165.9557,94.70152 M,0,134440,134497,165.9557,94.70152,112.4494,105.8625 M,1,134497,134612,112.4494,105.8625,422,418 M,0,134612,134668,422,418,474.0443,401.2985 M,0,134668,134725,474.0443,401.2985,527.5506,390.1375 M,1,134725,134953,527.5506,390.1375,527,390 M,1,134953,135066,527,390,496,316 M,1,135066,135180,496,316,485,313 M,1,135180,135293,485,313,474,310 M,1,135293,135407,474,310,463,306 M,1,135407,135521,463,306,454,303 M,0,135521,135577,454,303,484.0378,294.5714 M,0,135577,135634,484.0378,294.5714,515.0278,291.086 M,1,135634,135748,515.0278,291.086,501,204 M,0,135748,135804,501,204,470.6967,211.4812 M,0,135804,135861,470.6967,211.4812,439.6689,214.8028 M,1,135861,135975,439.6689,214.8028,371,167 M,0,135975,136031,371,167,375.7585,120.3671 M,0,136031,136088,375.7585,120.3671,380.5169,73.73429 M,1,136088,136203,380.5169,73.73429,73,321 M,1,136203,136316,73,321 M,1,136316,136430,73,321 M,0,136430,136486,73,321,68.4848,367.657 M,0,136486,136543,68.4848,367.657,64,414 M,1,136543,136657,64,414,371,167 M,1,136657,136770,371,167 M,1,136770,136884,371,167 M,0,136884,136940,371,167,375.4676,120.3384 M,0,136940,136997,375.4676,120.3384,379.9352,73.67677 M,1,136997,137112,379.9352,73.67677,271,117 M,0,137112,137168,271,117,223.1915,111.459 M,0,137168,137225,223.1915,111.459,284.3041,98.3634 M,0,137225,137282,284.3041,98.3634,345.4168,85.26784 M,1,137282,137339,345.4168,85.26784,532,131 M,0,137339,137395,532,131,521.5049,113.8683 M,0,137395,137452,521.5049,113.8683,460.5322,127.6009 M,1,137452,137566,460.5322,127.6009,198,191 M,0,137566,137622,198,191,244.707,194.9657 M,0,137622,137679,244.707,194.9657,291.4139,198.9314 M,1,137679,137793,291.4139,198.9314,356,375 M,0,137793,137849,356,375,358.2361,387.2984 M,0,137849,137906,358.2361,387.2984,360.4721,399.5967 M,0,137906,137963,360.4721,399.5967,362.7082,411.8951 M,1,137963,138021,362.7082,411.8951,365,422 M,0,138021,138077,365,422,382.0502,355.3978 M,0,138077,138134,382.0502,355.3978,388.802,299.1254 M,0,138134,138191,388.802,299.1254,322.2523,316.3791 M,1,138191,138248,322.2523,316.3791,312,319 M,1,138248,138362,312,319,255,372 M,0,138362,138418,255,372,233.3997,368.5439 M,0,138418,138475,233.3997,368.5439,211.7995,365.0879 M,0,138475,138532,211.7995,365.0879,233.3997,368.5439 M,0,138532,138589,233.3997,368.5439,255,372 M,1,138589,138703,255,372,465,339 M,0,138703,138759,465,339,527.3111,334.1446 M,0,138759,138816,527.3111,334.1446,529.4697,379.0938 M,0,138816,138873,529.4697,379.0938,510.6941,434.7664 M,0,138873,138930,510.6941,434.7664,452.1376,412.917 M,1,138930,139043,452.1376,412.917,365,422 M,1,139043,139157,365,422,397,298 M,0,139157,139213,397,298,394.2608,276.2972 M,0,139213,139270,394.2608,276.2972,391.5216,254.5944 M,0,139270,139327,391.5216,254.5944,388.7824,232.8915 M,0,139327,139384,388.7824,232.8915,386.0432,211.1887 M,1,139384,139612,386.0432,211.1887,386,211 M,1,139612,139725,386,211,458,187 M,1,139725,139839,458,187,488,259 M,0,139839,139895,488,259,531.2269,264.7557 M,0,139895,139952,531.2269,264.7557,560.9966,232.696 M,1,139952,140066,560.9966,232.696,408,107 M,1,140066,140180,408,107,230,138 M,0,140180,140236,230,138,186.9557,145.8262 M,0,140236,140293,186.9557,145.8262,143.9114,153.6525 M,1,140293,140407,143.9114,153.6525,111,64 M,1,140407,140521,111,64,298,187 M,0,140521,140577,298,187,309.818,145.3187 M,0,140577,140634,309.818,145.3187,301.8853,102.7804 M,1,140634,140748,301.8853,102.7804,111,64 M,0,140748,140804,111,64,79.49064,93.71968 M,0,140804,140861,79.49064,93.71968,64.7976,134.4115 M,1,140861,140975,64.7976,134.4115,64,259 M,0,140975,141031,64,259,101.7462,238.5459 M,0,141031,141088,101.7462,238.5459,144.2155,243.9528 M,0,141088,141145,144.2155,243.9528,175.7331,272.9659 M,0,141145,141202,175.7331,272.9659,183.7957,315.0576 M,1,141202,141316,183.7957,315.0576,135,375 M,1,141316,141430,135,375,194,420 M,0,141430,141486,194,420,218.6421,415.7849 M,0,141486,141543,218.6421,415.7849,243.2842,411.5698 M,0,141543,141600,243.2842,411.5698,267.9263,407.3547 M,1,141600,141657,267.9263,407.3547,277,393 M,0,141657,141713,277,393,323.3966,417.9289 M,0,141713,141770,323.3966,417.9289,375.9759,420.8704 M,1,141770,141884,375.9759,420.8704,455,203 M,0,141884,141940,455,203,415.2428,169.1894 M,0,141940,141997,415.2428,169.1894,363.3703,164.4448 M,0,141997,142054,363.3703,164.4448,318.2409,190.4215 M,0,142054,142111,318.2409,190.4215,296.6262,237.8143 M,0,142111,142168,296.6262,237.8143,306.2355,288.9916 M,0,142168,142224,306.2355,288.9916,343.827,325.0493 M,1,142224,142339,343.827,325.0493,433,354 M,0,142339,142395,433,354,437.4916,349.7295 M,0,142395,142452,437.4916,349.7295,441.6278,345.1891 M,0,142452,142509,441.6278,345.1891,446.9569,342.0249 M,0,142509,142566,446.9569,342.0249,452.2622,339.1006 M,0,142566,142623,452.2622,339.1006,457.9138,336.4311 M,0,142623,142679,457.9138,336.4311,464.0273,335.1964 M,1,142679,142793,464.0273,335.1964,480,342 M,1,142793,142907,480,342,343,325 M,1,142907,143021,343,325,501,361 M,1,143021,143135,501,361,323,338 M,1,143135,143248,323,338,396,440 M,0,143248,143304,396,440,402.9052,393.6364 M,0,143304,143361,402.9052,393.6364,409.8104,347.2728 M,1,143361,143475,409.8104,347.2728,101,228 M,1,143475,143589,101,228 M,1,143589,143703,101,228 M,0,143703,143759,101,228,93.37112,274.25 M,0,143759,143816,93.37112,274.25,85.74226,320.5001 M,1,143816,143930,85.74226,320.5001,396,440 M,1,143930,144044,396,440 M,1,144044,144158,396,440 M,0,144158,144214,396,440,402.7644,393.6156 M,0,144214,144271,402.7644,393.6156,409.5288,347.2313 M,1,144271,144384,409.5288,347.2313,369,185 M,0,144384,144440,369,185,393.227,202.9904 M,0,144440,144497,393.227,202.9904,332.2355,210.8114 M,0,144497,144554,332.2355,210.8114,288.7527,254.1115 M,1,144554,144612,288.7527,254.1115,301,334 M,0,144612,144668,301,334,241.7496,332.2139 M,0,144668,144725,241.7496,332.2139,229.4683,300.6195 M,1,144725,144839,229.4683,300.6195,247,123 M,0,144839,144895,247,123,287.5975,137.455 M,0,144895,144952,287.5975,137.455,313.2324,102.9132 M,1,144952,145066,313.2324,102.9132,456,198 M,0,145066,145122,456,198,468.4035,196.4496 M,0,145122,145179,468.4035,196.4496,480.8069,194.8991 M,0,145179,145236,480.8069,194.8991,493.2104,193.3487 M,1,145236,145293,493.2104,193.3487,489,288 M,0,145293,145349,489,288,481.082,219.7075 M,0,145349,145406,481.082,219.7075,471.7809,159.3393 M,0,145406,145463,471.7809,159.3393,466.3299,91.06361 M,1,145463,145521,466.3299,91.06361,467,92 M,1,145521,145634,467,92,369,185 M,0,145634,145690,369,185,371.7133,206.7061 M,0,145690,145747,371.7133,206.7061,374.4265,228.4122 M,0,145747,145804,374.4265,228.4122,371.7133,206.7061 M,0,145804,145861,371.7133,206.7061,369,185 M,1,145861,145975,369,185,127,204 M,0,145975,146031,127,204,103.4189,146.1192 M,0,146031,146088,103.4189,146.1192,91.36938,95.55951 M,0,146088,146145,91.36938,95.55951,153.783,92.27458 M,0,146145,146202,153.783,92.27458,171.839,128.4447 M,1,146202,146316,171.839,128.4447,279,141 M,0,146316,146372,279,141,308.915,134.2026 M,0,146372,146429,308.915,134.2026,247.3393,123.4938 M,1,146429,146543,247.3393,123.4938,122,290 M,0,146543,146599,122,290,92.08498,283.2026 M,0,146599,146656,92.08498,283.2026,153.6607,272.4938 M,1,146656,146771,153.6607,272.4938,240,256 M,1,146771,146884,240,256,232,259 M,0,146884,146940,232,259,224.5199,302.0944 M,0,146940,146997,224.5199,302.0944,220.375,345.636 M,1,146997,147112,220.375,345.636,352,268 M,0,147112,147168,352,268,356.6365,320.9054 M,0,147168,147225,356.6365,320.9054,365.5322,373.2632 M,1,147225,147339,365.5322,373.2632,101,363 M,1,147339,147453,101,363,80,438 M,0,147453,147509,80,438,74.07469,375.7945 M,0,147509,147566,74.07469,375.7945,64.02341,314.1208 M,1,147566,147680,64.02341,314.1208,102,251 M,1,147680,147793,102,251,193,379 M,0,147793,147849,193,379,236.5702,380.9687 M,0,147849,147906,236.5702,380.9687,278.1691,394.1601 M,1,147906,148021,278.1691,394.1601,386,187 M,0,148021,148077,386,187,333.0797,184.211 M,0,148077,148134,333.0797,184.211,282.369,168.7966 M,1,148134,148248,282.369,168.7966,511,373 M,1,148248,148362,511,373,454,423 M,0,148362,148418,454,423,513.2356,403.7852 M,0,148418,148475,513.2356,403.7852,575.5231,400.8346 M,1,148475,148589,575.5231,400.8346,349,266 M,1,148589,148703,349,266,410,311 M,0,148703,148759,410,311,399.7934,330.2839 M,0,148759,148816,399.7934,330.2839,393.0007,351.0018 M,0,148816,148873,393.0007,351.0018,390.0569,372.6328 M,1,148873,148930,390.0569,372.6328,390,382 M,0,148930,148986,390,382,336.1311,391.4271 M,0,148986,149043,336.1311,391.4271,285.7071,381.7593 M,1,149043,149157,285.7071,381.7593,354,96 M,0,149157,149213,354,96,407.8689,86.57295 M,0,149213,149270,407.8689,86.57295,458.2929,96.24068 M,1,149270,149498,458.2929,96.24068,458,96 M,1,149498,149612,458,96,513,152 M,1,149612,149725,513,152,510,162 M,1,149725,149839,510,162,507,172 M,1,149839,149953,507,172,504,182 M,1,149953,150066,504,182,502,191 M,0,150066,150122,502,191,533.0949,187.8905 M,0,150122,150179,533.0949,187.8905,564.1898,184.781 M,1,150179,150293,564.1898,184.781,506,266 M,0,150293,150349,506,266,537.0949,262.8905 M,0,150349,150406,537.0949,262.8905,568.1898,259.781 M,1,150406,150521,568.1898,259.781,479,387 M,0,150521,150577,479,387,444.4118,357.3256 M,0,150577,150634,444.4118,357.3256,399.0317,358.9449 M,1,150634,150748,399.0317,358.9449,326,140 M,1,150748,150862,326,140 M,1,150862,150975,326,140 M,0,150975,151031,326,140,280.5251,137.2725 M,0,151031,151088,280.5251,137.2725,245.4076,166.3286 M,1,151088,151203,245.4076,166.3286,479,387 M,1,151203,151317,479,387 M,1,151317,151430,479,387 M,0,151430,151486,479,387,444.4118,357.3256 M,0,151486,151543,444.4118,357.3256,399.0317,358.9449 M,1,151543,151657,399.0317,358.9449,94,248 M,0,151657,151713,94,248,119.0889,207.1556 M,0,151713,151770,119.0889,207.1556,178.8757,193.4875 M,0,151770,151827,178.8757,193.4875,180.9552,226.4339 M,1,151827,151884,180.9552,226.4339,189,371 M,0,151884,151940,189,371,150.3737,363.1389 M,0,151940,151997,150.3737,363.1389,173.5358,307.4547 M,1,151997,152112,173.5358,307.4547,286,323 M,0,152112,152168,286,323,290.558,348.6712 M,0,152168,152225,290.558,348.6712,251.9507,325.799 M,1,152225,152339,251.9507,325.799,395,157 M,0,152339,152395,395,157,392.2884,169.2023 M,0,152395,152452,392.2884,169.2023,389.5768,181.4047 M,0,152452,152509,389.5768,181.4047,387,193 M,1,152509,152566,387,193,326,140 M,0,152566,152622,326,140,360.2483,167.4601 M,0,152622,152679,360.2483,167.4601,427.4661,180.6206 M,0,152679,152736,427.4661,180.6206,467.8396,168.5872 M,1,152736,152793,467.8396,168.5872,406,84 M,1,152793,152907,406,84,385,205 M,0,152907,152963,385,205,380.8859,226.4846 M,0,152963,153020,380.8859,226.4846,376.7719,247.9693 M,0,153020,153077,376.7719,247.9693,380.8859,226.4846 M,0,153077,153134,380.8859,226.4846,385,205 M,1,153134,153248,385,205,400,417 M,0,153248,153304,400,417,414.3581,357.122 M,0,153304,153361,414.3581,357.122,352.9581,368.7967 M,0,153361,153418,352.9581,368.7967,291.5582,380.4713 M,0,153418,153475,291.5582,380.4713,298.5405,348.9552 M,1,153475,153589,298.5405,348.9552,196,341 M,0,153589,153645,196,341,203.5273,283.0389 M,0,153645,153702,203.5273,283.0389,227,307 M,1,153702,153816,227,307,482,428 M,0,153816,153872,482,428,520.7953,384.3018 M,0,153872,153929,520.7953,384.3018,487.9809,381.6363 M,1,153929,154043,487.9809,381.6363,449,312 M,1,154043,154157,449,312,488,383 M,0,154157,154213,488,383,531.2034,376.1058 M,0,154213,154270,531.2034,376.1058,574.4068,369.2117 M,1,154270,154384,574.4068,369.2117,550,192 M,0,154384,154440,550,192,506.7304,198.4656 M,0,154440,154497,506.7304,198.4656,463.4608,204.9312 M,1,154497,154612,463.4608,204.9312,392,213 M,1,154612,154725,392,213,529,276 M,0,154725,154781,529,276,570.8865,288.3853 M,0,154781,154838,570.8865,288.3853,534.0555,296.1329 M,0,154838,154895,534.0555,296.1329,490.9868,303.8238 M,0,154895,154952,490.9868,303.8238,447.9181,311.5146 M,1,154952,155066,447.9181,311.5146,276,359 M,0,155066,155122,276,359,307.423,328.559 M,0,155122,155179,307.423,328.559,302.6731,285.385 M,1,155179,155293,302.6731,285.385,108,221 M,0,155293,155349,108,221,77.06408,251.9359 M,0,155349,155406,77.06408,251.9359,80.20355,295.0355 M,1,155406,155521,80.20355,295.0355,105,137 M,1,155521,155634,105,137,115,364 M,0,155634,155690,115,364,147.6172,393.1578 M,0,155690,155747,147.6172,393.1578,180.2345,422.3156 M,0,155747,155804,180.2345,422.3156,190.4255,381.3295 M,0,155804,155861,190.4255,381.3295,200,339 M,1,155861,155975,200,339,276,359 M,0,155975,156031,276,359,299.9355,352.204 M,0,156031,156088,299.9355,352.204,324.7802,353.0306 M,0,156088,156145,324.7802,353.0306,348.17,361.3885 M,0,156145,156202,348.17,361.3885,367.8824,376.4718 M,0,156202,156259,367.8824,376.4718,382.0465,396.8372 M,0,156259,156315,382.0465,396.8372,389.5925,420.5111 M,1,156315,156430,389.5925,420.5111,523,160 M,0,156430,156486,523,160,474.7719,138.3856 M,0,156486,156543,474.7719,138.3856,422.1625,133.67 M,0,156543,156600,422.1625,133.67,370.8921,146.3505 M,0,156600,156657,370.8921,146.3505,326.6626,175.2255 M,0,156657,156714,326.6626,175.2255,294.2543,216.9291 M,0,156714,156770,294.2543,216.9291,277.4054,266.9904 M,1,156770,156884,277.4054,266.9904,458,274 M,0,156884,156940,458,274,405.7106,283.3853 M,0,156940,156997,405.7106,283.3853,353.4212,292.7706 M,1,156997,157112,353.4212,292.7706,112,331 M,1,157112,157339,112,331,70,269 M,1,157339,157453,70,269,112,331 M,1,157453,157566,112,331,110,339 M,1,157566,157680,110,339,108,347 M,1,157680,157793,108,347,106,354 M,0,157793,157849,106,354,129.2939,385.3572 M,1,157849,157907,129.2939,385.3572,137,392 M,0,157907,157963,137,392,144.838,353.7319 M,0,157963,158020,144.838,353.7319,152.6761,315.4639 M,1,158020,158134,152.6761,315.4639,466,252 M,1,158134,158248,466,252,395,298 M,0,158248,158304,395,298,358.8999,285.4254 M,0,158304,158361,358.8999,285.4254,336.7989,254.1918 M,1,158361,158475,336.7989,254.1918,71,103 M,0,158475,158531,71,103,117.3979,102.3887 M,0,158531,158588,117.3979,102.3887,153.3922,131.0993 M,0,158588,158645,153.3922,131.0993,190.1557,158.852 M,0,158645,158702,190.1557,158.852,236.6381,159.9581 M,1,158702,158816,236.6381,159.9581,217,83 M,1,158816,158930,217,83,327,178 M,0,158930,158986,327,178,334.5882,131.7632 M,0,158986,159043,334.5882,131.7632,346.3118,86.39849 M,1,159043,159157,346.3118,86.39849,417,146 M,1,159157,159271,417,146,334,90 M,0,159271,159327,334,90,323.2156,127.5087 M,0,159327,159384,323.2156,127.5087,317.1841,166.0673 M,1,159384,159498,317.1841,166.0673,336,253 M,1,159498,159612,336,253,328,255 M,1,159612,159725,328,255,250,268 M,0,159725,159781,250,268,247.2813,306.9678 M,0,159781,159838,247.2813,306.9678,264.6458,341.2499 M,1,159838,159953,264.6458,341.2499,308,403 M,1,159953,160066,308,403,522,294 M,0,160066,160122,522,294,524.7187,255.0322 M,0,160122,160179,524.7187,255.0322,507.3542,220.75 M,1,160179,160293,507.3542,220.75,454,164 M,1,160293,160407,454,164,457,156 M,1,160407,160521,457,156,510,100 M,1,160521,160634,510,100,433,112 M,1,160634,160748,433,112,355,124 M,1,160748,160862,355,124,333,199 M,1,160862,160975,333,199,332,207 M,0,160975,161031,332,207,327.6263,168.1831 M,0,161031,161088,327.6263,168.1831,318.368,132.416 M,0,161088,161145,318.368,132.416,309.5768,96.47986 M,0,161145,161202,309.5768,96.47986,305.4876,57.63199 M,1,161202,161316,305.4876,57.63199,231,88 M,1,161316,161430,231,88,74,128 M,0,161430,161486,74,128,90.52307,93.16492 M,0,161486,161543,90.52307,93.16492,125.7358,78.75679 M,0,161543,161600,125.7358,78.75679,154.0087,93.47665 M,0,161600,161657,154.0087,93.47665,166.6998,129.9863 M,1,161657,161771,166.6998,129.9863,332,207 M,1,161771,161884,332,207,256,187 M,0,161884,161940,256,187,218.3264,193.8353 M,0,161940,161997,218.3264,193.8353,190.9577,220.6195 M,1,161997,162112,190.9577,220.6195,64,320 M,0,162112,162168,64,320,97.5632,289.4503 M,0,162168,162225,97.5632,289.4503,142.7596,292.0145 M,0,162225,162282,142.7596,292.0145,171.7213,326.8003 M,0,162282,162339,171.7213,326.8003,166.8224,371.6861 M,1,162339,162453,166.8224,371.6861,219,429 M,1,162453,162566,219,429,278,367 M,0,162566,162622,278,367,324.0444,375.5912 M,0,162622,162679,324.0444,375.5912,368.6996,389.7236 M,1,162679,162793,368.6996,389.7236,343,297 M,1,162793,162907,343,297,358,395 M,0,162907,162963,358,395,320.7627,383.2677 M,0,162963,163020,320.7627,383.2677,282.5518,375.2537 M,0,163020,163077,282.5518,375.2537,320.7627,383.2677 M,0,163077,163134,320.7627,383.2677,358,395 M,1,163134,163248,358,395,432,338 M,1,163248,163362,432,338 M,0,163362,163418,432,338,437.0119,376.6174 M,0,163418,163475,437.0119,376.6174,450.9976,412.9359 M,1,163475,163589,450.9976,412.9359,522,316 M,0,163589,163645,522,316,535.8848,352.3542 M,0,163645,163702,535.8848,352.3542,540,391 M,1,163702,163816,540,391,343,297 M,0,163816,163872,343,297,356.6863,260.5557 M,0,163872,163929,356.6863,260.5557,360.9984,221.861 M,1,163929,164043,360.9984,221.861,361,211 M,1,164043,164157,361,211,260,262 M,1,164157,164271,260,262 M,1,164271,164384,260,262 M,0,164384,164440,260,262,253.2723,224.7419 M,0,164440,164497,253.2723,224.7419,273.5286,192.796 M,1,164497,164612,273.5286,192.796,434,166 M,0,164612,164668,434,166,469.0941,181.0005 M,0,164668,164725,469.0941,181.0005,488.2493,213.9826 M,1,164725,164839,488.2493,213.9826,526,420 M,0,164839,164895,526,420,487.3954,414.0367 M,0,164895,164952,487.3954,414.0367,448.7907,408.0734 M,0,164952,165009,448.7907,408.0734,410.1861,402.11 M,1,165009,165066,410.1861,402.11,287,371 M,0,165066,165122,287,371,321.1891,389.894 M,1,165122,165180,321.1891,389.894,329,396 M,0,165180,165236,329,396,291.1545,405.2282 M,0,165236,165293,291.1545,405.2282,256.3316,422.6443 M,1,165293,165407,256.3316,422.6443,138,253 M,1,165407,165521,138,253,217,281 M,0,165521,165577,217,281,254.8455,271.7718 M,0,165577,165634,254.8455,271.7718,289.6684,254.3557 M,1,165634,165748,289.6684,254.3557,576,139 M,0,165748,165804,576,139,529.6083,139.1339 M,0,165804,165861,529.6083,139.1339,489.3124,162.1775 M,0,165861,165918,489.3124,162.1775,469.7093,157.6354 M,0,165918,165975,469.7093,157.6354,445.2691,118.1632 M,1,165975,166089,445.2691,118.1632,435,109 M,1,166089,166203,435,109,295,78 M,0,166203,166259,295,78,249.8307,87.02126 M,0,166259,166316,249.8307,87.02126,217.1208,119.4572 M,1,166316,166430,217.1208,119.4572,291,167 M,1,166430,166543,291,167,217,109 M,0,166543,166599,217,109,243.34,81.03154 M,0,166599,166656,243.34,81.03154,280.3322,70.65738 M,1,166656,166771,280.3322,70.65738,356,124 M,1,166771,166884,356,124,359,131 M,1,166884,166998,359,131,291,167 M,0,166998,167054,291,167,296.8663,205.6195 M,0,167054,167111,296.8663,205.6195,302.7325,244.239 M,1,167111,167225,302.7325,244.239,317,319 M,1,167225,167339,317,319,103,360 M,0,167339,167395,103,360,96.73453,321.4432 M,0,167395,167452,96.73453,321.4432,90.46906,282.8865 M,1,167452,167566,90.46906,282.8865,91,210 M,1,167566,167680,91,210,95,203 M,1,167680,167793,95,203,123,134 M,1,167793,167907,123,134,199,115 M,1,167907,168021,199,115,275,97 M,1,168021,168134,275,97,338,141 M,1,168134,168248,338,141,344,147 M,0,168248,168304,344,147,307.4324,136.4411 M,0,168304,168361,307.4324,136.4411,272.481,151.2491 M,0,168361,168418,272.481,151.2491,255.7762,185.3327 M,0,168418,168475,255.7762,185.3327,264.3127,222.3676 M,1,168475,168703,264.3127,222.3676,317,319 M,0,168703,168759,317,319,352.308,304.4619 M,1,168759,168816,352.308,304.4619,357,299 M,0,168816,168872,357,299,359.6564,337.4899 M,0,168872,168929,359.6564,337.4899,379.3892,370.6404 M,1,168929,169043,379.3892,370.6404,532,384 M,1,169043,169157,532,384,567,316 M,0,169157,169213,567,316,564.3436,277.5101 M,0,169213,169270,564.3436,277.5101,544.6108,244.3597 M,1,169270,169384,544.6108,244.3597,231,194 M,0,169384,169440,231,194,264.9322,211.8383 M,0,169440,169497,264.9322,211.8383,303.0037,208.1454 M,0,169497,169554,303.0037,208.1454,332.595,183.6772 M,0,169554,169611,332.595,183.6772,342.6297,146.6894 M,1,169611,169725,342.6297,146.6894,390,86 M,1,169725,169839,390,86,400,81 M,0,169839,169895,400,81,444.8438,88.11486 M,0,169895,169952,444.8438,88.11486,471.2715,124.8699 M,1,169952,170066,471.2715,124.8699,538,174 M,1,170066,170180,538,174,523,250 M,1,170180,170293,523,250,508,326 M,1,170293,170407,508,326,494,403 F,0,170521,,0.25,0
Sprite,Foreground,Centre,"sb\sbar.png",0,0 F,2,88503,88903,0,0.25 C,0,88703,,136,207,239 V,0,88703,,1,10 M,0,88703,88759,320,240,365.2392,202.69 P,0,88703,103448,A M,0,88759,88816,365.2392,202.69,361.6867,249.2993 M,1,88816,88930,361.6867,249.2993,116,422 M,1,88930,89043,116,422 M,1,89043,89157,116,422 M,0,89157,89213,116,422,111.9572,375.4047 M,0,89213,89270,111.9572,375.4047,98.2785,330.6771 M,1,89270,89384,98.2785,330.6771,379,158 M,1,89384,89497,379,158 M,1,89497,89612,379,158 M,0,89612,89668,379,158,365.2392,202.69 M,0,89668,89725,365.2392,202.69,361.6867,249.2993 M,1,89725,89839,361.6867,249.2993,118,253 M,0,89839,89895,118,253,171.5286,226.6785 M,0,89895,89952,171.5286,226.6785,222.6339,257.4329 M,0,89952,90009,222.6339,257.4329,223.0681,317.0413 M,1,90009,90066,223.0681,317.0413,221,400 M,0,90066,90122,221,400,272.5523,421.1251 M,0,90122,90179,272.5523,421.1251,293.5624,369.5562 M,1,90179,90293,293.5624,369.5562,379,158 M,0,90293,90349,379,158,422.8061,155.8203 M,0,90349,90406,422.8061,155.8203,443.3141,194.5091 M,1,90406,90521,443.3141,194.5091,533,257 M,0,90521,90577,533,257,545.3033,254.7917 M,0,90577,90634,545.3033,254.7917,557.6068,252.5834 M,0,90634,90691,557.6068,252.5834,569.9102,250.3751 M,1,90691,90748,569.9102,250.3751,517,383 M,0,90748,90804,517,383,540.4719,324.1435 M,0,90804,90861,540.4719,324.1435,488.761,287.4737 M,0,90861,90918,488.761,287.4737,441.6461,330.1592 M,1,90918,90975,441.6461,330.1592,444,337 M,1,90975,91089,444,337,381,378 M,0,91089,91145,381,378,383.7857,399.3568 M,0,91145,91202,383.7857,399.3568,394.696,417.9382 M,0,91202,91259,394.696,417.9382,383.7857,399.3568 M,0,91259,91316,383.7857,399.3568,381,378 M,1,91316,91430,381,378,118,253 M,0,91430,91486,118,253,92.98786,198.9502 M,0,91486,91543,92.98786,198.9502,125.5688,149.3302 M,0,91543,91600,125.5688,149.3302,185.0279,151.2642 M,0,91600,91657,185.0279,151.2642,214.4811,203.1863 M,1,91657,91771,214.4811,203.1863,298,320 M,0,91771,91827,298,320,248.9385,283.9633 M,0,91827,91884,248.9385,283.9633,188.4766,291.0849 M,1,91884,91998,188.4766,291.0849,227,71 M,0,91998,92054,227,71,276.0425,106.9224 M,0,92054,92111,276.0425,106.9224,336.2593,98.63147 M,1,92111,92225,336.2593,98.63147,402,139 M,1,92225,92339,402,139,468,100 M,0,92339,92395,468,100,506.2617,119.6618 M,0,92395,92452,506.2617,119.6618,527.1677,157.1364 M,0,92452,92509,527.1677,157.1364,524.0814,199.9917 M,1,92509,92566,524.0814,199.9917,534,225 M,0,92566,92622,534,225,503.1674,266.7213 M,0,92622,92679,503.1674,266.7213,452.6397,277.8633 M,1,92679,92793,452.6397,277.8633,399,215 M,1,92793,92907,399,215,334,395 M,0,92907,92963,334,395,375.5912,350.843 M,0,92963,93020,375.5912,350.843,373.0997,290.2607 M,1,93020,93134,373.0997,290.2607,148,347 M,1,93134,93248,148,347 M,0,93248,93304,148,347,139.3842,304.7005 M,0,93304,93361,139.3842,304.7005,153.633,264.0298 M,0,93361,93418,153.633,264.0298,186.5565,236.1693 M,1,93418,93475,186.5565,236.1693,203,218 M,0,93475,93531,203,218,254.6395,214.9138 M,0,93531,93588,254.6395,214.9138,294.7551,247.6052 M,1,93588,93703,294.7551,247.6052,298,320 M,1,93703,93816,298,320,476,253 M,0,93816,93872,476,253,415.8614,246.9334 M,0,93872,93929,415.8614,246.9334,371.7666,288.2633 M,1,93929,94043,371.7666,288.2633,410,360 M,1,94043,94157,410,360,334,395 M,1,94157,94384,334,395,435,149 M,0,94384,94440,435,149,415.9571,98.65144 M,0,94440,94497,415.9571,98.65144,372.4347,67.13741 M,1,94497,94612,372.4347,67.13741,203,218 M,0,94612,94668,203,218,249.1087,245.2363 M,0,94668,94725,249.1087,245.2363,302.1362,238.5384 M,0,94725,94782,302.1362,238.5384,339.7236,200.4605 M,0,94782,94839,339.7236,200.4605,346,148 M,1,94839,94953,346,148,284,92 M,1,94953,95066,284,92,133,179 M,0,95066,95122,133,179,171.1832,141.9079 M,0,95122,95179,171.1832,141.9079,224.2518,141.2001 M,1,95179,95293,224.2518,141.2001,272,254 M,0,95293,95349,272,254,233.8168,291.0921 M,0,95349,95406,233.8168,291.0921,180.7482,291.7999 M,1,95406,95521,180.7482,291.7999,68,130 M,1,95521,95748,68,130,513,189 M,1,95748,95975,513,189,104,330 M,0,95975,96031,104,330,80.78736,370.4211 M,0,96031,96088,80.78736,370.4211,72,416 M,1,96088,96203,72,416,425,202 M,1,96203,96316,425,202 M,1,96316,96430,425,202 M,0,96430,96486,425,202,415.9088,156.2692 M,0,96486,96543,415.9088,156.2692,392.667,115.8448 M,1,96543,96657,392.667,115.8448,104,330 M,1,96657,96770,104,330 M,1,96770,96884,104,330 M,0,96884,96940,104,330,80.78736,370.4211 M,0,96940,96997,80.78736,370.4211,72,416 M,1,96997,97112,72,416,316,395 M,0,97112,97168,316,395,259.8515,417.981 M,0,97168,97225,259.8515,417.981,204.2548,393.907 M,0,97225,97282,204.2548,393.907,183.3903,337.0365 M,1,97282,97339,183.3903,337.0365,102,242 M,0,97339,97395,102,242,160.6277,251.4193 M,0,97395,97452,160.6277,251.4193,198.3254,205.6015 M,1,97452,97566,198.3254,205.6015,334,148 M,0,97566,97622,334,148,378.3157,150.9689 M,0,97622,97679,378.3157,150.9689,399,189 M,1,97679,97793,399,189,425,338 M,0,97793,97849,425,338,412.5563,339.1851 M,0,97849,97906,412.5563,339.1851,400.1126,340.3702 M,0,97906,97963,400.1126,340.3702,387.6689,341.5553 M,1,97963,98021,387.6689,341.5553,386,349 M,0,98021,98077,386,349,402.9176,291.118 M,0,98077,98134,402.9176,291.118,456.9752,317.7934 M,0,98134,98191,456.9752,317.7934,496.2424,322.3297 M,1,98191,98248,496.2424,322.3297,502,314 M,1,98248,98362,502,314,531,247 M,0,98362,98418,531,247,548.5662,234.4392 M,0,98418,98475,548.5662,234.4392,569.48,229.0724 M,0,98475,98532,569.48,229.0724,548.5662,234.4392 M,0,98532,98589,548.5662,234.4392,531,247 M,1,98589,98703,531,247,316,395 M,0,98703,98759,316,395,258.4807,409.6193 M,0,98759,98816,258.4807,409.6193,218.3253,365.4503 M,0,98816,98873,218.3253,365.4503,238.8637,310.9805 M,0,98873,98930,238.8637,310.9805,263.52,338.4102 M,1,98930,99043,263.52,338.4102,193,241 M,0,99043,99099,193,241,148.4375,283.6989 M,0,99099,99156,148.4375,283.6989,131.0047,342.9124 M,1,99156,99271,131.0047,342.9124,391,414 M,0,99271,99327,391,414,407.7888,354.5676 M,0,99327,99384,407.7888,354.5676,394,295 M,1,99384,99498,394,295,327,258 M,1,99498,99612,327,258,383,198 M,0,99612,99668,383,198,423.1573,192.0722 M,0,99668,99725,423.1573,192.0722,441.6877,227.6759 M,1,99725,99839,441.6877,227.6759,193,241 M,0,99839,99895,193,241,155.351,256.1108 M,0,99895,99952,155.351,256.1108,157.3258,296.175 M,1,99952,100066,157.3258,296.175,501,285 M,1,100066,100180,501,285,432,327 M,0,100180,100236,432,327,392.9065,344.4447 M,0,100236,100293,392.9065,344.4447,351.5789,333.819 M,0,100293,100350,351.5789,333.819,325.4962,299.9651 M,0,100350,100407,325.4962,299.9651,326.8665,257.2274 M,1,100407,100521,326.8665,257.2274,566,108 M,0,100521,100577,566,108,566.7681,151.1816 M,0,100577,100634,566.7681,151.1816,545.9163,188.9915 M,1,100634,100748,545.9163,188.9915,458,83 M,0,100748,100804,458,83,437.046,120.8255 M,0,100804,100861,437.046,120.8255,438,164 M,1,100861,100975,438,164,128,191 M,1,100975,101089,128,191,193,241 M,0,101089,101145,193,241,232.0935,258.4447 M,0,101145,101202,232.0935,258.4447,273.4211,247.819 M,0,101202,101259,273.4211,247.819,299.5038,213.9651 M,0,101259,101316,299.5038,213.9651,298.1335,171.2274 M,1,101316,101430,298.1335,171.2274,256,62 M,0,101430,101486,256,62,280.7219,62.83738 M,0,101486,101543,280.7219,62.83738,303.4968,72.21899 M,0,101543,101600,303.4968,72.21899,321.4277,89.26254 M,1,101600,101657,321.4277,89.26254,327,97 M,0,101657,101713,327,97,274.7933,98.37867 M,0,101713,101770,274.7933,98.37867,232.2999,128.7536 M,1,101770,101884,232.2999,128.7536,294,331 M,0,101884,101940,294,331,346.2067,329.6213 M,0,101940,101997,346.2067,329.6213,388.7001,299.2464 M,1,101997,102112,388.7001,299.2464,394,293 M,1,102112,102225,394,293,550,326 M,1,102225,102339,550,326,502,433 M,0,102339,102395,502,433,481.5598,384.0789 M,0,102395,102452,481.5598,384.0789,471.395,332.0438 M,0,102452,102509,471.395,332.0438,472.2677,279.0342 M,0,102509,102566,472.2677,279.0342,483.8252,227.2942 M,1,102566,102793,483.8252,227.2942,548,167 M,1,102793,102907,548,167,311,204 M,0,102907,102963,311,204,351.1478,197.7916 M,0,102963,103020,351.1478,197.7916,391.2956,191.5832 M,0,103020,103077,391.2956,191.5832,351.1478,197.7916 M,0,103077,103134,351.1478,197.7916,311,204 F,0,103248,,0.25,0
Sprite,Foreground,Centre,"sb\sbar.png",0,0 F,2,43958,44358,0,0.25 C,0,44158,,136,207,239 V,0,44158,,1,10 M,0,44158,44214,320,240,364.776,74.7851 P,0,44158,73449,A M,0,44214,44271,364.776,74.7851,318.552,82.57019 M,1,44271,44385,318.552,82.57019,533,352 M,1,44385,44499,533,352 M,1,44499,44612,533,352 M,0,44612,44668,533,352,486.776,359.7851 M,0,44668,44725,486.776,359.7851,440.552,367.5702 M,1,44725,44840,440.552,367.5702,411,67 M,1,44840,44953,411,67 M,1,44953,45067,411,67 M,0,45067,45123,411,67,364.776,74.7851 M,0,45123,45180,364.776,74.7851,318.552,82.57019 M,1,45180,45294,318.552,82.57019,175,184 M,0,45294,45350,175,184,234.3485,169.6645 M,0,45350,45407,234.3485,169.6645,293.4831,167.8919 M,0,45407,45464,293.4831,167.8919,355.343,158.9698 M,1,45464,45522,355.343,158.9698,488,123 M,0,45522,45578,488,123,482.934,85.23691 M,0,45578,45635,482.934,85.23691,472.5293,146.8648 M,1,45635,45749,472.5293,146.8648,458,314 M,0,45749,45805,458,314,460.7865,359.2526 M,0,45805,45862,460.7865,359.2526,447.9089,314.1812 M,1,45862,45976,447.9089,314.1812,422,230 M,0,45976,46032,422,230,434.2573,232.4514 M,0,46032,46089,434.2573,232.4514,446.5145,234.9029 M,1,46089,46203,446.5145,234.9029,458,314 M,0,46203,46259,458,314,469.0462,286.0158 M,0,46259,46316,469.0462,286.0158,401.1561,275.1762 M,0,46316,46373,401.1561,275.1762,338.1451,290.5821 M,1,46373,46431,338.1451,290.5821,328,293 M,1,46431,46544,328,293,252,318 M,0,46544,46600,252,318,255.5248,339.5892 M,0,46600,46657,255.5248,339.5892,259.0495,361.1783 M,0,46657,46714,259.0495,361.1783,255.5248,339.5891 M,0,46714,46771,255.5248,339.5891,252,318 M,1,46771,46885,252,318,153,163 M,0,46885,46941,153,163,212.2927,143.2358 M,0,46941,46998,212.2927,143.2358,222.0606,178.8364 M,0,46998,47055,222.0606,178.8364,209.0007,239.9567 M,0,47055,47112,209.0007,239.9567,178.2858,292.3022 M,1,47112,47226,178.2858,292.3022,179,376 M,0,47226,47282,179,376,186.9764,405.7997 M,0,47282,47339,186.9764,405.7997,183.3251,374.7638 M,1,47339,47453,183.3251,374.7638,310,211 M,0,47453,47509,310,211,317.9764,181.2003 M,0,47509,47566,317.9764,181.2003,314.3251,212.2362 M,1,47566,47681,314.3251,212.2362,328,293 M,1,47681,47794,328,293,252,318 M,0,47794,47850,252,318,294.4692,312.3629 M,0,47850,47907,294.4692,312.3629,331.403,333.8087 M,0,47907,47964,331.403,333.8087,347.8939,373.291 M,1,47964,48022,347.8939,373.291,398,430 M,0,48022,48078,398,430,425.3094,386.2773 M,0,48078,48135,425.3094,386.2773,469.9622,369.2992 M,0,48135,48192,469.9622,369.2992,522,359 M,1,48192,48249,522,359,534,364 M,1,48249,48362,534,364,466,243 M,0,48362,48418,466,243,511.4481,258.4086 M,0,48418,48475,511.4481,258.4086,450.0078,269.869 M,0,48475,48532,450.0078,269.869,388.5676,281.3294 M,0,48532,48589,388.5676,281.3294,327.1273,292.7897 M,1,48589,48703,327.1273,292.7897,469,162 M,0,48703,48759,469,162,511.8625,170.7673 M,0,48759,48816,511.8625,170.7673,479.8337,144.2827 M,1,48816,48931,479.8337,144.2827,303,77 M,0,48931,48987,303,77,250.9441,66.39601 M,0,48987,49044,250.9441,66.39601,289.023,97.83649 M,1,49044,49158,289.023,97.83649,540,89 M,1,49158,49272,540,89,464,63 M,0,49272,49328,464,63,402.2053,72.36284 M,0,49328,49385,402.2053,72.36284,385.672,116.4427 M,0,49385,49442,385.672,116.4427,360.0607,170.8407 M,0,49442,49499,360.0607,170.8407,300.2138,185.4698 M,1,49499,49612,300.2138,185.4698,213,167 M,1,49612,49840,213,167,548,429 M,0,49840,49896,548,429,557.3702,375.1212 M,0,49896,49953,557.3702,375.1212,566.7405,321.2425 M,1,49953,50067,566.7405,321.2425,124,310 M,0,50067,50123,124,310,133.3702,256.1212 M,0,50123,50180,133.3702,256.1212,142.7404,202.2425 M,1,50180,50408,142.7404,202.2425,142,202 M,1,50408,50522,142,202,213,167 M,1,50522,50635,213,167,223,169 M,1,50635,50749,223,169,233,171 M,1,50749,50862,233,171,243,173 M,1,50862,50976,243,173,254,176 M,0,50976,51032,254,176,247.4201,145.4506 M,0,51032,51089,247.4201,145.4506,240.8402,114.9011 M,1,51089,51203,240.8402,114.9011,317,100 M,0,51203,51259,317,100,323.5135,130.5636 M,0,51259,51316,323.5135,130.5636,330,161 M,1,51316,51431,330,161,382,377 M,0,51431,51487,382,377,427.1442,388.1144 M,0,51487,51544,427.1442,388.1144,464.1204,416.207 M,1,51544,51658,464.1204,416.207,142,202 M,1,51658,51772,142,202 M,1,51772,51885,142,202 M,0,51885,51941,142,202,178.6539,173.4374 M,0,51941,51998,178.6539,173.4374,223.7088,162.0197 M,1,51998,52112,223.7088,162.0197,382,377 M,1,52112,52226,382,377 M,1,52226,52339,382,377 M,0,52339,52395,382,377,427.2457,387.3998 M,0,52395,52452,427.2457,387.3998,463.9108,415.8985 M,1,52452,52567,463.9108,415.8985,445,271 M,0,52567,52623,445,271,430.9681,236.7704 M,0,52623,52680,430.9681,236.7704,371.2088,247.7818 M,0,52680,52737,371.2088,247.7818,337.8044,299.0237 M,1,52737,52794,337.8044,299.0237,245,410 M,0,52794,52850,245,410,293.6989,373.4729 M,0,52850,52907,293.6989,373.4729,317.9508,427.9567 M,1,52907,53022,317.9508,427.9567,535,335 M,0,53022,53078,535,335,544.7261,318.5597 M,0,53078,53135,544.7261,318.5597,500.074,332.8236 M,1,53135,53249,500.074,332.8236,382,377 M,0,53249,53305,382,377,385.2208,364.9221 M,0,53305,53362,385.2208,364.9221,388.4416,352.8441 M,1,53362,53476,388.4416,352.8441,254,176 M,0,53476,53532,254,176,187.5574,158.338 M,0,53532,53589,187.5574,158.338,190.2059,208.643 M,0,53589,53646,190.2059,208.643,208.9554,274.7869 M,1,53646,53703,208.9554,274.7869,214,284 M,1,53703,53817,214,284,165,347 M,0,53817,53873,165,347,143.5043,342.9442 M,0,53873,53930,143.5043,342.9442,122.0086,338.8884 M,0,53930,53987,122.0086,338.8884,143.5043,342.9442 M,0,53987,54044,143.5043,342.9442,165,347 M,1,54044,54158,165,347,188,422 M,0,54158,54214,188,422,236.7932,386.4648 M,0,54214,54271,236.7932,386.4648,296.9424,393.8237 M,0,54271,54328,296.9424,393.8237,353.6834,408.1345 M,0,54328,54385,353.6834,408.1345,415.3714,418.1767 M,1,54385,54499,415.3714,418.1767,490,372 M,1,54499,54612,490,372,419,429 M,0,54612,54668,419,429,415.3294,407.4352 M,0,54668,54725,415.3294,407.4352,411.6588,385.8703 M,0,54725,54782,411.6588,385.8703,407.9882,364.3055 M,0,54782,54839,407.9882,364.3055,404.3176,342.7407 M,1,54839,55067,404.3176,342.7407,404,342 M,1,55067,55181,404,342,467,286 M,1,55181,55294,467,286,424,214 M,0,55294,55350,424,214,380.9414,213.6279 M,0,55350,55407,380.9414,213.6279,344.6925,236.8477 M,1,55407,55522,344.6925,236.8477,266,212 M,1,55522,55635,266,212,226,393 M,0,55635,55691,226,393,189.289,415.394 M,0,55691,55748,189.289,415.394,146.2911,415.0753 M,1,55748,55862,146.2911,415.0753,86,361 M,1,55862,55976,86,361,288,331 M,0,55976,56032,288,331,331.058,338.7505 M,0,56032,56089,331.058,338.7505,374.116,346.5009 M,1,56089,56203,374.116,346.5009,418,133 M,0,56203,56259,418,133,374.9716,125.0867 M,0,56259,56316,374.9716,125.0867,331.9432,117.1735 M,1,56316,56431,331.9432,117.1735,270,62 M,1,56431,56544,270,62,476,253 M,0,56544,56600,476,253,484.0626,209.9993 M,0,56600,56657,484.0626,209.9993,496.3014,169.9706 M,0,56657,56714,496.3014,169.9706,505.8602,127.9522 M,0,56714,56771,505.8602,127.9522,514.0884,84.98288 M,1,56771,56885,514.0884,84.98288,514,84 M,1,56885,57112,514,84,102,197 M,1,57112,57340,102,197,520,311 M,0,57340,57396,520,311,551.1635,306.0084 M,0,57396,57453,551.1635,306.0084,498.9136,296.4057 M,0,57453,57510,498.9136,296.4057,446.6636,286.803 M,0,57510,57567,446.6636,286.803,394.4137,277.2004 M,1,57567,57681,394.4137,277.2004,561,229 M,1,57681,57794,561,229,338,429 M,0,57794,57850,338,429,331.3684,376.3098 M,0,57850,57907,331.3684,376.3098,320.086,324.4183 M,1,57907,58022,320.086,324.4183,543,124 M,0,58022,58078,543,124,549.6316,176.6902 M,0,58078,58135,549.6316,176.6902,560.914,228.5817 M,1,58135,58249,560.914,228.5817,526,317 M,1,58249,58362,526,317,474,262 M,1,58362,58476,474,262 M,0,58476,58532,474,262,434.1988,270.1332 M,0,58532,58589,434.1988,270.1332,394.2141,277.309 M,1,58589,58703,394.2141,277.309,108,323 M,1,58703,72567,108,323,201,235 M,0,72567,72623,201,235,179.5744,239.4112 M,0,72623,72680,179.5744,239.4112,158.1488,243.8223 M,0,72680,72737,158.1488,243.8223,136.7231,248.2335 M,1,72737,72794,136.7231,248.2335,129,259 M,1,72794,72908,129,259,212,243 M,1,72908,73022,212,243,184,316 M,0,73022,73078,184,316,188.2091,337.4662 M,0,73078,73135,188.2091,337.4662,192.4181,358.9325 F,0,73249,,0.25,0
//Storyboard Layer 4 (Overlay)
//Storyboard Sound Samples

[TimingPoints]
522,454.545454545455,4,2,1,40,1,0
7794,-100,4,2,1,50,0,0
14612,-133.333333333333,4,2,1,50,0,0
15067,-80,4,2,1,65,0,0
15124,-80,4,2,1,5,0,0
15181,-80,4,2,1,65,0,0
15749,-66.6666666666667,4,2,1,65,0,0
16203,-66.6666666666667,4,2,1,65,0,0
16544,-80,4,2,1,65,0,0
16999,-80,4,2,1,65,0,0
19385,-66.6666666666667,4,2,1,65,0,0
19840,-66.6666666666667,4,2,1,65,0,0
20181,-80,4,2,1,65,0,0
20522,-80,4,2,1,65,0,0
22340,-80,4,2,1,65,0,0
22397,-80,4,2,1,5,0,0
22453,-80,4,2,1,65,0,0
23022,-66.6666666666667,4,2,1,65,0,0
23476,-66.6666666666667,4,2,1,65,0,0
23817,-80,4,2,1,65,0,0
24272,-80,4,2,1,65,0,0
27112,-66.6666666666667,4,2,1,65,0,0
27453,-80,4,2,1,65,0,0
27794,-80,4,2,1,65,0,0
29385,-133.333333333333,4,2,1,65,0,0
29556,-133.333333333333,4,2,1,5,0,0
29612,-80,4,2,1,60,0,0
36431,-111.111111111111,4,2,1,60,0,0
36885,-80,4,2,1,60,0,0
43931,-200,4,2,1,60,0,0
44101,-200,4,2,1,5,0,0
44158,-66.6666666666667,4,2,1,70,0,1
45294,-50,4,2,1,70,0,1
45465,-50,4,2,1,5,0,1
45522,-50,4,2,1,70,0,1
45749,-66.6666666666667,4,2,1,70,0,1
45976,-250,4,2,1,70,0,1
46203,-45.4545454545455,4,2,1,70,0,1
46374,-45.4545454545455,4,2,1,5,0,1
46431,-142.857142857143,4,2,1,70,0,1
46885,-50,4,2,1,70,0,1
47226,-100,4,2,1,70,0,1
47794,-71.4285714285714,4,2,1,70,0,1
47965,-71.4285714285714,4,2,1,5,0,1
48022,-58.8235294117647,4,2,1,70,0,1
48192,-58.8235294117647,4,2,1,5,0,1
48249,-50,4,2,1,70,0,1
48703,-71.4285714285714,4,2,1,70,0,1
48931,-58.8235294117647,4,2,1,70,0,1
49272,-50,4,2,1,70,0,1
49840,-57.1428571428571,4,2,1,70,0,1
50976,-100,4,2,1,70,0,1
51431,-66.6666666666667,4,2,1,70,0,1
52567,-50,4,2,1,70,0,1
52737,-50,4,2,1,5,0,1
52794,-50,4,2,1,70,0,1
53022,-66.6666666666667,4,2,1,70,0,1
53249,-250,4,2,1,70,0,1
53476,-45.4545454545455,4,2,1,70,0,1
53647,-45.4545454545455,4,2,1,5,0,1
53704,-142.857142857143,4,2,1,70,0,1
54158,-50,4,2,1,70,0,1
54612,-142.857142857143,4,2,1,70,0,1
55067,-71.4285714285714,4,2,1,70,0,1
56885,-125,4,2,1,70,0,1
57112,-58.8235294117647,4,2,1,70,0,1
58249,-76.9230769230769,4,2,1,70,0,1
58703,-76.9230769230769,4,2,1,65,0,0
72567,-142.857142857143,4,2,1,65,0,0
72737,-142.857142857143,4,2,1,5,0,0
72794,-142.857142857143,4,2,1,65,0,0
73248,-80,4,2,1,60,0,0
75294,-57.1428571428571,4,2,1,60,0,0
75635,-80,4,2,1,60,0,0
77056,-80,4,2,1,5,0,0
77112,-80,4,2,1,60,0,0
79612,-100,4,2,1,60,0,0
80294,-200,4,2,1,60,0,0
80465,-200,4,2,1,5,0,0
80522,-66.6666666666667,4,2,1,60,0,0
81431,-66.6666666666667,4,2,1,60,0,0
82794,-80,4,2,1,60,0,0
83249,-100,4,2,1,60,0,0
85465,-100,4,2,1,5,0,0
85522,-100,4,2,1,60,0,0
86431,-142.857142857143,4,2,1,50,0,0
87340,-666.666666666667,4,2,1,50,0,0
88476,-200,4,2,1,50,0,0
88647,-200,4,2,1,5,0,0
88703,454.545454545455,4,2,1,70,1,1
88703,-66.6666666666667,4,2,1,70,0,1
89839,-50,4,2,1,70,0,1
90009,-50,4,2,1,5,0,1
90066,-50,4,2,1,70,0,1
90293,-66.6666666666667,4,2,1,70,0,1
90521,-250,4,2,1,70,0,1
90691,-250,4,2,1,5,0,1
90748,-45.4545454545455,4,2,1,70,0,1
90918,-45.4545454545455,4,2,1,5,0,1
90976,-142.857142857143,4,2,1,70,0,1
91430,-50,4,2,1,70,0,1
92339,-71.4285714285714,4,2,1,70,0,1
92509,-71.4285714285714,4,2,1,5,0,1
92566,-58.8235294117647,4,2,1,70,0,1
92793,-50,4,2,1,70,0,1
93248,-71.4285714285714,4,2,1,70,0,1
93418,-71.4285714285714,4,2,1,5,0,1
93475,-58.8235294117647,4,2,1,70,0,1
93816,-50,4,2,1,70,0,1
94384,-57.1428571428571,4,2,1,70,0,1
95521,-100,4,2,1,70,0,1
95975,-66.6666666666667,4,2,1,70,0,1
97112,-50,4,2,1,70,0,1
97282,-50,4,2,1,5,0,1
97339,-50,4,2,1,70,0,1
97566,-66.6666666666667,4,2,1,70,0,1
97793,-250,4,2,1,70,0,1
97964,-250,4,2,1,5,0,1
98021,-45.4545454545455,4,2,1,70,0,1
98191,-45.4545454545455,4,2,1,5,0,1
98248,-142.857142857143,4,2,1,70,0,1
98703,-50,4,2,1,70,0,1
99612,-71.4285714285714,4,2,1,70,0,1
101430,-125,4,2,1,70,0,1
101600,-125,4,2,1,5,0,1
101657,-58.8235294117647,4,2,1,70,0,1
102793,-76.9230769230769,4,2,1,70,0,1
103248,-1000,3,2,1,70,0,0
108703,-142.857142857143,3,2,1,35,0,0
113703,-66.6666666666667,3,2,1,50,0,0
114157,-64.5161290322581,4,2,1,50,0,0
127793,-142.857142857143,4,2,1,50,0,0
128703,-66.6666666666667,4,2,1,70,0,1
129839,-50,4,2,1,70,0,1
130009,-50,4,2,1,5,0,1
130066,-50,4,2,1,70,0,1
130293,-66.6666666666667,4,2,1,70,0,1
130521,-250,4,2,1,70,0,1
130691,-250,4,2,1,5,0,1
130748,-45.4545454545455,4,2,1,70,0,1
130918,-45.4545454545455,4,2,1,5,0,1
130976,-142.857142857143,4,2,1,70,0,1
131430,-50,4,2,1,70,0,1
132339,-71.4285714285714,4,2,1,70,0,1
132566,-58.8235294117647,4,2,1,70,0,1
132794,-50,4,2,1,70,0,1
133248,-71.4285714285714,4,2,1,70,0,1
133475,-58.8235294117647,4,2,1,70,0,1
133816,-50,4,2,1,70,0,1
134157,-142.857142857143,4,2,1,70,0,1
134328,-142.857142857143,4,2,1,5,0,1
134384,-57.1428571428571,4,2,1,70,0,1
135521,-100,4,2,1,70,0,1
135975,-66.6666666666667,4,2,1,70,0,1
137112,-50,4,2,1,70,0,1
137282,-50,4,2,1,5,0,1
137339,-50,4,2,1,70,0,1
137566,-66.6666666666667,4,2,1,70,0,1
137793,-250,4,2,1,70,0,1
137964,-250,4,2,1,5,0,1
138021,-45.4545454545455,4,2,1,70,0,1
138191,-45.4545454545455,4,2,1,5,0,1
138248,-142.857142857143,4,2,1,70,0,1
138703,-50,4,2,1,70,0,1
138930,-142.857142857143,4,2,1,70,0,1
139612,-71.4285714285714,4,2,1,70,0,1
141430,-125,4,2,1,70,0,1
141600,-125,4,2,1,5,0,1
141657,-58.8235294117647,4,2,1,70,0,1
142339,-500,4,2,1,70,0,0
142794,-76.9230769230769,4,2,1,70,0,0
143248,-66.6666666666667,4,2,1,70,0,1
144384,-50,4,2,1,70,0,1
144555,-50,4,2,1,5,0,1
144612,-50,4,2,1,70,0,1
144839,-66.6666666666667,4,2,1,70,0,1
145066,-250,4,2,1,70,0,1
145237,-250,4,2,1,5,0,1
145293,-45.4545454545455,4,2,1,70,0,1
145464,-45.4545454545455,4,2,1,5,0,1
145521,-142.857142857143,4,2,1,70,0,1
145975,-50,4,2,1,70,0,1
146884,-71.4285714285714,4,2,1,70,0,1
147112,-58.8235294117647,4,2,1,70,0,1
147339,-50,4,2,1,70,0,1
147793,-71.4285714285714,4,2,1,70,0,1
148021,-58.8235294117647,4,2,1,70,0,1
148362,-50,4,2,1,70,0,1
148703,-142.857142857143,4,2,1,70,0,1
148873,-142.857142857143,4,2,1,5,0,1
148930,-57.1428571428571,4,2,1,70,0,1
150066,-100,4,2,1,70,0,1
150521,-66.6666666666667,4,2,1,70,0,1
151657,-50,4,2,1,70,0,1
151828,-50,4,2,1,5,0,1
151884,-50,4,2,1,70,0,1
152112,-66.6666666666667,4,2,1,70,0,1
152339,-250,4,2,1,70,0,1
152509,-250,4,2,1,5,0,1
152566,-45.4545454545455,4,2,1,70,0,1
152737,-45.4545454545455,4,2,1,5,0,1
152794,-142.857142857143,4,2,1,70,0,1
153248,-50,4,2,1,70,0,1
154157,-71.4285714285714,4,2,1,70,0,1
155975,-125,4,2,1,70,0,1
156430,-58.8235294117647,4,2,1,70,0,1
157339,-76.9230769230769,4,2,1,70,0,1
157793,-80,4,2,1,65,0,0
157850,-80,4,2,1,5,0,0
157907,-80,4,2,1,65,0,0
158475,-66.6666666666667,4,2,1,65,0,0
158930,-66.6666666666667,4,2,1,65,0,0
159271,-80,4,2,1,65,0,0
159725,-80,4,2,1,65,0,0
162112,-66.6666666666667,4,2,1,65,0,0
162566,-66.6666666666667,4,2,1,65,0,0
162907,-80,4,2,1,65,0,0
163248,-80,4,2,1,65,0,0
165009,-80,4,2,1,5,0,0
165066,-80,4,2,1,65,0,0
165123,-80,4,2,1,5,0,0
165180,-80,4,2,1,65,0,0
165748,-66.6666666666667,4,2,1,65,0,0
166203,-66.6666666666667,4,2,1,65,0,0
166543,-80,4,2,1,65,0,0
166998,-80,4,2,1,65,0,0
168703,-80,4,2,1,65,0,0
168759,-80,4,2,1,5,0,0
168816,-80,4,2,1,65,0,0
169839,-66.6666666666667,4,2,1,65,0,0
170180,-80,4,2,1,65,0,0
170521,-133.333333333333,4,2,1,65,0,0

[Colours]
Combo1 : 164,170,200
Combo2 : 179,206,187
Combo3 : 196,197,165
Combo4 : 197,167,167

[HitObjects]
22,115,7794,5,4,3:2:0:0:
31,107,7908,2,0,P|64:111|93:135,1,62.5
141,187,8135,6,0,P|120:119|114:53,1,125,2|0,0:0|0:0,0:0:0:0:
338,28,8476,2,0,P|359:96|365:162,1,125,2|0,0:0|3:0,0:0:0:0:
406,217,8931,5,2,0:0:0:0:
418,214,9044,1,2,0:0:0:0:
321,239,9158,5,2,3:2:0:0:
333,236,9271,1,2,0:0:0:0:
28,295,9726,6,0,L|17:373,1,62.5,2|0,0:0|0:0,0:0:0:0:
19,356,10067,2,0,L|28:295,1,62.5,2|0,3:2|0:0,0:0:0:0:
89,245,10294,1,2,0:3:0:0:
86,232,10408,1,0,0:0:0:0:
27,176,10522,5,2,3:2:0:0:
43,166,10635,1,2,0:0:0:0:
59,156,10749,1,2,0:0:0:0:
148,180,10862,1,2,0:0:0:0:
148,180,10976,2,0,B|137:126|137:126|140:115|140:115|130:57,1,125,0|2,3:2|0:3,0:0:0:0:
497,115,11431,5,2,3:2:0:0:
490,113,11544,2,0,L|408:96,1,62.5
365,55,11772,6,0,P|348:103|343:179,1,125,2|0,0:0|0:0,0:0:0:0:
114,139,12112,2,0,P|131:91|136:15,1,125,2|0,0:0|3:2,0:0:0:0:
234,70,12567,5,2,0:0:0:0:
231,56,12680,1,2,0:0:0:0:
246,156,12794,5,2,3:2:0:0:
245,143,12907,1,2,0:0:0:0:
83,235,13249,5,2,3:2:0:0:
77,246,13362,2,0,L|140:235,1,62.5,2|0,0:0|0:0,0:0:0:0:
104,321,13590,5,2,0:0:0:0:
98,332,13703,2,0,L|161:321,1,62.5,0|0,3:2|0:0,0:0:0:0:
367,294,13931,6,0,L|362:256,3,31.25,2|0|2|0,0:0|0:0|0:0|0:0,0:0:0:0:
372,253,14158,5,2,0:3:0:0:
20,300,14385,2,0,B|-7:314|-7:314|25:314,1,62.5,0|0,3:0|0:0,0:0:0:0:
208,288,14612,5,8,0:0:0:0:
131,352,14726,2,0,L|118:259,1,93.7500035762788,0|0,3:0|0:0,0:0:0:0:
44,145,15067,6,0,L|3:169,1,39.0625,4|0,3:2|0:0,0:0:0:0:
2,171,15181,2,0,L|85:154,1,78.125
320,112,15408,5,2,0:0:0:0:
252,68,15522,2,0,B|214:80|214:80|201:115,1,78.125,8|0,3:2|0:0,0:0:0:0:
118,259,15749,6,0,B|184:269|184:269|200:314|200:314|284:324,1,187.500007152558,2|0,0:0|3:0,0:0:0:0:
326,264,16090,1,0,0:0:0:0:
482,288,16203,6,0,P|441:279|399:311,1,93.7500035762788,2|2,0:0|0:0,0:0:0:0:
459,364,16431,1,10,3:2:0:0:
402,294,16544,6,0,P|431:270|480:279,1,78.125,2|0,0:0|0:0,0:0:0:0:
344,361,16772,1,0,0:0:0:0:
340,367,16885,1,0,3:2:0:0:
272,322,16999,6,0,L|285:234,1,78.125,2|0,0:0|0:0,0:0:0:0:
247,173,17226,1,0,0:0:0:0:
108,83,17340,6,0,B|69:84|69:84|41:115,1,78.125,10|0,0:0|0:0,0:0:0:0:
8,185,17567,1,2,0:3:0:0:
14,194,17681,1,0,0:0:0:0:
10,271,17794,5,2,3:2:0:0:
85,251,17908,1,2,0:0:0:0:
159,230,18022,1,2,0:0:0:0:
140,307,18135,1,2,0:0:0:0:
135,315,18249,2,0,B|116:185|116:185|93:170,1,156.25,8|2,3:2|0:3,0:0:0:0:
409,195,18703,6,0,B|387:161|392:122|392:122|363:156|319:159,1,156.25,2|0,3:2|0:0,0:0:0:0:
131,101,19044,1,2,0:0:0:0:
197,67,19158,2,0,P|234:79|260:120,1,78.125,8|0,3:2|0:0,0:0:0:0:
363,303,19385,2,0,B|413:344|475:310|469:244|469:244|453:266,1,187.500007152558,2|0,0:0|3:2,0:0:0:0:
409,195,19726,1,0,0:0:0:0:
208,223,19840,6,0,L|301:239,1,93.7500035762788,2|2,0:0|0:0,0:0:0:0:
273,152,20067,1,10,3:2:0:0:
292,251,20181,6,0,L|199:235,2,78.125,2|0|0,0:0|0:0|0:0,0:0:0:0:
78,269,20522,5,2,3:2:0:0:
85,282,20635,2,0,L|70:196,1,78.125,2|0,0:0|0:0,0:0:0:0:
156,381,20862,2,0,L|169:304,1,78.125,2|8,0:0|3:2,0:0:0:0:
18,70,21090,2,0,L|4:146,1,78.125,0|2,0:0|0:0,0:0:0:0:
10,158,21317,1,2,0:0:0:0:
100,93,21431,5,2,3:2:0:0:
100,93,21544,1,2,0:0:0:0:
100,93,21658,2,0,P|129:61|161:49,1,78.125,2|2,0:3|0:0,0:0:0:0:
286,78,21885,6,0,P|316:107|329:138,1,78.125,8|0,3:2|0:0,0:0:0:0:
196,198,22112,2,0,P|173:161|169:127,1,78.125,4|0,0:0|0:0,0:0:0:0:
459,229,22340,6,0,L|492:249,1,39.0625,4|0,3:1|0:0,0:0:0:0:
501,255,22453,2,0,P|461:261|425:277,1,78.125
291,309,22681,5,2,0:0:0:0:
227,363,22794,2,0,P|187:356|151:340,1,78.125,8|0,3:2|0:0,0:0:0:0:
264,155,23022,2,0,B|303:111|303:111|258:236,1,187.500007152558,2|0,0:0|3:0,0:0:0:0:
181,224,23362,1,0,0:0:0:0:
291,309,23476,6,0,L|395:289,1,93.7500035762788,2|2,0:0|0:0,0:0:0:0:
352,377,23703,1,10,3:2:0:0:
372,283,23817,6,0,L|289:298,1,78.125,2|0,0:0|0:0,0:0:0:0:
220,361,24044,1,0,0:0:0:0:
227,363,24158,1,0,3:2:0:0:
144,373,24272,6,0,B|110:351|110:351|66:358,1,78.125,2|0,0:0|0:0,0:0:0:0:
10,310,24499,1,0,0:0:0:0:
109,207,24612,6,0,B|143:229|143:229|180:223,1,78.125,10|0,3:2|0:0,0:0:0:0:
241,165,24839,1,2,0:3:0:0:
247,160,24953,1,0,0:0:0:0:
355,41,25067,5,2,3:2:0:0:
343,118,25181,1,2,0:0:0:0:
332,194,25294,1,2,0:0:0:0:
405,217,25408,1,2,0:0:0:0:
408,208,25522,6,0,L|245:241,1,156.25,8|2,3:2|0:3,0:0:0:0:
66,348,25976,6,0,P|114:360|190:283,1,156.25,2|0,3:2|0:0,0:0:0:0:
151,141,26317,1,2,0:0:0:0:
79,170,26431,2,0,P|47:182|19:217,1,78.125,8|0,3:2|0:0,0:0:0:0:
184,212,26658,6,0,B|226:205|245:167|245:167|238:210|277:243,1,156.25,2|0,0:0|3:2,0:0:0:0:
338,177,26999,1,0,0:0:0:0:
332,307,27112,6,0,B|362:272|362:272|415:289,1,93.7500035762788,2|2,0:0|0:0,0:0:0:0:
391,371,27340,1,10,3:2:0:0:
404,297,27453,6,0,B|366:284|366:284|341:313,2,78.125,2|0|0,0:0|0:0|0:0,0:0:0:0:
484,340,27794,5,2,3:2:0:0:
480,347,27908,2,0,P|489:305|497:263,1,78.125,2|0,0:0|0:0,0:0:0:0:
270,236,28135,2,0,P|261:278|253:320,1,78.125,2|8,0:0|3:2,0:0:0:0:
199,363,28362,1,0,0:0:0:0:
128,321,28476,5,2,0:0:0:0:
123,314,28590,2,0,P|82:298|37:293,1,78.125,2|0,0:0|3:2,0:0:0:0:
66,193,28817,1,2,0:0:0:0:
71,200,28931,2,0,P|111:215|156:220,1,78.125,2|0,0:3|0:0,0:0:0:0:
407,49,29385,2,0,B|438:65|438:65|398:56,1,70.3125026822091,2|0,0:3|0:0,0:0:0:0:
322,42,29612,6,0,L|339:202,1,156.25,4|0,3:2|0:0,0:0:0:0:
270,236,29953,1,2,0:0:0:0:
419,192,30067,2,0,B|445:159|445:159|418:288,1,156.25,10|2,3:2|0:0,0:0:0:0:
450,342,30408,1,0,0:0:0:0:
443,348,30522,6,0,P|402:347|368:329,1,78.125,2|0,3:2|0:0,0:0:0:0:
293,342,30749,1,2,0:0:0:0:
270,236,30862,5,2,0:0:0:0:
261,228,30976,2,0,P|220:229|186:247,1,78.125,8|0,3:2|0:0,0:0:0:0:
61,298,31203,2,0,P|102:299|136:317,1,78.125,2|0,0:3|0:0,0:0:0:0:
188,373,31431,1,0,3:2:0:0:
106,212,31658,6,0,P|111:167|118:132,1,78.125,2|0,0:0|0:0,0:0:0:0:
32,8,31885,2,0,P|37:47|43:86,1,78.125,10|0,3:2|0:0,0:0:0:0:
305,161,32112,2,0,P|299:122|293:83,1,78.125,2|0,0:3|0:0,0:0:0:0:
194,246,32340,5,2,3:2:0:0:
270,259,32453,1,2,0:0:0:0:
347,272,32567,1,2,0:0:0:0:
298,333,32681,1,2,0:0:0:0:
304,338,32794,6,0,P|263:347|225:358,1,78.125,8|0,3:2|0:0,0:0:0:0:
173,112,33022,2,0,P|214:103|252:92,1,78.125,2|0,0:0|0:0,0:0:0:0:
312,49,33249,1,0,3:2:0:0:
312,49,33476,5,2,0:0:0:0:
382,13,33590,1,2,0:0:0:0:
436,66,33703,1,10,3:2:0:0:
440,71,33817,2,0,B|445:112|445:112|420:143,1,78.125,2|2,0:0|0:0,0:0:0:0:
357,181,34044,1,2,0:0:0:0:
410,239,34158,2,0,L|493:226,2,78.125,2|2|2,3:2|0:0|0:0,0:0:0:0:
28,294,34612,1,8,3:2:0:0:
28,294,34840,2,0,B|21:334|21:334|44:364,1,78.125,2|0,0:3|0:0,0:0:0:0:
120,370,35067,5,2,3:2:0:0:
160,188,35181,2,0,B|167:149|167:149|153:189,1,78.125,2|2,0:0|0:3,0:0:0:0:
98,259,35408,2,0,L|181:276,1,78.125,2|10,0:0|3:2,0:0:0:0:
259,308,35635,2,0,B|266:268|266:268|243:238,1,78.125,2|2,0:0|0:3,0:0:0:0:
248,155,35976,5,2,3:2:0:0:
248,155,36090,2,0,L|332:174,1,78.125,2|2,0:0|0:3,0:0:0:0:
243,238,36317,1,2,0:0:0:0:
120,370,36431,6,0,L|10:345,1,112.499996566773,8|2,3:2|0:0,0:0:0:0:
10,345,36885,6,0,P|61:366|116:288,1,156.25,0|2,3:2|0:3,0:0:0:0:
315,114,37340,2,0,B|354:111|354:111|382:140,1,78.125,10|0,3:2|0:0,0:0:0:0:
431,202,37567,1,2,0:0:0:0:
481,129,37681,2,0,L|456:300,1,156.25,2|0,0:0|0:0,0:0:0:0:
205,254,38022,2,0,L|227:99,1,156.25,2|8,0:0|3:2,0:0:0:0:
172,43,38362,2,0,P|127:47|100:73,2,78.125,2|2|2,0:0|0:0|0:0,0:0:0:0:
20,125,38703,6,0,B|114:136|40:209|148:225,1,156.25,0|0,3:2|0:0,0:0:0:0:
205,254,39044,1,2,0:0:0:0:
40,318,39158,2,0,B|18:284|18:284|25:243,1,78.125,10|0,3:2|0:0,0:0:0:0:
323,384,39385,6,0,B|333:351|333:351|331:346|331:346|341:310,1,78.125,2|0,0:0|0:0,0:0:0:0:
484,109,39612,2,0,B|450:118|450:118|447:122|447:122|411:132,1,78.125,2|2,3:2|0:0,0:0:0:0:
152,132,39840,1,2,0:0:0:0:
154,124,39953,1,2,0:0:0:0:
160,114,40067,2,0,B|185:139|185:139|190:140|190:140|217:167,1,78.125,8|0,3:2|0:0,0:0:0:0:
311,234,40294,1,2,0:3:0:0:
317,230,40408,1,0,0:0:0:0:
323,226,40522,6,0,L|307:147,2,78.125,2|2|2,3:2|0:0|0:0,0:0:0:0:
501,198,40862,1,2,0:0:0:0:
484,109,40976,2,0,L|456:271,1,156.25,10|2,3:2|0:0,0:0:0:0:
454,273,41317,1,2,0:0:0:0:
505,359,41431,5,2,3:2:0:0:
498,354,41544,1,2,0:0:0:0:
491,349,41658,2,0,P|451:356|419:379,1,78.125,2|2,0:0|0:0,0:0:0:0:
255,277,41885,2,0,P|287:298|325:305,1,78.125,8|2,3:2|0:0,0:0:0:0:
389,114,42112,2,0,B|381:71|381:71|401:35,1,78.125,2|0,0:3|0:0,0:0:0:0:
389,114,43476,5,2,0:0:0:0:
389,114,43703,1,2,0:0:0:0:
332,60,43931,2,0,L|339:12,1,46.875,2|0,0:0|0:0,0:0:0:0:
347,11,44158,6,0,L|252:27,1,93.7500035762788,4|0,3:2|0:0,0:0:0:0:
469,296,44385,1,0,0:0:0:0:
469,296,44499,1,2,0:3:0:0:
469,296,44612,2,0,L|374:312,1,93.7500035762788,10|0,0:0|0:0,0:0:0:0:
347,11,44840,1,2,0:0:0:0:
347,11,44953,1,2,0:0:0:0:
347,11,45067,2,0,L|252:27,1,93.7500035762788,2|0,3:2|0:0,0:0:0:0:
111,128,45294,6,0,B|119:121|119:121|196:110|196:110|201:116|201:116|305:101,1,187.5,2|0,0:0|0:0,0:0:0:0:
424,67,45522,2,0,B|421:17|421:17|408:94,1,125,10|0,0:0|0:0,0:0:0:0:
394,258,45749,2,0,B|397:304|397:304|377:234,1,93.7500035762788,2|0,0:0|0:0,0:0:0:0:
358,174,45976,6,0,L|388:180,1,25,0|0,3:0|0:0,0:0:0:0:
394,258,46203,2,0,B|404:247|430:234|430:234|311:215|311:215|296:232|250:240,1,206.250006294251,2|0,0:0|0:0,0:0:0:0:
264,237,46431,5,8,0:0:0:0:
188,262,46544,2,0,L|196:311,2,43.749998664856,2|2|0,0:3|0:3|0:0,0:0:0:0:
89,107,46885,6,0,B|167:81|167:81|142:198|142:198|120:213|112:244,1,250,2|0,3:2|0:0,0:0:0:0:
115,320,47226,2,0,B|123:350|123:350|119:316,1,62.5,2|8,0:0|0:0,0:0:0:0:
246,155,47453,2,0,B|254:125|254:125|250:159,1,62.5,2|2,0:0|0:3,0:0:0:0:
264,237,47681,1,2,0:3:0:0:
188,262,47794,6,0,P|241:259|284:324,1,131.249995994568,2|0,3:2|0:0,0:0:0:0:
334,374,48022,2,0,B|361:355|362:322|362:322|458:303,1,159.375003039837,2|0,0:0|0:0,0:0:0:0:
470,308,48249,5,8,0:0:0:0:
402,187,48362,2,0,B|455:201|455:201|262:237,1,250,0|2,0:0|0:0,0:0:0:0:
405,106,48703,6,0,B|449:115|449:115|413:86,1,87.499997329712,0|0,3:2|0:0,0:0:0:0:
239,21,48931,2,0,B|185:10|185:10|229:45,1,106.250002026558,2|0,0:0|0:0,0:0:0:0:
476,33,49158,5,8,0:0:0:0:
400,7,49272,2,0,B|334:17|334:17|314:63|314:63|323:60|323:60|295:117|295:117|229:131,1,250,0|2,0:0|0:0,0:0:0:0:
149,111,49612,1,0,3:2:0:0:
484,373,49840,6,0,L|504:258,1,109.375001043081,8|0,0:0|0:0,0:0:0:0:
60,254,50067,2,0,L|80:139,1,109.375001043081,8|0,0:0|0:0,0:0:0:0:
78,146,50408,1,8,0:3:0:0:
149,111,50522,5,4,0:3:0:0:
159,113,50635,1,8,0:3:0:0:
169,115,50749,1,4,0:3:0:0:
179,117,50862,1,0,3:0:0:0:
190,120,50976,6,0,L|176:55,1,62.5,8|0,3:2|0:0,0:0:0:0:
253,44,51203,2,0,L|266:105,1,62.5,8|0,0:3|0:0,0:0:0:0:
318,321,51431,6,0,P|359:330|406:367,1,93.7500035762788,4|0,3:2|0:0,0:0:0:0:
78,146,51658,1,0,0:0:0:0:
78,146,51772,1,2,0:3:0:0:
78,146,51885,2,0,P|115:117|160:106,1,93.7500035762788,10|0,0:0|0:0,0:0:0:0:
318,321,52112,1,2,0:0:0:0:
318,321,52226,1,2,0:0:0:0:
318,321,52339,2,0,P|363:331|400:360,1,93.7500035762788,2|0,3:2|0:0,0:0:0:0:
381,215,52567,6,0,B|399:194|399:194|347:161|278:181|270:265,1,187.5,2|0,0:0|0:0,0:0:0:0:
181,354,52794,2,0,B|211:347|230:317|230:317|230:351|254:372,1,125,10|0,0:0|0:0,0:0:0:0:
471,279,53022,2,0,B|495:258|495:258|423:281,1,93.7500035762788,2|0,0:0|0:0,0:0:0:0:
318,321,53249,6,0,L|326:291,1,25,0|0,3:0|0:0,0:0:0:0:
190,120,53476,6,0,B|111:99|111:99|147:226,1,206.250006294251,2|0,0:0|0:0,0:0:0:0:
150,228,53703,5,8,0:0:0:0:
101,291,53817,2,0,L|48:281,2,43.749998664856,2|2|0,0:3|0:3|0:0,0:0:0:0:
124,366,54158,6,0,B|160:358|174:328|174:328|252:341|252:341|252:346|252:346|381:367,1,250,2|0,3:2|0:0,0:0:0:0:
426,316,54499,1,2,0:0:0:0:
355,373,54612,6,0,L|339:279,1,87.499997329712,8|2,0:0|0:3,0:0:0:0:
340,286,55067,5,2,3:2:0:0:
403,230,55181,1,2,0:2:0:0:
360,158,55294,2,0,P|315:158|278:184,1,87.499997329712,2|0,0:0|0:0,0:0:0:0:
202,156,55522,5,8,0:0:0:0:
162,337,55635,2,0,P|125:360|82:359,1,87.499997329712,0|2,0:0|0:3,0:0:0:0:
22,305,55862,5,2,0:0:0:0:
224,275,55976,2,0,L|324:293,1,87.499997329712,0|0,3:2|0:0,0:0:0:0:
354,77,56203,2,0,L|267:61,1,87.499997329712,2|0,0:0|0:0,0:0:0:0:
206,6,56431,1,8,0:0:0:0:
412,197,56544,2,0,B|427:117|427:117|434:113|434:113|452:19,1,174.999994659424,0|2,0:0|0:0,0:0:0:0:
450,28,56885,5,0,3:2:0:0:
38,141,57112,1,8,0:0:0:0:
456,255,57340,2,0,B|498:252|498:252|313:218,1,212.500004053116,8|2,0:0|0:3,0:0:0:0:
497,173,57681,1,8,0:0:0:0:
274,373,57794,6,0,P|267:318|253:257,1,106.250002026558,4|8,0:3|0:3,0:0:0:0:
479,68,58022,2,0,P|486:123|500:184,1,106.250002026558,4|0,3:3|3:0,0:0:0:0:
462,261,58249,5,8,3:2:0:0:
410,206,58362,1,8,0:3:0:0:
410,206,58476,2,0,P|371:214|320:223,1,81.2499962806703,4|4,0:3|0:3,0:0:0:0:
44,267,58703,1,4,3:2:0:0:
137,179,72567,6,0,L|69:193,1,65.624997997284,2|0,0:3|0:0,0:0:0:0:
65,203,72794,5,10,0:0:0:0:
148,187,72908,1,10,0:0:0:0:
120,260,73022,2,0,L|130:311,1,43.749998664856,10|0,0:3|0:0,0:0:0:0:
332,269,73249,6,0,B|370:280|370:280|377:357|377:357|420:369,1,156.25,4|0,3:2|0:0,0:0:0:0:
448,267,73590,1,2,0:0:0:0:
277,365,73703,2,0,B|239:372|239:372|271:346,1,78.125,10|0,3:2|0:0,0:0:0:0:
448,267,73931,6,0,B|462:201|462:201|457:186|457:186|474:105,1,156.25,2|2,0:0|3:2,0:0:0:0:
475,33,74272,2,0,B|436:32|436:32|408:66,1,78.125,0|2,0:0|0:0,0:0:0:0:
351,115,74499,5,2,0:0:0:0:
343,113,74612,1,10,3:2:0:0:
335,111,74726,1,2,0:0:0:0:
327,109,74840,1,2,0:0:0:0:
319,107,74953,1,2,0:0:0:0:
311,105,75067,2,0,L|233:122,1,78.125,0|0,3:2|0:0,0:0:0:0:
18,69,75294,6,0,P|72:19|96:121,1,218.750002086163,2|10,0:0|3:2,0:0:0:0:
37,161,75635,2,0,P|20:186|39:240,1,78.125,0|2,0:0|0:0,0:0:0:0:
29,230,75862,1,2,0:0:0:0:
204,343,75976,5,2,3:2:0:0:
204,343,76090,2,0,P|162:349|120:370,1,78.125,0|2,0:0|0:0,0:0:0:0:
100,264,76317,2,0,P|142:258|184:237,1,78.125,2|8,0:0|3:2,0:0:0:0:
244,128,76544,2,0,P|282:133|318:148,1,78.125,0|2,0:0|0:0,0:0:0:0:
463,79,76772,1,2,0:0:0:0:
386,263,76885,6,0,P|390:220|412:141,1,117.1875,0|0,3:2|0:0,0:0:0:0:
415,142,77112,1,2,0:0:0:0:
382,71,77226,2,0,B|369:55|346:52|346:52|368:59|380:72,1,78.125,2|10,0:0|3:2,0:0:0:0:
386,263,77453,2,0,B|406:260|419:242|419:242|403:257|385:261,1,78.125,2|2,0:0|0:0,0:0:0:0:
219,167,77681,2,0,B|211:185|220:206|220:206|215:184|220:167,1,78.125,2|2,0:0|3:2,0:0:0:0:
415,142,77908,1,0,0:0:0:0:
293,191,78022,6,0,B|207:205|261:268|166:279,1,156.25,2|10,0:0|3:2,0:0:0:0:
157,182,78362,2,0,B|162:164|181:158|181:158|166:172|158:200,1,78.125,0|2,0:0|0:0,0:0:0:0:
9,212,78590,1,0,0:0:0:0:
9,212,78703,6,0,P|49:219|83:240,1,78.125,2|0,3:2|0:0,0:0:0:0:
100,321,78931,2,2,L|103:361,2,39.0625
18,294,79158,5,10,3:2:0:0:
166,278,79272,2,0,L|249:266,2,78.125,2|2|2,0:0|0:3|0:0,0:0:0:0:
18,294,79612,5,2,3:2:0:0:
100,321,79726,2,0,P|113:356|135:375,2,62.5,2|2|2,0:0|0:3|0:0,0:0:0:0:
18,294,80067,5,8,3:2:0:0:
166,278,80181,1,8,3:2:0:0:
257,374,80294,2,0,L|310:366,1,46.875,2|0,0:3|0:0,0:0:0:0:
375,375,80522,5,4,3:2:0:0:
387,369,80635,1,0,0:0:0:0:
398,358,80749,1,2,0:3:0:0:
415,336,80862,1,2,0:0:0:0:
427,303,80976,1,10,3:2:0:0:
429,252,81090,1,2,0:2:0:0:
397,189,81203,1,2,0:0:0:0:
320,149,81317,1,2,0:0:0:0:
211,189,81431,6,0,P|170:168|134:118,1,93.7500035762788,0|2,3:2|0:2,0:0:0:0:
346,257,81658,2,0,P|302:271|241:261,1,93.7500035762788,2|2,0:0|0:0,0:0:0:0:
489,209,81885,2,0,P|468:250|418:286,1,93.7500035762788,8|2,3:2|0:0,0:0:0:0:
431,279,82226,5,2,0:0:0:0:
505,134,82340,1,0,3:2:0:0:
502,124,82453,1,2,0:0:0:0:
498,115,82567,2,0,L|514:19,1,93.7500035762788,2|2,0:2|0:0,0:0:0:0:
404,10,82794,5,10,3:2:0:0:
401,18,82907,1,2,0:2:0:0:
398,25,83021,2,0,L|410:101,1,78.125,2|2,0:0|0:2,0:0:0:0:
296,152,83249,5,2,3:2:0:0:
296,152,83362,2,0,L|306:90,1,62.5,2|2,0:0|0:0,0:0:0:0:
318,15,83590,1,2,0:0:0:0:
197,107,83703,2,0,L|74:127,1,125,8|2,3:2|0:3,0:0:0:0:
5,92,84158,5,2,3:2:0:0:
505,134,84612,1,10,3:2:0:0:
5,92,85067,6,0,P|34:111|50:141,1,62.5,2|2,3:2|0:0,0:0:0:0:
185,237,85294,2,0,L|86:253,1,93.75,10|0,0:0|0:0,0:0:0:0:
80,255,85522,5,8,3:2:0:0:
132,318,85635,1,8,0:3:0:0:
71,371,85749,2,0,P|37:365|8:343,1,62.5,2|4,0:3|0:3,0:0:0:0:
444,358,85976,5,8,0:0:0:0:
204,59,86431,2,0,L|213:0,2,43.749998664856,2|2|2,0:0|0:0|0:0,0:0:0:0:
185,237,86885,6,0,L|176:178,1,43.749998664856,2|2,0:0|0:0,0:0:0:0:
107,158,87112,1,2,0:0:0:0:
249,123,87226,5,2,0:0:0:0:
204,59,87340,2,0,L|209:21,1,37.4999988555909,2|0,0:0|0:0,0:0:0:0:
131,81,88022,5,2,0:0:0:0:
131,81,88249,1,2,0:0:0:0:
249,123,88476,2,0,L|302:112,1,46.875,2|0,0:0|0:0,0:0:0:0:
315,102,88703,6,0,P|300:153|298:202,1,93.7500035762788,4|0,3:2|0:0,0:0:0:0:
52,366,88930,1,0,0:0:0:0:
52,366,89043,1,2,0:3:0:0:
52,366,89157,2,0,P|48:319|34:274,1,93.7500035762788,10|0,0:0|0:0,0:0:0:0:
315,102,89384,1,2,0:0:0:0:
315,102,89497,1,2,0:0:0:0:
315,102,89612,2,0,P|300:153|298:202,1,93.7500035762788,2|0,3:2|0:0,0:0:0:0:
54,197,89839,6,0,P|95:171|153:271,1,187.5,2|0,0:0|0:0,0:0:0:0:
157,344,90066,2,0,P|214:363|229:312,1,125,10|0,0:0|0:0,0:0:0:0:
315,102,90293,2,0,P|357:98|379:142,1,93.7500035762788,2|0,0:0|0:0,0:0:0:0:
469,201,90521,6,0,L|508:194,1,37.5,0|0,3:0|0:0,0:0:0:0:
453,327,90748,6,0,P|479:284|377:278,1,206.250006294251,2|0,0:0|0:0,0:0:0:0:
380,281,90975,1,8,0:0:0:0:
317,322,91089,2,0,P|323:352|335:366,2,43.749998664856,2|2|0,0:3|0:3|0:0,0:0:0:0:
54,197,91430,6,0,P|71:89|150:155,1,250,2|0,3:2|0:0,0:0:0:0:
234,264,91771,2,0,P|225:252|118:239,1,125,2|8,0:0|0:0,0:0:0:0:
163,15,91998,2,0,P|171:26|278:39,1,125,2|2,0:0|0:3,0:0:0:0:
338,83,92225,1,2,0:3:0:0:
404,44,92339,6,0,P|442:63|458:149,1,131.249995994568,2|0,3:2|0:0,0:0:0:0:
470,169,92566,2,0,P|436:213|378:220,1,106.250002026558,2|0,0:0|0:0,0:0:0:0:
335,159,92793,1,8,0:0:0:0:
270,339,92907,2,0,P|313:292|307:230,1,125,0|2,0:0|0:3,0:0:0:0:
84,291,93134,5,2,0:0:0:0:
84,291,93248,2,0,P|80:226|125:179,1,131.249995994568,0|0,3:2|0:0,0:0:0:0:
139,162,93475,2,0,P|185:157|231:192,1,106.250002026558,2|0,0:0|0:0,0:0:0:0:
234,264,93703,1,8,0:0:0:0:
412,197,93816,2,0,P|362:188|307:234,1,125,0|2,0:0|0:3,0:0:0:0:
346,304,94043,1,2,0:0:0:0:
270,339,94157,5,0,3:2:0:0:
371,93,94384,2,0,P|351:41|299:8,1,109.375001043081,8|0,0:0|0:0,0:0:0:0:
139,162,94612,2,0,P|231:186|282:92,1,218.750002086163,8|0,0:0|0:0,0:0:0:0:
220,36,94953,1,8,0:3:0:0:
69,123,95066,6,0,P|118:82|176:93,1,109.375001043081,4|8,0:3|0:3,0:0:0:0:
208,198,95293,2,0,P|159:239|101:228,1,109.375001043081,4|0,0:3|3:0,0:0:0:0:
4,74,95521,5,8,3:2:0:0:
449,133,95748,1,8,0:3:0:0:
40,274,95975,6,0,P|16:316|8:360,1,93.7500035762788,4|0,3:2|0:0,0:0:0:0:
361,146,96203,1,0,0:0:0:0:
361,146,96316,1,2,0:3:0:0:
361,146,96430,2,0,P|352:100|328:59,1,93.7500035762788,10|0,0:0|0:0,0:0:0:0:
40,274,96657,1,2,0:0:0:0:
40,274,96770,1,2,0:0:0:0:
40,274,96884,2,0,P|16:316|8:360,1,93.7500035762788,2|0,3:2|0:0,0:0:0:0:
252,339,97112,6,0,P|189:362|124:257,1,187.5,2|0,0:0|0:0,0:0:0:0:
38,186,97339,2,0,P|85:199|135:145,1,125,10|0,0:0|0:0,0:0:0:0:
270,92,97566,2,0,P|314:94|335:133,1,93.7500035762788,2|0,0:0|0:0,0:0:0:0:
361,282,97793,6,0,L|319:286,1,37.5,0|0,3:0|0:0,0:0:0:0:
322,293,98021,6,0,B|301:262|324:218|370:216|395:244|394:272|394:272|397:288|418:296|435:285|436:268|429:257,1,206.250006294251,2|0,0:0|0:0,0:0:0:0:
438,258,98248,1,8,0:0:0:0:
467,191,98362,2,0,P|489:176|510:173,2,43.749998664856,2|2|0,0:3|0:3|0:0,0:0:0:0:
252,339,98703,6,0,B|218:374|159:362|136:313|148:266|177:254|177:254|201:244|220:260|214:280|183:291,1,250,2|0,3:2|0:0,0:0:0:0:
129,185,99043,6,0,P|84:228|67:287,1,125,2|8,0:0|0:0,0:0:0:0:
327,358,99271,2,0,P|344:299|330:239,1,125,2|2,0:0|0:3,0:0:0:0:
263,202,99498,1,2,0:3:0:0:
319,142,99612,6,0,P|365:139|376:181,1,87.499997329712,2|0,3:2|0:0,0:0:0:0:
129,185,99839,2,0,P|88:205|99:247,1,87.499997329712,2|0,0:0|0:0,0:0:0:0:
437,229,100066,1,8,0:0:0:0:
368,271,100180,2,0,P|322:289|268:190,1,174.999994659424,0|2,0:0|0:0,0:0:0:0:
502,52,100521,6,0,P|503:95|479:136,1,87.499997329712,0|0,3:2|0:0,0:0:0:0:
394,27,100748,2,0,P|373:65|374:108,1,87.499997329712,2|0,0:0|0:0,0:0:0:0:
64,135,100975,1,8,0:0:0:0:
129,185,101089,2,0,P|175:203|229:104,1,174.999994659424,0|2,0:0|0:0,0:0:0:0:
192,6,101430,6,0,P|220:7|260:37,1,75,0|0,3:2|0:0,0:0:0:0:
263,41,101657,6,0,P|211:42|164:79,1,106.250002026558,8|8,0:0|0:3,0:0:0:0:
230,275,101884,2,0,P|282:274|329:237,1,106.250002026558,8|0,0:0|0:0,0:0:0:0:
330,237,102112,1,0,0:0:0:0:
486,270,102225,1,8,0:0:0:0:
438,377,102339,2,0,P|419:333|428:150,1,212.500004053116,4|4,0:3|3:3,0:0:0:0:
484,111,102793,5,8,0:2:0:0:
247,148,102907,2,0,L|344:133,2,81.2499962806703,8|4|4,0:3|0:3|0:3,0:0:0:0:
4,185,103248,1,4,3:2:0:0:
47,341,108703,6,0,L|35:246,1,87.499997329712,4|0,3:2|0:0,0:0:0:0:
28,244,109157,2,0,L|123:232,1,87.499997329712,0|0,3:2|0:0,0:0:0:0:
125,225,109612,2,0,L|137:320,1,87.499997329712,0|0,3:2|0:0,0:0:0:0:
461,326,110066,6,0,L|473:231,1,87.499997329712,0|0,3:2|0:0,0:0:0:0:
480,229,110520,2,0,L|385:217,1,87.499997329712,0|0,3:2|0:0,0:0:0:0:
383,210,110975,2,0,L|371:305,1,87.499997329712,0|0,3:2|0:0,0:0:0:0:
61,150,111430,6,0,L|49:55,1,87.499997329712,0|0,3:2|0:0,0:0:0:0:
42,53,111884,2,0,L|137:41,1,87.499997329712,0|0,3:2|0:0,0:0:0:0:
139,34,112339,6,0,L|151:129,1,87.499997329712,2|0,3:2|0:0,0:0:0:0:
98,309,112793,2,0,L|193:297,1,87.499997329712,2|0,3:2|0:0,0:0:0:0:
373,350,113248,2,0,L|361:255,1,87.499997329712,2|0,3:2|0:0,0:0:0:0:
422,81,113703,5,8,0:0:0:0:
318,77,113816,1,8,0:0:0:0:
414,75,113930,2,0,L|319:87,1,93.7500035762788,8|8,0:0|0:0,0:0:0:0:
128,42,114157,6,0,B|26:55|26:55|40:169,1,193.750001478195,4|2,3:2|0:3,0:0:0:0:
178,151,114612,2,0,B|165:49|165:49|51:63,1,193.750001478195,8|2,0:0|0:3,0:0:0:0:
240,205,114953,5,8,0:0:0:0:
74,266,115066,2,0,L|176:253,1,96.8750007390976,0|8,3:0|0:0,0:0:0:0:
0,229,115293,1,2,0:3:0:0:
466,112,115521,6,0,L|452:11,1,96.8750007390976,8|0,0:0|0:0,0:0:0:0:
276,134,115748,2,0,L|262:33,1,96.8750007390976,2|2,0:3|0:3,0:0:0:0:
388,366,115975,6,0,B|490:353|490:353|476:239,1,193.750001478195,0|2,3:2|0:3,0:0:0:0:
276,266,116430,2,0,B|289:368|289:368|403:354,1,193.750001478195,8|2,0:0|0:3,0:0:0:0:
413,99,116771,5,8,0:0:0:0:
396,270,116884,2,0,L|383:167,1,96.8750007390976,0|8,3:0|0:0,0:0:0:0:
447,332,117111,1,2,0:3:0:0:
196,285,117339,6,0,L|182:182,1,96.8750007390976,8|0,0:0|0:0,0:0:0:0:
98,210,117566,1,2,0:3:0:0:
98,210,117793,5,0,3:2:0:0:
94,219,117907,1,0,0:0:0:0:
90,228,118021,1,2,0:3:0:0:
85,236,118134,1,0,0:0:0:0:
0,237,118248,6,0,L|205:211,1,193.750001478195,8|2,0:0|0:3,0:0:0:0:
59,23,118589,1,8,0:0:0:0:
147,134,118703,2,0,L|133:31,1,96.8750007390976,0|8,3:0|0:0,0:0:0:0:
85,236,118930,2,0,L|100:356,1,96.8750007390976,2|2,0:3|0:3,0:0:0:0:
256,160,119157,5,8,0:0:0:0:
256,160,119384,1,2,0:3:0:0:
468,287,119612,5,0,3:2:0:0:
458,284,119725,1,0,0:0:0:0:
448,281,119839,1,2,0:3:0:0:
438,278,119953,1,0,0:0:0:0:
400,365,120066,6,0,L|376:173,1,193.750001478195,8|2,0:0|0:3,0:0:0:0:
354,22,120407,1,8,0:0:0:0:
253,250,120521,6,0,L|349:238,1,96.8750007390976,0|8,3:0|0:0,0:0:0:0:
386,96,120748,2,0,L|482:84,1,96.8750007390976,2|2,0:3|0:3,0:0:0:0:
98,101,120975,5,8,0:0:0:0:
77,280,121203,1,8,0:0:0:0:
77,280,121316,1,8,0:0:0:0:
77,280,121430,6,0,B|89:184|89:184|185:196,1,193.750001478195,4|2,3:2|0:3,0:0:0:0:
150,376,121884,2,0,B|54:364|54:364|66:268,1,193.750001478195,8|2,0:0|0:3,0:0:0:0:
453,187,122225,5,8,0:0:0:0:
298,234,122339,2,0,L|400:247,1,96.8750007390976,0|8,3:0|0:0,0:0:0:0:
256,160,122566,1,2,0:3:0:0:
428,333,122793,6,0,L|325:319,1,96.8750007390976,8|0,0:0|0:0,0:0:0:0:
467,106,123021,2,0,L|364:92,1,96.8750007390976,2|2,0:3|0:3,0:0:0:0:
96,30,123248,6,0,B|192:41|192:41|180:137,1,193.750001478195,0|2,3:2|0:3,0:0:0:0:
14,110,123703,2,0,B|25:14|25:14|121:26,1,193.750001478195,8|2,0:0|0:3,0:0:0:0:
151,359,124043,5,8,0:0:0:0:
222,210,124157,2,0,L|207:321,1,96.8750007390976,0|8,3:0|0:0,0:0:0:0:
179,137,124384,1,2,0:3:0:0:
341,365,124612,5,8,0:0:0:0:
341,365,124839,1,2,0:3:0:0:
254,113,125066,5,0,3:2:0:0:
256,122,125180,1,0,0:0:0:0:
258,131,125293,1,2,0:3:0:0:
260,140,125407,1,0,0:0:0:0:
115,166,125521,6,0,L|320:192,1,193.750001478195,8|2,0:0|0:3,0:0:0:0:
380,174,125862,1,8,0:0:0:0:
201,327,125975,6,0,L|214:224,1,96.8750007390976,0|8,3:0|0:0,0:0:0:0:
437,260,126203,2,0,L|422:362,1,96.8750007390976,2|2,0:3|0:3,0:0:0:0:
299,209,126430,1,8,0:0:0:0:
299,209,126657,1,2,0:3:0:0:
143,244,126884,5,8,3:2:0:0:
124,343,126998,1,0,3:0:0:0:
157,315,127112,1,12,0:3:0:0:
201,327,127225,1,0,3:0:0:0:
369,244,127339,5,8,0:2:0:0:
388,343,127453,1,0,3:0:0:0:
355,315,127567,1,8,3:0:0:0:
311,327,127680,1,0,3:0:0:0:
256,144,127793,5,10,0:0:0:0:
256,144,128021,2,0,L|256:48,2,87.499997329712,2|2|2,0:0|0:0|0:0,0:0:0:0:
256,144,128703,6,0,P|230:188|192:214,1,93.7500035762788,4|0,3:2|0:0,0:0:0:0:
451,281,128930,1,0,0:0:0:0:
451,281,129043,1,2,0:3:0:0:
451,281,129157,2,0,P|453:235|437:192,1,93.7500035762788,10|0,0:0|0:0,0:0:0:0:
256,144,129384,1,2,0:0:0:0:
256,144,129497,1,2,0:0:0:0:
256,144,129612,2,0,P|230:188|192:214,1,93.7500035762788,2|0,3:2|0:0,0:0:0:0:
60,67,129839,6,0,P|149:60|163:144,1,187.5,2|0,0:0|0:0,0:0:0:0:
48,216,130066,2,0,P|31:166|94:166,1,125,10|0,0:0|0:0,0:0:0:0:
231,324,130293,2,0,P|272:354|314:353,1,93.7500035762788,2|0,0:0|0:0,0:0:0:0:
331,249,130521,6,0,P|316:252|296:268,1,37.5,0|0,3:0|0:0,0:0:0:0:
293,276,130748,6,0,P|261:201|268:67,1,206.250006294251,2|0,0:0|0:0,0:0:0:0:
273,63,130975,1,8,0:0:0:0:
275,140,131089,2,0,P|251:135|226:127,2,43.749998664856,2|2|0,0:3|0:3|0:0,0:0:0:0:
427,279,131430,6,0,P|436:150|390:29,1,250,2|0,3:2|0:0,0:0:0:0:
85,343,131771,6,0,P|84:279|107:220,1,125,2|8,0:0|0:0,0:0:0:0:
171,355,131998,2,0,P|193:297|191:235,1,125,2|2,0:0|0:3,0:0:0:0:
90,78,132225,1,2,0:3:0:0:
90,78,132339,6,0,P|123:38|166:19,1,87.499997329712,2|0,3:2|0:0,0:0:0:0:
263,166,132566,2,0,P|324:159|378:180,1,106.250002026558,2|0,0:0|0:0,0:0:0:0:
59,174,132793,5,8,0:0:0:0:
23,235,132907,2,0,P|87:220|170:357,1,250,0|2,0:0|0:0,0:0:0:0:
357,350,133248,6,0,P|311:329|269:324,1,87.499997329712,0|0,3:2|0:0,0:0:0:0:
393,104,133475,2,0,P|423:156|468:183,1,106.250002026558,2|0,0:0|0:0,0:0:0:0:
94,266,133703,5,8,0:0:0:0:
132,201,133816,2,0,P|194:231|279:89,1,250,0|2,0:0|0:0,0:0:0:0:
160,96,134157,6,0,P|155:67|155:25,1,65.624997997284,0|0,3:2|0:0,0:0:0:0:
154,22,134384,6,0,P|89:42|33:52,1,109.375001043081,8|0,0:0|0:0,0:0:0:0:
358,362,134612,2,0,P|423:342|479:332,1,109.375001043081,8|0,0:0|0:0,0:0:0:0:
463,334,134953,1,8,0:3:0:0:
432,260,135066,5,4,0:3:0:0:
421,257,135180,1,8,0:3:0:0:
410,254,135293,1,4,0:3:0:0:
399,250,135407,1,0,3:0:0:0:
390,247,135521,6,0,P|428:237|463:235,1,62.5,8|0,3:2|0:0,0:0:0:0:
437,148,135748,2,0,P|398:157|363:159,1,62.5,8|0,0:3|0:0,0:0:0:0:
307,111,135975,6,0,L|317:13,1,93.7500035762788,4|0,3:2|0:0,0:0:0:0:
9,265,136203,1,0,0:0:0:0:
9,265,136316,1,2,0:3:0:0:
9,265,136430,2,0,L|0:358,1,93.7500035762788,10|0,0:0|0:0,0:0:0:0:
307,111,136657,1,2,0:0:0:0:
307,111,136770,1,2,0:0:0:0:
307,111,136884,2,0,L|316:17,1,93.7500035762788,2|0,3:2|0:0,0:0:0:0:
207,61,137112,6,0,B|152:57|152:57|292:27,1,187.5,2|0,0:0|0:0,0:0:0:0:
468,75,137339,2,0,B|488:51|488:51|377:76,1,125,10|0,0:0|0:0,0:0:0:0:
134,135,137566,2,0,L|240:144,1,93.7500035762788,2|0,0:0|0:0,0:0:0:0:
292,319,137793,6,0,L|300:363,1,37.5,0|0,3:0|0:0,0:0:0:0:
301,366,138021,6,0,B|333:241|333:241|252:262,1,206.250006294251,2|0,0:0|0:0,0:0:0:0:
248,263,138248,1,8,0:0:0:0:
191,316,138362,2,0,L|141:308,2,43.749998664856,2|2|0,0:3|0:3|0:0,0:0:0:0:
401,283,138703,6,0,B|478:277|478:277|450:380|450:380|383:355,1,250,2|0,3:2|0:0,0:0:0:0:
301,366,139043,1,2,0:0:0:0:
333,242,139157,6,0,L|320:139,1,87.499997329712,8|2,0:0|0:3,0:0:0:0:
322,155,139612,5,2,3:2:0:0:
394,131,139725,1,2,0:0:0:0:
424,203,139839,2,0,B|467:209|467:209|506:167,1,87.499997329712,2|0,0:0|0:0,0:0:0:0:
344,51,140066,5,10,0:0:0:0:
166,82,140180,2,0,L|67:100,1,87.499997329712
47,8,140407,5,2,0:0:0:0:
234,131,140521,2,0,P|246:81|232:35,1,87.499997329712,2|0,3:2|0:0,0:0:0:0:
47,8,140748,2,0,P|11:45|0:92,1,87.499997329712,2|0,0:0|0:0,0:0:0:0:
0,203,140975,2,0,P|52:181|118:270,1,174.999994659424,8|2,0:0|0:3,0:0:0:0:
71,319,141316,1,0,0:0:0:0:
130,364,141430,6,0,L|206:351,1,75,0|0,3:0|0:0,0:0:0:0:
213,337,141657,6,0,P|263:363|317:364,1,106.250002026558,10|0,0:0|0:0,0:0:0:0:
391,147,141884,2,0,P|292:110|311:278,1,318.750006079674,6|0,3:2|0:0,0:0:0:0:
369,298,142339,6,0,P|381:286|401:279,1,37.5,10|2,3:2|0:0,0:0:0:0:
416,286,142793,5,8,0:0:0:0:
279,269,142907,1,8,0:0:0:0:
437,305,143021,5,8,0:0:0:0:
259,282,143135,1,8,0:0:0:0:
332,384,143248,6,0,B|346:290,1,93.7500035762788,4|0,3:2|0:0,0:0:0:0:
37,172,143475,1,0,0:0:0:0:
37,172,143589,1,2,0:3:0:0:
37,172,143703,2,0,B|21:269,1,93.7500035762788,10|0,0:0|0:0,0:0:0:0:
332,384,143930,1,2,0:0:0:0:
332,384,144044,1,2,0:0:0:0:
332,384,144158,2,0,B|346:288,1,93.7500035762788,2|0,3:2|0:0,0:0:0:0:
305,129,144384,6,0,B|327:134|345:151|345:151|297:135|244:153|222:204,1,187.5,2|0,0:0|0:0,0:0:0:0:
237,278,144612,2,0,B|204:298|158:277|153:237|153:237|171:248,1,125,10|0,0:0|0:0,0:0:0:0:
183,67,144839,2,0,P|221:83|249:42,1,93.7500035762788,2|0,0:0|0:0,0:0:0:0:
392,142,145066,6,0,L|432:137,1,37.5,2|0,3:2|0:0,0:0:0:0:
425,232,145293,6,0,B|417:163|417:163|422:141|422:141|404:123|404:123|409:97|409:97|402:32,1,206.250006294251,2|0,0:0|0:0,0:0:0:0:
403,36,145521,5,8,0:0:0:0:
305,129,145634,2,0,L|311:177,2,43.749998664856,2|2|0,0:3|0:3|0:0,0:0:0:0:
63,148,145975,6,0,B|19:40|19:40|114:35|114:35|106:57|108:74,1,250,2|0,3:2|0:0,0:0:0:0:
215,85,146316,2,0,B|261:81|261:81|169:65,1,125,2|8,0:0|0:0,0:0:0:0:
58,234,146543,2,0,B|12:230|12:230|104:214,1,125,2|0,0:0|0:0,0:0:0:0:
176,200,146771,1,2,0:3:0:0:
168,203,146884,6,0,P|160:250|156:297,1,87.499997329712,2|0,3:2|0:0,0:0:0:0:
288,212,147112,2,0,P|293:268|303:324,1,106.250002026558,2|0,0:0|0:0,0:0:0:0:
37,307,147339,1,8,0:0:0:0:
16,382,147453,2,0,P|10:319|0:258,1,125,0|2,0:0|0:3,0:0:0:0:
38,195,147680,1,2,0:0:0:0:
129,323,147793,6,0,B|173:319|216:339,1,87.499997329712,0|0,3:2|0:0,0:0:0:0:
322,131,148021,2,0,B|263:135|208:108,1,106.250002026558,2|0,0:0|0:0,0:0:0:0:
447,317,148248,1,8,0:0:0:0:
390,367,148362,2,0,B|444:340|514:345,1,125,0|2,0:0|0:3,0:0:0:0:
285,210,148589,1,2,0:0:0:0:
346,255,148703,6,0,P|334:278|326:324,1,65.624997997284,0|0,3:2|0:0,0:0:0:0:
326,326,148930,6,0,B|246:340|246:340|217:323,1,109.375001043081,8|0,0:0|0:0,0:0:0:0:
290,40,149157,2,0,B|370:26|370:26|399:43,1,109.375001043081,8|0,0:0|0:0,0:0:0:0:
394,40,149498,1,8,0:3:0:0:
449,96,149612,5,4,0:3:0:0:
446,106,149725,1,8,0:3:0:0:
443,116,149839,1,4,0:3:0:0:
440,126,149953,1,0,3:0:0:0:
438,135,150066,6,0,L|508:128,1,62.5,8|0,3:2|0:0,0:0:0:0:
442,210,150293,2,0,L|512:203,1,62.5,8|0,0:3|0:0,0:0:0:0:
415,331,150521,6,0,P|381:301|325:308,1,93.7500035762788,4|0,3:2|0:0,0:0:0:0:
262,84,150748,1,0,0:0:0:0:
262,84,150862,1,2,0:3:0:0:
262,84,150975,2,0,P|216:81|181:111,1,93.7500035762788,8|0,3:2|0:0,0:0:0:0:
415,331,151203,1,2,0:0:0:0:
415,331,151317,1,2,0:0:0:0:
415,331,151430,2,0,P|381:301|325:308,1,93.7500035762788,0|0,3:2|0:0,0:0:0:0:
30,192,151657,6,0,B|20:189|20:189|61:121|140:142|140:142|121:158|116:173,1,187.5,2|0,0:0|0:0,0:0:0:0:
125,315,151884,2,0,B|111:321|95:333|95:333|71:289|111:250,1,125,10|0,0:0|0:0,0:0:0:0:
222,267,152112,2,0,B|234:284|242:291|242:291|202:300|183:261,1,93.7500035762788,2|0,0:0|0:0,0:0:0:0:
331,101,152339,6,0,L|323:137,1,37.5,2|0,3:2|0:0,0:0:0:0:
262,84,152566,6,0,B|257:113|257:113|332:104|400:141|400:141|405:104,1,206.250006294251,2|0,0:0|0:0,0:0:0:0:
342,28,152793,1,8,0:0:0:0:
321,149,152907,2,0,L|312:196,2,43.749998664856,2|0|0,0:0|0:0|0:0,0:0:0:0:
336,361,153248,6,0,B|351:301|351:301|209:328|209:328|225:313|235:292,1,250,2|0,3:2|0:0,0:0:0:0:
132,285,153589,6,0,B|112:238|159:213|159:213|158:234|163:251,1,125,2|8,0:0|0:0,0:0:0:0:
418,372,153816,2,0,B|466:357|455:304|455:304|437:321|423:326,1,125,2|0,0:0|0:0,0:0:0:0:
385,256,154043,1,0,0:0:0:0:
424,327,154157,6,0,L|518:312,1,87.499997329712,2|0,3:2|0:0,0:0:0:0:
486,136,154384,2,0,L|399:149,1,87.499997329712,2|0,0:0|0:0,0:0:0:0:
328,157,154612,1,8,0:0:0:0:
465,220,154725,2,0,B|484:228|510:233|510:233|370:258,1,174.999994659424,0|2,0:0|0:0,0:0:0:0:
212,303,155066,6,0,B|244:272|244:272|238:224,1,87.499997329712,0|0,3:2|0:0,0:0:0:0:
44,165,155293,2,0,B|12:197|12:197|17:247,1,87.499997329712,2|0,0:0|0:0,0:0:0:0:
41,81,155521,5,10,0:0:0:0:
51,308,155634,2,0,B|117:367|117:367|136:283,1,174.999994659424,0|2,0:0|0:0,0:0:0:0:
212,303,155975,6,0,P|255:296|326:367,1,150,2|0,3:2|0:0,0:0:0:0:
459,104,156430,6,0,P|369:77|213:260,1,318.750006079674,4|8,3:2|0:0,0:0:0:0:
394,218,156884,6,0,L|277:239,1,106.250002026558,4|0,0:3|0:0,0:0:0:0:
48,275,157112,1,4,3:3:0:0:
6,213,157339,5,8,0:2:0:0:
48,275,157453,1,8,0:3:0:0:
46,283,157566,1,4,0:3:0:0:
44,291,157680,1,4,0:3:0:0:
42,298,157793,6,0,L|68:333,1,39.0625,4|0,3:2|0:0,0:0:0:0:
73,336,157907,2,0,L|90:253,1,78.125
402,196,158134,5,2,0:0:0:0:
331,242,158248,2,0,P|287:223|271:190,1,78.125,8|0,3:2|0:0,0:0:0:0:
7,47,158475,6,0,B|115:24|61:134|196:99,1,187.500007152558,2|0,0:0|3:0,0:0:0:0:
153,27,158816,1,0,0:0:0:0:
263,122,158930,6,0,P|272:69|284:25,1,93.7500035762788,2|2,0:0|0:0,0:0:0:0:
353,90,159157,1,10,3:2:0:0:
270,34,159271,6,0,P|259:72|253:112,1,78.125,2|0,0:0|0:0,0:0:0:0:
272,197,159498,1,0,0:0:0:0:
264,199,159612,1,0,3:2:0:0:
186,212,159725,6,0,B|183:255|183:255|204:291,1,78.125,2|0,0:0|0:0,0:0:0:0:
244,347,159953,1,0,0:0:0:0:
458,238,160066,6,0,B|461:195|461:195|440:159,1,78.125,10|0,3:2|0:0,0:0:0:0:
390,108,160293,1,2,0:3:0:0:
393,100,160407,1,0,0:0:0:0:
446,44,160521,5,2,3:2:0:0:
369,56,160634,1,2,0:0:0:0:
291,68,160748,1,2,0:0:0:0:
269,143,160862,1,2,0:0:0:0:
268,151,160975,2,0,B|260:80|260:80|249:73|249:73|241:-3,1,156.25,8|2,3:2|0:3,0:0:0:0:
167,32,161316,1,0,0:0:0:0:
10,72,161430,6,0,B|23:10|89:26|89:26|91:64|108:80,1,156.25,2|0,3:2|0:0,0:0:0:0:
268,151,161771,1,2,0:0:0:0:
192,131,161884,2,0,P|153:138|124:171,1,78.125,8|0,3:2|0:0,0:0:0:0:
0,264,162112,2,0,P|60:230|91:331,1,187.500007152558,2|0,0:0|3:2,0:0:0:0:
155,373,162453,1,0,0:0:0:0:
214,311,162566,6,0,P|262:320|308:335,1,93.7500035762788,2|2,0:0|0:0,0:0:0:0:
279,241,162793,1,10,3:2:0:0:
294,339,162907,6,0,P|256:327|217:319,2,78.125,2|0|0,0:0|0:0|0:0,0:0:0:0:
368,282,163248,5,2,3:2:0:0:
368,282,163362,2,0,P|379:340|392:366,1,78.125,2|0,0:0|0:0,0:0:0:0:
458,260,163589,2,0,P|472:296|476:335,1,78.125,2|8,0:0|3:2,0:0:0:0:
279,241,163816,2,0,P|293:204|297:165,1,78.125,2|0,0:0|0:0,0:0:0:0:
297,155,164043,1,2,0:0:0:0:
196,206,164157,5,2,3:2:0:0:
196,206,164271,1,2,0:0:0:0:
196,206,164384,2,0,P|189:167|212:135,1,78.125,2|2,0:3|0:0,0:0:0:0:
370,110,164612,2,0,P|409:128|425:162,1,78.125,8|0,3:2|0:0,0:0:0:0:
462,364,164839,2,0,L|339:345,1,117.1875,4|0,0:0|0:0,0:0:0:0:
223,315,165066,6,0,L|261:336,1,39.0625,4|0,3:1|0:0,0:0:0:0:
265,340,165180,2,0,P|222:351|183:373,1,78.125
74,197,165407,5,2,0:0:0:0:
153,225,165521,2,0,P|196:214|235:192,1,78.125,8|0,3:2|0:0,0:0:0:0:
512,83,165748,2,0,B|452:69|409:124|409:124|409:78|356:41,1,187.500007152558,2|0,0:0|3:0,0:0:0:0:
371,53,166089,1,0,0:0:0:0:
231,22,166203,6,0,P|187:30|150:70,1,93.7500035762788,2|2,0:0|0:0,0:0:0:0:
227,111,166430,1,10,3:2:0:0:
153,53,166543,6,0,P|182:23|223:15,1,78.125,2|0,0:0|0:0,0:0:0:0:
292,68,166771,1,0,0:0:0:0:
295,75,166884,1,0,3:2:0:0:
227,111,166998,6,0,L|239:190,1,78.125,2|0,0:0|0:0,0:0:0:0:
253,263,167225,1,0,0:0:0:0:
39,304,167339,6,0,L|26:224,1,78.125,10|0,3:2|0:0,0:0:0:0:
27,154,167566,1,2,0:3:0:0:
31,147,167680,1,0,0:0:0:0:
59,78,167793,5,2,3:2:0:0:
135,59,167907,1,2,0:0:0:0:
211,41,168021,1,2,0:0:0:0:
274,85,168134,1,2,0:0:0:0:
280,91,168248,2,0,P|235:81|202:169,1,156.25,8|2,3:2|0:3,0:0:0:0:
253,263,168703,6,0,P|272:259|290:247,1,39.0625,2|0,3:2|0:0,0:0:0:0:
293,243,168816,2,0,P|298:289|320:319,1,78.125
468,328,169043,5,2,0:0:0:0:
503,260,169157,2,0,P|498:214|476:184,1,78.125,8|0,3:2|0:0,0:0:0:0:
167,138,169384,2,0,P|205:157|278:80,1,156.25,2|0,0:0|3:2,0:0:0:0:
326,30,169725,1,0,0:0:0:0:
336,25,169839,6,0,P|380:31|409:82,1,93.7500035762788,2|2,0:0|0:0,0:0:0:0:
474,118,170066,5,8,3:2:0:0:
459,194,170180,1,8,0:2:0:0:
444,270,170293,1,8,0:2:0:0:
430,347,170407,1,8,0:2:0:0:
363,296,170521,5,2,0:0:0:0:
363,296,170672,2,0,B|318:303|318:303|316:308|316:308|262:316,1,93.7500035762788,2|2,0:0|0:0,0:0:0:0:
89,370,171203,5,2,0:0:0:0:
89,370,171354,2,0,B|44:363|44:363|42:358|42:358|-12:350,1,93.7500035762788,2|2,0:0|0:0,0:0:0:0:
