osu file format v14

[General]
AudioFilename: audio.mp3
AudioLeadIn: 0
PreviewTime: 56082
Countdown: 1
SampleSet: None
StackLeniency: 0.4
Mode: 0
LetterboxInBreaks: 0
WidescreenStoryboard: 0

[Editor]
Bookmarks: 1047,7047,8702,12013,18220,18634,19875,33116,39737,52978,56289,69530,82771,96013,99323,112565,125806,142358,155599,157894,160791,168840,176906,182082,188699,194284,195323,196147,208565,211353,215181,220151
DistanceSpacing: 1.6
BeatDivisor: 4
GridSize: 16
TimelineZoom: 2.3

[Metadata]
Title:DENKOUSEKKA
TitleUnicode:DENKOUSEKKA
Artist:Polkadot Stingray
ArtistUnicode:ポルカドットスティングレイ
Creator:Rdzeniu
Version:Lightning Speed
Source:
Tags:
BeatmapID:1937575
BeatmapSetID:927653

[Difficulty]
HPDrainRate:6
CircleSize:4
OverallDifficulty:9
ApproachRate:9.5
SliderMultiplier:3.2
SliderTickRate:1

[Events]
//Background and Video events
0,0,"psuuyHM.png",0,0
//Break Periods
//Storyboard Layer 0 (Background)
//Storyboard Layer 1 (Fail)
//Storyboard Layer 2 (Pass)
//Storyboard Layer 3 (Foreground)
//Storyboard Sound Samples

[TimingPoints]
6634,413.793103448276,4,2,0,70,1,0
9116,-90.9090909090909,4,2,0,70,0,0
9944,-100,4,2,0,70,0,0
12427,-90.9090909090909,4,2,0,70,0,0
13254,-100,4,2,0,70,0,0
15737,-90.9090909090909,4,2,0,70,0,0
16254,-100,4,2,0,70,0,0
18013,-90.9090909090909,4,2,0,70,0,0
19875,-100,4,2,0,70,0,0
33116,-90.9090909090909,4,2,0,70,0,0
33944,-100,4,2,0,70,0,0
43461,-83.3333333333333,4,2,0,70,0,0
44289,-100,4,2,0,70,0,0
56289,-83.3333333333333,4,2,0,70,0,0
59806,-100,4,2,0,70,0,0
62909,-83.3333333333333,4,2,0,70,0,0
66634,-100,4,2,0,70,0,0
69530,-100,4,2,0,70,0,0
81530,-90.9090909090909,4,2,0,70,0,0
82771,-100,4,2,0,70,0,0
89185,-100,4,2,0,30,0,0
89392,-100,4,2,0,70,0,0
99323,-83.3333333333333,4,2,0,70,0,0
103047,-100,4,2,0,70,0,0
105944,-83.3333333333333,4,2,0,70,0,0
109668,-100,4,2,0,70,0,0
125806,827.586206896552,4,2,0,35,1,0
128317,827.586206896552,4,2,0,35,1,0
136138,827.586206896552,4,2,0,35,1,0
141116,413.793103448276,4,2,0,70,1,0
141116,-133.333333333333,4,2,0,70,0,1
146929,413.793103448276,4,2,0,70,1,1
147066,-125,4,2,0,70,0,1
150239,-111.111111111111,4,2,0,70,0,1
150860,-125,4,2,0,70,0,1
151066,-133.333333333333,4,2,0,70,0,1
151273,-100,4,2,0,70,0,1
158929,-117.647058823529,4,2,0,70,0,1
159135,-111.111111111111,4,2,0,70,0,1
159342,-100,4,2,0,70,0,1
163066,-125,4,2,0,70,0,1
163377,-100,4,2,0,70,0,1
166377,-125,4,2,0,70,0,1
167204,-100,4,2,0,70,0,1
168860,-100,4,2,0,70,0,0
171941,413.793103448276,4,2,0,70,1,0
172147,413.793103448276,4,2,0,70,1,0
174630,-83.3333333333333,4,2,0,70,0,0
175458,-83.3333333333333,4,2,0,70,0,0
188699,-83.3333333333333,4,2,0,70,0,0
201941,-100,4,2,0,70,0,0
215181,-133.333333333333,4,2,0,70,0,0

[Colours]
Combo1 : 250,174,99
Combo2 : 30,225,88
Combo3 : 21,148,251
Combo4 : 184,82,146

[HitObjects]
175,85,6633,6,0,P|187:164|129:224,1,160,4|0,0:0|0:0,0:0:0:0:
103,138,6944,1,0,0:0:0:0:
31,190,7047,2,0,P|19:111|77:51,1,160,8|0,0:0|0:0,0:0:0:0:
331,25,7461,5,0,0:0:0:0:
404,41,7564,1,0,0:0:0:0:
410,116,7667,1,0,0:0:0:0:
342,145,7771,1,0,0:0:0:0:
292,89,7875,2,0,P|268:57|262:14,1,80,8|0,0:0|0:0,0:0:0:0:
410,116,8082,2,0,P|403:158|380:191,1,80
294,362,8289,1,0,0:0:0:0:
294,362,8496,6,0,L|312:271,1,80
139,286,8702,2,0,L|121:195,1,80,8|0,0:0|0:0,0:0:0:0:
59,38,8909,1,0,0:0:0:0:
124,80,9012,1,0,0:0:0:0:
198,58,9116,2,0,P|241:39|293:31,1,88.000002685547
405,56,9323,1,0,0:0:0:0:
290,115,9427,2,0,P|332:134|384:142,1,88.000002685547,0|8,0:0|0:0,0:0:0:0:
496,243,9634,5,0,0:0:0:0:
413,223,9737,1,0,0:0:0:0:
346,276,9840,1,0,0:0:0:0:
343,363,9944,2,0,P|264:375|204:317,1,160
291,292,10255,1,0,0:0:0:0:
239,219,10358,2,0,P|315:207|374:257,1,160,8|0,0:0|0:0,0:0:0:0:
126,257,10771,5,0,0:0:0:0:
104,185,10874,1,0,0:0:0:0:
29,182,10977,1,0,0:0:0:0:
4,253,11081,1,0,0:0:0:0:
62,299,11185,2,0,P|106:307|168:292,1,80,8|0,0:0|0:0,0:0:0:0:
194,145,11392,2,0,P|235:140|299:152,1,80
445,228,11599,1,0,0:0:0:0:
445,228,11806,6,0,L|458:129,1,80
352,282,12013,2,0,L|339:183,1,80,8|0,0:0|0:0,0:0:0:0:
315,26,12220,1,0,0:0:0:0:
250,68,12323,1,0,0:0:0:0:
173,52,12427,2,0,P|131:42|68:52,1,88.000002685547
17,164,12634,1,12,0:0:0:0:
17,76,12737,1,0,0:0:0:0:
93,120,12840,1,8,0:0:0:0:
97,208,12944,2,0,L|77:330,1,88.000002685547,12|0,0:0|0:0,0:0:0:0:
484,71,13254,6,0,P|417:26|338:53,1,160,4|0,0:0|0:0,0:0:0:0:
406,113,13565,1,0,0:0:0:0:
328,157,13668,2,0,P|391:199|466:179,1,160,8|0,0:0|0:0,0:0:0:0:
202,76,14082,1,0,0:0:0:0:
149,129,14185,1,0,0:0:0:0:
183,195,14288,1,0,0:0:0:0:
257,183,14392,1,0,0:0:0:0:
269,109,14496,2,0,P|275:65|256:24,1,80,8|0,0:0|0:0,0:0:0:0:
88,86,14702,2,0,P|74:123|81:162,1,80
166,342,14909,1,0,0:0:0:0:
166,342,15116,6,0,L|133:241,1,80
280,352,15323,2,0,L|313:251,1,80,8|0,0:0|0:0,0:0:0:0:
352,117,15530,1,0,0:0:0:0:
294,171,15633,1,0,0:0:0:0:
216,181,15737,2,0,P|173:172|129:153,1,88.000002685547
57,51,15944,1,0,0:0:0:0:
196,122,16047,2,0,P|151:123|103:116,1,88.000002685547,0|8,0:0|0:0,0:0:0:0:
209,25,16254,5,0,0:0:0:0:
286,32,16357,1,0,0:0:0:0:
335,93,16460,1,0,0:0:0:0:
356,171,16565,2,0,P|422:215|501:188,1,160
434,129,16876,1,0,0:0:0:0:
512,85,16979,2,0,P|448:42|373:62,1,160,8|0,0:0|0:0,0:0:0:0:
348,288,17392,5,0,0:0:0:0:
375,357,17495,1,0,0:0:0:0:
450,352,17598,1,0,0:0:0:0:
468,279,17702,1,0,0:0:0:0:
405,240,17806,2,0,P|366:231|325:230,1,80,8|0,0:0|0:0,0:0:0:0:
149,307,18013,1,12,0:0:0:0:
138,213,18116,2,0,L|117:117,2,88.000002685547
226,351,18427,2,0,L|245:266,1,88.000002685547
288,87,18634,1,8,0:0:0:0:
324,330,18840,5,0,0:0:0:0:
330,245,18943,1,0,0:0:0:0:
267,188,19047,2,0,P|225:169|172:165,1,88.000002685547
42,266,19254,2,0,P|84:285|137:289,1,88.000002685547
330,245,19461,5,8,0:0:0:0:
251,265,19565,1,0,0:0:0:0:
203,323,19668,2,0,P|157:313|108:266,1,88.000002685547
49,88,19875,6,0,B|177:100|254:57|254:57|196:31|128:48,1,320,4|8,0:0|0:0,0:0:0:0:
100,294,20496,2,0,L|205:284,1,80
282,264,20702,2,0,B|149:283|79:233|79:233|136:197|182:223,1,320,0|8,0:0|0:0,0:0:0:0:
447,256,21323,5,0,0:0:0:0:
282,358,21530,1,0,0:0:0:0:
383,117,21737,1,0,0:0:0:0:
383,117,21944,2,0,L|365:231,1,80,8|0,0:0|0:0,0:0:0:0:
284,158,22151,2,0,L|296:243,1,80
388,280,22358,2,0,P|305:331|274:387,1,160
451,208,22771,2,0,P|480:294|421:379,1,160,8|0,0:0|0:0,0:0:0:0:
486,132,23185,1,0,0:0:0:0:
303,291,23392,1,0,0:0:0:0:
305,262,23496,1,0,0:0:0:0:
292,236,23599,6,8,B|240:187|208:250|130:187,1,160,8|0,0:0|0:0,0:0:0:0:
64,107,23909,1,0,0:0:0:0:
64,107,24013,2,0,P|161:96|214:166,1,160,0|8,0:0|0:0,0:0:0:0:
199,336,24427,1,8,0:0:0:0:
237,141,24634,1,0,0:0:0:0:
125,282,24840,6,0,L|63:222,1,80
56,214,25047,1,0,0:0:0:0:
247,69,25254,1,8,0:0:0:0:
8,42,25461,1,0,0:0:0:0:
29,61,25565,1,0,0:0:0:0:
53,73,25668,2,0,P|95:74|140:59,1,80
251,19,25875,2,0,P|293:18|338:33,1,80
481,152,26082,1,8,0:0:0:0:
481,152,26289,5,0,0:0:0:0:
460,212,26392,1,0,0:0:0:0:
419,261,26496,2,0,P|344:295|262:295,1,160
65,192,26909,1,8,0:0:0:0:
276,105,27116,1,0,0:0:0:0:
248,98,27220,1,0,0:0:0:0:
220,99,27323,2,0,B|190:192|201:273,1,160
280,383,27737,1,8,0:0:0:0:
377,267,27944,2,0,L|369:259|366:256|358:248|350:240|347:237|343:233|297:193,2,40
377,267,28151,6,0,P|426:221|447:173,1,80
431,82,28358,2,0,P|407:50|375:25,1,80
179,19,28565,1,8,0:0:0:0:
343,101,28771,1,0,0:0:0:0:
335,122,28875,1,0,0:0:0:0:
324,142,28978,2,0,P|291:171|257:184,1,80
112,135,29185,2,0,P|141:162|178:177,1,80
172,310,29392,2,0,P|199:280|214:243,1,80,8|0,0:0|0:0,0:0:0:0:
222,114,29599,2,0,P|207:77|179:47,1,80
46,19,29806,1,0,0:0:0:0:
46,19,30013,5,0,0:0:0:0:
51,38,30116,1,0,0:0:0:0:
56,62,30220,2,0,P|54:112|39:168,1,80,8|0,0:0|0:0,0:0:0:0:
1,297,30427,1,0,0:0:0:0:
1,297,30634,2,0,P|41:291|102:303,1,80
206,333,30840,1,0,0:0:0:0:
162,177,31047,2,0,P|154:224|169:269,1,80,8|0,0:0|0:0,0:0:0:0:
293,252,31254,2,0,P|300:213|292:174,1,80
181,31,31461,5,0,0:0:0:0:
202,54,31564,1,0,0:0:0:0:
229,70,31668,2,0,P|268:85|328:83,1,80
464,26,31875,1,8,0:0:0:0:
464,26,32082,5,0,0:0:0:0:
438,100,32185,1,0,0:0:0:0:
456,177,32289,2,0,P|481:252|481:267,1,80
365,367,32496,1,0,0:0:0:0:
365,367,32702,5,8,0:0:0:0:
381,292,32805,1,0,0:0:0:0:
324,242,32908,1,0,0:0:0:0:
253,267,33012,1,0,0:0:0:0:
240,342,33116,2,0,B|175:352|127:306|127:306|112:341|121:372,1,176.000005371094,4|0,0:0|0:0,0:0:0:0:
203,143,33530,1,8,0:0:0:0:
203,143,33737,6,0,P|160:208|148:244,1,88.000002685547
190,286,33944,1,0,0:0:0:0:
234,346,34047,1,0,0:0:0:0:
306,324,34150,1,0,0:0:0:0:
310,249,34254,1,0,0:0:0:0:
241,220,34358,2,0,P|213:252|185:297,1,80,8|0,0:0|0:0,0:0:0:0:
322,359,34565,2,0,P|350:327|378:282,1,80
406,107,34771,1,0,0:0:0:0:
406,107,34978,6,0,L|296:68,1,80
443,194,35185,2,0,L|367:220,1,80,8|0,0:0|0:0,0:0:0:0:
192,283,35392,1,0,0:0:0:0:
249,230,35495,1,0,0:0:0:0:
246,153,35599,2,0,P|236:119|196:68,1,80
85,38,35806,1,0,0:0:0:0:
255,102,35909,2,0,P|236:71|184:32,1,80,0|8,0:0|0:0,0:0:0:0:
19,93,36116,5,0,0:0:0:0:
11,170,36220,1,0,0:0:0:0:
85,203,36323,1,0,0:0:0:0:
148,157,36427,2,0,P|179:230|154:316,1,160
65,287,36737,1,0,0:0:0:0:
160,306,36840,2,0,P|236:324|309:294,1,160,8|0,0:0|0:0,0:0:0:0:
360,113,37254,5,0,0:0:0:0:
411,58,37357,1,0,0:0:0:0:
478,90,37460,1,0,0:0:0:0:
468,164,37564,1,0,0:0:0:0:
395,178,37668,2,0,P|349:161|314:135,1,80,8|0,0:0|0:0,0:0:0:0:
216,25,37875,2,0,P|170:42|135:68,1,80,4|0,0:0|0:0,0:0:0:0:
98,218,38082,6,0,L|30:236,4,40
195,309,38392,1,0,0:0:0:0:
195,309,38496,2,0,L|116:351,2,80,8|0|0,0:0|0:0|0:0,0:0:0:0:
332,326,38806,1,0,0:0:0:0:
332,326,38910,2,0,L|267:387,2,80
466,331,39220,1,0,0:0:0:0:
466,331,39323,2,0,L|456:369,2,40,8|0|0,0:0|0:0|0:0,0:0:0:0:
504,224,39530,2,0,P|507:186|501:119,1,80
480,37,39737,6,0,B|404:10|405:60|291:29,1,160,4|0,0:0|0:0,0:0:0:0:
34,20,40151,1,8,0:0:0:0:
34,20,40358,5,0,0:0:0:0:
110,34,40461,1,0,0:0:0:0:
159,96,40565,2,0,P|224:104|206:26,1,160
21,191,40978,1,8,0:0:0:0:
263,348,41185,1,0,0:0:0:0:
240,273,41288,1,0,0:0:0:0:
171,235,41392,6,0,P|145:170|147:129,1,80
231,33,41599,2,0,P|223:73|203:107,1,80
42,112,41806,1,8,0:0:0:0:
310,149,42013,1,0,0:0:0:0:
310,149,42220,6,0,P|300:192|270:233,1,80
179,316,42427,2,0,P|189:273|219:232,1,80
144,145,42634,2,0,P|187:151|231:177,1,80,8|0,0:0|0:0,0:0:0:0:
337,320,42840,1,0,0:0:0:0:
337,320,43047,6,0,L|372:224,1,80
448,52,43358,1,0,0:0:0:0:
429,66,43461,6,0,B|392:44|356:56|356:56|300:17|241:55,1,191.999994140625,8|0,0:0|0:0,0:0:0:0:
95,113,43771,1,0,0:0:0:0:
117,126,43875,2,0,B|154:148|190:136|190:136|247:171|305:137,1,191.999994140625
161,42,44289,2,0,L|64:32,1,80,8|0,0:0|0:0,0:0:0:0:
12,189,44496,2,0,L|109:199,1,80
299,139,44702,1,0,0:0:0:0:
299,139,44909,6,0,L|202:129,1,80
151,286,45116,2,0,L|248:296,1,80,8|0,0:0|0:0,0:0:0:0:
417,272,45323,2,0,P|372:217|360:298,1,160
454,363,45634,1,0,0:0:0:0:
471,351,45737,2,0,P|497:318|512:268,1,80
468,140,45944,2,0,P|494:173|509:223,1,80,8|0,0:0|0:0,0:0:0:0:
364,352,46151,5,0,0:0:0:0:
287,342,46254,1,0,0:0:0:0:
251,274,46358,2,0,P|234:196|271:99,1,160
335,70,46668,1,0,0:0:0:0:
335,70,46771,1,8,0:0:0:0:
135,44,46978,5,0,0:0:0:0:
140,69,47082,1,0,0:0:0:0:
151,92,47185,2,0,P|168:170|131:267,1,160
72,303,47495,1,0,0:0:0:0:
72,303,47598,1,8,0:0:0:0:
225,375,47806,6,0,P|204:339|192:283,1,80
346,247,48013,2,0,P|366:282|378:338,1,80
246,222,48220,2,0,P|256:182|287:134,1,80
443,51,48427,1,8,0:0:0:0:
443,51,48634,5,0,0:0:0:0:
456,79,48737,1,0,0:0:0:0:
462,111,48840,2,0,P|451:149|431:183,1,80
279,129,49047,2,0,P|289:90|309:56,1,80
336,215,49254,2,0,P|245:224|177:152,1,160,8|0,0:0|0:0,0:0:0:0:
27,55,49668,1,0,0:0:0:0:
27,55,49874,5,0,0:0:0:0:
19,101,49978,1,0,0:0:0:0:
46,142,50082,2,0,P|71:217|39:309,1,160,8|0,0:0|0:0,0:0:0:0:
145,194,50392,1,0,0:0:0:0:
154,216,50496,2,0,P|230:234|305:208,1,160
367,69,50806,1,0,0:0:0:0:
348,57,50910,2,0,P|268:58|202:103,1,160,8|0,0:0|0:0,0:0:0:0:
144,348,51323,1,0,0:0:0:0:
144,348,51530,5,0,0:0:0:0:
221,337,51633,1,0,0:0:0:0:
276,281,51737,2,0,L|299:200,1,80,8|0,0:0|0:0,0:0:0:0:
140,157,51944,2,0,L|117:238,1,80
241,125,52151,5,0,0:0:0:0:
206,72,52254,1,0,0:0:0:0:
148,48,52357,1,0,0:0:0:0:
86,62,52461,1,0,0:0:0:0:
41,122,52565,5,8,0:0:0:0:
82,188,52668,1,0,0:0:0:0:
155,217,52771,1,0,0:0:0:0:
231,195,52875,1,0,0:0:0:0:
308,213,52978,5,0,0:0:0:0:
489,28,53599,5,0,0:0:0:0:
308,213,53806,1,0,0:0:0:0:
26,168,54427,5,0,0:0:0:0:
207,353,54634,1,0,0:0:0:0:
339,93,54840,5,0,0:0:0:0:
148,298,55047,1,0,0:0:0:0:
11,32,55254,5,0,0:0:0:0:
218,276,55461,1,4,0:0:0:0:
218,276,55668,5,0,0:0:0:0:
240,210,55771,1,0,0:0:0:0:
308,195,55874,1,0,0:0:0:0:
356,245,55978,1,0,0:0:0:0:
390,314,56082,1,0,0:0:0:0:
462,329,56185,1,0,0:0:0:0:
497,263,56289,6,0,P|484:173|392:98,1,191.999994140625,4|0,0:0|0:0,0:0:0:0:
100,75,56702,2,0,B|50:79|29:118|29:118|139:161|227:94,1,287.999991210938,8|0,0:0|0:0,0:0:0:0:
373,7,57116,2,0,P|445:18|410:106,1,191.999994140625
276,25,57427,1,0,0:0:0:0:
276,25,57530,2,0,P|309:63|300:138,1,95.9999970703126,8|0,0:0|0:0,0:0:0:0:
188,212,57737,2,0,P|155:174|164:99,1,95.9999970703126
323,211,57944,5,0,0:0:0:0:
348,286,58047,1,0,0:0:0:0:
292,343,58151,2,0,L|199:381,1,95.9999970703126
99,248,58358,2,0,L|192:210,1,95.9999970703126,8|0,0:0|0:0,0:0:0:0:
388,161,58565,1,0,0:0:0:0:
73,98,58771,1,0,0:0:0:0:
297,52,58978,1,0,0:0:0:0:
297,52,59082,1,0,0:0:0:0:
297,52,59185,1,8,0:0:0:0:
99,248,59392,6,0,L|311:160,1,191.999994140625
482,288,59806,1,0,0:0:0:0:
483,36,60013,1,8,0:0:0:0:
277,173,60220,1,0,0:0:0:0:
354,358,60427,5,0,0:0:0:0:
494,218,60634,1,0,0:0:0:0:
354,79,60840,1,8,0:0:0:0:
215,218,61047,1,0,0:0:0:0:
159,34,61254,6,0,B|216:38|238:60|238:60|221:84|157:112,1,160
26,30,61668,1,8,0:0:0:0:
229,170,61875,2,0,P|136:178|94:121,1,160
332,19,62289,5,8,0:0:0:0:
323,355,62496,1,8,0:0:0:0:
102,263,62702,5,0,0:0:0:0:
170,225,62805,1,0,0:0:0:0:
245,247,62909,2,0,P|296:260|347:252,1,95.9999970703126,4|0,0:0|0:0,0:0:0:0:
350,93,63116,2,0,P|299:80|248:88,1,95.9999970703126
56,207,63323,2,0,B|72:241|100:262|100:262|89:210|100:137,1,191.999994140625,8|0,0:0|0:0,0:0:0:0:
256,85,63737,6,0,B|266:153|255:205|255:205|283:184|299:150,1,191.999994140625
378,22,64047,1,0,0:0:0:0:
378,22,64151,2,0,P|426:20|483:35,1,95.9999970703126,8|0,0:0|0:0,0:0:0:0:
407,200,64358,2,0,L|421:82,1,95.9999970703126
502,239,64565,6,0,P|439:302|326:264,1,191.999994140625
226,175,64875,1,0,0:0:0:0:
226,175,64979,2,0,P|178:173|121:188,1,95.9999970703126,8|0,0:0|0:0,0:0:0:0:
153,350,65185,2,0,P|201:352|258:337,1,95.9999970703126
314,208,65392,2,0,L|300:102,1,95.9999970703126
44,148,65599,2,0,L|58:254,1,95.9999970703126
315,290,65806,1,8,0:0:0:0:
184,27,66013,1,0,0:0:0:0:
96,311,66220,6,0,L|275:224,1,191.999994140625
402,30,66634,1,8,0:0:0:0:
184,27,66840,1,0,0:0:0:0:
268,227,67047,5,0,0:0:0:0:
144,351,67255,1,0,0:0:0:0:
19,227,67461,1,8,0:0:0:0:
144,102,67668,1,4,0:0:0:0:
294,303,67875,6,0,L|193:328,1,80
218,134,68082,2,0,L|319:159,1,80
458,314,68289,1,8,0:0:0:0:
458,314,68496,5,0,0:0:0:0:
426,244,68599,1,0,0:0:0:0:
465,177,68702,1,0,0:0:0:0:
198,38,68909,1,0,0:0:0:0:
135,33,69012,1,0,0:0:0:0:
85,71,69116,1,8,0:0:0:0:
154,102,69219,1,0,0:0:0:0:
163,178,69322,1,0,0:0:0:0:
103,226,69426,1,0,0:0:0:0:
32,199,69530,6,0,P|103:152|175:196,1,160,4|0,0:0|0:0,0:0:0:0:
240,321,69840,1,0,0:0:0:0:
240,321,69944,2,0,P|314:352|381:317,1,160,8|0,0:0|0:0,0:0:0:0:
354,95,70358,5,0,0:0:0:0:
421,62,70461,1,0,0:0:0:0:
473,116,70564,1,0,0:0:0:0:
438,182,70668,1,0,0:0:0:0:
364,169,70771,2,0,P|336:139|278:118,1,80,8|0,0:0|0:0,0:0:0:0:
209,261,70978,2,0,P|174:243|147:214,1,80
40,37,71185,1,0,0:0:0:0:
40,37,71392,6,0,L|157:28,1,80
19,160,71599,2,0,L|136:151,1,80,8|0,0:0|0:0,0:0:0:0:
296,69,71806,1,0,0:0:0:0:
254,135,71909,1,0,0:0:0:0:
271,211,72013,2,0,P|296:248|359:275,1,80
486,276,72220,1,0,0:0:0:0:
341,188,72323,2,0,P|355:230|409:272,1,80,0|8,0:0|0:0,0:0:0:0:
497,106,72530,5,0,0:0:0:0:
454,41,72633,1,0,0:0:0:0:
377,37,72736,1,0,0:0:0:0:
315,82,72840,2,0,P|268:140|184:162,1,160
189,60,73151,1,0,0:0:0:0:
188,162,73254,2,0,P|168:238|107:288,1,160,8|0,0:0|0:0,0:0:0:0:
29,87,73668,5,0,0:0:0:0:
72,25,73771,1,0,0:0:0:0:
143,47,73874,1,0,0:0:0:0:
145,122,73978,1,0,0:0:0:0:
75,147,74082,2,0,P|42:121|28:73,1,80,8|0,0:0|0:0,0:0:0:0:
206,6,74289,2,0,P|231:40|232:90,1,80
196,300,74496,1,0,0:0:0:0:
196,300,74702,6,0,L|259:216,1,80
350,358,74909,2,0,L|432:293,1,80,8|0,0:0|0:0,0:0:0:0:
484,170,75116,1,0,0:0:0:0:
408,153,75219,1,0,0:0:0:0:
354,97,75323,2,0,P|336:58|292:20,1,80
171,62,75530,1,12,0:0:0:0:
236,3,75633,1,0,0:0:0:0:
254,88,75736,1,8,0:0:0:0:
192,151,75840,2,0,L|76:154,1,80,4|0,0:0|0:0,0:0:0:0:
25,278,76047,5,0,0:0:0:0:
25,278,76151,2,0,P|66:348|172:367,1,160,4|0,0:0|0:0,0:0:0:0:
201,293,76461,1,0,0:0:0:0:
269,369,76565,2,0,P|342:342|381:274,1,160,8|0,0:0|0:0,0:0:0:0:
348,17,76978,5,0,0:0:0:0:
275,36,77081,1,0,0:0:0:0:
272,111,77184,1,0,0:0:0:0:
342,137,77288,1,0,0:0:0:0:
388,79,77392,2,0,P|380:42|342:16,1,80,8|0,0:0|0:0,0:0:0:0:
168,9,77599,2,0,P|176:46|214:72,1,80
455,17,77806,1,0,0:0:0:0:
455,17,78013,6,0,L|480:113,1,80
325,77,78220,2,0,L|304:154,1,80,8|0,0:0|0:0,0:0:0:0:
271,352,78427,1,0,0:0:0:0:
244,280,78530,1,0,0:0:0:0:
170,272,78634,2,0,L|160:351,2,80
50,313,78944,1,0,0:0:0:0:
48,312,79047,2,0,L|44:232,1,80,8|0,0:0|0:0,0:0:0:0:
94,98,79254,5,0,0:0:0:0:
164,131,79357,1,0,0:0:0:0:
240,110,79461,2,0,P|298:53|393:52,1,160
338,137,79771,1,0,0:0:0:0:
434,165,79875,2,0,P|376:222|281:223,1,160,8|0,0:0|0:0,0:0:0:0:
128,79,80289,5,0,0:0:0:0:
73,27,80392,1,0,0:0:0:0:
7,62,80495,1,0,0:0:0:0:
19,136,80599,1,0,0:0:0:0:
93,148,80702,2,0,P|137:153|178:137,1,80,8|0,0:0|0:0,0:0:0:0:
359,20,80909,1,4,0:0:0:0:
359,20,81220,6,0,L|293:27,4,40
376,22,81530,2,0,P|451:62|461:165,1,176.000005371094,8|0,0:0|0:0,0:0:0:0:
396,217,81840,1,0,0:0:0:0:
376,120,81944,1,0,0:0:0:0:
425,343,82151,1,0,0:0:0:0:
425,343,82358,5,8,0:0:0:0:
347,339,82461,1,0,0:0:0:0:
286,289,82564,1,0,0:0:0:0:
267,214,82668,1,0,0:0:0:0:
227,147,82771,6,0,P|131:127|61:197,1,160,4|0,0:0|0:0,0:0:0:0:
21,285,83082,1,0,0:0:0:0:
21,285,83185,2,0,B|118:327,1,80,8|0,0:0|0:0,0:0:0:0:
170,210,83392,1,0,0:0:0:0:
172,234,83496,1,0,0:0:0:0:
174,258,83599,2,0,B|256:323,1,80
383,367,83806,1,0,0:0:0:0:
383,367,84013,5,8,0:0:0:0:
364,292,84116,1,0,0:0:0:0:
417,238,84220,2,0,P|456:214|483:175,1,80
496,27,84427,1,0,0:0:0:0:
496,27,84634,6,0,P|454:22|390:37,1,80
347,139,84840,2,0,P|305:144|241:129,1,80,8|0,0:0|0:0,0:0:0:0:
126,57,85047,1,0,0:0:0:0:
173,117,85150,1,0,0:0:0:0:
153,191,85254,2,0,P|128:231|78:269,1,80
76,118,85461,2,0,P|101:78|151:40,1,80
294,65,85668,1,8,0:0:0:0:
333,284,85875,1,0,0:0:0:0:
333,284,86082,6,0,L|366:193,1,80
442,16,86289,1,0,0:0:0:0:
406,25,86392,1,0,0:0:0:0:
368,17,86496,2,0,B|308:16|257:42|257:42|281:68|320:69,1,160,8|0,0:0|0:0,0:0:0:0:
457,92,86806,1,0,0:0:0:0:
457,92,86909,2,0,B|470:89|494:115|494:115|443:141|383:140,1,160
148,49,87323,5,8,0:0:0:0:
74,33,87426,1,0,0:0:0:0:
36,97,87529,1,0,0:0:0:0:
86,153,87633,1,0,0:0:0:0:
154,124,87737,2,0,P|184:94|201:53,1,80
36,97,87944,2,0,P|14:133|8:177,1,80
122,316,88151,2,0,P|156:336|195:343,1,80,8|0,0:0|0:0,0:0:0:0:
328,249,88358,1,0,0:0:0:0:
263,211,88461,1,0,0:0:0:0:
210,264,88565,6,0,L|192:354,1,80
343,327,88771,2,0,L|327:248,1,80
156,165,88978,2,0,L|138:255,1,80,8|0,0:0|0:0,0:0:0:0:
327,175,89185,2,0,L|316:128,5,26.6666666666667
320,149,89392,6,0,B|308:88|275:40|275:40|251:70|253:108,1,160
239,175,89702,1,0,0:0:0:0:
180,85,89806,2,0,P|93:42|51:88,1,160,8|0,0:0|0:0,0:0:0:0:
76,197,90116,1,0,0:0:0:0:
76,197,90220,2,0,B|80:159|112:127|112:127|139:164|132:210,1,160
34,293,90530,1,0,0:0:0:0:
34,293,90634,2,0,P|73:285|133:286,1,80,8|0,0:0|0:0,0:0:0:0:
298,357,90840,5,0,0:0:0:0:
323,287,90943,1,0,0:0:0:0:
263,243,91047,2,0,L|165:263,1,80
372,346,91254,2,0,L|470:326,1,80
392,143,91461,1,8,0:0:0:0:
232,322,91668,5,0,0:0:0:0:
170,364,91771,1,0,0:0:0:0:
112,317,91875,2,0,L|105:216,1,80
287,198,92082,2,0,L|293:298,1,80
104,160,92289,1,8,0:0:0:0:
350,78,92496,5,0,0:0:0:0:
356,118,92599,1,0,0:0:0:0:
363,155,92702,2,0,L|383:266,1,80
187,233,92909,2,0,L|200:154,1,80
293,19,93116,2,0,B|249:56|184:66|184:66|185:43|205:15,1,160,8|0,0:0|0:0,0:0:0:0:
390,10,93427,1,0,0:0:0:0:
390,10,93530,2,0,B|427:91|367:91|409:175,1,160,0|4,0:0|0:0,0:0:0:0:
488,351,93944,5,8,0:0:0:0:
440,289,94047,1,0,0:0:0:0:
362,284,94150,1,0,0:0:0:0:
293,321,94254,1,0,0:0:0:0:
215,316,94358,2,0,P|181:298|131:253,1,80
115,102,94565,1,0,0:0:0:0:
128,173,94668,1,0,0:0:0:0:
57,188,94771,2,0,P|22:168|-17:132,1,80,8|0,0:0|0:0,0:0:0:0:
133,18,94978,2,0,P|168:38|207:74,1,80
266,276,95185,5,0,0:0:0:0:
286,342,95288,1,0,0:0:0:0:
352,362,95391,1,0,0:0:0:0:
406,320,95495,1,0,0:0:0:0:
401,243,95599,1,8,0:0:0:0:
352,184,95702,1,0,0:0:0:0:
379,113,95805,1,0,0:0:0:0:
454,101,95909,1,0,0:0:0:0:
501,161,96012,5,0,0:0:0:0:
221,26,96634,5,0,0:0:0:0:
428,174,96840,1,0,0:0:0:0:
140,242,97461,5,0,0:0:0:0:
379,113,97668,1,0,0:0:0:0:
89,33,97875,5,0,0:0:0:0:
355,182,98082,1,0,0:0:0:0:
45,314,98289,5,0,0:0:0:0:
305,126,98496,1,4,0:0:0:0:
305,126,98702,5,0,0:0:0:0:
259,83,98805,1,0,0:0:0:0:
196,78,98909,1,0,0:0:0:0:
138,127,99012,1,0,0:0:0:0:
154,202,99115,1,0,0:0:0:0:
226,233,99220,1,0,0:0:0:0:
243,308,99323,6,0,P|158:358|80:281,1,191.999994140625,4|0,0:0|0:0,0:0:0:0:
421,280,99737,2,0,B|471:276|492:237|492:237|382:194|300:256,1,287.999991210938,8|0,0:0|0:0,0:0:0:0:
88,311,100151,2,0,P|63:227|147:203,1,191.999994140625
214,348,100461,1,0,0:0:0:0:
214,348,100565,2,0,L|219:246,1,95.9999970703126,8|0,0:0|0:0,0:0:0:0:
228,118,100771,2,0,P|256:155|304:184,1,95.9999970703126
333,20,100978,5,0,0:0:0:0:
257,10,101081,1,0,0:0:0:0:
183,27,101185,2,0,P|141:49|83:117,1,95.9999970703126
219,235,101392,2,0,P|261:213|319:145,1,95.9999970703126,8|0,0:0|0:0,0:0:0:0:
77,153,101599,1,0,0:0:0:0:
336,112,101806,1,0,0:0:0:0:
30,26,102013,1,0,0:0:0:0:
413,24,102220,1,8,0:0:0:0:
413,24,102323,1,0,0:0:0:0:
413,24,102427,1,0,0:0:0:0:
99,248,102634,6,0,L|276:174,1,191.999994140625
511,78,103047,1,8,0:0:0:0:
255,19,103254,1,0,0:0:0:0:
371,352,103461,5,0,0:0:0:0:
332,65,103668,1,0,0:0:0:0:
141,352,103875,1,8,0:0:0:0:
180,65,104082,1,0,0:0:0:0:
446,293,104289,6,0,P|484:227|450:131,1,160
232,217,104702,2,0,L|426:208,1,160,8|0,0:0|0:0,0:0:0:0:
214,104,105116,1,0,0:0:0:0:
237,353,105323,5,8,0:0:0:0:
331,9,105530,1,8,0:0:0:0:
36,149,105737,5,0,0:0:0:0:
95,200,105840,1,0,0:0:0:0:
173,197,105944,2,0,P|222:185|273:142,1,95.9999970703126,4|0,0:0|0:0,0:0:0:0:
188,5,106151,2,0,P|139:17|88:60,1,95.9999970703126
45,263,106358,2,0,B|46:314|71:343|71:343|153:341|141:339|165:306|192:294|192:294|236:289|290:344,1,287.999991210938,8|0,0:0|0:0,0:0:0:0:
426,368,106771,6,0,L|415:163,1,191.999994140625
332,316,107082,1,0,0:0:0:0:
332,316,107185,2,0,L|324:156,1,95.9999970703126,8|0,0:0|0:0,0:0:0:0:
316,64,107392,2,0,P|278:92|187:101,1,95.9999970703126
76,31,107599,6,0,P|163:31|233:112,1,191.999994140625
115,217,107909,1,0,0:0:0:0:
115,217,108013,2,0,P|110:161|125:116,1,95.9999970703126,8|0,0:0|0:0,0:0:0:0:
316,64,108220,2,0,P|328:110|322:157,1,95.9999970703126
205,319,108427,1,0,0:0:0:0:
230,103,108634,1,0,0:0:0:0:
480,251,108840,5,8,0:0:0:0:
122,301,109047,1,0,0:0:0:0:
316,64,109254,6,0,L|313:315,1,191.999994140625
57,229,109668,1,8,0:0:0:0:
256,19,109875,1,0,0:0:0:0:
256,348,110082,5,0,0:0:0:0:
420,183,110289,1,0,0:0:0:0:
256,19,110496,1,8,0:0:0:0:
91,183,110702,1,4,0:0:0:0:
363,310,110909,6,0,P|404:318|461:308,1,80
441,69,111116,2,0,P|402:66|363:73,1,80
153,278,111323,1,8,0:0:0:0:
184,338,111426,1,0,0:0:0:0:
252,335,111529,1,0,0:0:0:0:
276,271,111633,1,0,0:0:0:0:
238,203,111737,5,0,0:0:0:0:
198,136,111840,1,0,0:0:0:0:
223,63,111943,1,0,0:0:0:0:
296,36,112047,1,0,0:0:0:0:
363,74,112151,2,0,P|389:117|396:164,1,80,8|0,0:0|0:0,0:0:0:0:
116,146,112358,2,0,P|126:107|148:74,1,80
432,36,112565,6,0,P|469:113|468:189,1,160,4|0,0:0|0:0,0:0:0:0:
387,252,112875,1,0,0:0:0:0:
466,319,112978,2,0,P|388:337|311:319,1,160,8|0,0:0|0:0,0:0:0:0:
95,172,113392,5,0,0:0:0:0:
33,214,113495,1,0,0:0:0:0:
55,286,113598,1,0,0:0:0:0:
129,287,113702,1,0,0:0:0:0:
154,217,113806,2,0,P|159:178|144:129,1,80,8|0,0:0|0:0,0:0:0:0:
34,77,114013,2,0,P|58:45|103:21,1,80
286,24,114220,1,0,0:0:0:0:
286,24,114427,6,0,L|281:146,1,80
434,69,114634,2,0,L|439:191,1,80,8|0,0:0|0:0,0:0:0:0:
452,344,114840,1,0,0:0:0:0:
399,285,114943,1,0,0:0:0:0:
322,274,115047,2,0,P|288:294|220:301,1,80
122,269,115254,1,0,0:0:0:0:
303,328,115358,2,0,P|264:337|197:327,1,80,0|8,0:0|0:0,0:0:0:0:
156,196,115565,5,0,0:0:0:0:
219,150,115668,1,0,0:0:0:0:
297,157,115771,1,0,0:0:0:0:
359,205,115875,2,0,P|441:220|508:160,1,160
417,126,116185,1,0,0:0:0:0:
473,47,116289,2,0,P|396:30|332:74,1,160,8|0,0:0|0:0,0:0:0:0:
302,309,116702,5,0,0:0:0:0:
367,345,116805,1,0,0:0:0:0:
422,295,116908,1,0,0:0:0:0:
392,227,117012,1,0,0:0:0:0:
318,233,117116,2,0,P|277:237|233:276,1,80,8|0,0:0|0:0,0:0:0:0:
165,359,117323,2,0,P|125:356|92:334,1,80
29,182,117530,1,0,0:0:0:0:
29,182,117737,6,0,L|117:175,1,80
66,38,117944,2,0,L|161:52,1,80,8|0,0:0|0:0,0:0:0:0:
329,127,118151,1,0,0:0:0:0:
302,59,118254,1,0,0:0:0:0:
367,26,118358,2,0,P|410:25|460:40,1,80
480,167,118565,1,12,0:0:0:0:
504,82,118668,1,0,0:0:0:0:
419,103,118771,1,8,0:0:0:0:
402,192,118875,2,0,L|389:298,1,80,4|0,0:0|0:0,0:0:0:0:
176,357,119185,6,0,P|176:278|98:216,1,160,4|0,0:0|0:0,0:0:0:0:
86,314,119496,1,0,0:0:0:0:
23,242,119599,2,0,P|22:163|77:108,1,160,8|0,0:0|0:0,0:0:0:0:
306,74,120013,5,0,0:0:0:0:
336,142,120116,1,0,0:0:0:0:
410,135,120219,1,0,0:0:0:0:
427,62,120323,1,0,0:0:0:0:
362,23,120427,2,0,P|326:42|304:86,1,80,8|0,0:0|0:0,0:0:0:0:
289,213,120634,2,0,P|268:246|232:263,1,80
18,219,120840,1,0,0:0:0:0:
18,219,121047,6,0,L|101:225,1,80
160,362,121254,2,0,L|243:356,1,80,8|0,0:0|0:0,0:0:0:0:
433,338,121461,1,0,0:0:0:0:
367,298,121564,1,0,0:0:0:0:
372,222,121668,2,0,P|407:195|430:151,1,80
424,31,121875,1,0,0:0:0:0:
426,215,121978,2,0,P|452:179|463:130,1,80,0|8,0:0|0:0,0:0:0:0:
343,24,122185,5,0,0:0:0:0:
264,32,122288,1,0,0:0:0:0:
203,83,122391,1,0,0:0:0:0:
180,158,122496,2,0,P|189:240|256:283,1,160
271,188,122806,1,0,0:0:0:0:
361,220,122909,2,0,P|352:138|285:95,1,160,8|0,0:0|0:0,0:0:0:0:
106,321,123323,5,0,0:0:0:0:
32,335,123426,1,0,0:0:0:0:
0,269,123529,1,0,0:0:0:0:
46,214,123633,1,0,0:0:0:0:
114,245,123737,2,0,P|155:262|199:288,1,80,8|0,0:0|0:0,0:0:0:0:
359,368,123944,1,4,0:0:0:0:
447,187,124151,6,0,L|515:169,4,40
350,96,124461,1,0,0:0:0:0:
350,96,124565,2,0,L|429:54,2,80,8|0|0,0:0|0:0|0:0,0:0:0:0:
213,79,124875,1,0,0:0:0:0:
213,79,124979,2,0,L|278:18,2,80
79,74,125289,1,0,0:0:0:0:
79,74,125392,2,0,L|89:36,2,40,8|0|0,0:0|0:0|0:0,0:0:0:0:
41,181,125599,2,0,P|38:219|44:286,1,80
149,352,125806,6,0,P|239:332|256:270,1,160
185,121,126426,1,0,0:0:0:0:
279,191,126633,2,0,P|189:211|172:273,1,160
356,353,127254,5,0,0:0:0:0:
420,305,127461,1,0,0:0:0:0:
392,229,127668,1,0,0:0:0:0:
457,183,127874,2,0,P|479:149|490:84,1,80
349,27,128317,1,0,0:0:0:0:
370,104,128523,1,0,0:0:0:0:
299,141,128730,1,0,0:0:0:0:
320,218,128937,1,0,0:0:0:0:
258,269,129144,6,0,B|215:310|171:292|171:292|155:312|155:312|117:293,1,160
99,39,129971,2,0,B|127:119|60:119|98:223,1,160
260,306,130592,5,0,0:0:0:0:
331,343,130799,1,0,0:0:0:0:
397,297,131006,1,0,0:0:0:0:
386,217,131213,1,0,0:0:0:0:
309,195,131420,1,0,0:0:0:0:
254,253,131627,2,0,P|228:282|178:306,1,80
180,222,132041,2,0,P|140:217|101:197,1,80
105,64,132454,6,0,P|188:72|260:117,1,160
326,260,133075,1,0,0:0:0:0:
326,260,133282,2,0,P|405:253|473:213,1,160
478,49,133902,5,0,0:0:0:0:
423,107,134109,1,0,0:0:0:0:
353,67,134316,1,0,0:0:0:0:
294,121,134523,1,0,0:0:0:0:
213,123,134730,1,0,0:0:0:0:
170,54,134937,2,0,P|133:38|62:27,2,80
213,123,135558,2,0,P|212:162|197:209,1,80
39,352,136138,6,0,B|82:351|69:319|132:314,1,80
245,335,136551,2,0,P|318:300|337:221,1,160
191,105,141116,6,0,B|203:125|203:125|190:130|190:130|205:137|205:137|189:144|189:144|205:152|205:152|190:159|190:159|205:166|205:166|191:174|191:174|201:215,1,160.000006103516
261,341,141529,5,0,0:0:0:0:
356,300,141667,5,0,0:0:0:0:
383,199,141805,5,0,0:0:0:0:
182,279,141943,5,0,0:0:0:0:
70,291,142080,5,0,0:0:0:0:
19,193,142218,5,0,0:0:0:0:
71,91,142357,6,0,P|130:37|214:25,1,160.000006103516
208,100,142702,2,0,P|251:107|325:93,1,80.0000030517579
346,26,142978,2,0,P|385:23|425:30,1,80.0000030517579
504,125,143184,1,0,0:0:0:0:
434,345,143598,6,0,P|394:351|354:349,1,80.0000030517579
296,270,143874,2,0,P|256:267|216:274,1,80.0000030517579
154,352,144150,2,0,P|114:354|74:347,1,80.0000030517579
12,239,144426,2,0,B|8:234|8:234|15:234|15:234|12:225|12:225|18:228|18:228|16:220|16:220|22:223|22:223|20:215|20:215|26:218|26:218|25:209|25:209|32:212|32:212|31:202|31:202|38:205|38:205|38:197|38:197|46:201|46:201|47:191|47:191|55:200|55:200|57:186|57:186|65:196|65:196|67:183|67:183|74:194|74:194|77:179|77:179|87:194|87:194,1,180.000006866455
192,197,144840,2,0,B|194:200|194:200|197:185|197:185|204:196|204:196|206:183|206:183|214:193|214:193|216:179|216:179|224:188|224:188|225:178|225:178|233:182|233:182|233:174|233:174|240:177|240:177|239:167|239:167|246:170|246:170|245:161|245:161|251:164|251:164|249:156|249:156|255:159|255:159|253:151|253:151|259:154|259:154|256:145|256:145|263:145|263:145|259:140|259:140|266:140,1,180.000006866455
290,37,145253,6,0,B|314:37|314:37|326:32|326:32|360:37,1,60.0000022888184
432,71,145460,1,0,0:0:0:0:
471,150,145563,1,0,0:0:0:0:
464,239,145667,2,0,B|427:272|427:272|391:273|391:273|345:305,1,120.000004577637
229,345,146029,2,0,L|274:370,1,30.0000011444092
29,218,146340,2,0,L|80:207,1,30.0000011444092
153,194,146495,1,0,0:0:0:0:
153,194,146929,5,0,0:0:0:0:
225,86,147066,2,0,P|261:110|286:176,1,85.3333333333333
287,220,147273,2,0,P|267:259|218:284,1,85.3333333333333
144,301,147549,2,0,B|138:326|151:349|151:349|196:343|239:366,1,128
305,355,147825,2,0,B|336:337|381:343|381:343|394:320|388:295,1,128
417,172,148170,6,0,B|422:161|422:161|415:154|415:154|422:148|422:148|413:142|413:142|425:136|425:136|413:130|413:130|426:120|426:120|410:117|410:117|423:104|423:104|404:102|404:102|419:86|419:86|387:77|387:77,1,192
329,130,148584,1,0,0:0:0:0:
271,180,148687,1,0,0:0:0:0:
199,155,148790,1,0,0:0:0:0:
185,79,148894,1,0,0:0:0:0:
257,46,148997,6,0,P|296:55|327:136,1,128
211,231,149308,2,0,P|171:225|127:182,1,80
33,31,149618,1,0,0:0:0:0:
199,305,149825,6,0,P|274:270|203:236,1,192
124,294,150239,2,0,P|56:251|53:180,1,143.999995605469
133,137,150549,2,0,P|192:80|126:33,1,143.999995605469
45,38,150860,2,0,L|63:130,1,64
137,215,151066,2,0,L|122:289,1,60.0000022888184
44,339,151273,2,0,B|76:388|124:404|172:388|204:340|204:340,1,160
264,264,151584,5,0,0:0:0:0:
264,280,151687,2,0,L|331:346,1,80
397,357,151894,1,0,0:0:0:0:
465,324,151997,1,0,0:0:0:0:
461,249,152100,1,0,0:0:0:0:
390,224,152204,1,0,0:0:0:0:
329,177,152308,2,0,P|319:122|351:83,1,80
492,25,152515,5,0,0:0:0:0:
440,78,152618,1,0,0:0:0:0:
374,43,152722,2,0,P|334:29|272:52,1,80
169,195,152929,5,0,0:0:0:0:
165,118,153032,1,0,0:0:0:0:
99,77,153135,1,0,0:0:0:0:
29,108,153239,1,0,0:0:0:0:
14,184,153342,2,0,P|21:245|61:279,1,80
301,292,153549,5,0,0:0:0:0:
377,288,153652,1,0,0:0:0:0:
418,222,153755,1,0,0:0:0:0:
387,152,153859,1,0,0:0:0:0:
311,137,153962,2,0,P|250:143|216:183,1,80
117,345,154170,5,0,0:0:0:0:
132,271,154273,1,0,0:0:0:0:
68,233,154376,1,0,0:0:0:0:
11,281,154480,1,0,0:0:0:0:
38,351,154584,2,0,P|76:360|135:360,1,80
359,343,154791,5,0,0:0:0:0:
431,313,154894,1,0,0:0:0:0:
438,236,154997,1,0,0:0:0:0:
383,184,155101,1,0,0:0:0:0:
312,210,155204,5,0,0:0:0:0:
228,212,155307,1,0,0:0:0:0:
175,145,155410,1,0,0:0:0:0:
198,63,155514,1,0,0:0:0:0:
277,32,155618,6,0,B|315:41|315:41|404:28|404:28|465:58,1,160
492,179,155929,1,0,0:0:0:0:
481,154,156032,2,0,P|387:147|370:222,1,160
469,304,156342,1,0,0:0:0:0:
456,329,156446,2,0,P|398:340|344:313,1,80
230,243,156653,1,0,0:0:0:0:
252,226,156756,2,0,P|300:259|319:316,1,80
174,359,156963,1,0,0:0:0:0:
146,360,157066,6,0,P|135:302|162:248,1,80
181,130,157273,2,0,L|69:152,2,80
337,96,157584,1,0,0:0:0:0:
335,68,157687,2,0,P|301:39|247:26,1,80
274,174,157894,1,0,0:0:0:0:
281,201,157997,2,0,P|315:230|427:207,1,160
427,46,158308,2,0,P|413:96|433:139,1,80
503,303,158515,5,0,0:0:0:0:
447,287,158618,1,0,0:0:0:0:
392,310,158721,1,0,0:0:0:0:
339,365,158825,1,0,0:0:0:0:
261,363,158929,6,0,P|223:352|165:305,1,68.0000012969971
316,288,159135,2,0,P|282:265|253:257,1,71.9999978027344
102,341,159342,2,0,P|126:307|135:247,1,80
42,27,159652,5,0,0:0:0:0:
37,53,159756,2,0,L|125:110,1,80
266,200,159963,1,0,0:0:0:0:
311,135,160066,1,0,0:0:0:0:
275,65,160170,2,0,B|240:23|205:12|205:12|170:115|200:190,1,240
256,340,160584,6,0,P|215:346|152:318,2,80
343,196,160894,1,0,0:0:0:0:
343,196,160997,2,0,P|302:190|239:218,2,80
481,280,161308,1,0,0:0:0:0:
481,280,161411,2,0,P|487:321|459:384,2,80
472,120,161722,1,0,0:0:0:0:
472,120,162032,5,0,0:0:0:0:
394,106,162135,1,0,0:0:0:0:
337,52,162239,2,0,P|303:34|243:23,1,80
140,134,162446,2,0,P|178:135|238:120,1,80
305,11,162653,2,0,P|266:9|206:24,1,80,0|0,2:0|2:0,2:0:0:0:
160,168,162860,2,0,P|196:153|243:114,1,80,0|0,2:0|2:0,2:0:0:0:
96,43,163066,2,0,P|35:111|45:196,1,128
110,276,163377,2,0,P|77:260|50:217,1,80
235,36,163687,5,0,0:0:0:0:
302,74,163790,1,0,0:0:0:0:
319,150,163893,1,0,0:0:0:0:
274,214,163997,1,0,0:0:0:0:
204,248,164101,2,0,P|194:299|199:339,1,80
382,353,164308,5,0,0:0:0:0:
441,307,164411,1,0,0:0:0:0:
425,233,164514,1,0,0:0:0:0:
350,220,164618,1,0,0:0:0:0:
309,283,164721,1,0,0:0:0:0:
272,351,164825,1,0,0:0:0:0:
210,367,164928,1,0,0:0:0:0:
148,353,165031,1,0,0:0:0:0:
100,312,165135,5,0,0:0:0:0:
74,238,165238,1,0,0:0:0:0:
106,167,165341,1,0,0:0:0:0:
179,140,165445,1,0,0:0:0:0:
244,183,165549,1,0,0:0:0:0:
322,189,165653,1,0,0:0:0:0:
381,138,165756,1,0,0:0:0:0:
389,61,165859,1,0,0:0:0:0:
339,10,165963,5,0,0:0:0:0:
268,4,166066,1,0,0:0:0:0:
217,41,166170,2,0,P|206:79|147:107,1,80
286,109,166377,2,0,P|362:125|416:182,1,128
250,365,166791,5,0,0:0:0:0:
191,345,166894,1,0,0:0:0:0:
177,286,166997,1,0,0:0:0:0:
220,242,167101,1,0,0:0:0:0:
280,256,167204,5,0,0:0:0:0:
346,298,167307,1,0,0:0:0:0:
424,289,167410,1,0,0:0:0:0:
479,234,167514,1,0,0:0:0:0:
487,155,167618,5,0,0:0:0:0:
464,73,167721,1,0,0:0:0:0:
387,35,167824,1,0,0:0:0:0:
308,66,167928,1,0,0:0:0:0:
273,144,168032,5,0,0:0:0:0:
268,237,168135,1,0,0:0:0:0:
197,297,168238,1,0,0:0:0:0:
104,286,168342,1,0,0:0:0:0:
49,210,168446,5,0,0:0:0:0:
58,110,168549,1,0,0:0:0:0:
134,43,168652,1,0,0:0:0:0:
235,52,168756,1,0,0:0:0:0:
300,130,168859,1,0,0:0:0:0:
14,349,169480,5,0,0:0:0:0:
208,82,169687,1,0,0:0:0:0:
498,349,170308,5,0,0:0:0:0:
304,82,170515,1,0,0:0:0:0:
14,349,170722,5,0,0:0:0:0:
208,82,170929,1,0,0:0:0:0:
498,349,171135,5,0,0:0:0:0:
304,82,171342,1,0,0:0:0:0:
111,31,171941,5,0,0:0:0:0:
479,260,172148,1,0,0:0:0:0:
33,260,172767,5,0,0:0:0:0:
401,31,172974,1,0,0:0:0:0:
479,260,173596,5,0,0:0:0:0:
111,31,173803,1,0,0:0:0:0:
33,260,174010,5,0,0:0:0:0:
401,31,174215,1,0,0:0:0:0:
479,260,174422,5,0,0:0:0:0:
288,42,174630,2,0,P|240:47|191:88,1,95.9999970703126
141,232,174837,5,0,0:0:0:0:
157,276,174940,1,0,0:0:0:0:
148,322,175043,1,0,0:0:0:0:
219,360,175147,1,0,0:0:0:0:
290,335,175250,1,0,0:0:0:0:
369,345,175353,1,0,0:0:0:0:
436,306,175458,6,0,B|483:254|478:183|478:183|447:178|422:196,1,191.999994140625,4|0,0:0|0:0,0:0:0:0:
141,232,175872,2,0,P|58:210|165:159,1,287.999991210938,8|0,0:0|0:0,0:0:0:0:
163,332,176285,2,0,P|115:342|36:321,1,95.9999970703126
217,214,176492,5,0,0:0:0:0:
290,239,176596,1,0,0:0:0:0:
328,305,176699,2,0,P|296:343|250:362,1,95.9999970703126,8|0,0:0|0:0,0:0:0:0:
217,214,176906,2,0,P|249:176|295:157,1,95.9999970703126
482,145,177113,5,0,0:0:0:0:
209,22,177320,1,0,0:0:0:0:
234,290,177527,1,8,0:0:0:0:
368,56,177734,1,0,0:0:0:0:
92,52,177941,6,0,P|83:104|89:174,1,95.9999970703126
300,204,178147,2,0,P|309:152|303:82,1,95.9999970703126
86,233,178354,1,8,0:0:0:0:
432,297,178561,1,0,0:0:0:0:
302,28,178768,6,0,L|85:59,1,191.999994140625
83,324,179181,1,8,0:0:0:0:
31,71,179389,1,0,0:0:0:0:
256,348,179596,5,0,0:0:0:0:
99,191,179803,1,0,0:0:0:0:
256,35,180009,1,8,0:0:0:0:
412,192,180216,1,0,0:0:0:0:
145,88,180423,5,0,0:0:0:0:
256,35,180630,1,0,0:0:0:0:
256,349,180837,1,8,0:0:0:0:
367,296,181044,2,0,P|384:255|386:187,1,95.9999970703126
198,168,181251,2,0,P|181:209|179:277,1,95.9999970703126
256,349,181458,5,8,0:0:0:0:
255,30,181665,1,8,0:0:0:0:
33,66,181872,5,0,0:0:0:0:
37,95,181975,1,0,0:0:0:0:
34,122,182078,2,0,P|36:176|68:232,1,95.9999970703126,4|0,0:0|0:0,0:0:0:0:
255,198,182285,2,0,P|254:153|221:88,1,95.9999970703126
85,299,182492,2,0,B|180:335|181:244|293:303,1,191.999994140625,8|0,0:0|0:0,0:0:0:0:
497,347,182906,6,0,L|486:142,1,191.999994140625
403,295,183215,1,0,0:0:0:0:
403,295,183320,2,0,L|395:135,1,95.9999970703126,8|0,0:0|0:0,0:0:0:0:
323,22,183527,2,0,L|315:182,1,95.9999970703126
306,317,183734,2,0,P|216:351|216:243,1,191.999994140625
242,95,184044,1,0,0:0:0:0:
242,95,184147,2,0,P|200:18|123:58,1,191.999994140625,8|0,0:0|0:0,0:0:0:0:
71,353,184561,5,0,0:0:0:0:
351,254,184768,1,0,0:0:0:0:
35,181,184975,1,8,0:0:0:0:
368,44,185182,1,0,0:0:0:0:
117,32,185389,6,0,L|165:246,1,191.999994140625
356,369,185803,1,8,0:0:0:0:
505,176,186009,1,0,0:0:0:0:
244,22,186215,5,0,0:0:0:0:
425,180,186422,1,0,0:0:0:0:
267,361,186629,1,8,0:0:0:0:
86,203,186836,1,0,0:0:0:0:
274,105,187043,6,0,P|316:128|357:182,1,95.9999970703126,4|0,0:0|0:0,0:0:0:0:
157,155,187250,2,0,P|143:109|152:41,1,95.9999970703126
361,38,187457,1,8,2:0:0:0:
412,61,187560,1,0,2:0:0:0:
449,104,187663,1,0,2:0:0:0:
464,160,187767,1,0,2:0:0:0:
450,226,187871,5,0,0:0:0:0:
387,269,187974,1,0,0:0:0:0:
312,277,188077,1,0,0:0:0:0:
241,249,188181,1,0,0:0:0:0:
165,240,188284,1,8,0:0:0:0:
93,266,188388,1,0,0:0:0:0:
54,330,188491,2,0,P|90:362|135:380,1,95.9999970703126
210,169,188698,6,0,P|162:160|116:172,1,95.9999970703126,4|0,0:0|0:0,0:0:0:0:
272,371,188905,2,0,P|309:341|335:301,1,95.9999970703126
359,77,189112,2,0,B|364:40|393:18|393:18|412:89|391:153,1,191.999994140625,8|2,0:0|0:0,0:0:0:0:
295,239,189422,1,0,0:0:0:0:
270,240,189526,2,0,P|232:209|205:154,1,95.9999970703126
233,29,189733,1,2,0:0:0:0:
259,28,189836,1,0,0:0:0:0:
284,32,189940,2,0,P|322:63|349:118,1,95.9999970703126,8|0,0:0|0:0,0:0:0:0:
156,113,190147,2,0,P|128:73|117:27,1,95.9999970703126,2|0,0:0|0:0,0:0:0:0:
235,143,190353,6,0,L|207:337,1,191.999994140625,0|2,0:0|0:0,0:0:0:0:
114,210,190664,1,0,0:0:0:0:
113,234,190767,2,0,L|111:358,1,95.9999970703126,8|0,0:0|0:0,0:0:0:0:
286,358,190974,1,2,0:0:0:0:
231,106,191181,1,0,0:0:0:0:
20,246,191388,1,2,0:0:0:0:
268,238,191595,2,0,P|314:225|357:169,1,95.9999970703126,8|0,0:0|0:0,0:0:0:0:
245,28,191802,2,0,P|197:37|144:90,1,95.9999970703126,2|0,0:0|0:0,0:0:0:0:
160,282,192009,6,0,L|368:358,1,191.999994140625,0|2,0:0|0:0,0:0:0:0:
485,129,192422,1,8,0:0:0:0:
231,106,192629,1,2,0:0:0:0:
503,18,192836,5,0,0:0:0:0:
466,278,193043,1,2,0:0:0:0:
248,16,193250,1,8,0:0:0:0:
211,276,193457,1,2,0:0:0:0:
495,195,193664,6,0,P|436:99|354:92,1,191.999994140625,0|2,0:0|0:0,0:0:0:0:
271,219,193974,1,0,0:0:0:0:
271,219,194078,2,0,P|228:197|164:207,1,95.9999970703126,8|0,0:0|0:0,0:0:0:0:
138,355,194284,2,0,P|181:377|245:367,1,95.9999970703126,2|0,0:0|0:0,0:0:0:0:
382,260,194491,1,0,0:0:0:0:
87,259,194698,5,10,0:0:0:0:
293,11,194905,1,8,0:0:0:0:
460,219,195112,5,2,0:0:0:0:
466,293,195215,1,0,0:0:0:0:
414,345,195319,2,0,P|326:348|243:263,1,191.999994140625,4|2,0:0|0:0,0:0:0:0:
262,88,195629,1,0,0:0:0:0:
261,112,195733,2,0,P|243:157|181:186,1,95.9999970703126,8|0,0:0|0:0,0:0:0:0:
47,77,195940,2,0,P|65:32|127:3,1,95.9999970703126,2|0,0:0|0:0,0:0:0:0:
321,7,196147,6,0,P|360:85|318:196,1,191.999994140625,0|2,0:0|0:0,0:0:0:0:
179,270,196457,1,0,0:0:0:0:
155,269,196561,2,0,P|110:251|81:189,1,95.9999970703126,8|0,0:0|0:0,0:0:0:0:
190,55,196768,2,0,P|235:73|264:135,1,95.9999970703126,2|0,0:0|0:0,0:0:0:0:
261,309,196974,6,0,P|350:336|435:296,1,191.999994140625,0|2,0:0|0:0,0:0:0:0:
362,122,197284,1,0,0:0:0:0:
345,139,197388,2,0,P|326:182|334:228,1,95.9999970703126,8|0,0:0|0:0,0:0:0:0:
456,78,197595,2,0,P|429:38|385:21,1,95.9999970703126,2|0,0:0|0:0,0:0:0:0:
190,55,197802,1,0,0:0:0:0:
452,167,198009,1,2,0:0:0:0:
144,260,198215,1,8,0:0:0:0:
301,56,198422,6,0,L|299:258,1,191.999994140625,2|0,0:0|0:0,0:0:0:0:
51,184,198836,1,2,0:0:0:0:
219,23,199043,1,8,0:0:0:0:
390,181,199250,1,2,0:0:0:0:
116,41,199457,5,0,0:0:0:0:
349,46,199664,1,2,0:0:0:0:
358,278,199871,1,8,0:0:0:0:
116,41,200078,2,0,L|118:307,1,191.999994140625,4|0,0:0|0:0,0:0:0:0:
328,363,200491,5,0,0:0:0:0:
384,364,200594,1,0,0:0:0:0:
431,332,200697,1,8,0:0:0:0:
449,278,200801,1,0,0:0:0:0:
431,225,200904,1,0,0:0:0:0:
384,192,201008,1,0,0:0:0:0:
317,221,201112,5,0,0:0:0:0:
242,231,201215,1,0,0:0:0:0:
179,189,201319,1,0,0:0:0:0:
149,142,201422,1,0,0:0:0:0:
154,85,201526,5,8,0:0:0:0:
206,33,201629,1,0,0:0:0:0:
279,42,201732,1,0,0:0:0:0:
349,74,201837,1,0,0:0:0:0:
418,43,201940,6,0,B|440:21|476:22|476:22|495:85|475:167,1,191.999994140625,4|0,0:0|0:0,0:0:0:0:
386,193,202250,1,0,0:0:0:0:
478,234,202353,2,0,B|495:299|476:362|476:362|440:363|418:341,1,191.999994140625,8|0,0:0|0:0,0:0:0:0:
283,115,202767,5,0,0:0:0:0:
275,40,202870,1,0,0:0:0:0:
202,24,202973,1,0,0:0:0:0:
164,89,203077,1,0,0:0:0:0:
214,145,203181,2,0,P|255:148|296:134,1,80,8|0,0:0|0:0,0:0:0:0:
428,30,203388,2,0,P|439:67|436:107,1,80
357,284,203595,1,0,0:0:0:0:
357,284,203802,6,0,L|263:353,1,80
378,196,204009,2,0,L|263:218,1,80,8|0,0:0|0:0,0:0:0:0:
107,251,204215,1,0,0:0:0:0:
70,312,204318,1,0,0:0:0:0:
133,344,204422,2,0,P|172:328|213:285,1,80
224,172,204629,1,0,0:0:0:0:
192,349,204733,2,0,P|219:318|238:261,1,80,0|8,0:0|0:0,0:0:0:0:
117,123,204940,5,0,0:0:0:0:
168,64,205043,1,0,0:0:0:0:
246,53,205146,1,0,0:0:0:0:
312,95,205250,2,0,P|389:129|485:98,1,160
394,34,205560,1,0,0:0:0:0:
461,114,205664,2,0,P|475:191|442:263,1,160,8|0,0:0|0:0,0:0:0:0:
155,227,206078,5,0,0:0:0:0:
80,237,206181,1,0,0:0:0:0:
67,311,206284,1,0,0:0:0:0:
133,346,206388,1,0,0:0:0:0:
187,295,206491,2,0,P|199:256|189:201,1,80,8|0,0:0|0:0,0:0:0:0:
9,187,206698,2,0,P|-3:226|7:281,1,80
156,149,206905,1,0,0:0:0:0:
156,149,207112,6,0,L|206:61,1,80
275,222,207319,2,0,L|357:163,1,80,8|0,0:0|0:0,0:0:0:0:
466,75,207526,1,0,0:0:0:0:
448,150,207629,1,0,0:0:0:0:
495,212,207733,2,0,P|500:252|489:326,1,80
354,335,207940,1,12,0:0:0:0:
438,359,208043,1,0,0:0:0:0:
417,275,208146,1,8,0:0:0:0:
333,245,208250,2,0,L|227:293,1,80,4|0,0:0|0:0,0:0:0:0:
45,358,208560,6,0,P|22:287|80:193,1,160,4|0,0:0|0:0,0:0:0:0:
118,291,208871,1,0,0:0:0:0:
193,359,208974,2,0,P|215:284|183:212,1,160,8|0,0:0|0:0,0:0:0:0:
56,38,209388,5,0,0:0:0:0:
124,8,209491,1,0,0:0:0:0:
174,63,209594,1,0,0:0:0:0:
136,128,209698,1,0,0:0:0:0:
63,113,209802,2,0,P|31:87|9:37,1,80,8|0,0:0|0:0,0:0:0:0:
213,131,210009,2,0,P|244:155|263:190,1,80
272,377,210215,1,0,0:0:0:0:
272,377,210422,6,0,L|294:281,1,80
441,350,210629,2,0,L|423:272,1,80,8|0,0:0|0:0,0:0:0:0:
370,86,210836,1,0,0:0:0:0:
442,70,210939,1,0,0:0:0:0:
471,137,211043,2,0,P|456:174|408:210,1,80
297,191,211250,1,0,0:0:0:0:
446,154,211353,2,0,P|416:180|358:192,1,80,0|8,0:0|0:0,0:0:0:0:
195,111,211560,5,0,0:0:0:0:
160,181,211663,1,0,0:0:0:0:
178,257,211766,1,0,0:0:0:0:
240,304,211871,2,0,P|326:319|397:274,1,160
381,193,212181,1,0,0:0:0:0:
387,284,212284,2,0,P|301:298|230:253,1,160,8|0,0:0|0:0,0:0:0:0:
209,71,212698,5,0,0:0:0:0:
274,35,212801,1,0,0:0:0:0:
329,86,212904,1,0,0:0:0:0:
297,154,213008,1,0,0:0:0:0:
222,144,213112,2,0,P|196:110|183:52,1,80,8|0,0:0|0:0,0:0:0:0:
412,84,213319,6,0,L|333:247,1,160,4|0,0:0|0:0,0:0:0:0:
276,345,213629,1,0,0:0:0:0:
276,345,213733,2,0,L|374:351,2,80,0|0|8,0:0|0:0|0:0,0:0:0:0:
59,335,214147,1,0,0:0:0:0:
51,260,214250,1,0,0:0:0:0:
119,229,214353,2,0,P|159:248|212:252,1,80
419,205,214664,5,0,0:0:0:0:
450,134,214767,1,8,0:0:0:0:
416,64,214870,1,0,0:0:0:0:
341,43,214974,1,0,0:0:0:0:
277,87,215077,1,0,0:0:0:0:
269,164,215181,5,0,0:0:0:0:
357,338,215388,1,0,0:0:0:0:
321,355,215491,1,0,0:0:0:0:
281,360,215595,2,0,P|219:358|153:326,1,120.000004577637
144,233,215905,1,0,0:0:0:0:
144,233,216009,2,0,L|74:183,1,60.0000022888184
183,154,216215,1,0,0:0:0:0:
183,154,216319,2,0,L|140:79,1,60.0000022888184
50,92,216526,5,0,0:0:0:0:
58,57,216629,1,0,0:0:0:0:
78,27,216733,2,0,P|110:15|154:10,1,60.0000022888184
349,59,217043,2,0,P|317:46|273:41,1,60.0000022888184
183,154,217250,2,0,P|214:141|258:136,1,60.0000022888184
389,165,217457,1,0,0:0:0:0:
384,194,217560,1,0,0:0:0:0:
371,222,217664,2,0,P|339:234|295:239,1,60.0000022888184
222,227,217871,1,0,0:0:0:0:
344,284,217974,2,0,P|309:287|266:280,1,60.0000022888184
163,333,218181,5,0,0:0:0:0:
122,297,218284,1,0,0:0:0:0:
102,248,218387,1,0,0:0:0:0:
106,195,218491,2,0,P|121:132|164:80,1,120.000004577637
196,157,218802,1,0,0:0:0:0:
239,91,218905,2,0,P|273:139|286:197,1,120.000004577637
251,347,219319,5,0,0:0:0:0:
301,373,219422,1,0,0:0:0:0:
345,337,219525,1,0,0:0:0:0:
330,283,219629,1,0,0:0:0:0:
273,275,219733,2,0,P|242:281|179:268,1,60.0000022888184
161,222,219940,1,0,0:0:0:0:
286,197,220043,5,4,0:0:0:0:
