osu file format v14

[General]
AudioFilename: audio.mp3
AudioLeadIn: 0
PreviewTime: -1
Countdown: 0
SampleSet: Soft
StackLeniency: 0.4
Mode: 0
LetterboxInBreaks: 0
WidescreenStoryboard: 0

[Editor]
Bookmarks: 26397,28797,37368,42854,48340,59311,62397,77825,103197
DistanceSpacing: 0.9
BeatDivisor: 3
GridSize: 32
TimelineZoom: 1.4

[Metadata]
Title:Aun
TitleUnicode:阿吽
Artist:Polkadot Stingray
ArtistUnicode:ポルカドットスティングレイ
Creator:Rdzeniu
Version:Extra
Source:
Tags:
BeatmapID:2106702
BeatmapSetID:1006645

[Difficulty]
HPDrainRate:6
CircleSize:4
OverallDifficulty:9
ApproachRate:9.5
SliderMultiplier:1.9
SliderTickRate:1

[Events]
//Background and Video events
0,0,"art_erhu_girl_eyes_smile_posture_sitting_room_97324_1920x1080.jpg",0,0
//Break Periods
//Storyboard Layer 0 (Background)
//Storyboard Layer 1 (Fail)
//Storyboard Layer 2 (Pass)
//Storyboard Layer 3 (Foreground)
//Storyboard Sound Samples

[TimingPoints]
340,342.857142857143,4,2,0,70,1,0
26397,-83.3333333333333,4,2,0,70,0,0
37025,-133.333333333333,4,2,0,70,0,0
37368,-83.3333333333333,4,2,0,70,0,0
48340,-133.333333333333,4,2,0,70,0,0
49711,-133.333333333333,4,2,0,5,0,0
51082,-133.333333333333,4,2,0,70,0,0
52454,-133.333333333333,4,2,0,5,0,0
53825,-133.333333333333,4,2,0,70,0,0
55197,-133.333333333333,4,2,0,5,0,0
57940,-100,4,2,0,70,0,0
58625,-80,4,2,0,70,0,0
59311,-66.6666666666667,4,2,0,70,0,0
81254,-71.4285714285714,4,2,0,70,0,0

[HitObjects]
391,50,1025,5,0,0:0:0:0:
386,123,1197,1,0,0:0:0:0:
263,77,1368,1,0,0:0:0:0:
461,138,1711,5,0,0:0:0:0:
466,210,1883,1,0,0:0:0:0:
111,275,2225,6,0,P|167:265|223:278,1,95
313,325,2568,1,0,0:0:0:0:
161,346,2740,1,0,0:0:0:0:
326,241,2911,1,0,0:0:0:0:
368,261,2996,1,0,0:0:0:0:
392,301,3082,1,0,0:0:0:0:
441,169,3254,5,0,0:0:0:0:
472,258,3425,1,0,0:0:0:0:
465,352,3596,1,0,0:0:0:0:
204,270,3768,1,0,0:0:0:0:
112,199,4454,5,0,0:0:0:0:
114,85,4625,1,0,0:0:0:0:
138,175,4797,2,0,P|137:244|120:280,1,95
30,340,5140,1,0,0:0:0:0:
128,347,5311,1,0,0:0:0:0:
226,356,5482,1,0,0:0:0:0:
134,318,5654,2,0,P|159:277|167:231,1,95
32,150,5997,6,0,P|42:196|69:235,2,95
172,74,6511,1,0,0:0:0:0:
126,161,6682,1,0,0:0:0:0:
70,77,6854,1,0,0:0:0:0:
196,87,7025,1,0,0:0:0:0:
293,170,7197,6,0,P|351:166|386:148,1,95
371,1,7540,2,0,P|332:44|320:82,1,95
468,152,7882,1,0,0:0:0:0:
409,74,8054,1,0,0:0:0:0:
409,212,8225,1,0,0:0:0:0:
468,134,8397,2,0,P|421:117|357:131,1,95
351,266,8740,5,0,0:0:0:0:
412,201,8911,1,0,0:0:0:0:
473,279,9082,1,0,0:0:0:0:
412,214,9253,1,0,0:0:0:0:
323,217,9425,1,0,0:0:0:0:
267,318,9597,1,0,0:0:0:0:
178,315,9769,1,0,0:0:0:0:
117,249,9940,6,0,P|78:209|22:195,1,95
6,115,10282,2,0,P|49:97|81:62,1,95
81,62,10625,1,0,0:0:0:0:
147,147,10797,2,0,P|175:109|185:63,1,95
185,63,11140,1,0,0:0:0:0:
282,104,11311,2,0,P|288:57|273:12,1,95
245,196,11654,2,0,P|291:202|336:187,1,95
456,104,11997,2,0,P|409:97|364:112,1,95
427,273,12340,2,0,P|412:228|418:181,1,95
478,342,12682,6,0,B|381:391|381:294|285:342,1,190
190,353,13368,2,0,L|209:256,1,95
237,121,13711,1,0,0:0:0:0:
237,121,13882,2,0,P|214:166|158:191,1,95
63,54,14225,1,0,0:0:0:0:
154,107,14397,1,0,0:0:0:0:
64,159,14568,1,0,0:0:0:0:
38,260,14740,1,0,0:0:0:0:
32,131,14911,1,0,0:0:0:0:
70,288,15082,2,0,P|125:335|206:356,1,142.5
223,327,15425,6,0,P|272:323|333:351,2,95
163,258,15940,1,0,0:0:0:0:
104,184,16111,2,0,P|100:137|115:93,1,95
277,160,16454,1,0,0:0:0:0:
277,160,16625,2,0,P|230:164|185:149,1,95
333,65,16968,2,0,P|286:60|241:75,2,95
418,106,17482,1,0,0:0:0:0:
469,185,17654,1,0,0:0:0:0:
374,195,17825,1,0,0:0:0:0:
365,289,17997,1,0,0:0:0:0:
290,346,18168,6,0,P|205:343|179:332,1,95
64,351,18511,2,0,P|89:311|125:280,1,95
212,240,18854,1,0,0:0:0:0:
210,145,19025,1,0,0:0:0:0:
124,101,19197,1,0,0:0:0:0:
221,29,19368,2,0,P|269:42|313:87,1,95
252,212,19711,6,0,P|227:168|227:105,2,95
343,238,20225,1,0,0:0:0:0:
425,189,20397,1,0,0:0:0:0:
420,94,20568,1,0,0:0:0:0:
329,60,20740,1,0,0:0:0:0:
253,118,20911,6,0,P|246:179|256:228,1,95
426,282,21254,2,0,P|431:234|424:188,1,95
309,326,21597,1,0,0:0:0:0:
343,238,21768,1,0,0:0:0:0:
332,143,21940,1,0,0:0:0:0:
226,34,22111,1,0,0:0:0:0:
226,34,22282,6,0,P|219:95|229:144,1,95
120,81,22625,2,0,P|120:142|136:189,1,95
32,171,22968,1,0,0:0:0:0:
53,264,23140,1,0,0:0:0:0:
148,272,23311,1,0,0:0:0:0:
127,365,23483,1,0,0:0:0:0:
130,175,23654,5,0,0:0:0:0:
354,350,23825,1,0,0:0:0:0:
256,31,25882,1,0,0:0:0:0:
256,191,26054,6,0,B|260:208|275:221|275:221|291:208|298:192|298:192|358:207|416:192,1,190
477,95,26568,1,0,0:0:0:0:
384,38,26740,2,0,P|429:81|490:96,1,113.999996520996
290,94,27082,1,0,0:0:0:0:
320,320,27425,1,0,0:0:0:0:
480,289,27597,2,0,P|435:246|374:231,1,113.999996520996
272,240,27940,5,0,0:0:0:0:
206,333,28111,1,0,0:0:0:0:
94,357,28282,1,0,0:0:0:0:
32,194,28454,2,0,P|86:226|126:276,1,113.999996520996
118,146,28797,2,0,P|121:89|106:34,1,113.999996520996
14,102,29140,5,0,0:0:0:0:
47,210,29311,1,0,0:0:0:0:
158,232,29482,1,0,0:0:0:0:
242,154,29654,1,0,0:0:0:0:
209,44,29825,1,0,0:0:0:0:
480,255,30168,1,0,0:0:0:0:
503,98,30340,2,0,P|474:147|430:182,1,113.999996520996
282,103,30682,5,0,0:0:0:0:
403,83,30854,1,0,0:0:0:0:
358,161,31025,1,0,0:0:0:0:
332,24,31197,1,0,0:0:0:0:
421,132,31368,1,0,0:0:0:0:
271,205,31540,1,0,0:0:0:0:
352,324,31711,1,0,0:0:0:0:
473,256,31882,6,0,P|408:235|334:239,1,113.999996520996
162,315,32225,2,0,P|218:312|272:293,1,113.999996520996
271,165,32568,1,0,0:0:0:0:
273,202,32740,1,0,0:0:0:0:
140,137,32911,1,0,0:0:0:0:
258,61,33083,1,0,0:0:0:0:
255,95,33254,2,0,L|245:237,1,113.999996520996
135,103,33597,2,0,L|145:245,1,113.999996520996
231,311,33940,5,0,0:0:0:0:
118,326,34111,1,0,0:0:0:0:
243,284,34282,2,0,P|322:290|377:321,1,113.999996520996
487,354,34540,1,0,0:0:0:0:
487,354,34625,2,0,P|448:294|500:239,1,113.999996520996
497,109,34968,1,0,0:0:0:0:
417,180,35139,1,0,0:0:0:0:
321,132,35311,2,0,P|267:100|182:99,1,113.999996520996
36,172,35654,1,0,0:0:0:0:
211,116,35825,6,0,L|119:203,1,113.999996520996
32,186,36168,1,0,0:0:0:0:
173,311,36340,1,0,0:0:0:0:
235,118,36511,2,0,L|133:193,1,113.999996520996
181,313,36854,1,0,0:0:0:0:
372,157,37025,2,0,P|319:161|272:187,1,106.875004076958
277,221,37368,6,0,P|301:281|294:378,2,113.999996520996
437,232,37882,2,0,P|461:172|454:75,2,113.999996520996
277,221,38397,1,0,0:0:0:0:
462,237,38568,2,0,L|440:352,1,113.999996520996
330,368,38911,5,0,0:0:0:0:
330,368,39082,1,0,0:0:0:0:
218,317,39254,1,0,0:0:0:0:
218,317,39425,1,0,0:0:0:0:
90,362,39597,1,0,0:0:0:0:
90,362,39768,2,0,P|67:282|68:243,1,113.999996520996
125,140,40025,1,0,0:0:0:0:
125,140,40111,6,0,P|58:130|10:141,2,113.999996520996
225,241,40625,1,0,0:0:0:0:
225,241,40797,2,0,P|279:208|297:148,1,113.999996520996
256,31,41140,1,0,0:0:0:0:
416,32,41311,2,0,L|405:174,1,113.999996520996
368,216,41654,5,0,0:0:0:0:
479,259,41825,1,0,0:0:0:0:
408,339,41997,1,0,0:0:0:0:
408,339,42082,1,0,0:0:0:0:
408,339,42168,2,0,P|343:353|297:373,1,113.999996520996
257,257,42511,1,0,0:0:0:0:
188,361,42682,1,0,0:0:0:0:
160,352,42767,1,0,0:0:0:0:
133,344,42854,6,0,P|66:327|6:294,1,113.999996520996
64,126,43197,2,0,B|64:165|64:165|76:217|76:217|76:252,1,113.999996520996
200,177,43540,2,0,P|262:165|312:120,1,113.999996520996
204,40,43797,1,0,0:0:0:0:
204,40,43882,2,0,P|207:99|242:83,1,113.999996520996
107,45,44140,1,0,0:0:0:0:
107,45,44225,2,0,P|111:108|149:158,1,113.999996520996
226,249,44482,1,0,0:0:0:0:
226,249,44567,2,0,P|222:312|184:362,1,113.999996520996
84,260,44911,5,0,0:0:0:0:
293,352,45082,1,0,0:0:0:0:
259,127,45254,1,0,0:0:0:0:
113,271,45425,1,0,0:0:0:0:
324,225,45597,5,0,0:0:0:0:
135,159,45768,1,0,0:0:0:0:
173,355,45940,1,0,0:0:0:0:
124,255,46111,1,0,0:0:0:0:
236,165,46282,1,0,0:0:0:0:
255,306,46454,1,0,0:0:0:0:
39,316,46625,1,0,0:0:0:0:
39,316,46797,6,0,B|-9:206|83:206|36:95,1,227.999993041992
152,37,47311,1,0,0:0:0:0:
353,195,47482,1,0,0:0:0:0:
353,195,47568,1,0,0:0:0:0:
353,195,47654,1,0,0:0:0:0:
117,293,47825,1,0,0:0:0:0:
152,37,47997,1,0,0:0:0:0:
353,195,48168,1,0,0:0:0:0:
264,358,48340,6,0,P|235:304|265:229,1,142.500005435944
449,318,48854,2,0,P|369:293|305:295,1,142.500005435944
374,349,49368,2,0,P|380:281|376:205,1,142.500005435944
469,180,51082,6,0,P|399:169|332:192,1,142.500005435944
283,345,51597,2,0,P|299:272|232:280,1,142.500005435944
156,350,52111,2,0,P|83:350|45:281,1,142.500005435944
127,131,53825,6,0,P|148:193|128:271,1,142.500005435944
16,172,54340,2,0,L|73:36,1,142.500005435944
203,52,54854,2,0,P|197:112|111:121,1,142.500005435944
352,39,57940,6,0,B|337:70|342:100|342:100|363:116|368:154|368:154|355:175|354:217|354:217|379:255|372:282|372:282|358:296|357:332,1,285
164,366,58625,2,0,B|155:288|155:288|171:243,1,118.75
257,74,58968,2,0,P|245:138|204:134,1,118.75
352,39,59311,5,0,0:0:0:0:
279,218,59482,1,0,0:0:0:0:
407,101,59654,1,0,2:0:0:0:
301,240,59825,1,0,2:0:0:0:
443,181,59997,2,0,P|456:258|438:337,1,142.500005435944
372,353,60340,1,0,0:0:0:0:
171,305,60511,2,0,B|226:295|219:359|219:359|164:378|160:328|89:362,1,213.750008153916
26,356,60854,5,0,0:0:0:0:
67,157,61025,1,0,0:0:0:0:
22,260,61197,2,0,B|61:285|95:277|95:277|123:230|174:223,1,142.500005435944
336,238,61540,1,0,0:0:0:0:
173,136,61711,1,0,0:0:0:0:
232,334,61882,1,0,0:0:0:0:
296,132,62054,6,0,P|245:196|232:266,1,142.500005435944
188,62,62397,2,0,P|206:130|252:183,1,142.500005435944
396,62,62740,1,0,0:0:0:0:
283,44,62911,1,0,0:0:0:0:
369,212,63082,2,0,P|353:304|312:329,2,142.500005435944
243,180,63597,1,0,0:0:0:0:
201,289,63768,2,0,P|143:350|71:348,1,142.500005435944
88,353,64111,1,0,0:0:0:0:
54,175,64282,5,0,0:0:0:0:
46,224,64454,1,0,0:0:0:0:
171,89,64625,1,0,0:0:0:0:
181,142,64797,6,0,P|273:173|334:176,1,142.500005435944
353,29,65140,2,0,P|358:96|435:86,1,142.500005435944
366,240,65482,2,0,P|304:238|319:175,1,142.500005435944
479,273,65825,2,0,P|443:330|361:369,1,142.500005435944
215,271,66168,2,0,P|150:295|185:362,1,142.500005435944
312,285,66511,2,0,P|353:225|299:172,1,142.500005435944
139,175,66854,2,0,P|49:146|24:91,1,142.500005435944
254,34,67197,2,0,P|222:88|155:49,1,142.500005435944
353,33,67540,5,0,0:0:0:0:
379,239,67711,1,0,0:0:0:0:
190,162,67882,1,0,0:0:0:0:
301,166,68054,1,0,0:0:0:0:
124,258,68225,1,0,0:0:0:0:
254,34,68397,1,0,0:0:0:0:
401,232,68568,2,0,P|354:330|350:377,1,142.500005435944
485,188,68911,5,0,0:0:0:0:
242,200,69082,1,0,0:0:0:0:
459,322,69254,1,0,0:0:0:0:
222,356,69425,1,0,0:0:0:0:
359,154,69597,5,0,0:0:0:0:
317,144,69682,1,0,0:0:0:0:
274,144,69768,1,0,0:0:0:0:
233,156,69854,1,0,0:0:0:0:
196,177,69940,1,0,0:0:0:0:
137,211,70025,1,0,0:0:0:0:
73,186,70111,1,0,0:0:0:0:
53,120,70197,1,0,0:0:0:0:
93,64,70282,5,0,0:0:0:0:
196,272,70454,1,0,0:0:0:0:
141,100,70625,1,0,0:0:0:0:
38,307,70797,1,0,0:0:0:0:
201,177,70968,2,0,P|288:204|343:264,1,142.500005435944
254,354,71311,1,0,0:0:0:0:
289,163,71482,2,0,P|344:207|376:270,1,142.500005435944
162,351,71825,5,0,0:0:0:0:
250,255,71997,1,0,0:0:0:0:
74,224,72168,1,0,0:0:0:0:
162,320,72340,1,0,0:0:0:0:
174,210,72511,1,0,0:0:0:0:
184,98,72682,2,0,P|127:54|38:51,1,142.500005435944
257,29,73025,5,0,0:0:0:0:
375,162,73197,1,0,0:0:0:0:
188,182,73368,1,0,0:0:0:0:
354,68,73540,1,0,0:0:0:0:
285,238,73711,2,0,P|231:319|179:327,1,142.500005435944
48,312,74054,1,0,0:0:0:0:
287,302,74225,2,0,P|203:352|153:337,1,142.500005435944
164,127,74568,1,0,0:0:0:0:
164,127,74740,2,0,B|203:205|203:205|204:282,1,142.500005435944
260,115,75082,5,0,0:0:0:0:
108,225,75254,1,0,0:0:0:0:
290,226,75425,1,0,0:0:0:0:
203,351,75597,1,0,0:0:0:0:
320,331,75768,6,0,P|385:283|393:215,1,142.500005435944
253,132,76111,2,0,P|314:171|351:102,1,142.500005435944
132,99,76454,2,0,P|221:96|258:146,1,142.500005435944
139,258,76797,2,0,P|133:182|185:214,1,142.500005435944
225,350,77140,2,0,P|158:319|141:243,1,142.500005435944
351,246,77482,1,0,0:0:0:0:
224,262,77653,1,0,0:0:0:0:
358,341,77825,2,0,P|425:310|442:234,1,142.500005435944
328,110,78168,2,0,P|325:191|364:262,1,142.500005435944
437,160,78511,5,0,0:0:0:0:
251,53,78682,1,0,0:0:0:0:
251,266,78854,1,0,0:0:0:0:
363,70,79025,1,0,0:0:0:0:
209,160,79197,1,0,0:0:0:0:
363,249,79368,1,0,0:0:0:0:
255,31,79540,1,0,0:0:0:0:
114,227,79711,1,0,0:0:0:0:
332,353,79882,6,0,B|354:362|371:352|371:352|387:336|409:335|409:335|426:327|431:308|431:308|448:294|456:269,1,142.500005435944
474,95,80225,1,0,0:0:0:0:
416,221,80397,1,0,0:0:0:0:
322,111,80568,1,0,0:0:0:0:
290,254,80740,5,0,0:0:0:0:
312,219,80825,1,0,0:0:0:0:
282,194,80911,1,0,0:0:0:0:
242,208,80997,1,0,0:0:0:0:
208,232,81082,1,0,0:0:0:0:
166,237,81168,1,0,0:0:0:0:
125,223,81254,6,0,P|68:177|69:115,1,132.999995941162
253,84,81597,2,0,P|184:110|127:164,1,132.999995941162
222,313,81940,1,0,0:0:0:0:
101,314,82111,1,0,0:0:0:0:
253,196,82282,1,0,0:0:0:0:
253,196,82454,6,0,P|211:265|299:357,1,199.499993911743
271,353,82797,1,0,0:0:0:0:
372,290,82968,1,0,0:0:0:0:
475,344,83140,1,0,0:0:0:0:
477,229,83311,2,0,P|470:160|489:96,1,132.999995941162
352,32,83654,1,0,0:0:0:0:
331,171,83825,1,0,0:0:0:0:
236,88,83997,6,0,B|130:88|130:88|112:130,1,132.999995941162
125,222,84340,1,0,0:0:0:0:
40,159,84511,1,0,0:0:0:0:
218,168,84682,2,0,B|218:274|218:274|176:292,1,132.999995941162
42,332,85025,2,0,L|135:353,1,66.4999979705811
197,362,85197,6,0,P|295:360|343:327,1,132.999995941162
350,247,85540,1,0,0:0:0:0:
496,226,85711,1,0,0:0:0:0:
439,315,85882,1,0,0:0:0:0:
419,193,86054,2,0,L|434:124,1,66.4999979705811
456,42,86225,2,0,P|376:31|318:51,1,132.999995941162
251,177,86568,2,0,L|227:103,1,66.4999979705811
199,36,86740,6,0,P|120:81|102:153,1,132.999995941162
170,274,87082,2,0,P|98:303|34:292,2,132.999995941162
334,343,87597,2,0,P|260:294|269:267,1,132.999995941162
267,268,87940,2,0,B|312:197|312:197|279:142,1,132.999995941162
94,118,88282,1,0,0:0:0:0:
94,118,88454,2,0,B|49:189|49:189|82:244,1,132.999995941162
164,308,88797,1,0,0:0:0:0:
164,308,88968,2,0,B|105:344|105:344|177:361,1,132.999995941162
309,362,89311,2,0,B|461:349,1,132.999995941162
273,204,89654,6,0,B|121:191,2,132.999995941162
453,257,90168,1,0,0:0:0:0:
453,257,90340,2,0,P|432:186|263:239,1,265.999991882324
346,226,90854,5,0,0:0:0:0:
319,146,90968,5,0,0:0:0:0:
236,139,91082,5,0,0:0:0:0:
197,213,91197,2,0,P|112:253|94:252,1,88.6666639607748
81,175,91425,2,0,P|120:260|66:353,1,199.499993911743
23,258,91797,1,0,0:0:0:0:
23,258,91882,2,0,L|168:335,1,132.999995941162
242,365,92140,1,0,0:0:0:0:
242,365,92225,6,0,L|387:288,1,132.999995941162
484,184,92568,2,0,P|470:257|486:318,2,132.999995941162
498,59,93082,1,0,0:0:0:0:
373,152,93254,1,0,0:0:0:0:
373,152,93425,2,0,P|266:172|215:147,1,132.999995941162
184,41,93768,1,0,0:0:0:0:
335,37,93940,1,0,0:0:0:0:
294,195,94111,2,0,P|228:195|170:163,1,132.999995941162
151,321,94454,2,0,P|85:322|26:351,2,132.999995941162
288,354,94968,5,0,0:0:0:0:
362,259,95140,1,0,0:0:0:0:
243,245,95311,1,0,0:0:0:0:
302,348,95482,1,0,0:0:0:0:
421,356,95654,2,0,P|461:296|465:233,1,132.999995941162
454,108,95997,1,0,0:0:0:0:
454,108,96168,6,0,P|391:166|352:117,1,132.999995941162
313,22,96511,1,0,0:0:0:0:
291,204,96682,1,0,0:0:0:0:
229,97,96854,1,0,0:0:0:0:
160,201,97025,2,0,L|175:296,1,66.4999979705811
179,343,97197,2,0,P|108:342|55:378,2,132.999995941162
282,369,97711,6,0,P|356:360|395:320,1,132.999995941162
449,189,98054,2,0,L|480:343,2,132.999995941162
422,72,98568,1,0,0:0:0:0:
353,224,98740,1,0,0:0:0:0:
353,224,98911,6,0,P|284:202|222:225,1,132.999995941162
199,376,99254,1,0,0:0:0:0:
199,376,99425,2,0,P|263:342|290:282,1,132.999995941162
289,290,99768,1,0,0:0:0:0:
101,245,99940,2,0,B|29:358,1,132.999995941162
193,280,100282,2,0,L|190:192,1,66.4999979705811
129,34,100625,6,0,P|66:50|12:121,2,132.999995941162
261,88,101311,2,0,P|349:134|348:27,1,199.499993911743
378,63,101654,1,0,0:0:0:0:
444,204,101825,1,0,0:0:0:0:
387,298,101997,1,0,0:0:0:0:
446,172,102168,1,0,0:0:0:0:
446,172,102340,2,0,P|328:191|277:263,1,177.33332792155
259,347,102740,5,0,0:0:0:0:
212,358,102854,6,0,L|73:295,1,88.6666639607748
185,190,103082,5,0,0:0:0:0:
160,229,103196,6,0,L|21:292,1,88.6666639607748
