osu file format v14

[General]
AudioFilename: audio.mp3
AudioLeadIn: 0
PreviewTime: 102983
Countdown: 0
SampleSet: Normal
StackLeniency: 0.7
Mode: 1
LetterboxInBreaks: 0
WidescreenStoryboard: 1

[Editor]
Bookmarks: 4628,107065,116273,122349,128425,134501,140387
DistanceSpacing: 0.7
BeatDivisor: 4
GridSize: 32
TimelineZoom: 1.6

[Metadata]
Title:Furachi na Kassai
TitleUnicode:不埒な喝采
Artist:Police Piccadilly feat. KAFU
ArtistUnicode:ポリスピカデリー feat. 可不
Creator:Tachibana_
Version:Ryxliee's Muzukashii
Source:
Tags:japanese rock jrock j-rock female vocalist kaf kaf-u vtuber virtual youtuber vocaloid artifical singing synthesizer CeVIO AI KAMITSUBAKI STUDIO 神椿スタジオ 花谱 花譜 かふ Ryxliee BlackBq BlackBN
BeatmapID:3518276
BeatmapSetID:1719048

[Difficulty]
HPDrainRate:6
CircleSize:2
OverallDifficulty:4
ApproachRate:9
SliderMultiplier:1.4
SliderTickRate:1

[Events]
//Background and Video events
0,0,"bg.jpg",0,210
//Break Periods
//Storyboard Layer 0 (Background)
//Storyboard Layer 1 (Fail)
//Storyboard Layer 2 (Pass)
//Storyboard Layer 3 (Foreground)
//Storyboard Layer 4 (Overlay)
//Storyboard Sound Samples

[TimingPoints]
72,379.746835443038,4,1,0,80,1,0
28932,-100,4,1,0,92,0,1
47160,-100,4,1,0,80,0,0
71464,-100,4,1,0,92,0,1
89692,-100,4,1,0,80,0,0
103363,379.746835443038,4,1,0,80,1,8
104122,379.746835443038,4,1,0,72,1,0
107159,-100,4,1,0,92,0,1
128425,-100,4,1,0,72,0,0

[HitObjects]
256,192,4628,5,0,0:0:0:0:
256,192,4818,1,0,0:0:0:0:
256,192,5008,1,8,0:0:0:0:
256,192,5198,1,8,0:0:0:0:
256,192,5293,1,8,0:0:0:0:
256,192,5388,1,8,0:0:0:0:
256,192,5578,1,0,0:0:0:0:
256,192,5768,1,8,0:0:0:0:
256,192,6147,1,0,0:0:0:0:
256,192,6337,1,0,0:0:0:0:
256,192,6527,1,8,0:0:0:0:
256,192,6717,1,0,0:0:0:0:
256,192,7097,1,8,0:0:0:0:
256,192,7287,1,8,0:0:0:0:
256,192,7477,1,0,0:0:0:0:
256,192,7572,1,0,0:0:0:0:
256,192,7666,1,0,0:0:0:0:
256,192,7856,1,0,0:0:0:0:
256,192,8046,1,8,0:0:0:0:
256,192,8236,1,0,0:0:0:0:
256,192,8806,1,8,0:0:0:0:
256,192,9185,1,8,0:0:0:0:
256,192,9375,1,8,0:0:0:0:
256,192,9565,1,0,0:0:0:0:
256,192,9755,1,8,0:0:0:0:
256,192,9945,1,0,0:0:0:0:
256,192,10325,1,8,0:0:0:0:
256,192,10704,1,0,0:0:0:0:
256,192,10894,1,0,0:0:0:0:
256,192,11084,1,8,0:0:0:0:
256,192,11274,1,8,0:0:0:0:
256,192,11369,1,8,0:0:0:0:
256,192,11464,1,8,0:0:0:0:
256,192,11654,1,0,0:0:0:0:
256,192,11844,1,8,0:0:0:0:
256,192,12223,1,0,0:0:0:0:
256,192,12413,1,0,0:0:0:0:
256,192,12603,1,8,0:0:0:0:
256,192,12793,1,0,0:0:0:0:
256,192,13173,1,8,0:0:0:0:
256,192,13363,1,8,0:0:0:0:
256,192,13553,1,0,0:0:0:0:
256,192,13647,1,0,0:0:0:0:
256,192,13742,1,0,0:0:0:0:
256,192,13932,1,0,0:0:0:0:
256,192,14122,1,8,0:0:0:0:
256,192,14312,1,0,0:0:0:0:
256,192,14882,1,8,0:0:0:0:
256,192,15261,1,8,0:0:0:0:
256,192,15451,1,8,0:0:0:0:
256,192,15641,1,0,0:0:0:0:
256,192,15831,1,8,0:0:0:0:
256,192,16211,1,0,0:0:0:0:
256,192,16401,1,8,0:0:0:0:
256,192,16590,1,8,0:0:0:0:
256,192,16780,1,0,0:0:0:0:
256,192,17160,1,8,0:0:0:0:
256,192,17350,1,0,0:0:0:0:
256,192,17540,1,8,0:0:0:0:
256,192,17730,1,8,0:0:0:0:
256,192,17920,1,0,0:0:0:0:
256,192,18299,1,8,0:0:0:0:
256,192,18489,1,0,0:0:0:0:
256,192,18869,1,0,0:0:0:0:
256,192,19059,1,8,0:0:0:0:
256,192,19818,1,0,0:0:0:0:
256,192,20198,1,8,0:0:0:0:
256,192,20388,1,0,0:0:0:0:
256,192,20578,1,8,0:0:0:0:
256,192,20768,1,0,0:0:0:0:
256,192,20958,1,8,0:0:0:0:
256,192,21337,1,8,0:0:0:0:
256,192,21527,1,0,0:0:0:0:
256,192,21907,1,0,0:0:0:0:
256,192,22097,1,8,0:0:0:0:
256,192,22477,1,8,0:0:0:0:
256,192,22856,1,0,0:0:0:0:
256,192,23236,1,8,0:0:0:0:
256,192,23426,1,0,0:0:0:0:
256,192,23616,1,8,0:0:0:0:
256,192,23806,1,8,0:0:0:0:
256,192,23996,1,0,0:0:0:0:
256,192,24375,1,8,0:0:0:0:
256,192,24565,1,0,0:0:0:0:
256,192,24945,1,0,0:0:0:0:
256,192,25135,1,8,0:0:0:0:
256,192,25894,1,0,0:0:0:0:
256,192,26274,1,8,0:0:0:0:
256,192,26464,1,0,0:0:0:0:
256,192,26654,1,8,0:0:0:0:
256,192,26749,1,8,0:0:0:0:
256,192,26844,1,8,0:0:0:0:
256,192,27034,1,0,0:0:0:0:
256,192,27413,1,0,0:0:0:0:
256,192,27603,1,8,0:0:0:0:
256,192,27793,1,8,0:0:0:0:
256,192,27983,1,0,0:0:0:0:
256,192,28078,1,0,0:0:0:0:
256,192,28173,1,0,0:0:0:0:
256,192,28363,1,8,0:0:0:0:
256,192,28932,1,12,0:0:0:0:
256,192,29312,1,0,0:0:0:0:
256,192,29692,1,8,0:0:0:0:
256,192,29882,1,0,0:0:0:0:
256,192,30072,1,8,0:0:0:0:
256,192,30166,1,8,0:0:0:0:
256,192,30261,1,8,0:0:0:0:
256,192,30451,1,0,0:0:0:0:
256,192,30831,1,8,0:0:0:0:
256,192,31211,1,0,0:0:0:0:
256,192,31401,1,8,0:0:0:0:
256,192,31590,1,8,0:0:0:0:
256,192,31780,1,0,0:0:0:0:
256,192,31970,1,8,0:0:0:0:
256,192,32350,1,8,0:0:0:0:
256,192,32540,1,0,0:0:0:0:
256,192,32730,1,0,0:0:0:0:
256,192,32825,1,0,0:0:0:0:
256,192,32920,1,0,0:0:0:0:
256,192,33109,1,8,0:0:0:0:
256,192,33489,1,0,0:0:0:0:
256,192,33869,1,8,0:0:0:0:
256,192,34249,1,0,0:0:0:0:
256,192,34439,1,0,0:0:0:0:
256,192,34628,1,8,0:0:0:0:
256,192,34818,1,8,0:0:0:0:
256,192,34913,1,8,0:0:0:0:
256,192,35008,1,8,0:0:0:0:
256,192,35388,1,0,0:0:0:0:
256,192,35768,1,8,0:0:0:0:
256,192,35958,1,0,0:0:0:0:
256,192,36147,1,8,0:0:0:0:
256,192,36242,1,8,0:0:0:0:
256,192,36337,1,8,0:0:0:0:
256,192,36527,1,0,0:0:0:0:
256,192,36907,1,8,0:0:0:0:
256,192,37287,1,0,0:0:0:0:
256,192,37477,1,8,0:0:0:0:
256,192,37666,1,8,0:0:0:0:
256,192,37856,1,0,0:0:0:0:
256,192,38046,1,8,0:0:0:0:
256,192,38426,1,8,0:0:0:0:
256,192,38616,1,0,0:0:0:0:
256,192,38806,1,0,0:0:0:0:
256,192,38901,1,0,0:0:0:0:
256,192,38996,1,0,0:0:0:0:
256,192,39185,1,8,0:0:0:0:
256,192,39565,1,0,0:0:0:0:
256,192,39755,1,8,0:0:0:0:
256,192,39945,1,8,0:0:0:0:
256,192,40135,1,0,0:0:0:0:
256,192,40325,1,8,0:0:0:0:
256,192,40894,1,0,0:0:0:0:
256,192,41084,1,12,0:0:0:0:
256,192,41464,1,8,0:0:0:0:
256,192,41654,1,0,0:0:0:0:
256,192,41844,1,8,0:0:0:0:
256,192,42223,1,0,0:0:0:0:
256,192,42413,1,8,0:0:0:0:
256,192,42603,1,0,0:0:0:0:
256,192,42983,1,8,0:0:0:0:
256,192,43173,1,0,0:0:0:0:
256,192,43363,1,8,0:0:0:0:
256,192,43553,1,8,0:0:0:0:
256,192,43742,1,0,0:0:0:0:
256,192,43932,1,8,0:0:0:0:
256,192,44027,1,8,0:0:0:0:
256,192,44122,1,8,0:0:0:0:
256,192,44502,1,8,0:0:0:0:
256,192,44692,1,0,0:0:0:0:
256,192,44882,1,0,0:0:0:0:
256,192,44977,1,0,0:0:0:0:
256,192,45072,1,0,0:0:0:0:
256,192,45261,1,8,0:0:0:0:
256,192,45451,1,8,0:0:0:0:
256,192,45641,1,0,0:0:0:0:
256,192,46021,1,8,0:0:0:0:
256,192,46401,1,8,0:0:0:0:
256,192,46780,1,8,0:0:0:0:
256,192,46970,1,8,0:0:0:0:
256,192,47160,1,0,0:0:0:0:
256,192,47350,1,8,0:0:0:0:
256,192,47730,1,0,0:0:0:0:
256,192,47920,1,8,0:0:0:0:
256,192,48109,1,8,0:0:0:0:
256,192,48299,1,0,0:0:0:0:
256,192,48679,1,0,0:0:0:0:
256,192,48869,1,8,0:0:0:0:
256,192,49059,1,8,0:0:0:0:
256,192,49249,1,0,0:0:0:0:
256,192,49628,1,0,0:0:0:0:
256,192,49723,1,0,0:0:0:0:
256,192,49818,1,0,0:0:0:0:
256,192,50008,1,0,0:0:0:0:
256,192,50198,1,8,0:0:0:0:
256,192,50388,1,8,0:0:0:0:
256,192,50768,1,8,0:0:0:0:
256,192,50958,1,0,0:0:0:0:
256,192,51147,1,0,0:0:0:0:
256,192,51337,1,8,0:0:0:0:
256,192,51907,1,0,0:0:0:0:
256,192,52097,1,0,0:0:0:0:
256,192,52477,1,0,0:0:0:0:
256,192,52572,1,0,0:0:0:0:
256,192,52666,1,0,0:0:0:0:
256,192,52856,1,0,0:0:0:0:
256,192,53046,1,8,0:0:0:0:
256,192,53236,1,0,0:0:0:0:
256,192,53426,1,8,0:0:0:0:
256,192,53806,1,0,0:0:0:0:
256,192,53996,1,8,0:0:0:0:
256,192,54185,1,8,0:0:0:0:
256,192,54375,1,0,0:0:0:0:
256,192,54755,1,8,0:0:0:0:
256,192,54945,1,0,0:0:0:0:
256,192,55135,1,0,0:0:0:0:
256,192,55325,1,8,0:0:0:0:
256,192,55704,1,0,0:0:0:0:
256,192,55799,1,0,0:0:0:0:
256,192,55894,1,0,0:0:0:0:
256,192,56084,1,0,0:0:0:0:
256,192,56274,1,8,0:0:0:0:
256,192,56464,1,8,0:0:0:0:
256,192,56844,1,8,0:0:0:0:
256,192,57034,1,0,0:0:0:0:
256,192,57223,1,0,0:0:0:0:
256,192,57413,1,8,0:0:0:0:
256,192,57983,1,0,0:0:0:0:
256,192,58173,1,0,0:0:0:0:
256,192,58553,1,0,0:0:0:0:
256,192,58742,1,8,0:0:0:0:
256,192,58837,1,8,0:0:0:0:
256,192,58932,1,8,0:0:0:0:
256,192,59122,1,8,0:0:0:0:
256,192,59312,1,0,0:0:0:0:
256,192,59502,1,0,0:0:0:0:
256,192,59692,1,8,0:0:0:0:
256,192,60072,1,8,0:0:0:0:
256,192,60451,1,0,0:0:0:0:
256,192,60641,1,0,0:0:0:0:
256,192,60831,1,8,0:0:0:0:
256,192,61021,1,0,0:0:0:0:
256,192,61401,1,0,0:0:0:0:
256,192,61590,1,8,0:0:0:0:
256,192,62350,1,0,0:0:0:0:
256,192,62540,1,0,0:0:0:0:
256,192,62730,1,8,0:0:0:0:
256,192,63109,1,8,0:0:0:0:
256,192,63489,1,0,0:0:0:0:
256,192,63679,1,0,0:0:0:0:
256,192,63869,1,8,0:0:0:0:
256,192,64059,1,0,0:0:0:0:
256,192,64439,1,0,0:0:0:0:
256,192,64628,1,8,0:0:0:0:
256,192,65008,1,0,0:0:0:0:
256,192,65388,1,12,0:0:0:0:
256,192,65578,1,0,0:0:0:0:
256,192,65768,1,8,0:0:0:0:
256,192,65958,1,8,0:0:0:0:
256,192,66147,1,0,0:0:0:0:
256,192,66527,1,0,0:0:0:0:
256,192,66717,1,0,0:0:0:0:
256,192,66907,1,8,0:0:0:0:
256,192,67097,1,0,0:0:0:0:
256,192,67192,1,0,0:0:0:0:
256,192,67287,1,0,0:0:0:0:
256,192,67477,1,0,0:0:0:0:
256,192,67666,1,8,0:0:0:0:
256,192,68236,1,8,0:0:0:0:
256,192,68426,1,0,0:0:0:0:
256,192,68616,1,0,0:0:0:0:
256,192,68806,1,8,0:0:0:0:
256,192,68996,1,0,0:0:0:0:
256,192,69185,1,8,0:0:0:0:
256,192,69565,1,8,0:0:0:0:
256,192,69755,1,0,0:0:0:0:
256,192,69945,1,8,0:0:0:0:
256,192,70135,1,8,0:0:0:0:
256,192,70230,1,8,0:0:0:0:
256,192,70325,1,8,0:0:0:0:
256,192,70515,1,0,0:0:0:0:
256,192,70704,1,0,0:0:0:0:
256,192,70894,1,8,0:0:0:0:
256,192,71084,1,8,0:0:0:0:
256,192,71464,1,12,0:0:0:0:
256,192,71844,1,0,0:0:0:0:
256,192,72223,1,8,0:0:0:0:
256,192,72413,1,0,0:0:0:0:
256,192,72603,1,8,0:0:0:0:
256,192,72698,1,8,0:0:0:0:
256,192,72793,1,8,0:0:0:0:
256,192,72983,1,0,0:0:0:0:
256,192,73363,1,8,0:0:0:0:
256,192,73742,1,0,0:0:0:0:
256,192,73932,1,0,0:0:0:0:
256,192,74122,1,8,0:0:0:0:
256,192,74312,1,8,0:0:0:0:
256,192,74502,1,0,0:0:0:0:
256,192,74882,1,8,0:0:0:0:
256,192,75072,1,0,0:0:0:0:
256,192,75261,1,0,0:0:0:0:
256,192,75356,1,0,0:0:0:0:
256,192,75451,1,0,0:0:0:0:
256,192,75641,1,8,0:0:0:0:
256,192,76021,1,0,0:0:0:0:
256,192,76401,1,8,0:0:0:0:
256,192,76780,1,0,0:0:0:0:
256,192,76970,1,0,0:0:0:0:
256,192,77160,1,8,0:0:0:0:
256,192,77255,1,8,0:0:0:0:
256,192,77350,1,8,0:0:0:0:
256,192,77540,1,8,0:0:0:0:
256,192,77920,1,0,0:0:0:0:
256,192,78299,1,8,0:0:0:0:
256,192,78489,1,0,0:0:0:0:
256,192,78679,1,8,0:0:0:0:
256,192,78774,1,8,0:0:0:0:
256,192,78869,1,8,0:0:0:0:
256,192,79059,1,0,0:0:0:0:
256,192,79439,1,8,0:0:0:0:
256,192,79818,1,0,0:0:0:0:
256,192,80008,1,0,0:0:0:0:
256,192,80198,1,8,0:0:0:0:
256,192,80388,1,8,0:0:0:0:
256,192,80578,1,0,0:0:0:0:
256,192,80958,1,8,0:0:0:0:
256,192,81147,1,0,0:0:0:0:
256,192,81337,1,0,0:0:0:0:
256,192,81432,1,0,0:0:0:0:
256,192,81527,1,0,0:0:0:0:
256,192,81717,1,8,0:0:0:0:
256,192,82097,1,8,0:0:0:0:
256,192,82287,1,0,0:0:0:0:
256,192,82382,1,0,0:0:0:0:
256,192,82477,1,0,0:0:0:0:
256,192,82666,1,8,0:0:0:0:
256,192,82761,1,8,0:0:0:0:
256,192,82856,1,8,0:0:0:0:
256,192,83426,1,0,0:0:0:0:
256,192,83616,1,12,0:0:0:0:
256,192,83996,1,0,0:0:0:0:
256,192,84185,1,8,0:0:0:0:
256,192,84375,1,0,0:0:0:0:
256,192,84755,1,8,0:0:0:0:
256,192,84945,1,0,0:0:0:0:
256,192,85135,1,8,0:0:0:0:
256,192,85515,1,0,0:0:0:0:
256,192,85704,1,8,0:0:0:0:
256,192,85894,1,0,0:0:0:0:
256,192,86084,1,0,0:0:0:0:
256,192,86274,1,8,0:0:0:0:
256,192,86464,1,0,0:0:0:0:
256,192,86559,1,0,0:0:0:0:
256,192,86654,1,0,0:0:0:0:
256,192,87034,1,8,0:0:0:0:
256,192,87223,1,0,0:0:0:0:
256,192,87413,1,0,0:0:0:0:
256,192,87508,1,0,0:0:0:0:
256,192,87603,1,0,0:0:0:0:
256,192,87793,1,8,0:0:0:0:
256,192,87983,1,8,0:0:0:0:
256,192,88173,1,0,0:0:0:0:
256,192,88553,1,8,0:0:0:0:
256,192,88837,1,0,0:0:0:0:
256,192,88932,1,8,0:0:0:0:
256,192,89312,1,8,0:0:0:0:
256,192,89502,1,8,0:0:0:0:
256,192,89692,1,0,0:0:0:0:
256,192,90072,1,0,0:0:0:0:
256,192,90261,1,0,0:0:0:0:
256,192,90451,1,8,0:0:0:0:
256,192,90831,1,8,0:0:0:0:
256,192,91021,1,0,0:0:0:0:
256,192,91211,1,8,0:0:0:0:
256,192,91401,1,8,0:0:0:0:
256,192,91590,1,0,0:0:0:0:
256,192,91685,1,0,0:0:0:0:
256,192,91780,1,0,0:0:0:0:
256,192,91970,1,0,0:0:0:0:
256,192,92350,1,8,0:0:0:0:
256,192,92730,1,8,0:0:0:0:
256,192,93109,1,0,0:0:0:0:
256,192,93299,1,0,0:0:0:0:
256,192,93489,1,8,0:0:0:0:
256,192,93584,1,8,0:0:0:0:
256,192,93679,1,8,0:0:0:0:
256,192,93869,1,0,0:0:0:0:
256,192,94059,1,8,0:0:0:0:
256,192,94439,1,8,0:0:0:0:
256,192,94628,1,0,0:0:0:0:
256,192,95008,1,0,0:0:0:0:
256,192,95198,1,8,0:0:0:0:
256,192,95768,1,0,0:0:0:0:
256,192,96147,1,0,0:0:0:0:
256,192,96337,1,0,0:0:0:0:
256,192,96527,1,8,0:0:0:0:
256,192,96907,1,0,0:0:0:0:
256,192,97097,1,8,0:0:0:0:
256,192,97477,1,0,0:0:0:0:
256,192,97666,1,8,0:0:0:0:
256,192,97761,1,8,0:0:0:0:
256,192,97856,1,8,0:0:0:0:
256,192,98046,1,0,0:0:0:0:
256,192,98236,1,0,0:0:0:0:
256,192,98426,1,8,0:0:0:0:
256,192,98806,1,8,0:0:0:0:
256,192,99185,1,0,0:0:0:0:
256,192,99375,1,0,0:0:0:0:
256,192,99565,1,8,0:0:0:0:
256,192,99660,1,8,0:0:0:0:
256,192,99755,1,8,0:0:0:0:
256,192,99945,1,0,0:0:0:0:
256,192,100135,1,8,0:0:0:0:
256,192,100515,1,8,0:0:0:0:
256,192,100704,1,0,0:0:0:0:
256,192,101084,1,0,0:0:0:0:
256,192,101274,1,8,0:0:0:0:
256,192,101464,1,0,0:0:0:0:
256,192,104122,1,8,0:0:0:0:
256,192,104501,1,8,0:0:0:0:
256,192,104881,1,0,0:0:0:0:
256,192,105640,1,8,0:0:0:0:
256,192,106020,1,8,0:0:0:0:
256,192,106400,1,0,0:0:0:0:
256,192,107159,1,12,0:0:0:0:
256,192,107539,1,8,0:0:0:0:
256,192,107729,1,0,0:0:0:0:
256,192,107919,1,0,0:0:0:0:
256,192,108014,1,0,0:0:0:0:
256,192,108109,1,0,0:0:0:0:
256,192,108299,1,8,0:0:0:0:
256,192,108678,1,8,0:0:0:0:
256,192,108868,1,0,0:0:0:0:
256,192,109058,1,8,0:0:0:0:
256,192,109153,1,8,0:0:0:0:
256,192,109248,1,8,0:0:0:0:
256,192,109438,1,8,0:0:0:0:
256,192,109628,1,0,0:0:0:0:
256,192,109818,1,0,0:0:0:0:
256,192,109913,1,0,0:0:0:0:
256,192,110008,1,0,0:0:0:0:
256,192,110197,1,12,0:0:0:0:
256,192,110577,1,0,0:0:0:0:
256,192,110957,1,8,0:0:0:0:
256,192,111147,1,0,0:0:0:0:
256,192,111337,1,8,0:0:0:0:
256,192,111432,1,8,0:0:0:0:
256,192,111527,1,8,0:0:0:0:
256,192,111716,1,0,0:0:0:0:
256,192,112096,1,8,0:0:0:0:
256,192,112476,1,0,0:0:0:0:
256,192,112666,1,8,0:0:0:0:
256,192,112856,1,8,0:0:0:0:
256,192,113046,1,0,0:0:0:0:
256,192,113235,1,8,0:0:0:0:
256,192,113615,1,8,0:0:0:0:
256,192,113805,1,0,0:0:0:0:
256,192,113995,1,0,0:0:0:0:
256,192,114090,1,0,0:0:0:0:
256,192,114185,1,0,0:0:0:0:
256,192,114375,1,8,0:0:0:0:
256,192,114565,1,8,0:0:0:0:
256,192,114754,1,0,0:0:0:0:
256,192,114944,1,0,0:0:0:0:
256,192,115039,1,0,0:0:0:0:
256,192,115134,1,0,0:0:0:0:
256,192,115324,1,8,0:0:0:0:
256,192,115514,1,0,0:0:0:0:
256,192,116084,1,0,0:0:0:0:
256,192,116273,1,12,0:0:0:0:
256,192,116653,1,8,0:0:0:0:
256,192,116843,1,0,0:0:0:0:
256,192,117033,1,8,0:0:0:0:
256,192,117413,1,0,0:0:0:0:
256,192,117603,1,8,0:0:0:0:
256,192,117792,1,0,0:0:0:0:
256,192,118172,1,8,0:0:0:0:
256,192,118362,1,0,0:0:0:0:
256,192,118552,1,8,0:0:0:0:
256,192,118742,1,8,0:0:0:0:
256,192,118932,1,0,0:0:0:0:
256,192,119121,1,8,0:0:0:0:
256,192,119216,1,8,0:0:0:0:
256,192,119311,1,8,0:0:0:0:
256,192,119691,1,8,0:0:0:0:
256,192,119881,1,0,0:0:0:0:
256,192,120071,1,0,0:0:0:0:
256,192,120166,1,0,0:0:0:0:
256,192,120261,1,0,0:0:0:0:
256,192,120451,1,8,0:0:0:0:
256,192,120640,1,8,0:0:0:0:
256,192,120830,1,0,0:0:0:0:
256,192,121210,1,12,0:0:0:0:
256,192,121590,1,0,0:0:0:0:
256,192,122159,1,0,0:0:0:0:
256,192,122349,1,12,0:0:0:0:
256,192,122729,1,8,0:0:0:0:
256,192,122919,1,0,0:0:0:0:
256,192,123109,1,8,0:0:0:0:
256,192,123489,1,0,0:0:0:0:
256,192,123678,1,8,0:0:0:0:
256,192,123868,1,0,0:0:0:0:
256,192,124248,1,8,0:0:0:0:
256,192,124438,1,0,0:0:0:0:
256,192,124628,1,8,0:0:0:0:
256,192,124723,1,8,0:0:0:0:
256,192,124818,1,8,0:0:0:0:
256,192,125008,1,0,0:0:0:0:
256,192,125197,1,8,0:0:0:0:
256,192,125387,1,4,0:0:0:0:
256,192,125767,1,8,0:0:0:0:
256,192,125957,1,0,0:0:0:0:
256,192,126147,1,0,0:0:0:0:
256,192,126242,1,0,0:0:0:0:
256,192,126337,1,0,0:0:0:0:
256,192,126527,1,8,0:0:0:0:
256,192,126716,1,0,0:0:0:0:
256,192,126811,1,0,0:0:0:0:
256,192,126906,1,0,0:0:0:0:
256,192,127286,1,8,0:0:0:0:
256,192,127571,1,0,0:0:0:0:
256,192,127666,1,8,0:0:0:0:
256,192,128046,1,8,0:0:0:0:
256,192,128235,1,8,0:0:0:0:
256,192,128425,1,0,0:0:0:0:
256,192,128805,1,0,0:0:0:0:
256,192,128995,1,8,0:0:0:0:
256,192,129090,1,8,0:0:0:0:
256,192,129185,1,8,0:0:0:0:
256,192,129375,1,8,0:0:0:0:
256,192,129565,1,0,0:0:0:0:
256,192,129944,1,0,0:0:0:0:
256,192,130134,1,8,0:0:0:0:
256,192,130324,1,8,0:0:0:0:
256,192,130514,1,0,0:0:0:0:
256,192,130894,1,8,0:0:0:0:
256,192,130989,1,8,0:0:0:0:
256,192,131084,1,8,0:0:0:0:
256,192,131273,1,0,0:0:0:0:
256,192,131463,1,8,0:0:0:0:
256,192,131653,1,0,0:0:0:0:
256,192,132033,1,8,0:0:0:0:
256,192,132413,1,0,0:0:0:0:
256,192,132603,1,8,0:0:0:0:
256,192,132982,1,0,0:0:0:0:
256,192,133172,1,8,0:0:0:0:
256,192,133362,1,8,0:0:0:0:
256,192,133552,1,0,0:0:0:0:
256,192,133742,1,8,0:0:0:0:
256,192,134501,1,0,0:0:0:0:
256,192,134881,1,0,0:0:0:0:
256,192,135071,1,8,0:0:0:0:
256,192,135166,1,8,0:0:0:0:
256,192,135261,1,8,0:0:0:0:
256,192,135451,1,8,0:0:0:0:
256,192,135640,1,0,0:0:0:0:
256,192,136020,1,0,0:0:0:0:
256,192,136210,1,8,0:0:0:0:
256,192,136400,1,8,0:0:0:0:
256,192,136590,1,0,0:0:0:0:
256,192,136970,1,8,0:0:0:0:
256,192,137065,1,8,0:0:0:0:
256,192,137159,1,8,0:0:0:0:
256,192,137349,1,0,0:0:0:0:
256,192,137539,1,8,0:0:0:0:
256,192,137729,1,0,0:0:0:0:
256,192,138109,1,8,0:0:0:0:
256,192,138489,1,0,0:0:0:0:
256,192,138678,1,8,0:0:0:0:
256,192,139058,1,0,0:0:0:0:
256,192,139248,1,8,0:0:0:0:
256,192,139438,1,8,0:0:0:0:
256,192,139628,1,0,0:0:0:0:
256,192,139818,1,8,0:0:0:0:
256,192,139913,1,8,0:0:0:0:
256,192,140008,1,8,0:0:0:0:
256,192,140197,1,0,0:0:0:0:
256,192,140387,1,0,0:0:0:0:
