osu file format v14

[General]
AudioFilename: audio.mp3
AudioLeadIn: 0
PreviewTime: 102983
Countdown: 0
SampleSet: Normal
StackLeniency: 0.7
Mode: 1
LetterboxInBreaks: 0
WidescreenStoryboard: 1

[Editor]
Bookmarks: 28932,47160,71464,89692,107159,128425
DistanceSpacing: 0.7
BeatDivisor: 4
GridSize: 32
TimelineZoom: 1.7

[Metadata]
Title:Furachi na Kassai
TitleUnicode:不埒な喝采
Artist:Police Piccadilly feat. KAFU
ArtistUnicode:ポリスピカデリー feat. 可不
Creator:Tachibana_
Version:Kantan
Source:
Tags:japanese rock jrock j-rock female vocalist kaf kaf-u vtuber virtual youtuber vocaloid artifical singing synthesizer CeVIO AI KAMITSUBAKI STUDIO 神椿スタジオ 花谱 花譜 かふ Ryxliee BlackBq BlackBN
BeatmapID:3513068
BeatmapSetID:1719048

[Difficulty]
HPDrainRate:8
CircleSize:2
OverallDifficulty:2
ApproachRate:5
SliderMultiplier:1.4
SliderTickRate:1

[Events]
//Background and Video events
0,0,"bg.jpg",0,210
//Break Periods
//Storyboard Layer 0 (Background)
//Storyboard Layer 1 (Fail)
//Storyboard Layer 2 (Pass)
//Storyboard Layer 3 (Foreground)
//Storyboard Layer 4 (Overlay)
//Storyboard Sound Samples

[TimingPoints]
72,379.746835443038,4,1,0,80,1,0
28932,-100,4,1,0,92,0,1
47160,-100,4,1,0,80,0,0
71464,-100,4,1,0,92,0,1
89692,-100,4,1,0,80,0,0
103363,379.746835443038,4,1,0,80,1,8
104122,379.746835443038,4,1,0,72,1,0
107159,-100,4,1,0,92,0,1
128425,-100,4,1,0,72,0,0

[HitObjects]
256,192,1590,1,8,0:0:0:0:
256,192,2350,1,0,0:0:0:0:
256,192,2920,1,8,0:0:0:0:
256,192,3299,1,8,0:0:0:0:
256,192,3869,1,0,0:0:0:0:
256,192,4628,1,8,0:0:0:0:
256,192,5198,1,0,0:0:0:0:
256,192,5768,1,0,0:0:0:0:
256,192,6147,1,8,0:0:0:0:
256,192,6717,1,8,0:0:0:0:
256,192,7287,1,0,0:0:0:0:
256,192,7666,1,8,0:0:0:0:
256,192,8236,1,0,0:0:0:0:
256,192,9185,1,8,0:0:0:0:
256,192,9755,1,0,0:0:0:0:
256,192,10704,1,8,0:0:0:0:
256,192,11274,1,0,0:0:0:0:
256,192,11844,1,0,0:0:0:0:
256,192,12223,1,8,0:0:0:0:
256,192,12793,1,8,0:0:0:0:
256,192,13363,1,0,0:0:0:0:
256,192,13742,1,8,0:0:0:0:
256,192,14312,1,0,0:0:0:0:
256,192,15261,1,0,0:0:0:0:
256,192,15831,1,8,0:0:0:0:
256,192,16401,1,8,0:0:0:0:
256,192,17160,1,0,0:0:0:0:
256,192,17540,1,8,0:0:0:0:
256,192,18299,1,0,0:0:0:0:
256,192,19059,1,0,0:0:0:0:
256,192,20198,1,8,0:0:0:0:
256,192,20578,1,0,0:0:0:0:
256,192,21337,1,8,0:0:0:0:
256,192,22097,1,8,0:0:0:0:
256,192,22477,1,0,0:0:0:0:
256,192,23236,1,0,0:0:0:0:
256,192,23616,1,8,0:0:0:0:
256,192,24375,1,0,0:0:0:0:
256,192,25135,1,0,0:0:0:0:
256,192,26274,1,8,0:0:0:0:
256,192,26654,1,0,0:0:0:0:
256,192,27413,1,8,0:0:0:0:
256,192,28932,1,12,0:0:0:0:
256,192,29692,1,0,0:0:0:0:
256,192,30072,1,0,0:0:0:0:
256,192,30451,1,8,0:0:0:0:
256,192,31211,1,0,0:0:0:0:
256,192,31590,1,0,0:0:0:0:
256,192,31970,1,8,0:0:0:0:
256,192,32350,1,8,0:0:0:0:
256,192,32730,1,0,0:0:0:0:
256,192,33109,1,8,0:0:0:0:
256,192,34249,1,0,0:0:0:0:
256,192,34628,1,8,0:0:0:0:
256,192,35008,1,4,0:0:0:0:
256,192,35768,1,8,0:0:0:0:
256,192,36147,1,0,0:0:0:0:
256,192,36527,1,8,0:0:0:0:
256,192,37287,1,0,0:0:0:0:
256,192,37666,1,0,0:0:0:0:
256,192,38046,1,8,0:0:0:0:
256,192,38426,1,8,0:0:0:0:
256,192,38806,1,0,0:0:0:0:
256,192,39185,1,8,0:0:0:0:
256,192,40325,1,0,0:0:0:0:
256,192,40704,1,0,0:0:0:0:
256,192,41084,1,12,0:0:0:0:
256,192,41844,1,0,0:0:0:0:
256,192,42603,1,8,0:0:0:0:
256,192,43363,1,0,0:0:0:0:
256,192,43742,1,8,0:0:0:0:
256,192,44122,1,0,0:0:0:0:
256,192,45641,1,0,0:0:0:0:
256,192,46021,1,8,0:0:0:0:
256,192,46401,1,8,0:0:0:0:
256,192,47160,1,0,0:0:0:0:
256,192,47920,1,8,0:0:0:0:
256,192,48489,1,0,0:0:0:0:
256,192,49628,1,0,0:0:0:0:
256,192,50198,1,8,0:0:0:0:
256,192,50768,1,0,0:0:0:0:
256,192,51527,1,8,0:0:0:0:
256,192,52287,1,0,0:0:0:0:
256,192,53236,1,8,0:0:0:0:
256,192,53996,1,0,0:0:0:0:
256,192,54565,1,8,0:0:0:0:
256,192,55704,1,0,0:0:0:0:
256,192,56274,1,8,0:0:0:0:
256,192,56844,1,0,0:0:0:0:
256,192,57603,1,8,0:0:0:0:
256,192,58363,1,0,0:0:0:0:
256,192,59312,1,8,0:0:0:0:
256,192,59692,1,0,0:0:0:0:
256,192,60072,1,8,0:0:0:0:
256,192,60831,1,0,0:0:0:0:
256,192,61590,1,0,0:0:0:0:
256,192,62730,1,8,0:0:0:0:
256,192,63109,1,0,0:0:0:0:
256,192,63869,1,8,0:0:0:0:
256,192,64628,1,8,0:0:0:0:
256,192,65008,1,0,0:0:0:0:
256,192,65388,1,8,0:0:0:0:
256,192,66147,1,8,0:0:0:0:
256,192,66527,1,0,0:0:0:0:
256,192,66907,1,0,0:0:0:0:
256,192,67666,1,0,0:0:0:0:
256,192,68806,1,0,0:0:0:0:
256,192,69185,1,8,0:0:0:0:
256,192,69565,1,8,0:0:0:0:
256,192,69945,1,0,0:0:0:0:
256,192,71084,1,0,0:0:0:0:
256,192,71464,1,12,0:0:0:0:
256,192,72224,1,8,0:0:0:0:
256,192,72603,1,8,0:0:0:0:
256,192,72983,1,0,0:0:0:0:
256,192,73743,1,0,0:0:0:0:
256,192,74122,1,0,0:0:0:0:
256,192,74502,1,8,0:0:0:0:
256,192,74882,1,8,0:0:0:0:
256,192,75262,1,0,0:0:0:0:
256,192,75641,1,8,0:0:0:0:
256,192,76781,1,0,0:0:0:0:
256,192,77160,1,8,0:0:0:0:
256,192,77540,1,4,0:0:0:0:
256,192,78300,1,0,0:0:0:0:
256,192,78679,1,0,0:0:0:0:
256,192,79059,1,8,0:0:0:0:
256,192,79819,1,8,0:0:0:0:
256,192,80198,1,0,0:0:0:0:
256,192,80578,1,8,0:0:0:0:
256,192,80958,1,8,0:0:0:0:
256,192,81338,1,0,0:0:0:0:
256,192,81717,1,8,0:0:0:0:
256,192,82856,1,0,0:0:0:0:
256,192,83236,1,0,0:0:0:0:
256,192,83616,1,12,0:0:0:0:
256,192,84376,1,0,0:0:0:0:
256,192,85135,1,8,0:0:0:0:
256,192,85895,1,8,0:0:0:0:
256,192,86274,1,8,0:0:0:0:
256,192,86654,1,0,0:0:0:0:
256,192,88173,1,0,0:0:0:0:
256,192,88553,1,8,0:0:0:0:
256,192,88933,1,8,0:0:0:0:
256,192,89692,1,0,0:0:0:0:
256,192,90451,1,8,0:0:0:0:
256,192,91021,1,0,0:0:0:0:
256,192,91590,1,0,0:0:0:0:
256,192,92350,1,8,0:0:0:0:
256,192,92730,1,8,0:0:0:0:
256,192,93489,1,8,0:0:0:0:
256,192,94059,1,0,0:0:0:0:
256,192,94628,1,0,0:0:0:0:
256,192,95198,1,0,0:0:0:0:
256,192,95768,1,8,0:0:0:0:
256,192,97097,1,8,0:0:0:0:
256,192,97666,1,0,0:0:0:0:
256,192,98426,1,8,0:0:0:0:
256,192,98806,1,8,0:0:0:0:
256,192,99565,1,8,0:0:0:0:
256,192,100135,1,0,0:0:0:0:
256,192,100704,1,0,0:0:0:0:
256,192,101274,1,0,0:0:0:0:
256,192,104122,5,8,0:0:0:0:
256,192,104501,1,0,0:0:0:0:
256,192,105640,1,8,0:0:0:0:
256,192,106020,1,0,0:0:0:0:
256,192,107159,1,12,0:0:0:0:
256,192,107919,1,0,0:0:0:0:
256,192,108298,1,8,0:0:0:0:
256,192,109438,1,0,0:0:0:0:
256,192,110197,1,12,0:0:0:0:
256,192,110957,1,8,0:0:0:0:
256,192,111336,1,8,0:0:0:0:
256,192,111716,1,0,0:0:0:0:
256,192,112476,1,0,0:0:0:0:
256,192,112855,1,0,0:0:0:0:
256,192,113235,1,8,0:0:0:0:
256,192,113615,1,8,0:0:0:0:
256,192,113995,1,0,0:0:0:0:
256,192,114374,1,8,0:0:0:0:
256,192,115514,1,0,0:0:0:0:
256,192,115893,1,0,0:0:0:0:
256,192,116273,1,12,0:0:0:0:
256,192,117033,1,0,0:0:0:0:
256,192,117792,1,8,0:0:0:0:
256,192,118552,1,0,0:0:0:0:
256,192,118932,1,0,0:0:0:0:
256,192,119311,1,8,0:0:0:0:
256,192,120830,1,0,0:0:0:0:
256,192,121210,1,0,0:0:0:0:
256,192,121590,1,8,0:0:0:0:
256,192,121970,1,0,0:0:0:0:
256,192,122349,1,12,0:0:0:0:
256,192,123109,1,0,0:0:0:0:
256,192,123868,1,8,0:0:0:0:
256,192,124628,1,0,0:0:0:0:
256,192,125008,1,0,0:0:0:0:
256,192,125387,1,12,0:0:0:0:
256,192,126906,1,0,0:0:0:0:
256,192,127286,1,8,0:0:0:0:
256,192,127666,1,8,0:0:0:0:
256,192,128425,1,0,0:0:0:0:
256,192,129185,1,8,0:0:0:0:
256,192,129565,1,8,0:0:0:0:
256,192,129944,1,0,0:0:0:0:
256,192,131084,1,0,0:0:0:0:
256,192,131463,1,8,0:0:0:0:
256,192,132033,1,0,0:0:0:0:
256,192,132413,1,8,0:0:0:0:
256,192,132982,1,0,0:0:0:0:
256,192,133552,1,8,0:0:0:0:
256,192,134501,1,0,0:0:0:0:
256,192,135261,1,8,0:0:0:0:
256,192,135640,1,8,0:0:0:0:
256,192,136020,1,0,0:0:0:0:
256,192,137159,1,0,0:0:0:0:
256,192,137539,1,8,0:0:0:0:
256,192,138109,1,0,0:0:0:0:
256,192,138489,1,0,0:0:0:0:
256,192,138868,1,8,0:0:0:0:
256,192,139628,1,8,0:0:0:0:
256,192,140387,1,0,0:0:0:0:
