osu file format v14

[General]
AudioFilename: audio.mp3
AudioLeadIn: 0
PreviewTime: 102983
Countdown: 0
SampleSet: Normal
StackLeniency: 0.7
Mode: 1
LetterboxInBreaks: 0
WidescreenStoryboard: 1

[Editor]
Bookmarks: 72,4628,10704,16780,22856,28932,35008,41084,47160,53236,59312,65388,71464,74502,77540,83616,89692,95768,101844,107160,113996,120072,126147,132223,138299
DistanceSpacing: 1.1
BeatDivisor: 4
GridSize: 32
TimelineZoom: 2

[Metadata]
Title:Furachi na Kassai
TitleUnicode:不埒な喝采
Artist:Police Piccadilly feat. KAFU
ArtistUnicode:ポリスピカデリー feat. 可不
Creator:Tachibana_
Version:Futsuu
Source:
Tags:japanese rock jrock j-rock female vocalist kaf kaf-u vtuber virtual youtuber vocaloid artifical singing synthesizer CeVIO AI KAMITSUBAKI STUDIO 神椿スタジオ 花谱 花譜 かふ Ryxliee BlackBq BlackBN
BeatmapID:3513067
BeatmapSetID:1719048

[Difficulty]
HPDrainRate:7
CircleSize:2
OverallDifficulty:3
ApproachRate:5
SliderMultiplier:1.4
SliderTickRate:1

[Events]
//Background and Video events
0,0,"bg.jpg",0,210
//Break Periods
//Storyboard Layer 0 (Background)
//Storyboard Layer 1 (Fail)
//Storyboard Layer 2 (Pass)
//Storyboard Layer 3 (Foreground)
//Storyboard Layer 4 (Overlay)
//Storyboard Sound Samples

[TimingPoints]
72,379.746835443038,4,1,0,80,1,0
28932,-100,4,1,0,92,0,1
47160,-100,4,1,0,80,0,0
71464,-100,4,1,0,92,0,1
89692,-100,4,1,0,80,0,0
103363,379.746835443038,4,1,0,80,1,8
104122,379.746835443038,4,1,0,72,1,0
107159,-100,4,1,0,92,0,1
128425,-100,4,1,0,72,0,0

[HitObjects]
256,192,1590,5,8,0:0:0:0:
256,192,1780,1,0,0:0:0:0:
256,192,2160,1,0,0:0:0:0:
256,192,2350,1,8,0:0:0:0:
256,192,2920,1,8,0:0:0:0:
256,192,3299,1,8,0:0:0:0:
256,192,3489,1,0,0:0:0:0:
256,192,3869,1,8,0:0:0:0:
256,192,4059,1,0,0:0:0:0:
256,192,4628,1,8,0:0:0:0:
256,192,5008,1,8,0:0:0:0:
256,192,5198,1,8,0:0:0:0:
256,192,5388,1,0,0:0:0:0:
256,192,5768,1,8,0:0:0:0:
256,192,6147,1,8,0:0:0:0:
256,192,6337,1,0,0:0:0:0:
256,192,6717,1,8,0:0:0:0:
256,192,7097,1,0,0:0:0:0:
256,192,7287,1,8,0:0:0:0:
256,192,7666,1,0,0:0:0:0:
256,192,8046,1,8,0:0:0:0:
256,192,8236,1,0,0:0:0:0:
256,192,8616,1,0,0:0:0:0:
256,192,8806,1,8,0:0:0:0:
256,192,9185,1,8,0:0:0:0:
256,192,9565,1,0,0:0:0:0:
256,192,10325,1,8,0:0:0:0:
256,192,10704,1,0,0:0:0:0:
256,192,11084,1,0,0:0:0:0:
256,192,11274,1,0,0:0:0:0:
256,192,11464,1,8,0:0:0:0:
256,192,11844,1,8,0:0:0:0:
256,192,12223,1,0,0:0:0:0:
256,192,12413,1,8,0:0:0:0:
256,192,12793,1,8,0:0:0:0:
256,192,13173,1,0,0:0:0:0:
256,192,13363,1,8,0:0:0:0:
256,192,13742,1,0,0:0:0:0:
256,192,14122,1,8,0:0:0:0:
256,192,14312,1,0,0:0:0:0:
256,192,14692,1,0,0:0:0:0:
256,192,14882,1,8,0:0:0:0:
256,192,15261,1,8,0:0:0:0:
256,192,15641,1,8,0:0:0:0:
256,192,15831,1,0,0:0:0:0:
256,192,16590,1,8,0:0:0:0:
256,192,16780,1,0,0:0:0:0:
256,192,17160,1,0,0:0:0:0:
256,192,17350,1,0,0:0:0:0:
256,192,17540,1,8,0:0:0:0:
256,192,17920,1,0,0:0:0:0:
256,192,18299,1,8,0:0:0:0:
256,192,18489,1,8,0:0:0:0:
256,192,18869,1,0,0:0:0:0:
256,192,19059,1,8,0:0:0:0:
256,192,19818,1,0,0:0:0:0:
256,192,20198,1,8,0:0:0:0:
256,192,20388,1,0,0:0:0:0:
256,192,20578,1,8,0:0:0:0:
256,192,20958,1,0,0:0:0:0:
256,192,21337,1,8,0:0:0:0:
256,192,21527,1,0,0:0:0:0:
256,192,21907,1,0,0:0:0:0:
256,192,22097,1,8,0:0:0:0:
256,192,22477,1,0,0:0:0:0:
256,192,22856,1,0,0:0:0:0:
256,192,23236,1,0,0:0:0:0:
256,192,23426,1,8,0:0:0:0:
256,192,23616,1,8,0:0:0:0:
256,192,23996,1,0,0:0:0:0:
256,192,24375,1,8,0:0:0:0:
256,192,24565,1,8,0:0:0:0:
256,192,24945,1,0,0:0:0:0:
256,192,25135,1,8,0:0:0:0:
256,192,25894,1,0,0:0:0:0:
256,192,26274,1,8,0:0:0:0:
256,192,26464,1,0,0:0:0:0:
256,192,26654,1,8,0:0:0:0:
256,192,27034,1,0,0:0:0:0:
256,192,27223,1,0,0:0:0:0:
256,192,27413,1,8,0:0:0:0:
256,192,27603,1,8,0:0:0:0:
256,192,28173,1,0,0:0:0:0:
256,192,28932,1,12,0:0:0:0:
256,192,29312,1,0,0:0:0:0:
256,192,29692,1,8,0:0:0:0:
256,192,29882,1,8,0:0:0:0:
256,192,30072,1,0,0:0:0:0:
256,192,30451,1,8,0:0:0:0:
256,192,30831,1,0,0:0:0:0:
256,192,31211,1,8,0:0:0:0:
256,192,31401,1,0,0:0:0:0:
256,192,31590,1,8,0:0:0:0:
256,192,31780,1,0,0:0:0:0:
256,192,31970,1,8,0:0:0:0:
256,192,32350,1,0,0:0:0:0:
256,192,32730,1,8,0:0:0:0:
256,192,33109,1,0,0:0:0:0:
256,192,33299,1,0,0:0:0:0:
256,192,33489,1,8,0:0:0:0:
256,192,34249,1,0,0:0:0:0:
256,192,34628,1,8,0:0:0:0:
256,192,34818,1,8,0:0:0:0:
256,192,35008,1,4,0:0:0:0:
256,192,35388,1,8,0:0:0:0:
256,192,35768,1,8,0:0:0:0:
256,192,35958,1,0,0:0:0:0:
256,192,36147,1,8,0:0:0:0:
256,192,36527,1,0,0:0:0:0:
256,192,36907,1,8,0:0:0:0:
256,192,37287,1,0,0:0:0:0:
256,192,37477,1,0,0:0:0:0:
256,192,37666,1,8,0:0:0:0:
256,192,37856,1,0,0:0:0:0:
256,192,38046,1,8,0:0:0:0:
256,192,38426,1,0,0:0:0:0:
256,192,38806,1,8,0:0:0:0:
256,192,39185,1,8,0:0:0:0:
256,192,39565,1,0,0:0:0:0:
256,192,39755,1,8,0:0:0:0:
256,192,39945,1,0,0:0:0:0:
256,192,40325,1,8,0:0:0:0:
256,192,41084,1,12,0:0:0:0:
256,192,41654,1,0,0:0:0:0:
256,192,41844,1,8,0:0:0:0:
256,192,42413,1,0,0:0:0:0:
256,192,42603,1,8,0:0:0:0:
256,192,43173,1,8,0:0:0:0:
256,192,43363,1,0,0:0:0:0:
256,192,43742,1,8,0:0:0:0:
256,192,43932,1,8,0:0:0:0:
256,192,44122,1,0,0:0:0:0:
256,192,44502,1,8,0:0:0:0:
256,192,44692,1,8,0:0:0:0:
256,192,44882,1,0,0:0:0:0:
256,192,45072,1,0,0:0:0:0:
256,192,45261,1,8,0:0:0:0:
256,192,45641,1,0,0:0:0:0:
256,192,46021,1,8,0:0:0:0:
256,192,46401,1,8,0:0:0:0:
256,192,46780,1,8,0:0:0:0:
256,192,46970,1,8,0:0:0:0:
256,192,47160,1,0,0:0:0:0:
256,192,47920,1,8,0:0:0:0:
256,192,48299,1,8,0:0:0:0:
256,192,48489,1,0,0:0:0:0:
256,192,48869,1,8,0:0:0:0:
256,192,49059,1,8,0:0:0:0:
256,192,49249,1,0,0:0:0:0:
256,192,49628,1,8,0:0:0:0:
256,192,49818,1,0,0:0:0:0:
256,192,50198,1,8,0:0:0:0:
256,192,50388,1,0,0:0:0:0:
256,192,50578,1,0,0:0:0:0:
256,192,50768,1,8,0:0:0:0:
256,192,51147,1,8,0:0:0:0:
256,192,51527,1,0,0:0:0:0:
256,192,51717,1,8,0:0:0:0:
256,192,52097,1,8,0:0:0:0:
256,192,52287,1,0,0:0:0:0:
256,192,52666,1,8,0:0:0:0:
256,192,52856,1,0,0:0:0:0:
256,192,53046,1,8,0:0:0:0:
256,192,53236,1,8,0:0:0:0:
256,192,53996,1,0,0:0:0:0:
256,192,54375,1,0,0:0:0:0:
256,192,54565,1,8,0:0:0:0:
256,192,54945,1,8,0:0:0:0:
256,192,55135,1,8,0:0:0:0:
256,192,55325,1,0,0:0:0:0:
256,192,55704,1,0,0:0:0:0:
256,192,55894,1,8,0:0:0:0:
256,192,56084,1,8,0:0:0:0:
256,192,56274,1,0,0:0:0:0:
256,192,56464,1,8,0:0:0:0:
256,192,56844,1,0,0:0:0:0:
256,192,57223,1,8,0:0:0:0:
256,192,57603,1,0,0:0:0:0:
256,192,58173,1,0,0:0:0:0:
256,192,58363,1,8,0:0:0:0:
256,192,59312,1,8,0:0:0:0:
256,192,59502,1,8,0:0:0:0:
256,192,59692,1,0,0:0:0:0:
256,192,60072,1,8,0:0:0:0:
256,192,60451,1,0,0:0:0:0:
256,192,60641,1,0,0:0:0:0:
256,192,60831,1,8,0:0:0:0:
256,192,61021,1,0,0:0:0:0:
256,192,61401,1,8,0:0:0:0:
256,192,61590,1,0,0:0:0:0:
256,192,62540,1,8,0:0:0:0:
256,192,62730,1,0,0:0:0:0:
256,192,63109,1,8,0:0:0:0:
256,192,63489,1,8,0:0:0:0:
256,192,63679,1,0,0:0:0:0:
256,192,63869,1,8,0:0:0:0:
256,192,64059,1,0,0:0:0:0:
256,192,64439,1,0,0:0:0:0:
256,192,64628,1,8,0:0:0:0:
256,192,65008,1,0,0:0:0:0:
256,192,65388,1,4,0:0:0:0:
256,192,65578,1,8,0:0:0:0:
256,192,65958,1,8,0:0:0:0:
256,192,66147,1,0,0:0:0:0:
256,192,66527,1,0,0:0:0:0:
256,192,66717,1,0,0:0:0:0:
256,192,66907,1,8,0:0:0:0:
256,192,67097,1,0,0:0:0:0:
256,192,67477,1,0,0:0:0:0:
256,192,67666,1,8,0:0:0:0:
256,192,68046,1,0,0:0:0:0:
256,192,68236,1,8,0:0:0:0:
256,192,68426,1,0,0:0:0:0:
256,192,68806,1,8,0:0:0:0:
256,192,68996,1,8,0:0:0:0:
256,192,69185,1,0,0:0:0:0:
256,192,69565,1,0,0:0:0:0:
256,192,69945,1,0,0:0:0:0:
256,192,70135,1,8,0:0:0:0:
256,192,70894,1,8,0:0:0:0:
256,192,71084,1,8,0:0:0:0:
256,192,71464,1,12,0:0:0:0:
256,192,71844,1,0,0:0:0:0:
256,192,72224,1,8,0:0:0:0:
256,192,72414,1,0,0:0:0:0:
256,192,72603,1,8,0:0:0:0:
256,192,72983,1,8,0:0:0:0:
256,192,73363,1,0,0:0:0:0:
256,192,73742,1,8,0:0:0:0:
256,192,73933,1,0,0:0:0:0:
256,192,74122,1,8,0:0:0:0:
256,192,74312,1,0,0:0:0:0:
256,192,74502,1,8,0:0:0:0:
256,192,74882,1,0,0:0:0:0:
256,192,75262,1,8,0:0:0:0:
256,192,75641,1,0,0:0:0:0:
256,192,75831,1,0,0:0:0:0:
256,192,76021,1,8,0:0:0:0:
256,192,76781,1,8,0:0:0:0:
256,192,77160,1,0,0:0:0:0:
256,192,77350,1,0,0:0:0:0:
256,192,77540,1,12,0:0:0:0:
256,192,77920,1,0,0:0:0:0:
256,192,78300,1,8,0:0:0:0:
256,192,78490,1,8,0:0:0:0:
256,192,78679,1,0,0:0:0:0:
256,192,79059,1,8,0:0:0:0:
256,192,79439,1,0,0:0:0:0:
256,192,79818,1,8,0:0:0:0:
256,192,80008,1,8,0:0:0:0:
256,192,80197,1,0,0:0:0:0:
256,192,80388,1,0,0:0:0:0:
256,192,80578,1,8,0:0:0:0:
256,192,80958,1,8,0:0:0:0:
256,192,81337,1,0,0:0:0:0:
256,192,81717,1,8,0:0:0:0:
256,192,82097,1,0,0:0:0:0:
256,192,82287,1,8,0:0:0:0:
256,192,82477,1,0,0:0:0:0:
256,192,82857,1,8,0:0:0:0:
256,192,83616,1,12,0:0:0:0:
256,192,84186,1,8,0:0:0:0:
256,192,84376,1,0,0:0:0:0:
256,192,84945,1,0,0:0:0:0:
256,192,85135,1,8,0:0:0:0:
256,192,85705,1,8,0:0:0:0:
256,192,85895,1,0,0:0:0:0:
256,192,86274,1,0,0:0:0:0:
256,192,86464,1,0,0:0:0:0:
256,192,86654,1,8,0:0:0:0:
256,192,87034,1,8,0:0:0:0:
256,192,87223,1,8,0:0:0:0:
256,192,87414,1,0,0:0:0:0:
256,192,87604,1,0,0:0:0:0:
256,192,87793,1,8,0:0:0:0:
256,192,88173,1,0,0:0:0:0:
256,192,88553,1,8,0:0:0:0:
256,192,88933,1,8,0:0:0:0:
256,192,89312,1,8,0:0:0:0:
256,192,89502,1,8,0:0:0:0:
256,192,89692,1,0,0:0:0:0:
256,192,90451,1,8,0:0:0:0:
256,192,90641,1,0,0:0:0:0:
256,192,90831,1,0,0:0:0:0:
256,192,91211,1,0,0:0:0:0:
256,192,91590,1,8,0:0:0:0:
256,192,91780,1,8,0:0:0:0:
256,192,91970,1,0,0:0:0:0:
256,192,92350,1,8,0:0:0:0:
256,192,92730,1,8,0:0:0:0:
256,192,93489,1,0,0:0:0:0:
256,192,93869,1,0,0:0:0:0:
256,192,94059,1,8,0:0:0:0:
256,192,94249,1,0,0:0:0:0:
256,192,94628,1,8,0:0:0:0:
256,192,95008,1,0,0:0:0:0:
256,192,95198,1,8,0:0:0:0:
256,192,95768,1,8,0:0:0:0:
256,192,96527,1,8,0:0:0:0:
256,192,96717,1,0,0:0:0:0:
256,192,97097,1,8,0:0:0:0:
256,192,97477,1,0,0:0:0:0:
256,192,97666,1,8,0:0:0:0:
256,192,97856,1,0,0:0:0:0:
256,192,98046,1,0,0:0:0:0:
256,192,98426,1,8,0:0:0:0:
256,192,98806,1,8,0:0:0:0:
256,192,99185,1,0,0:0:0:0:
256,192,99565,1,8,0:0:0:0:
256,192,99755,1,8,0:0:0:0:
256,192,99945,1,0,0:0:0:0:
256,192,100135,1,8,0:0:0:0:
256,192,100515,1,8,0:0:0:0:
256,192,100704,1,0,0:0:0:0:
256,192,101084,1,0,0:0:0:0:
256,192,101274,1,8,0:0:0:0:
256,192,101464,1,0,0:0:0:0:
256,192,104122,1,8,0:0:0:0:
256,192,104501,1,8,0:0:0:0:
256,192,104881,1,0,0:0:0:0:
256,192,105640,1,8,0:0:0:0:
256,192,106020,1,8,0:0:0:0:
256,192,106400,1,0,0:0:0:0:
256,192,107159,1,12,0:0:0:0:
256,192,107539,1,0,0:0:0:0:
256,192,107919,1,8,0:0:0:0:
256,192,108298,1,0,0:0:0:0:
256,192,108678,1,8,0:0:0:0:
256,192,108868,1,0,0:0:0:0:
256,192,109248,1,8,0:0:0:0:
256,192,109438,1,0,0:0:0:0:
256,192,110197,1,8,0:0:0:0:
256,192,110577,1,0,0:0:0:0:
256,192,110957,1,8,0:0:0:0:
256,192,111147,1,8,0:0:0:0:
256,192,111336,1,0,0:0:0:0:
256,192,111716,1,8,0:0:0:0:
256,192,112096,1,0,0:0:0:0:
256,192,112476,1,0,0:0:0:0:
256,192,112667,1,0,0:0:0:0:
256,192,112856,1,8,0:0:0:0:
256,192,113046,1,0,0:0:0:0:
256,192,113235,1,8,0:0:0:0:
256,192,113615,1,8,0:0:0:0:
256,192,113995,1,0,0:0:0:0:
256,192,114374,1,0,0:0:0:0:
256,192,114564,1,8,0:0:0:0:
256,192,114754,1,0,0:0:0:0:
256,192,115514,1,8,0:0:0:0:
256,192,116083,1,0,0:0:0:0:
256,192,116273,1,12,0:0:0:0:
256,192,116843,1,8,0:0:0:0:
256,192,117033,1,0,0:0:0:0:
256,192,117602,1,0,0:0:0:0:
256,192,117792,1,8,0:0:0:0:
256,192,118362,1,8,0:0:0:0:
256,192,118552,1,0,0:0:0:0:
256,192,118931,1,8,0:0:0:0:
256,192,119121,1,8,0:0:0:0:
256,192,119311,1,0,0:0:0:0:
256,192,119691,1,8,0:0:0:0:
256,192,119881,1,8,0:0:0:0:
256,192,120071,1,0,0:0:0:0:
256,192,120261,1,0,0:0:0:0:
256,192,120450,1,8,0:0:0:0:
256,192,120830,1,0,0:0:0:0:
256,192,121210,1,8,0:0:0:0:
256,192,121590,1,0,0:0:0:0:
256,192,122349,1,12,0:0:0:0:
256,192,122919,1,0,0:0:0:0:
256,192,123109,1,8,0:0:0:0:
256,192,123678,1,0,0:0:0:0:
256,192,123868,1,8,0:0:0:0:
256,192,124438,1,8,0:0:0:0:
256,192,124628,1,0,0:0:0:0:
256,192,125197,1,0,0:0:0:0:
256,192,125387,1,12,0:0:0:0:
256,192,125767,1,8,0:0:0:0:
256,192,125957,1,8,0:0:0:0:
256,192,126147,1,0,0:0:0:0:
256,192,126337,1,0,0:0:0:0:
256,192,126526,1,8,0:0:0:0:
256,192,126906,1,0,0:0:0:0:
256,192,127286,1,8,0:0:0:0:
256,192,127666,1,8,0:0:0:0:
256,192,128045,1,8,0:0:0:0:
256,192,128235,1,8,0:0:0:0:
256,192,128425,1,0,0:0:0:0:
256,192,129185,1,8,0:0:0:0:
256,192,129565,1,0,0:0:0:0:
256,192,129944,1,0,0:0:0:0:
256,192,130134,1,8,0:0:0:0:
256,192,130324,1,8,0:0:0:0:
256,192,130514,1,0,0:0:0:0:
256,192,130893,1,0,0:0:0:0:
256,192,131084,1,8,0:0:0:0:
256,192,131463,1,8,0:0:0:0:
256,192,131653,1,0,0:0:0:0:
256,192,132033,1,8,0:0:0:0:
256,192,132413,1,0,0:0:0:0:
256,192,132792,1,0,0:0:0:0:
256,192,132982,1,8,0:0:0:0:
256,192,133362,1,8,0:0:0:0:
256,192,133552,1,0,0:0:0:0:
256,192,133931,1,8,0:0:0:0:
256,192,134122,1,0,0:0:0:0:
256,192,134311,1,0,0:0:0:0:
256,192,134501,1,8,0:0:0:0:
256,192,135261,1,8,0:0:0:0:
256,192,135640,1,0,0:0:0:0:
256,192,136020,1,8,0:0:0:0:
256,192,136210,1,8,0:0:0:0:
256,192,136400,1,0,0:0:0:0:
256,192,136590,1,8,0:0:0:0:
256,192,136969,1,8,0:0:0:0:
256,192,137160,1,0,0:0:0:0:
256,192,137539,1,8,0:0:0:0:
256,192,137729,1,8,0:0:0:0:
256,192,138109,1,0,0:0:0:0:
256,192,138488,1,0,0:0:0:0:
256,192,138868,1,8,0:0:0:0:
256,192,139438,1,0,0:0:0:0:
256,192,139628,1,8,0:0:0:0:
256,192,140007,1,0,0:0:0:0:
256,192,140198,1,8,0:0:0:0:
256,192,140387,1,0,0:0:0:0:
