osu file format v14

[General]
AudioFilename: audio.mp3
AudioLeadIn: 0
PreviewTime:102983
Countdown: 0
SampleSet: Soft
StackLeniency: 0.7
Mode: 0
LetterboxInBreaks: 0
WidescreenStoryboard: 1

[Editor]
DistanceSpacing: 1.3
BeatDivisor: 4
GridSize: 4
TimelineZoom: 2

[Metadata]
Title:Furachi na Kassai
TitleUnicode:不埒な喝采
Artist:Police Piccadilly feat. KAFU
ArtistUnicode:ポリスピカデリー feat. 可不
Creator:Ryxliee
Version:mrforse's Light Insane
Source:
Tags:japanese rock jrock j-rock female vocalist kaf kaf-u vtuber virtual youtuber vocaloid artifical singing synthesizer CeVIO AI KAMITSUBAKI STUDIO 神椿スタジオ 花谱 花譜 かふ Astrolis Battle mrforse FlyzyStyle Froskya Revialink
BeatmapID:3071429
BeatmapSetID:1493511

[Difficulty]
HPDrainRate:4.4
CircleSize:3.6
OverallDifficulty:7.2
ApproachRate:8.5
SliderMultiplier:1.8
SliderTickRate:1

[Events]
//Background and Video events
0,0,"Screenshot_14.jpg",0,0
//Break Periods
2,104122,106401
//Storyboard Layer 0 (Background)
//Storyboard Layer 1 (Fail)
//Storyboard Layer 2 (Pass)
//Storyboard Layer 3 (Foreground)
//Storyboard Layer 4 (Overlay)
//Storyboard Sound Samples

[TimingPoints]
72,379.746835443038,4,2,1,30,1,0
72,-250,4,2,1,30,0,0
3869,-250,4,2,1,40,0,0
4249,-250,4,2,1,45,0,0
4628,-125,4,2,1,50,0,0
16780,-166.666666666667,4,2,1,40,0,0
24375,-166.666666666667,4,2,1,45,0,0
25894,-166.666666666667,4,2,1,50,0,0
27413,-166.666666666667,4,2,1,55,0,0
27603,-166.666666666667,4,2,1,30,0,0
28932,-100,4,2,1,70,0,1
40515,-100,4,2,1,60,0,1
40704,-100,4,2,1,65,0,1
40894,-100,4,2,1,70,0,1
41084,-125,4,2,1,75,0,1
41844,-111.111111111111,4,2,1,75,0,1
42603,-100,4,2,1,75,0,1
47160,-142.857142857143,4,2,1,50,0,0
49344,-142.857142857143,4,2,1,5,0,0
49439,-142.857142857143,4,2,1,50,0,0
59312,-166.666666666667,4,2,1,45,0,0
65388,-142.857142857143,4,2,1,55,0,0
69945,-142.857142857143,4,2,1,60,0,0
71464,-100,4,2,1,70,0,1
82287,-100,4,2,1,60,0,1
82666,-100,4,2,1,65,0,1
82856,-100,4,2,1,55,0,1
83046,-100,4,2,1,65,0,1
83141,-100,4,2,1,55,0,1
83236,-100,4,2,1,65,0,1
83331,-100,4,2,1,55,0,1
83426,-100,4,2,1,50,0,1
83616,-125,4,2,1,70,0,1
84375,-111.111111111111,4,2,1,70,0,1
85135,-100,4,2,1,70,0,1
89692,-125,4,2,1,45,0,0
96432,-125,4,2,1,5,0,0
96527,-125,4,2,1,45,0,0
97002,-125,4,2,1,5,0,0
97097,-125,4,2,1,45,0,0
98331,-125,4,2,1,5,0,0
98426,-125,4,2,1,45,0,0
99470,-125,4,2,1,45,0,0
99565,-125,4,2,1,45,0,0
104122,379.746835443038,4,2,1,35,1,0
107159,-100,4,2,1,75,0,1
109059,-100,4,2,1,50,0,1
109249,-100,4,2,1,65,0,1
109439,-100,4,2,1,70,0,1
109534,-100,4,2,1,50,0,1
109818,-100,4,2,1,55,0,1
110008,-100,4,2,1,65,0,1
110198,-100,4,2,1,75,0,1
115515,-100,4,2,1,65,0,1
115609,-100,4,2,1,75,0,1
115704,-100,4,2,1,60,0,1
115894,-100,4,2,1,55,0,1
116084,-100,4,2,1,65,0,1
116273,-125,4,2,1,80,0,1
117033,-111.111111111111,4,2,1,80,0,1
117792,-100,4,2,1,80,0,1
122349,-125,4,2,1,80,0,1
123109,-111.111111111111,4,2,1,80,0,1
123868,-100,4,2,1,80,0,1
124628,-90.9090909090909,4,2,1,80,0,1
125387,-83.3333333333333,4,2,1,85,0,1
128425,-142.857142857143,4,2,1,50,0,0
135546,-142.857142857143,4,2,1,5,0,0
135640,-142.857142857143,4,2,1,50,0,0

[Colours]
Combo1 : 75,188,231
Combo2 : 235,65,129
Combo3 : 186,153,240
Combo4 : 251,134,196

[HitObjects]
48,88,4628,6,0,L|56:159,1,72,2|2,3:2|0:0,0:0:0:0:
111,284,5008,1,8,1:2:0:0:
172,160,5198,2,0,B|227:153|227:153|258:173|258:173|309:167,1,144,2|2,3:2|0:0,0:0:0:0:
401,64,5768,1,10,1:2:0:0:
401,64,5958,1,2,0:0:0:0:
274,17,6147,6,0,L|282:88,1,72,0|0,3:0|0:0,0:0:0:0:
216,211,6527,1,8,1:2:0:0:
157,85,6717,2,0,B|114:64|114:64|75:107|93:156,1,144,0|2,3:0|0:0,0:0:0:0:
162,282,7287,1,10,1:2:0:0:
162,282,7477,1,2,3:2:0:0:
240,164,7666,6,0,B|324:144|324:144|369:179,1,144,2|8,3:2|1:2,0:0:0:0:
424,328,8236,2,0,L|416:257,1,72,2|0,3:2|0:0,0:0:0:0:
492,120,8616,2,0,P|482:154|457:179,1,72,2|8,0:0|1:2,0:0:0:0:
324,144,8996,1,2,0:0:0:0:
400,36,9185,6,0,L|408:107,2,72,2|0|10,3:2|0:0|1:2,0:0:0:0:
324,144,9755,2,0,L|253:136,1,72,2|0,3:2|0:0,0:0:0:0:
128,60,10135,1,0,0:0:0:0:
172,188,10325,1,8,1:2:0:0:
172,188,10515,1,0,3:0:0:0:
62,160,10704,6,0,L|70:231,1,72,2|2,3:2|0:0,0:0:0:0:
51,361,11084,2,0,P|77:337|112:326,1,72,10|0,1:2|3:0,0:0:0:0:
187,367,11369,1,2,0:0:0:0:
187,367,11464,2,0,L|258:358,1,72,2|2,0:0|0:0,0:0:0:0:
344,244,11844,1,10,1:2:0:0:
344,244,12034,1,2,0:0:0:0:
188,228,12223,6,0,L|116:220,1,72,0|0,3:0|0:0,0:0:0:0:
244,136,12603,1,8,1:2:0:0:
276,288,12793,2,0,P|337:326|402:301,1,144,0|2,3:0|0:0,0:0:0:0:
444,168,13363,1,10,1:2:0:0:
508,292,13553,1,2,3:2:0:0:
424,156,13742,6,0,B|328:136|376:196|264:168,1,144,2|8,3:2|1:2,0:0:0:0:
184,48,14312,2,0,P|207:74|218:108,1,72,2|0,3:2|0:0,0:0:0:0:
164,256,14692,1,2,0:0:0:0:
164,256,14882,2,0,P|175:223|198:196,1,72,8|2,1:2|0:0,0:0:0:0:
320,276,15261,6,0,L|248:268,1,72,0|0,3:0|0:0,0:0:0:0:
104,204,15641,1,10,1:2:0:0:
208,124,15831,2,0,L|199:195,2,72,2|0|0,3:2|0:0|0:0,0:0:0:0:
68,57,16401,1,8,1:2:0:0:
104,204,16590,1,8,1:2:0:0:
208,124,16780,5,0,3:2:0:0:
208,124,16970,2,0,P|234:118|260:124,2,53.9999983520508,2|2|2,0:0|0:0|3:2,0:0:0:0:
110,150,17540,2,0,L|103:204,1,53.9999983520508,10|2,1:2|0:0,0:0:0:0:
184,292,17920,2,0,L|191:238,1,53.9999983520508,2|2,3:2|0:0,0:0:0:0:
208,124,18299,5,2,0:0:0:0:
308,180,18489,2,0,L|362:174,1,53.9999983520508,2|0,0:0|3:0,0:0:0:0:
208,124,18869,1,2,0:0:0:0:
288,204,19059,2,0,L|342:198,1,53.9999983520508,10|0,1:2|3:0,0:0:0:0:
424,248,19439,1,2,0:3:0:0:
424,248,19628,1,2,0:3:0:0:
488,124,19818,5,0,3:2:0:0:
488,124,20008,2,0,L|482:178,2,53.9999983520508,2|2|2,0:0|0:0|3:2,0:0:0:0:
428,36,20578,1,10,1:2:0:0:
348,92,20768,2,0,P|324:97|294:92,1,53.9999983520508,2|2,0:0|3:2,0:0:0:0:
220,24,21147,1,2,0:0:0:0:
168,112,21337,5,2,0:0:0:0:
64,44,21527,2,0,L|71:97,1,53.9999983520508,2|0,0:0|3:0,0:0:0:0:
168,112,21907,1,2,0:0:0:0:
40,32,22097,2,0,L|47:85,1,53.9999983520508,10|0,1:2|3:0,0:0:0:0:
84,216,22477,2,0,L|91:163,1,53.9999983520508,2|2,0:0|0:3,0:0:0:0:
208,304,22856,5,0,3:2:0:0:
208,304,23046,2,0,P|181:308|155:303,2,53.9999983520508,2|2|2,0:0|0:0|3:2,0:0:0:0:
280,220,23616,1,10,1:2:0:0:
280,220,23806,1,2,0:0:0:0:
372,328,23996,2,0,L|318:321,1,53.9999983520508,2|2,3:2|0:0,0:0:0:0:
444,244,24375,5,2,0:0:0:0:
368,168,24565,2,0,L|362:115,1,53.9999983520508,2|0,0:0|3:0,0:0:0:0:
444,244,24945,1,2,0:0:0:0:
344,152,25135,2,0,L|338:99,1,53.9999983520508,10|0,1:2|3:0,0:0:0:0:
420,16,25515,1,2,0:3:0:0:
420,16,25704,1,2,0:3:0:0:
280,24,25894,5,0,3:2:0:0:
280,24,26084,2,0,L|227:30,1,53.9999983520508,2|2,0:0|0:0,0:0:0:0:
148,92,26464,1,2,3:2:0:0:
36,20,26654,2,0,P|52:38|62:66,1,53.9999983520508,10|0,1:2|0:0,0:0:0:0:
141,145,27034,2,0,L|147:91,1,53.9999983520508,2|2,3:2|0:0,0:0:0:0:
48,172,27413,5,2,3:2:0:0:
110,297,27603,1,2,1:2:0:0:
110,297,27983,5,2,3:0:0:0:
181,157,28173,2,0,L|127:150,1,53.9999983520508,2|2,1:2|3:2,0:0:0:0:
203,235,28553,1,2,3:2:0:0:
259,176,28742,1,2,1:2:0:0:
339,299,28932,6,0,P|297:311|255:297,1,90,4|0,1:0|0:0,0:0:0:0:
336,136,29312,2,0,P|379:125|421:139,1,90,10|0,1:2|0:0,0:0:0:0:
492,312,29692,1,2,3:2:0:0:
376,208,29882,1,2,0:0:0:0:
400,360,30072,1,10,1:2:0:0:
464,224,30261,1,2,0:0:0:0:
328,296,30451,6,0,L|238:285,1,90,2|0,3:2|0:0,0:0:0:0:
128,140,30831,2,0,P|161:169|173:212,1,90,10|0,1:2|0:0,0:0:0:0:
120,360,31211,1,2,3:2:0:0:
88,212,31401,1,2,0:0:0:0:
208,308,31590,1,10,1:2:0:0:
56,292,31780,1,2,3:2:0:0:
172,210,31970,6,0,B|131:225|131:225|87:211,1,90,2|0,3:2|0:0,0:0:0:0:
36,64,32350,2,0,B|76:48|76:48|120:62,1,90,10|0,1:2|0:0,0:0:0:0:
268,136,32730,6,0,L|178:125,1,90,2|0,3:2|0:0,0:0:0:0:
272,12,33109,2,0,L|361:1,1,90,10|0,1:2|0:0,0:0:0:0:
404,140,33489,6,0,B|460:102|460:102|349:89,1,180,2|8,3:2|1:2,0:0:0:0:
216,184,34059,1,0,0:0:0:0:
216,184,34249,2,0,L|305:173,1,90,2|2,3:2|0:0,0:0:0:0:
432,300,34628,1,10,1:2:0:0:
348,344,34818,1,2,3:2:0:0:
348,344,34913,1,8,3:0:0:0:
348,344,35008,6,0,P|333:301|344:258,1,90,4|0,1:0|0:0,0:0:0:0:
296,84,35388,2,0,P|310:126|299:169,1,90,10|0,1:2|0:0,0:0:0:0:
168,252,35768,1,2,3:2:0:0:
224,128,35958,1,2,0:0:0:0:
248,296,36147,1,10,1:2:0:0:
144,164,36337,1,2,0:0:0:0:
84,344,36527,6,0,B|124:359|124:359|168:345,1,90,2|0,3:2|0:0,0:0:0:0:
289,221,36907,2,0,P|257:252|248:296,1,90,10|0,1:2|0:0,0:0:0:0:
388,356,37287,1,2,3:2:0:0:
372,204,37477,1,2,0:0:0:0:
404,372,37666,1,10,1:2:0:0:
484,232,37856,1,2,3:2:0:0:
328,288,38046,6,0,L|238:277,1,90,2|0,3:2|0:0,0:0:0:0:
88,208,38426,2,0,L|177:197,1,90,10|0,1:2|0:0,0:0:0:0:
276,44,38806,6,0,P|266:87|234:118,1,90,2|0,3:2|0:0,0:0:0:0:
104,40,39185,2,0,P|146:26|188:38,1,90,10|0,1:2|0:0,0:0:0:0:
296,208,39565,5,2,3:2:0:0:
148,108,39755,1,8,1:2:0:0:
212,268,39945,1,8,1:2:0:0:
276,108,40135,1,2,3:2:0:0:
306,311,40325,5,10,1:2:0:0:
212,164,40515,1,8,3:0:0:0:
212,164,40609,1,8,3:0:0:0:
212,164,40704,2,0,L|167:158,3,45,8|4|2|4,1:2|3:0|3:2|3:0,0:0:0:0:
69,285,41084,6,0,L|211:267,1,144,4|8,1:0|1:2,0:0:0:0:
288,212,41654,1,2,0:0:0:0:
51,183,41844,6,0,L|211:163,1,161.999995056153,2|8,3:2|1:2,0:0:0:0:
287,107,42413,1,2,0:0:0:0:
28,80,42603,6,0,L|206:58,1,180,2|8,3:2|1:2,0:0:0:0:
280,0,43173,1,2,0:0:0:0:
376,117,43363,6,0,L|286:106,1,90,2|0,3:2|0:0,0:0:0:0:
464,44,43742,1,10,1:2:0:0:
416,212,43932,1,2,3:2:0:0:
286,106,44122,6,0,P|210:146|210:231,1,180,6|8,3:2|1:2,0:0:0:0:
320,352,44692,1,0,3:0:0:0:
288,192,44882,1,0,3:0:0:0:
216,328,45072,1,0,3:0:0:0:
368,232,45261,2,0,P|380:189|366:147,1,90,8|0,1:2|3:0,0:0:0:0:
204,40,45641,6,0,L|214:129,1,90,0|0,3:0|3:0,0:0:0:0:
128,272,46021,5,8,1:2:0:0:
72,120,46211,1,0,3:0:0:0:
56,336,46401,5,8,1:2:0:0:
148,180,46590,1,0,3:0:0:0:
208,336,46780,5,8,1:2:0:0:
36,241,46970,1,8,1:2:0:0:
201,249,47160,6,0,P|222:226|231:196,1,62.9999980773926,2|2,3:2|0:0,0:0:0:0:
208,56,47540,1,2,0:0:0:0:
148,180,47730,1,2,3:2:0:0:
280,116,47920,2,0,B|328:109|328:109|355:127|355:127|399:122,1,125.999996154785,10|2,1:2|3:2,0:0:0:0:
500,20,48489,6,0,L|492:82,1,62.9999980773926,2|0,0:0|0:0,0:0:0:0:
472,224,48869,1,0,3:0:0:0:
472,224,49059,2,0,P|426:211|381:223,1,94.499997116089,0|0,3:0|0:0,0:0:0:0:
360,256,49439,1,8,1:2:0:0:
260,216,49628,2,0,L|275:341,1,125.999996154785,2|2,3:2|0:0,0:0:0:0:
284,136,50198,6,0,B|254:123|214:134|230:148|195:159|162:147,1,125.999996154785,2|2,3:2|0:0,0:0:0:0:
157,14,50768,2,0,P|177:37|187:67,1,62.9999980773926,2|8,3:2|1:2,0:0:0:0:
70,129,51147,2,0,P|79:99|100:76,1,62.9999980773926,2|0,0:0|3:0,0:0:0:0:
211,220,51527,6,0,B|143:201|143:201|95:229,1,125.999996154785,2|0,0:0|3:0,0:0:0:0:
34,337,52097,1,2,3:2:0:0:
175,352,52287,2,0,L|167:289,1,62.9999980773926,2|8,0:0|1:2,0:0:0:0:
211,220,52572,1,0,3:0:0:0:
211,220,52666,2,0,P|241:213|272:220,2,62.9999980773926,0|0|8,3:0|3:0|1:2,0:0:0:0:
336,336,53236,5,2,3:2:0:0:
372,212,53426,1,2,0:0:0:0:
476,300,53616,2,0,L|413:292,1,62.9999980773926,2|0,0:0|3:0,0:0:0:0:
372,212,53901,1,2,0:0:0:0:
372,212,53996,2,0,L|362:136,1,62.9999980773926,10|2,1:2|0:0,0:0:0:0:
416,60,54375,1,2,3:2:0:0:
284,188,54565,6,0,B|235:181|235:181|208:199|208:199|164:194,1,125.999996154785,2|0,0:0|3:0,0:0:0:0:
64,96,55135,1,0,3:0:0:0:
196,44,55325,2,0,L|188:106,1,62.9999980773926,0|8,0:0|1:2,0:0:0:0:
284,188,55704,1,2,3:2:0:0:
324,72,55894,1,2,0:0:0:0:
276,212,56084,1,2,0:0:0:0:
396,136,56274,6,0,B|441:107|477:143|477:143|450:146|431:171,1,125.999996154785,2|0,3:2|0:0,0:0:0:0:
404,300,56844,2,0,L|396:237,1,62.9999980773926,2|8,3:2|1:2,0:0:0:0:
269,355,57223,2,0,P|291:332|300:302,1,62.9999980773926,2|0,0:0|3:0,0:0:0:0:
177,180,57603,6,0,B|181:224|208:246|208:246|191:270|192:305,1,125.999996154785,2|0,0:0|3:0,0:0:0:0:
95,363,58173,1,2,3:2:0:0:
39,282,58363,2,0,L|62:94,1,188.999994232178,2|0,0:0|3:0,0:0:0:0:
132,23,59122,1,2,0:0:0:0:
214,135,59312,5,0,3:2:0:0:
214,135,59502,2,0,L|268:129,2,53.9999983520508,2|2|2,0:0|0:0|3:2,0:0:0:0:
366,30,60072,2,0,P|349:50|340:75,1,53.9999983520508,10|2,1:2|0:0,0:0:0:0:
400,212,60451,2,0,L|394:158,1,53.9999983520508,2|2,3:2|0:0,0:0:0:0:
332,320,60831,5,2,0:0:0:0:
264,248,61021,2,0,L|210:254,1,53.9999983520508,2|0,0:0|3:0,0:0:0:0:
332,320,61401,1,2,0:0:0:0:
240,228,61591,2,0,L|186:234,1,53.9999983520508,10|0,1:2|3:0,0:0:0:0:
116,328,61971,1,2,0:3:0:0:
116,328,62160,1,2,0:3:0:0:
40,248,62350,5,0,3:2:0:0:
40,248,62540,2,0,L|46:194,2,53.9999983520508,2|2|2,0:0|0:0|3:2,0:0:0:0:
64,108,63109,2,0,P|89:116|109:134,1,53.9999983520508,10|2,1:2|0:0,0:0:0:0:
136,224,63489,2,0,P|161:215|181:197,1,53.9999983520508,2|2,3:2|0:0,0:0:0:0:
260,84,63869,5,2,0:0:0:0:
210,169,64059,2,0,L|217:223,1,53.9999983520508,2|0,0:0|3:0,0:0:0:0:
260,84,64439,1,2,0:0:0:0:
186,193,64629,2,0,L|193:247,1,53.9999983520508,10|0,1:2|3:0,0:0:0:0:
276,296,64913,1,0,0:0:0:0:
276,296,65008,2,0,L|282:243,1,53.9999983520508,2|2,0:0|0:3,0:0:0:0:
380,144,65388,5,4,3:2:0:0:
380,144,65578,2,0,L|442:136,2,62.9999980773926,2|2|2,3:2|3:2|3:2,0:0:0:0:
284,32,66147,2,0,L|291:95,1,62.9999980773926,10|2,1:2|0:0,0:0:0:0:
240,192,66527,1,2,3:2:0:0:
240,192,66717,1,2,0:0:0:0:
152,92,66907,5,2,3:2:0:0:
80,168,67097,2,0,P|48:175|8:163,1,62.9999980773926,2|0,0:0|3:0,0:0:0:0:
152,92,67477,5,2,0:0:0:0:
64,192,67667,2,0,P|32:199|-8:187,1,62.9999980773926,10|0,1:2|3:0,0:0:0:0:
36,112,67951,1,0,0:0:0:0:
36,112,68046,2,0,L|28:49,2,62.9999980773926,2|8|0,0:3|1:2|3:2,0:0:0:0:
148,176,68616,5,2,3:2:0:0:
264,32,68806,2,0,L|256:94,1,62.9999980773926,2|2,3:2|3:2,0:0:0:0:
304,240,69185,1,10,1:2:0:0:
384,100,69375,1,2,0:0:0:0:
424,272,69565,1,2,3:2:0:0:
320,152,69755,1,2,0:0:0:0:
296,324,69945,5,2,3:2:0:0:
436,188,70135,2,0,P|465:197|489:217,1,62.9999980773926,2|0,1:2|3:0,0:0:0:0:
384,368,70515,5,2,1:2:0:0:
324,228,70704,1,2,3:2:0:0:
228,380,70894,1,10,1:2:0:0:
184,180,71084,1,10,1:2:0:0:
200,200,71464,6,0,P|242:212|284:198,1,90,4|0,1:0|0:0,0:0:0:0:
232,40,71844,2,0,P|190:28|148:42,1,90,10|0,1:2|0:0,0:0:0:0:
48,188,72224,1,2,3:2:0:0:
192,112,72413,1,2,0:0:0:0:
32,76,72604,1,10,1:2:0:0:
144,192,72793,1,2,0:0:0:0:
202,22,72983,6,0,L|191:111,1,90,2|0,3:2|0:0,0:0:0:0:
312,240,73363,2,0,P|280:209|271:166,1,90,10|0,1:2|0:0,0:0:0:0:
384,24,73743,1,2,3:2:0:0:
360,164,73933,1,2,0:0:0:0:
492,80,74122,1,10,1:2:0:0:
436,232,74312,1,2,3:2:0:0:
312,90,74502,6,0,P|280:120|271:163,1,90,2|0,3:2|0:0,0:0:0:0:
132,260,74882,2,0,L|221:249,1,90,10|0,1:2|0:0,0:0:0:0:
44,256,75261,6,0,P|54:213|87:184,1,90,2|0,3:2|0:0,0:0:0:0:
192,340,75641,2,0,L|102:350,1,90,10|0,1:2|0:0,0:0:0:0:
176,180,76021,6,0,B|243:171|243:171|283:199|283:199|354:190,1,180,2|8,3:2|1:2,0:0:0:0:
492,116,76591,1,0,0:0:0:0:
436,268,76781,1,2,3:2:0:0:
388,112,76971,1,2,0:0:0:0:
304,292,77160,1,10,1:2:0:0:
304,292,77255,1,8,3:0:0:0:
304,292,77350,2,0,L|347:286,1,45,2|8,3:2|3:0,0:0:0:0:
220,136,77540,6,0,L|231:226,1,90,4|0,1:0|0:0,0:0:0:0:
104,352,77920,2,0,P|137:322|147:279,1,90,10|0,1:2|0:0,0:0:0:0:
96,124,78300,1,2,3:2:0:0:
64,280,78490,1,2,0:0:0:0:
8,104,78679,1,10,1:2:0:0:
128,216,78869,1,2,0:0:0:0:
96,36,79059,6,0,P|139:44|170:75,1,90,2|0,3:2|0:0,0:0:0:0:
232,232,79439,2,0,P|217:190|229:147,1,90,10|0,1:2|0:0,0:0:0:0:
344,24,79819,1,2,3:2:0:0:
300,188,80009,1,2,0:0:0:0:
428,86,80198,1,10,1:2:0:0:
364,244,80388,1,2,3:2:0:0:
440,68,80578,6,0,L|451:158,1,90,2|0,3:2|0:0,0:0:0:0:
353,333,80958,2,0,L|364:243,1,90,10|0,1:2|0:0,0:0:0:0:
192,176,81337,6,0,B|234:192|234:192|277:176,1,90,2|0,3:2|0:0,0:0:0:0:
104,24,81717,2,0,L|115:114,1,90,10|0,1:2|0:0,0:0:0:0:
148,252,82097,5,2,3:2:0:0:
236,100,82287,1,4,3:0:0:0:
236,100,82382,1,4,3:0:0:0:
236,100,82477,1,8,1:2:0:0:
304,228,82667,1,2,3:2:0:0:
304,228,82761,1,4,3:0:0:0:
304,228,82856,2,0,L|261:222,3,45,10|4|4|4,1:2|3:0|3:0|3:0,0:0:0:0:
384,128,83236,1,8,1:2:0:0:
384,128,83331,1,8,3:0:0:0:
384,128,83426,2,0,L|378:172,1,45,2|8,3:2|3:0,0:0:0:0:
372,308,83616,6,0,P|305:332|239:308,1,144,4|8,1:0|1:2,0:0:0:0:
184,232,84185,1,2,0:0:0:0:
35,232,84375,6,0,P|109:259|183:231,1,161.999995056153,2|8,3:2|1:2,0:0:0:0:
260,176,84945,1,2,0:0:0:0:
425,174,85135,6,0,P|342:205|259:175,1,180,2|8,3:2|1:2,0:0:0:0:
192,104,85704,1,2,0:0:0:0:
107,101,85894,6,0,P|149:115|191:104,1,90,2|2,3:2|0:0,0:0:0:0:
324,32,86274,1,10,1:2:0:0:
259,175,86464,1,2,3:2:0:0:
143,20,86654,6,0,P|55:28|18:104,1,180,6|8,3:2|1:2,0:0:0:0:
92,268,87224,1,0,3:0:0:0:
164,112,87414,1,0,3:0:0:0:
16,200,87604,1,0,3:0:0:0:
180,96,87793,2,0,P|222:83|264:97,1,90,8|0,1:2|3:0,0:0:0:0:
348,296,88173,6,0,L|337:206,1,90,0|0,3:0|3:0,0:0:0:0:
480,84,88553,5,8,1:2:0:0:
436,240,88743,1,4,3:0:0:0:
436,240,88837,1,8,3:0:0:0:
436,240,88932,5,8,1:2:0:0:
384,112,89122,1,0,3:0:0:0:
341,272,89312,5,8,1:2:0:0:
388,88,89502,1,8,1:2:0:0:
256,212,89692,6,0,L|184:203,1,72,0|2,1:0|0:0,0:0:0:0:
51,184,90072,1,2,0:0:0:0:
105,255,90261,1,2,0:0:0:0:
151,128,90451,6,0,P|185:120|220:128,1,72,10|2,0:0|0:0,0:0:0:0:
291,272,90831,2,0,P|267:246|256:212,1,72,2|2,0:0|1:2,0:0:0:0:
412,228,91211,2,0,P|376:223|346:204,1,72,2|2,0:0|0:0,0:0:0:0:
374,62,91590,5,2,1:2:0:0:
409,143,91780,1,2,0:0:0:0:
501,68,91970,2,0,L|487:175,1,108,10|0,1:2|0:0,0:0:0:0:
510,254,92350,1,2,1:2:0:0:
422,313,92540,2,0,L|350:303,1,72,2|0,0:0|3:0,0:0:0:0:
55,302,93109,5,2,0:0:0:0:
55,302,93299,1,2,0:0:0:0:
175,236,93489,2,0,L|163:331,1,96,10|0,0:0|0:0,0:0:0:0:
176,149,93996,1,0,0:0:0:0:
176,149,94249,2,0,P|221:160|254:194,2,96,2|0|0,0:0|0:0|0:0,0:0:0:0:
46,140,95008,1,10,0:0:0:0:
53,119,95261,2,0,P|79:60|163:30,1,144
248,90,95768,6,0,L|355:76,1,108,0|0,3:0|0:0,0:0:0:0:
419,27,96147,2,0,P|401:77|418:127,1,108,2|0,0:0|0:0,0:0:0:0:
486,179,96527,1,10,0:0:0:0:
396,257,96717,2,0,B|335:239|335:239|294:258,1,108,2|0,0:0|0:0,0:0:0:0:
217,285,97097,2,0,L|288:294,1,72,2|0,1:2|0:0,0:0:0:0:
141,340,97477,5,2,0:0:0:0:
111,222,97666,1,2,1:2:0:0:
111,222,97856,1,2,0:0:0:0:
217,285,98046,2,0,P|264:261|288:213,1,108,10|0,1:2|0:0,0:0:0:0:
305,128,98426,1,2,1:2:0:0:
221,56,98616,2,0,L|149:65,1,72,2|0,0:0|3:0,0:0:0:0:
412,45,98996,5,2,0:0:0:0:
484,136,99185,2,0,L|471:244,1,108,2|2,0:0|0:0,0:0:0:0:
397,296,99565,5,10,0:0:0:0:
383,271,99818,2,0,L|287:259,1,96,2|2,0:0|0:0,0:0:0:0:
113,168,100325,5,2,0:0:0:0:
127,143,100578,2,0,L|222:131,1,96,2|2,0:0|0:0,0:0:0:0:
391,99,101084,5,10,0:0:0:0:
385,129,101337,2,0,B|418:187|418:187|387:289|387:289|382:268,1,192,2|0,0:0|0:0,0:0:0:0:
322,235,107159,6,0,P|280:247|237:234,1,90,4|0,1:0|0:0,0:0:0:0:
168,48,107539,2,0,P|209:35|252:48,1,90,10|0,1:2|0:0,0:0:0:0:
428,144,107919,6,0,L|338:133,1,90,2|0,3:2|0:0,0:0:0:0:
148,245,108299,2,0,L|237:234,1,90,10|0,1:2|0:0,0:0:0:0:
64,72,108679,6,0,L|74:161,1,90,4|8,3:2|3:0,0:0:0:0:
143,289,109059,1,8,1:2:0:0:
143,289,109154,1,4,3:0:0:0:
143,289,109249,2,0,L|148:244,1,45,4|2,3:0|3:2,0:0:0:0:
220,120,109439,2,0,L|225:164,1,45,2|4,3:2|3:0,0:0:0:0:
276,304,109628,1,2,3:2:0:0:
276,304,109723,1,4,3:0:0:0:
276,304,109818,2,0,L|282:260,3,45,10|8|2|8,1:2|3:0|3:2|3:0,0:0:0:0:
400,128,110197,6,0,P|367:157|356:200,1,90,4|0,1:0|0:0,0:0:0:0:
504,312,110577,2,0,L|494:223,1,90,10|0,1:2|0:0,0:0:0:0:
404,44,110958,1,2,3:2:0:0:
376,240,111147,1,2,0:0:0:0:
296,60,111337,1,10,1:2:0:0:
460,172,111527,1,2,0:0:0:0:
280,44,111717,6,0,B|236:29|236:29|189:47,1,90,2|0,3:2|0:0,0:0:0:0:
220,244,112097,2,0,L|231:154,1,90,10|0,1:2|0:0,0:0:0:0:
48,72,112477,1,2,3:2:0:0:
100,260,112666,1,2,0:0:0:0:
176,72,112856,1,10,1:2:0:0:
236,264,113046,1,2,3:2:0:0:
96,164,113235,6,0,P|52:172|20:203,1,90,2|0,3:2|0:0,0:0:0:0:
104,360,113615,2,0,P|147:351|179:320,1,90,10|0,1:2|0:0,0:0:0:0:
336,196,113995,2,0,L|325:286,1,90,2|0,3:2|0:0,0:0:0:0:
188,140,114375,1,10,1:2:0:0:
232,332,114565,1,2,1:2:0:0:
293,119,114754,6,0,B|333:103|333:103|377:118,1,90,4|8,1:2|3:0,0:0:0:0:
372,133,115008,2,0,L|375:162,2,30,8|4|4,3:0|3:0|3:0,0:0:0:0:
461,75,115325,1,6,3:2:0:0:
475,188,115515,1,2,3:2:0:0:
475,188,115609,1,8,3:0:0:0:
475,188,115704,2,0,P|489:170|497:149,1,45,8|8,3:0|3:0,0:0:0:0:
416,14,115894,1,8,1:2:0:0:
416,14,115988,1,4,3:0:0:0:
416,14,116084,2,0,L|422:62,1,45,2|4,3:2|3:0,0:0:0:0:
293,119,116273,6,0,L|150:102,1,144,4|8,1:0|1:2,0:0:0:0:
62,136,116843,1,2,0:0:0:0:
285,222,117033,6,0,L|124:202,1,161.999995056153,2|8,3:2|1:2,0:0:0:0:
38,238,117602,1,2,0:0:0:0:
283,327,117792,6,0,L|104:305,1,180,2|8,3:2|1:2,0:0:0:0:
19,344,118362,1,2,0:0:0:0:
193,212,118552,6,0,L|283:223,1,90,2|0,3:2|0:0,0:0:0:0:
464,140,118932,1,10,1:2:0:0:
388,324,119122,1,2,3:2:0:0:
480,132,119311,6,0,B|524:192|476:244|476:244|468:212|439:196,1,180,4|8,3:2|1:2,0:0:0:0:
252,128,119882,1,0,0:0:0:0:
392,268,120071,1,0,3:0:0:0:
356,72,120261,1,0,0:0:0:0:
272,248,120451,2,0,P|231:261|188:248,1,90,8|0,1:2|3:0,0:0:0:0:
52,92,120830,6,0,L|63:182,1,90,0|0,3:0|0:0,0:0:0:0:
152,356,121210,1,8,1:2:0:0:
232,176,121400,1,2,3:2:0:0:
232,176,121496,1,0,3:0:0:0:
232,176,121590,1,2,3:2:0:0:
232,176,121685,2,0,L|238:132,3,45,8|4|8|12,3:0|3:0|3:0|1:2,0:0:0:0:
320,264,122160,1,2,3:2:0:0:
320,264,122255,1,0,3:0:0:0:
320,264,122349,6,0,P|381:296|442:263,1,144,4|8,1:0|1:2,0:0:0:0:
492,188,122920,1,2,0:0:0:0:
312,280,123109,6,0,P|380:316|449:279,1,161.999995056153,2|8,3:2|1:2,0:0:0:0:
492,188,123679,1,2,0:0:0:0:
304,296,123868,6,0,P|380:336|457:295,1,180,2|8,3:2|1:2,0:0:0:0:
492,188,124439,1,2,0:0:0:0:
296,312,124628,6,0,P|382:357|467:311,1,198.000006042481,2|10,3:2|1:2,0:0:0:0:
492,188,125198,1,2,3:2:0:0:
284,332,125387,6,0,P|322:369|374:379,1,107.999996704102,6|0,3:2|0:0,0:0:0:0:
492,188,125767,2,0,P|453:150|401:140,1,107.999996704102,8|0,1:2|0:0,0:0:0:0:
208,200,126147,1,0,3:0:0:0:
416,232,126337,1,0,3:0:0:0:
300,40,126527,2,0,L|286:147,1,107.999996704102,8|0,1:2|3:0,0:0:0:0:
159,287,126906,6,0,P|198:252|207:199,1,107.999996704102,0|0,3:0|3:0,0:0:0:0:
116,12,127287,5,8,1:2:0:0:
12,196,127477,1,0,3:0:0:0:
12,196,127572,1,8,3:0:0:0:
12,196,127666,2,0,L|119:209,1,107.999996704102,8|0,1:2|3:0,0:0:0:0:
328,132,128046,5,8,1:2:0:0:
232,328,128236,1,8,1:2:0:0:
176,140,128425,6,0,P|197:162|206:192,1,62.9999980773926,2|2,3:2|0:0,0:0:0:0:
232,328,128805,1,2,0:0:0:0:
300,208,128995,1,2,3:2:0:0:
436,284,129185,2,0,B|392:278|392:278|365:299|365:299|317:293,1,125.999996154785,10|2,1:2|3:2,0:0:0:0:
292,145,129754,6,0,L|299:207,1,62.9999980773926,2|0,0:0|0:0,0:0:0:0:
168,96,130134,1,0,3:0:0:0:
204,228,130324,1,0,3:0:0:0:
264,68,130514,2,0,P|294:60|324:68,1,62.9999980773926,0|8,0:0|1:2,0:0:0:0:
424,168,130894,1,2,3:2:0:0:
416,28,131084,1,2,0:0:0:0:
440,184,131273,1,2,0:0:0:0:
324,68,131463,6,0,B|248:52|248:52|209:81,1,125.999996154785,2|2,3:2|0:0,0:0:0:0:
96,176,132033,2,0,P|116:153|126:123,1,62.9999980773926,2|8,3:2|1:2,0:0:0:0:
28,44,132413,2,0,L|35:106,1,62.9999980773926,2|0,0:0|3:0,0:0:0:0:
40,240,132792,6,0,P|96:264|152:239,1,125.999996154785,2|0,0:0|3:0,0:0:0:0:
212,112,133362,1,2,3:2:0:0:
268,240,133552,2,0,L|260:303,1,62.9999980773926,2|8,0:0|1:2,0:0:0:0:
200,360,133837,1,0,3:0:0:0:
200,360,133932,2,0,P|169:367|139:360,2,62.9999980773926,0|0|8,3:0|3:0|1:2,0:0:0:0:
268,240,134501,5,2,3:2:0:0:
172,285,134691,1,2,0:0:0:0:
288,332,134881,1,2,0:0:0:0:
190,209,135071,1,2,3:2:0:0:
304,348,135261,2,0,L|397:336,1,94.499997116089,10|0,1:2|0:0,0:0:0:0:
464,284,135640,1,2,3:2:0:0:
320,212,135830,6,0,B|280:188|280:188|360:178,1,125.999996154785,2|0,0:0|3:0,0:0:0:0:
492,124,136400,1,0,3:0:0:0:
380,28,136590,2,0,L|388:90,1,62.9999980773926,0|8,0:0|1:2,0:0:0:0:
320,212,136969,1,2,3:2:0:0:
280,80,137159,1,2,0:0:0:0:
336,228,137349,1,2,0:0:0:0:
208,160,137539,6,0,B|163:131|127:167|127:167|154:170|173:195,1,125.999996154785,2|0,3:2|0:0,0:0:0:0:
208,320,138109,2,0,L|216:257,1,62.9999980773926,2|8,3:2|1:2,0:0:0:0:
328,165,138489,2,0,L|336:228,1,62.9999980773926,2|0,0:0|3:0,0:0:0:0:
232,80,138868,6,0,B|184:74|184:74|158:91|158:91|111:85,1,125.999996154785,2|0,0:0|3:0,0:0:0:0:
0,172,139438,1,2,3:2:0:0:
152,260,139628,2,0,P|201:223|208:162,1,125.999996154785,2|2,0:0|3:2,0:0:0:0:
136,4,140197,1,0,3:0:0:0:
104,176,140387,1,2,3:2:0:0:
