osu file format v14

[General]
AudioFilename: audio.mp3
AudioLeadIn: 0
PreviewTime: 103171
Countdown: 0
SampleSet: None
StackLeniency: 0.7
Mode: 0
LetterboxInBreaks: 0
WidescreenStoryboard: 0

[Editor]
Bookmarks: 35196,85607,89500,103171,122822
DistanceSpacing: 2.4
BeatDivisor: 4
GridSize: 8
TimelineZoom: 1.200006

[Metadata]
Title:Furachi na Kassai
TitleUnicode:不埒な喝采
Artist:Police Piccadilly feat. KAFU
ArtistUnicode:ポリスピカデリー feat. KAFU
Creator:DarkO_002
Version:Insane
Source:
Tags:
BeatmapID:3866223
BeatmapSetID:1878200

[Difficulty]
HPDrainRate:5
CircleSize:3.5
OverallDifficulty:8
ApproachRate:8.8
SliderMultiplier:1.8
SliderTickRate:1

[Events]
//Background and Video events
0,0,"bg1.png",0,0
//Break Periods
2,89700,101371
//Storyboard Layer 0 (Background)
//Storyboard Layer 1 (Fail)
//Storyboard Layer 2 (Pass)
//Storyboard Layer 3 (Foreground)
//Storyboard Layer 4 (Overlay)
//Storyboard Sound Samples

[TimingPoints]
70,379.746835443038,4,2,0,100,1,0
1778,-250,4,2,0,100,0,0
4626,-166.666666666667,4,2,0,100,0,0
16968,-250.000000000001,4,2,0,100,0,0
28930,-90.9090909090909,4,2,0,100,0,1
33487,-100,4,2,0,100,0,1
34247,-83.3333333333333,4,2,0,100,0,1
35576,-90.9090909090909,4,2,0,100,0,1
39183,-100,4,2,0,100,0,1
47158,-166.666666666667,4,2,0,100,0,0
59500,-250.000000000001,4,2,0,100,0,0
65576,-166.666666666667,4,2,0,100,0,0
71462,-83.3333333333334,4,2,0,100,0,1
74500,-100,4,2,0,100,0,1
74880,-117.647058823529,4,2,0,100,0,1
75259,-142.857142857143,4,2,0,100,0,1
75639,-100,4,2,0,100,0,1
76399,-90.9090909090909,4,2,0,100,0,1
80576,-100,4,2,0,100,0,1
80956,-117.647058823529,4,2,0,100,0,1
81335,-142.857142857143,4,2,0,100,0,1
81715,-90.9090909090909,4,2,0,100,0,1
89500,-250,4,2,0,100,0,0
104120,379.746835443038,4,2,0,100,1,0
104120,-250,4,2,0,100,0,0
107157,-83.3333333333333,4,2,0,100,0,1
109056,-100,4,2,0,100,0,1
128423,-166.666666666667,4,2,0,100,0,0

[Colours]
Combo1 : 255,0,128
Combo2 : 1,203,239
Combo3 : 128,128,255
Combo4 : 255,128,192

[HitObjects]
328,106,1588,5,0,0:0:0:0:
311,184,1778,2,0,L|301:230,1,36
404,143,2158,1,0,0:0:0:0:
387,221,2348,2,0,L|377:267,1,36
478,180,2728,1,0,0:0:0:0:
461,258,2918,2,0,L|451:304,1,36
436,374,3297,1,0,0:0:0:0:
352,353,3487,2,0,L|195:319,1,144
156,144,4626,6,0,L|144:198,1,53.9999983520508,4|0,0:0|0:0,0:0:0:0:
98,67,5006,1,2,0:0:0:0:
47,179,5196,2,0,L|72:299,1,107.999996704102,4|0,0:0|0:0,0:0:0:0:
231,150,5766,1,2,0:0:0:0:
228,36,6145,2,0,L|175:47,2,53.9999983520508,4|0|2,0:0|0:0|0:0,0:0:0:0:
314,51,6715,2,0,L|340:176,1,107.999996704102,4|0,0:0|0:0,0:0:0:0:
175,270,7285,1,2,0:0:0:0:
240,329,7475,5,4,0:0:0:0:
240,329,7570,1,4,0:0:0:0:
240,329,7664,2,0,L|357:304,1,107.999996704102,4|2,0:0|0:0,0:0:0:0:
423,126,8234,2,0,L|399:235,1,107.999996704102,4|0,0:0|0:0,0:0:0:0:
235,172,8804,1,2,0:0:0:0:
106,238,9183,22,4,L|92:300,2,53.9999983520508,4|0|2,0:0|0:0|0:0,0:0:0:0:
140,81,9753,2,0,L|163:190,1,107.999996704102,4|0,0:0|0:0,0:0:0:0:
63,64,10323,1,2,0:0:0:0:
219,97,10513,1,0,0:0:0:0:
209,21,10702,6,0,L|279:35,1,53.9999983520508,4|0,0:0|0:0,0:0:0:0:
440,65,11082,1,2,0:0:0:0:
297,103,11272,2,0,L|321:220,1,107.999996704102,4|0,0:0|0:0,0:0:0:0:
467,273,11842,1,2,0:0:0:0:
306,384,12221,6,0,L|252:372,2,53.9999983520508,4|0|2,0:0|0:0|0:0,0:0:0:0:
271,275,12791,2,0,L|150:300,1,107.999996704102,4|0,0:0|0:0,0:0:0:0:
383,326,13361,1,2,0:0:0:0:
202,215,13551,21,4,0:0:0:0:
202,215,13645,1,4,0:0:0:0:
202,215,13740,2,0,L|226:97,1,107.999996704102,4|2,0:0|0:0,0:0:0:0:
301,194,14310,2,0,L|322:88,1,107.999996704102,4|0,0:0|0:0,0:0:0:0:
396,214,14880,1,2,0:0:0:0:
468,149,15070,1,0,0:0:0:0:
479,52,15259,6,0,L|411:35,2,53.9999983520508,4|0|2,0:0|0:0|0:0,0:0:0:0:
228,32,15829,2,0,L|345:7,1,107.999996704102,4|0,0:0|0:0,0:0:0:0:
262,260,16399,1,2,0:0:0:0:
262,260,16588,1,2,0:0:0:0:
141,142,16968,6,0,L|94:132,2,36
19,206,17538,2,0,L|43:179,1,36
26,71,17918,2,0,L|37:105,1,36
66,276,18297,1,0,0:0:0:0:
66,276,18487,2,0,L|115:265,1,36
182,253,18867,21,0,0:0:0:0:
182,253,19057,2,0,L|231:242,1,36
234,241,19342,1,0,0:0:0:0:
252,237,19437,1,0,0:0:0:0:
329,220,19626,1,0,0:0:0:0:
406,203,19816,1,0,0:0:0:0:
274,162,20006,6,0,L|230:142,2,36
213,37,20576,2,0,L|216:72,1,36
140,151,20956,2,0,L|168:129,1,36
292,8,21335,1,0,0:0:0:0:
292,8,21525,2,0,L|340:18,1,36
407,31,21905,5,0,0:0:0:0:
407,31,22095,2,0,L|418:80,1,36
512,142,22475,2,0,L|425:160,1,72
329,220,23044,22,0,L|319:266,2,36
304,332,23614,1,0,0:0:0:0:
304,332,23804,1,0,0:0:0:0:
227,228,23994,1,0,0:0:0:0:
176,347,24183,1,0,0:0:0:0:
124,293,24373,1,0,0:0:0:0:
124,293,24563,2,0,L|113:244,1,36
57,212,24943,5,0,0:0:0:0:
57,212,25133,2,0,L|67:163,1,36
68,160,25418,1,0,0:0:0:0:
73,142,25513,1,0,0:0:0:0:
89,64,25702,1,0,0:0:0:0:
167,48,25892,1,0,0:0:0:0:
208,121,26082,6,0,L|217:167,2,36
363,86,26652,2,0,L|300:99,2,54
443,70,27411,1,0,0:0:0:0:
443,70,27601,1,0,0:0:0:0:
328,186,27981,21,0,0:0:0:0:
488,302,28171,5,0,0:0:0:0:
418,145,28361,1,0,0:0:0:0:
399,343,28551,5,0,0:0:0:0:
499,203,28740,1,0,0:0:0:0:
317,283,28930,6,0,L|213:304,1,99.0000030212403,2|0,0:0|0:0,0:0:0:0:
103,125,29310,2,0,L|124:228,1,99.0000030212403,4|0,0:0|0:0,0:0:0:0:
143,319,29690,1,2,0:0:0:0:
194,160,29880,1,0,0:0:0:0:
399,226,30070,1,4,0:0:0:0:
296,193,30259,5,0,0:0:0:0:
490,261,30449,2,0,L|470:164,1,99.0000030212403,2|0,0:0|0:0,0:0:0:0:
306,45,30829,2,0,L|403:65,1,99.0000030212403,4|0,0:0|0:0,0:0:0:0:
169,86,31209,6,0,L|72:65,2,99.0000030212403,2|0|4,0:0|0:0|0:0,0:0:0:0:
396,147,31778,1,2,0:0:0:0:
396,147,31873,1,2,0:0:0:0:
396,147,31968,1,2,0:0:0:0:
170,277,32158,1,0,0:0:0:0:
317,124,32348,5,4,0:0:0:0:
333,334,32538,1,0,0:0:0:0:
244,105,32728,2,0,L|198:207,1,99.0000030212403,2|0,0:0|0:0,0:0:0:0:
0,270,33107,2,0,L|109:246,1,99.0000030212403,4|0,0:0|0:0,0:0:0:0:
267,379,33487,2,0,L|79:339,1,180,2|4,0:0|0:0,0:0:0:0:
248,277,34057,1,0,0:0:0:0:
248,277,34247,2,0,L|391:245,2,107.999996704102
503,341,34816,5,2,0:0:0:0:
503,341,34911,1,2,0:0:0:0:
503,341,35006,2,0,L|424:254,1,107.999996704102,2|0,0:0|0:0,0:0:0:0:
432,89,35386,2,0,L|396:202,1,107.999996704102,4|0,0:0|0:0,0:0:0:0:
304,110,35766,1,2,0:0:0:0:
132,54,35956,1,0,0:0:0:0:
218,82,36145,5,0,0:0:0:0:
47,26,36335,1,4,0:0:0:0:
92,175,36525,6,0,L|59:273,1,99.0000030212403,2|0,0:0|0:0,0:0:0:0:
178,203,36905,2,0,L|145:301,1,99.0000030212403,2|0,0:0|0:0,0:0:0:0:
70,100,37285,1,0,0:0:0:0:
241,156,37475,1,0,0:0:0:0:
155,128,37664,5,4,0:0:0:0:
327,184,37854,1,2,0:0:0:0:
435,102,38044,6,0,L|402:204,1,99.0000030212403,2|0,0:0|0:0,0:0:0:0:
263,278,38424,2,0,L|370:256,1,99.0000030212403,2|0,0:0|0:0,0:0:0:0:
504,338,38804,2,0,L|424:250,1,99.0000030212403,2|0,0:0|0:0,0:0:0:0:
229,347,39183,2,0,L|49:385,1,180,4|2,0:0|0:0,0:0:0:0:
23,203,39753,6,0,L|44:304,1,90,2|0,0:0|0:0,0:0:0:0:
128,180,40133,1,0,0:0:0:0:
56,100,40323,2,0,L|149:80,1,90,2|4,0:0|0:0,0:0:0:0:
238,107,40607,5,2,0:0:0:0:
240,122,40702,1,4,0:0:0:0:
243,139,40797,1,2,0:0:0:0:
247,155,40892,1,4,0:0:0:0:
250,171,40987,1,2,0:0:0:0:
254,188,41082,2,0,L|276:295,2,90,2|4|4,0:0|0:0|0:0,0:0:0:0:
375,84,41652,1,2,0:0:0:0:
375,84,41842,2,0,L|476:62,2,90,2|4|4,0:0|0:0|0:0,0:0:0:0:
221,29,42411,5,2,0:0:0:0:
221,29,42601,2,0,L|119:7,2,90,2|4|4,0:0|0:0|0:0,0:0:0:0:
111,109,43171,1,2,0:0:0:0:
111,109,43361,2,0,L|87:218,1,90,2|4,0:0|0:0,0:0:0:0:
119,370,43740,2,0,L|142:260,1,90,2|4,0:0|0:0,0:0:0:0:
353,157,44120,5,2,0:0:0:0:
187,101,44310,1,2,0:0:0:0:
308,224,44500,2,0,L|329:326,1,90,4|4,0:0|0:0,0:0:0:0:
454,144,44880,5,2,0:0:0:0:
288,88,45070,1,2,0:0:0:0:
409,211,45259,2,0,L|430:313,1,90,4|4,0:0|0:0,0:0:0:0:
187,213,45639,1,2,0:0:0:0:
187,213,45829,1,2,0:0:0:0:
104,230,46019,6,0,L|85:318,1,90,4|2,0:0|0:0,0:0:0:0:
21,247,46399,2,0,L|2:335,1,90,4|2,0:0|0:0,0:0:0:0:
168,301,46778,1,4,0:0:0:0:
168,301,46968,1,4,0:0:0:0:
206,125,47158,6,0,L|320:87,1,107.999996704102
433,95,47728,2,0,L|353:23,1,107.999996704102
371,147,48297,2,0,L|348:252,1,107.999996704102
334,347,48867,22,0,L|373:355,1,26.9999991760254
454,384,49057,2,0,L|429:266,1,107.999996704102
254,284,49626,2,0,L|278:166,1,107.999996704102
466,181,50196,22,0,L|441:63,1,107.999996704102
329,52,50766,2,0,L|211:76,1,107.999996704102
25,32,51335,2,0,L|142:56,1,107.999996704102
128,167,51905,22,0,L|88:175,1,26.9999991760254
25,217,52095,2,0,L|48:326,1,107.999996704102
51,342,52570,1,0,0:0:0:0:
56,365,52664,1,0,0:0:0:0:
133,241,52854,1,0,0:0:0:0:
256,376,53044,1,0,0:0:0:0:
364,202,53234,22,0,L|469:224,1,107.999996704102
413,384,53804,2,0,L|486:304,1,107.999996704102
336,359,54373,2,0,L|302:256,1,107.999996704102
291,138,54943,22,0,L|299:98,1,26.9999991760254
400,19,55133,2,0,L|378:125,1,107.999996704102
309,28,55702,2,0,L|191:52,1,107.999996704102
91,173,56272,22,0,L|117:298,1,107.999996704102
209,250,56842,2,0,L|182:375,1,107.999996704102
256,192,57601,12,0,59310,0:0:0:0:
346,129,59500,22,0,L|386:102,2,36
482,146,60070,2,0,L|449:129,1,36
426,21,60449,2,0,L|427:56,1,36
402,193,60829,1,0,0:0:0:0:
402,193,61019,2,0,L|391:242,1,36
379,308,61399,21,0,0:0:0:0:
379,308,61588,2,0,L|368:357,1,36
367,360,61873,1,0,0:0:0:0:
363,378,61968,1,0,0:0:0:0:
284,361,62158,1,0,0:0:0:0:
207,344,62348,1,0,0:0:0:0:
139,259,62538,22,0,L|95:279,2,36
5,270,63107,2,0,L|33:292,1,36
78,384,63487,2,0,L|81:349,1,36
109,172,63867,1,0,0:0:0:0:
109,172,64057,2,0,L|157:182,1,36
29,159,64437,21,0,0:0:0:0:
29,159,64626,2,0,L|18:207,1,36
74,94,65006,2,0,L|160:75,1,72
303,15,65576,5,0,0:0:0:0:
361,133,65766,1,0,0:0:0:0:
234,122,65956,1,0,0:0:0:0:
234,122,66051,1,0,0:0:0:0:
234,122,66145,2,0,L|210:231,1,107.999996704102
377,210,66715,1,0,0:0:0:0:
243,295,66905,6,0,L|305:308,1,53.9999983520508
420,334,67285,1,0,0:0:0:0:
247,380,67475,2,0,L|184:366,1,53.9999983520508
70,341,67854,5,0,0:0:0:0:
70,341,67949,1,0,0:0:0:0:
70,341,68044,2,0,L|55:270,2,53.9999983520508,0|2|0,0:0|0:0|0:0,0:0:0:0:
150,291,68614,5,0,0:0:0:0:
133,212,68804,1,0,0:0:0:0:
116,134,68994,1,0,0:0:0:0:
113,118,69088,1,0,0:0:0:0:
110,103,69183,1,0,0:0:0:0:
200,52,69373,6,0,L|211:-2,2,53.9999983520508
432,225,69943,6,0,L|502:239,1,53.9999983520508,4|2,0:0|0:0,0:0:0:0:
246,140,70323,2,0,L|175:125,1,53.9999983520508,4|2,0:0|0:0,0:0:0:0:
415,146,70702,5,4,0:0:0:0:
331,263,70892,1,8,0:0:0:0:
340,11,71082,1,8,0:0:0:0:
111,30,71462,22,0,L|86:147,1,107.999996704102,4|0,0:0|0:0,0:0:0:0:
86,352,71842,2,0,L|110:234,1,107.999996704102,2|0,0:0|0:0,0:0:0:0:
330,147,72221,1,4,0:0:0:0:
145,183,72411,1,2,0:0:0:0:
254,294,72601,1,0,0:0:0:0:
198,239,72791,21,0,0:0:0:0:
310,362,72981,2,0,L|427:386,1,107.999996704102,4|0,0:0|0:0,0:0:0:0:
489,256,73361,2,0,L|462:130,1,107.999996704102,2|0,0:0|0:0,0:0:0:0:
388,46,73740,6,0,L|505:70,2,107.999996704102,4|0|2,0:0|0:0|0:0,0:0:0:0:
264,194,74310,1,0,0:0:0:0:
43,112,74500,2,0,L|66:221,1,90,4|0,0:0|0:0,0:0:0:0:
212,384,74880,2,0,L|151:329,1,76.5000014591217,2|0,0:0|0:0,0:0:0:0:
14,313,75259,2,4,L|73:293,1,62.9999980773926,4|0,0:0|0:0,0:0:0:0:
145,239,75639,22,0,L|188:34,1,180,2|4,0:0|0:0,0:0:0:0:
336,64,76209,1,0,0:0:0:0:
249,176,76399,2,0,L|272:285,2,99.0000030212403,2|0|4,0:0|0:0|0:0,0:0:0:0:
394,197,76968,1,0,0:0:0:0:
512,315,77158,5,2,0:0:0:0:
481,322,77253,1,0,0:0:0:0:
450,330,77348,1,2,0:0:0:0:
419,336,77443,1,0,0:0:0:0:
387,343,77538,2,0,L|167:389,1,198.000006042481,4|2,0:0|0:0,0:0:0:0:
340,249,78107,5,0,0:0:0:0:
512,218,78297,2,0,L|492:122,2,99.0000030212403,4|0|2,0:0|0:0|0:0,0:0:0:0:
340,99,78867,1,0,0:0:0:0:
166,69,79057,2,0,L|263:49,1,99.0000030212403,4|0,0:0|0:0,0:0:0:0:
93,231,79437,2,2,L|114:128,1,99.0000030212403,0|0,0:0|0:0,0:0:0:0:
56,20,79816,5,4,0:0:0:0:
35,116,80006,1,0,0:0:0:0:
171,245,80196,1,2,0:0:0:0:
192,149,80386,1,0,0:0:0:0:
350,384,80576,6,0,L|410:290,1,90,4|0,0:0|0:0,0:0:0:0:
422,72,80956,2,0,L|426:154,1,76.5000014591217,2|0,0:0|0:0,0:0:0:0:
456,234,81335,2,4,L|512:262,1,62.9999980773926,4|0,0:0|0:0,0:0:0:0:
367,222,81715,22,0,L|191:336,1,198.000006042481,2|4,0:0|0:0,0:0:0:0:
483,340,82285,5,4,0:0:0:0:
483,340,82380,1,4,0:0:0:0:
483,340,82475,1,4,0:0:0:0:
345,144,82664,1,4,0:0:0:0:
345,144,82759,1,4,0:0:0:0:
345,144,82854,1,4,0:0:0:0:
381,5,83044,21,2,0:0:0:0:
349,11,83139,1,0,0:0:0:0:
318,18,83234,1,2,0:0:0:0:
287,24,83329,1,0,0:0:0:0:
255,31,83424,1,2,0:0:0:0:
224,38,83519,1,0,0:0:0:0:
193,44,83614,2,0,L|-2:85,1,198.000006042481,4|2,0:0|0:0,0:0:0:0:
271,109,84183,5,0,0:0:0:0:
193,124,84373,2,0,L|-2:165,1,198.000006042481,4|2,0:0|0:0,0:0:0:0:
272,189,84943,1,0,0:0:0:0:
194,204,85133,2,0,L|-1:245,1,198.000006042481,4|2,0:0|0:0,0:0:0:0:
273,269,85702,5,0,0:0:0:0:
350,251,85892,2,0,L|446:229,2,99.0000030212403,4|0|2,0:0|0:0|0:0,0:0:0:0:
195,284,86462,1,0,0:0:0:0:
98,343,86652,6,0,L|1:323,1,99.0000030212403,4|4,0:0|0:0,0:0:0:0:
96,143,87032,2,0,L|193:123,1,99.0000030212403,2|2,0:0|0:0,0:0:0:0:
0,164,87411,1,4,0:0:0:0:
0,164,87601,1,4,0:0:0:0:
96,64,87791,2,0,L|193:44,1,99.0000030212403,2|2,0:0|0:0,0:0:0:0:
288,23,88171,5,4,0:0:0:0:
288,23,88361,1,4,0:0:0:0:
498,34,88551,1,2,0:0:0:0:
309,119,88740,5,4,0:0:0:0:
309,119,88835,1,2,0:0:0:0:
309,119,88930,1,2,0:0:0:0:
456,226,89120,1,4,0:0:0:0:
477,130,89310,5,2,0:0:0:0:
435,322,89500,1,2,0:0:0:0:
299,67,103171,6,0,L|345:57,4,36
247,128,104120,2,0,L|232:214,1,72
92,126,104879,22,0,L|45:116,3,36
144,187,105638,2,0,L|159:273,1,72
259,276,106398,2,0,L|266:311,3,36
452,384,107157,38,0,L|478:258,1,107.999996704102,4|0,0:0|0:0,0:0:0:0:
364,289,107537,2,0,L|337:163,1,107.999996704102,2|0,0:0|0:0,0:0:0:0:
434,84,107917,2,0,L|456:189,1,107.999996704102,4|0,0:0|0:0,0:0:0:0:
316,47,108297,2,0,L|80:97,1,215.999993408203,2|4,0:0|0:0,0:0:0:0:
0,221,108866,1,0,0:0:0:0:
266,145,109056,5,2,0:0:0:0:
266,145,109151,1,0,0:0:0:0:
266,145,109246,2,2,L|213:156,1,45,2|0,0:0|0:0,0:0:0:0:
3,143,109436,2,4,L|56:155,1,45
64,340,109626,5,2,0:0:0:0:
64,340,109721,1,0,0:0:0:0:
64,340,109816,2,0,L|74:284,1,45,2|0,0:0|0:0,0:0:0:0:
136,162,110006,2,0,L|145:208,1,45
217,340,110195,6,0,L|313:321,1,90,4|0,0:0|0:0,0:0:0:0:
512,214,110575,2,0,L|418:194,1,90,2|0,2:0|2:0,2:0:0:0:
381,261,110955,1,4,0:0:0:0:
416,93,111145,1,0,0:0:0:0:
350,177,111335,5,2,0:0:0:0:
386,11,111525,1,0,0:0:0:0:
151,38,111714,6,0,L|239:52,1,90,4|0,0:0|0:0,0:0:0:0:
304,246,112094,2,0,L|216:228,1,90,2|0,0:0|0:0,0:0:0:0:
96,119,112474,1,4,0:0:0:0:
132,285,112664,1,0,0:0:0:0:
66,201,112854,5,2,0:0:0:0:
101,369,113044,1,2,0:0:0:0:
355,315,113233,2,0,L|264:354,1,90,4|0,0:0|0:0,0:0:0:0:
395,145,113613,2,0,L|384:243,1,90,2|0,0:0|0:0,0:0:0:0:
512,362,113993,2,0,L|415:292,1,90,4|0,0:0|0:0,0:0:0:0:
481,105,114373,6,0,L|470:200,2,90,2|0|4,0:0|0:0|0:0,0:0:0:0:
304,246,114942,2,2,L|295:207,4,22.5
274,2,115322,1,0,0:0:0:0:
179,27,115512,5,4,0:0:0:0:
179,27,115607,1,0,0:0:0:0:
179,27,115702,2,0,L|130:37,1,45,4|0,0:0|0:0,0:0:0:0:
5,130,115892,1,2,0:0:0:0:
5,130,115987,1,0,0:0:0:0:
5,130,116082,2,0,L|49:139,1,45,4|0,0:0|0:0,0:0:0:0:
204,223,116271,6,0,L|185:134,2,90,2|4|6,0:0|0:0|0:0,0:0:0:0:
104,365,116841,1,2,0:0:0:0:
104,365,117031,2,0,L|3:387,2,90,2|4|4,0:0|0:0|0:0,0:0:0:0:
300,314,117601,5,2,0:0:0:0:
300,314,117790,2,0,L|278:212,2,90,2|4|4,0:0|0:0|0:0,0:0:0:0:
106,246,118360,5,2,0:0:0:0:
106,246,118550,2,0,L|18:265,1,90,2|4,0:0|0:0,0:0:0:0:
269,143,118930,2,0,L|356:123,1,90,2|4,0:0|0:0,0:0:0:0:
76,169,119309,5,2,0:0:0:0:
204,287,119499,1,2,0:0:0:0:
144,126,119689,2,0,L|166:24,1,90,4|4,0:0|0:0,0:0:0:0:
402,18,120069,5,2,0:0:0:0:
236,68,120259,1,2,0:0:0:0:
416,90,120449,2,0,L|434:178,1,90,4|4,0:0|0:0,0:0:0:0:
341,196,120828,5,2,0:0:0:0:
341,196,121018,1,2,0:0:0:0:
180,192,121208,1,4,0:0:0:0:
92,243,121398,6,0,L|144:254,1,45,2|0,0:0|0:0,0:0:0:0:
288,343,121588,2,0,L|299:300,1,45,2|0,0:0|0:0,0:0:0:0:
267,148,121778,5,4,0:0:0:0:
267,148,121873,1,0,0:0:0:0:
267,148,121968,2,0,L|256:203,1,45,2|0,0:0|0:0,0:0:0:0:
154,336,122157,2,0,L|107:326,1,45,2|0,0:0|0:0,0:0:0:0:
8,269,122347,22,0,L|49:73,1,180,4|2,0:0|0:0,0:0:0:0:
183,118,122917,37,0,0:0:0:0:
34,10,123107,2,0,L|229:51,1,180,4|2,0:0|0:0,0:0:0:0:
113,155,123676,1,0,0:0:0:0:
328,33,123866,2,0,L|369:228,1,180,4|2,0:0|0:0,0:0:0:0:
265,102,124436,37,0,0:0:0:0:
488,67,124626,1,4,0:0:0:0:
481,98,124721,1,0,0:0:0:0:
474,129,124816,1,4,0:0:0:0:
468,160,124911,1,0,0:0:0:0:
461,192,125006,2,0,L|436:309,1,90,4|0,0:0|0:0,0:0:0:0:
167,272,125385,2,0,L|362:313,1,180,4|2,0:0|0:0,0:0:0:0:
181,366,125955,38,0,L|87:385,1,90,2|4,0:0|0:0,0:0:0:0:
32,153,126335,2,4,L|51:246,1,90,2|2,0:0|0:0,0:0:0:0:
252,189,126714,5,4,0:0:0:0:
252,189,126809,1,4,0:0:0:0:
252,189,126904,2,0,L|353:167,1,90,4|2,0:0|0:0,0:0:0:0:
197,110,127284,1,0,0:0:0:0:
398,244,127474,21,4,0:0:0:0:
398,244,127569,1,4,0:0:0:0:
398,244,127664,2,0,L|376:345,1,90,4|2,0:0|0:0,0:0:0:0:
368,86,128044,1,0,0:0:0:0:
368,86,128233,1,2,0:0:0:0:
306,259,128423,6,0,L|192:297,1,107.999996704102
79,289,128993,2,0,L|159:361,1,107.999996704102
141,237,129563,2,0,L|164:132,1,107.999996704102
178,37,130132,22,0,L|139:29,1,26.9999991760254
58,0,130322,2,0,L|83:118,1,107.999996704102
259,101,130892,2,0,L|235:219,1,107.999996704102
44,192,131461,22,0,L|69:310,1,107.999996704102
178,314,132031,2,0,L|296:290,1,107.999996704102
484,345,132601,2,0,L|367:321,1,107.999996704102
384,217,133170,22,0,L|424:209,1,26.9999991760254
487,167,133360,2,0,L|464:58,1,107.999996704102
461,42,133835,1,0,0:0:0:0:
456,19,133930,1,0,0:0:0:0:
379,143,134120,1,0,0:0:0:0:
256,8,134309,1,0,0:0:0:0:
148,182,134499,22,0,L|43:160,1,107.999996704102
99,0,135069,2,0,L|26:80,1,107.999996704102
176,25,135638,2,0,L|210:128,1,107.999996704102
221,246,136208,22,0,L|213:286,1,26.9999991760254
112,365,136398,2,0,L|134:259,1,107.999996704102
203,356,136968,2,0,L|321:332,1,107.999996704102
421,211,137537,22,0,L|395:86,1,107.999996704102
303,134,138107,2,0,L|330:9,1,107.999996704102
256,192,138866,12,0,140385,0:0:0:0:
