osu file format v14

[General]
AudioFilename: audio.mp3
AudioLeadIn: 0
PreviewTime: 56309
Countdown: 0
SampleSet: Normal
StackLeniency: 0.7
Mode: 1
LetterboxInBreaks: 0
WidescreenStoryboard: 1

[Editor]
DistanceSpacing: 1.9
BeatDivisor: 4
GridSize: 32
TimelineZoom: 1.5

[Metadata]
Title:Kire Carry On
TitleUnicode:キレキャリオン
Artist:Police Piccadilly feat. Hatsune Miku
ArtistUnicode:ポリスピカデリー feat. 初音ミク
Creator:Apis035
Version:Jaltzu's Inner Oni
Source:#コンパス 戦闘摂理解析システム
Tags:#COMPASS combat providence analysis system sentou setsuri kaiseki shisutemu 双挽乃保 ノホタン soubiki noho kill kyari picadily picadilly chainsaw maimai milk japanese vocaloid rock video game jaltzu
BeatmapID:2619446
BeatmapSetID:1259861

[Difficulty]
HPDrainRate:6
CircleSize:2
OverallDifficulty:7
ApproachRate:10
SliderMultiplier:1.4
SliderTickRate:1

[Events]
//Background and Video events
0,0,"bg.jpg",0,240
//Break Periods
//Storyboard Layer 0 (Background)
//Storyboard Layer 1 (Fail)
//Storyboard Layer 2 (Pass)
//Storyboard Layer 3 (Foreground)
//Storyboard Layer 4 (Overlay)
//Storyboard Sound Samples

[TimingPoints]
368,352.941176470588,4,1,0,70,1,0
5926,-90.9090909090909,4,1,0,80,0,0
17220,-100,4,1,0,60,0,0
28515,-90.9090909090909,4,1,0,80,0,0
34338,-95.2380952380952,4,1,0,60,0,0
34559,-100,4,1,0,60,0,0
45412,-95.2380952380952,4,1,0,60,0,0
45500,-90.9090909090909,4,1,0,70,0,0
56750,-83.3333333333333,4,1,0,80,0,0
56838,-83.3333333333333,4,1,0,80,0,1
68397,-90.9090909090909,4,1,0,80,0,1
72853,-89.5495656846064,4,1,0,80,0,1
73029,-88.2378893496868,4,1,0,80,0,1
73206,-86.9565217391304,4,1,0,80,0,1
73382,-85.7118368046627,4,1,0,80,0,1
73559,-84.5094228006423,4,1,0,80,0,1
73647,-83.9137366786943,4,1,0,80,0,1
73735,-83.3333333333333,4,1,0,80,0,1
76603,-90.9090909090909,4,1,0,80,0,0
87809,-100,4,1,0,60,0,0
99059,-95.2380952380952,4,1,0,60,0,0
99147,-90.9090909090909,4,1,0,70,0,0
110397,-83.3333333333333,4,1,0,80,0,0
110485,-83.3333333333333,4,1,0,80,0,1
122044,-90.9090909090909,4,1,0,80,0,1
126500,-89.5495656846064,4,1,0,80,0,1
126676,-88.2378893496868,4,1,0,80,0,1
126853,-86.9565217391304,4,1,0,80,0,1
127029,-85.7118368046627,4,1,0,80,0,1
127206,-84.5094228006423,4,1,0,80,0,1
127382,-83.3333333333333,4,1,0,80,0,1
128750,-90.9090909090909,4,1,0,70,0,1
128838,-90.9090909090909,4,1,0,70,0,0
140309,-111.111111111111,4,1,0,50,0,0
145691,-111.111111111111,4,1,0,50,0,0
146044,-111.111111111111,4,1,0,52,0,0
146265,-110.497237569061,4,1,0,53,0,0
146441,-109.89010989011,4,1,0,54,0,0
146617,-109.289617486339,4,1,0,55,0,0
146794,-108.695652173913,4,1,0,56,0,0
146970,-108.108108108108,4,1,0,57,0,0
147147,-107.52688172043,4,1,0,58,0,0
147323,-106.951871657754,4,1,0,59,0,0
147500,-106.382978723404,4,1,0,60,0,0
147676,-105.820105820106,4,1,0,61,0,0
147853,-105.263157894737,4,1,0,62,0,0
148029,-104.712041884817,4,1,0,63,0,0
148206,-104.166666666667,4,1,0,64,0,0
148382,-103.626943005181,4,1,0,65,0,0
148559,-103.092783505155,4,1,0,66,0,0
148912,-102.040816326531,4,1,0,68,0,0
149088,-101.522842639594,4,1,0,69,0,0
149265,-101.010101010101,4,1,0,70,0,0
149441,-100.502512562814,4,1,0,75,0,0
149617,-100,4,1,0,80,0,0
149794,-98.0392156862745,4,1,0,80,0,0
149882,-97.0873786407767,4,1,0,80,0,0
149970,-96.1538461538461,4,1,0,80,0,0
150059,-95.2380952380952,4,1,0,80,0,0
150147,-94.3396226415094,4,1,0,80,0,0
150235,-93.4579439252336,4,1,0,80,0,0
150323,-92.5925925925926,4,1,0,80,0,0
150412,-91.743119266055,4,1,0,80,0,0
150500,-90.9090909090909,4,1,0,80,0,0
150588,-90.0900900900901,4,1,0,80,0,0
150676,-89.2857142857143,4,1,0,80,0,0
150765,-88.4955752212389,4,1,0,80,0,0
150853,-87.719298245614,4,1,0,80,0,0
150941,-86.9565217391304,4,1,0,80,0,0
151029,-86.2068965517241,4,1,0,80,0,0
151117,-85.4700854700855,4,1,0,80,0,0
151206,-84.7457627118644,4,1,0,80,0,0
151294,-84.0336134453781,4,1,0,80,0,0
151426,-83.3333333333333,4,1,0,80,0,1
157338,-90.9090909090909,4,1,0,80,0,1
161794,-89.5495656846064,4,1,0,80,0,1
161970,-88.2378893496868,4,1,0,80,0,1
162147,-86.9565217391304,4,1,0,80,0,1
162323,-85.7118368046627,4,1,0,80,0,1
162588,-84.5094228006423,4,1,0,80,0,1
162676,-83.9137366786943,4,1,0,80,0,1
165544,-90.9090909090909,4,1,0,80,0,0

[HitObjects]
256,192,6015,5,4,0:0:0:0:
256,192,6191,1,0,0:0:0:0:
256,192,6367,1,8,0:0:0:0:
256,192,6544,1,0,0:0:0:0:
256,192,6720,1,8,0:0:0:0:
256,192,6897,1,0,0:0:0:0:
256,192,7073,1,8,0:0:0:0:
256,192,7250,1,8,0:0:0:0:
256,192,7426,1,0,0:0:0:0:
256,192,7603,1,0,0:0:0:0:
256,192,7779,1,8,0:0:0:0:
256,192,7956,1,8,0:0:0:0:
256,192,8132,1,0,0:0:0:0:
256,192,8309,1,0,0:0:0:0:
256,192,8485,1,8,0:0:0:0:
256,192,8662,1,8,0:0:0:0:
256,192,8838,1,4,0:0:0:0:
256,192,9015,1,0,0:0:0:0:
256,192,9191,1,8,0:0:0:0:
256,192,9367,1,0,0:0:0:0:
256,192,9544,1,8,0:0:0:0:
256,192,9720,1,0,0:0:0:0:
256,192,9897,1,8,0:0:0:0:
256,192,10073,1,8,0:0:0:0:
256,192,10250,1,0,0:0:0:0:
256,192,10426,1,0,0:0:0:0:
256,192,10603,1,8,0:0:0:0:
256,192,10779,1,0,0:0:0:0:
256,192,10956,1,12,0:0:0:0:
256,192,11132,1,0,0:0:0:0:
256,192,11220,1,0,0:0:0:0:
256,192,11309,1,8,0:0:0:0:
256,192,11397,1,0,0:0:0:0:
256,192,11485,1,8,0:0:0:0:
256,192,11573,1,8,0:0:0:0:
256,192,11662,1,4,0:0:0:0:
256,192,11838,1,0,0:0:0:0:
256,192,12015,1,12,0:0:0:0:
256,192,12191,1,0,0:0:0:0:
256,192,12367,1,8,0:0:0:0:
256,192,12544,1,0,0:0:0:0:
256,192,12720,1,8,0:0:0:0:
256,192,12897,1,8,0:0:0:0:
256,192,13073,1,0,0:0:0:0:
256,192,13250,1,0,0:0:0:0:
256,192,13426,1,8,0:0:0:0:
256,192,13603,1,8,0:0:0:0:
256,192,13779,1,0,0:0:0:0:
256,192,13956,1,0,0:0:0:0:
256,192,14132,1,8,0:0:0:0:
256,192,14309,1,8,0:0:0:0:
256,192,14485,1,4,0:0:0:0:
256,192,14662,1,0,0:0:0:0:
256,192,14838,1,8,0:0:0:0:
256,192,15015,1,0,0:0:0:0:
256,192,15191,1,0,0:0:0:0:
256,192,15367,1,0,0:0:0:0:
256,192,15544,1,12,0:0:0:0:
256,192,15720,1,0,0:0:0:0:
256,192,15809,1,0,0:0:0:0:
256,192,15897,1,12,0:0:0:0:
256,192,16073,1,12,0:0:0:0:
256,192,16250,1,0,0:0:0:0:
256,192,16426,1,12,0:0:0:0:
256,192,16603,1,12,0:0:0:0:
256,192,16779,1,0,0:0:0:0:
256,192,16956,1,12,0:0:0:0:
256,192,17309,5,0,0:0:0:0:
256,192,17485,1,0,0:0:0:0:
256,192,17662,1,8,0:0:0:0:
256,192,17838,1,0,0:0:0:0:
256,192,18015,1,8,0:0:0:0:
256,192,18279,1,8,0:0:0:0:
256,192,18367,1,0,0:0:0:0:
256,192,18544,1,8,0:0:0:0:
256,192,18720,1,0,0:0:0:0:
256,192,18985,1,8,0:0:0:0:
256,192,19073,1,0,0:0:0:0:
256,192,19250,1,0,0:0:0:0:
256,192,19426,1,8,0:0:0:0:
256,192,19603,1,0,0:0:0:0:
256,192,19691,1,0,0:0:0:0:
256,192,19956,1,8,0:0:0:0:
256,192,20132,1,0,0:0:0:0:
256,192,20309,1,0,0:0:0:0:
256,192,20485,1,8,0:0:0:0:
256,192,20662,1,0,0:0:0:0:
256,192,20838,1,8,0:0:0:0:
256,192,21103,1,8,0:0:0:0:
256,192,21191,1,0,0:0:0:0:
256,192,21367,1,0,0:0:0:0:
256,192,21544,1,0,0:0:0:0:
256,192,21897,1,0,0:0:0:0:
256,192,22073,1,0,0:0:0:0:
256,192,22250,1,8,0:0:0:0:
256,192,22603,1,0,0:0:0:0:
256,192,22779,1,8,0:0:0:0:
256,192,22956,1,0,0:0:0:0:
256,192,23132,1,0,0:0:0:0:
256,192,23309,1,8,0:0:0:0:
256,192,23485,1,0,0:0:0:0:
256,192,23662,1,8,0:0:0:0:
256,192,23926,1,8,0:0:0:0:
256,192,24015,1,0,0:0:0:0:
256,192,24191,1,8,0:0:0:0:
256,192,24367,1,0,0:0:0:0:
256,192,24632,1,8,0:0:0:0:
256,192,24720,1,0,0:0:0:0:
256,192,24897,1,0,0:0:0:0:
256,192,25073,1,8,0:0:0:0:
256,192,25338,1,0,0:0:0:0:
256,192,25426,1,0,0:0:0:0:
256,192,25603,1,8,0:0:0:0:
256,192,25779,1,0,0:0:0:0:
256,192,25956,1,8,0:0:0:0:
256,192,26132,1,0,0:0:0:0:
256,192,26309,1,0,0:0:0:0:
256,192,26485,1,8,0:0:0:0:
256,192,26838,1,0,0:0:0:0:
256,192,27015,1,8,0:0:0:0:
256,192,27191,1,0,0:0:0:0:
256,192,27367,1,8,0:0:0:0:
256,192,27544,1,0,0:0:0:0:
256,192,27720,1,8,0:0:0:0:
256,192,27897,1,8,0:0:0:0:
256,192,28073,1,0,0:0:0:0:
256,192,28250,1,8,0:0:0:0:
256,192,28426,1,0,0:0:0:0:
256,192,28603,5,4,0:0:0:0:
256,192,28779,1,0,0:0:0:0:
256,192,28956,1,8,0:0:0:0:
256,192,29132,1,0,0:0:0:0:
256,192,29309,1,8,0:0:0:0:
256,192,29485,1,0,0:0:0:0:
256,192,29662,1,8,0:0:0:0:
256,192,29838,1,8,0:0:0:0:
256,192,30015,1,0,0:0:0:0:
256,192,30191,1,0,0:0:0:0:
256,192,30367,1,8,0:0:0:0:
256,192,30544,1,8,0:0:0:0:
256,192,30720,1,0,0:0:0:0:
256,192,30897,1,0,0:0:0:0:
256,192,31073,1,8,0:0:0:0:
256,192,31250,1,8,0:0:0:0:
256,192,31426,1,4,0:0:0:0:
256,192,31603,1,0,0:0:0:0:
256,192,31779,1,8,0:0:0:0:
256,192,31956,1,0,0:0:0:0:
256,192,32132,1,0,0:0:0:0:
256,192,32309,1,0,0:0:0:0:
256,192,32485,1,12,0:0:0:0:
256,192,32662,1,0,0:0:0:0:
256,192,32750,1,0,0:0:0:0:
256,192,32838,1,12,0:0:0:0:
256,192,33015,1,12,0:0:0:0:
256,192,33191,1,0,0:0:0:0:
256,192,33367,1,12,0:0:0:0:
256,192,33544,1,12,0:0:0:0:
256,192,33720,1,0,0:0:0:0:
256,192,33809,1,0,0:0:0:0:
256,192,33897,1,8,0:0:0:0:
256,192,33985,1,0,0:0:0:0:
256,192,34073,1,8,0:0:0:0:
256,192,34162,1,8,0:0:0:0:
256,192,34250,5,4,0:0:0:0:
256,192,34426,1,0,0:0:0:0:
256,192,34603,1,8,0:0:0:0:
256,192,34779,1,0,0:0:0:0:
256,192,34956,1,8,0:0:0:0:
256,192,35132,1,0,0:0:0:0:
256,192,35220,1,0,0:0:0:0:
256,192,35309,1,8,0:0:0:0:
256,192,35485,1,0,0:0:0:0:
256,192,35662,1,8,0:0:0:0:
256,192,35838,1,0,0:0:0:0:
256,192,35926,1,8,0:0:0:0:
256,192,36015,1,8,0:0:0:0:
256,192,36191,1,0,0:0:0:0:
256,192,36367,1,8,0:0:0:0:
256,192,36544,1,8,0:0:0:0:
256,192,36632,1,0,0:0:0:0:
256,192,36720,1,8,0:0:0:0:
256,192,36897,1,0,0:0:0:0:
256,192,37073,1,0,0:0:0:0:
256,192,37250,1,0,0:0:0:0:
256,192,37426,1,8,0:0:0:0:
256,192,37603,1,0,0:0:0:0:
256,192,37691,1,0,0:0:0:0:
256,192,37779,1,8,0:0:0:0:
256,192,37956,1,0,0:0:0:0:
256,192,38044,1,8,0:0:0:0:
256,192,38132,1,8,0:0:0:0:
256,192,38309,1,0,0:0:0:0:
256,192,38397,1,8,0:0:0:0:
256,192,38485,1,0,0:0:0:0:
256,192,38662,1,0,0:0:0:0:
256,192,38838,1,8,0:0:0:0:
256,192,39015,1,0,0:0:0:0:
256,192,39191,1,8,0:0:0:0:
256,192,39279,1,8,0:0:0:0:
256,192,39367,1,0,0:0:0:0:
256,192,39456,1,0,0:0:0:0:
256,192,39544,1,8,0:0:0:0:
256,192,39720,1,8,0:0:0:0:
256,192,39809,1,8,0:0:0:0:
256,192,39897,1,0,0:0:0:0:
256,192,40073,1,0,0:0:0:0:
256,192,40250,1,8,0:0:0:0:
256,192,40426,1,0,0:0:0:0:
256,192,40603,1,8,0:0:0:0:
256,192,40779,1,0,0:0:0:0:
256,192,40867,1,0,0:0:0:0:
256,192,40956,1,8,0:0:0:0:
256,192,41132,1,0,0:0:0:0:
256,192,41309,1,8,0:0:0:0:
256,192,41485,1,0,0:0:0:0:
256,192,41573,1,8,0:0:0:0:
256,192,41662,1,8,0:0:0:0:
256,192,41838,1,0,0:0:0:0:
256,192,42015,1,8,0:0:0:0:
256,192,42191,1,8,0:0:0:0:
256,192,42279,1,0,0:0:0:0:
256,192,42367,1,8,0:0:0:0:
256,192,42544,1,0,0:0:0:0:
256,192,42720,1,0,0:0:0:0:
256,192,42897,1,0,0:0:0:0:
256,192,43073,1,8,0:0:0:0:
256,192,43250,1,8,0:0:0:0:
256,192,43338,1,0,0:0:0:0:
256,192,43426,1,8,0:0:0:0:
256,192,43603,1,0,0:0:0:0:
256,192,43691,1,0,0:0:0:0:
256,192,43779,1,8,0:0:0:0:
256,192,43956,1,0,0:0:0:0:
256,192,44044,1,8,0:0:0:0:
256,192,44132,1,0,0:0:0:0:
256,192,44309,1,0,0:0:0:0:
256,192,44485,1,8,0:0:0:0:
256,192,44662,1,0,0:0:0:0:
256,192,44750,1,8,0:0:0:0:
256,192,44838,1,8,0:0:0:0:
256,192,44926,1,0,0:0:0:0:
256,192,45015,1,0,0:0:0:0:
256,192,45191,1,8,0:0:0:0:
256,192,45367,1,0,0:0:0:0:
256,192,45456,1,0,0:0:0:0:
256,192,45544,1,12,0:0:0:0:
256,192,45720,1,0,0:0:0:0:
256,192,45809,1,0,0:0:0:0:
256,192,45897,1,0,0:0:0:0:
256,192,46073,1,12,0:0:0:0:
256,192,46250,1,0,0:0:0:0:
256,192,46338,1,0,0:0:0:0:
256,192,46426,1,0,0:0:0:0:
256,192,46603,1,12,0:0:0:0:
256,192,46779,1,0,0:0:0:0:
256,192,46867,1,0,0:0:0:0:
256,192,46956,1,0,0:0:0:0:
256,192,47132,1,12,0:0:0:0:
256,192,47309,1,0,0:0:0:0:
256,192,47485,1,0,0:0:0:0:
256,192,47662,1,12,0:0:0:0:
256,192,47838,1,0,0:0:0:0:
256,192,48015,1,12,0:0:0:0:
256,192,48191,1,0,0:0:0:0:
256,192,48367,1,12,0:0:0:0:
256,192,48544,1,0,0:0:0:0:
256,192,48632,1,0,0:0:0:0:
256,192,48720,1,0,0:0:0:0:
256,192,48897,1,12,0:0:0:0:
256,192,49073,1,0,0:0:0:0:
256,192,49162,1,0,0:0:0:0:
256,192,49250,1,0,0:0:0:0:
256,192,49426,1,12,0:0:0:0:
256,192,49603,1,0,0:0:0:0:
256,192,49691,1,0,0:0:0:0:
256,192,49779,1,0,0:0:0:0:
256,192,49956,1,12,0:0:0:0:
256,192,50132,1,12,0:0:0:0:
256,192,50309,1,0,0:0:0:0:
256,192,50397,1,0,0:0:0:0:
256,192,50485,1,8,0:0:0:0:
256,192,50573,1,0,0:0:0:0:
256,192,50662,1,0,0:0:0:0:
256,192,50750,1,0,0:0:0:0:
256,192,50838,1,8,0:0:0:0:
256,192,50926,1,0,0:0:0:0:
256,192,51015,1,8,0:0:0:0:
256,192,51103,1,8,0:0:0:0:
256,192,51191,1,4,0:0:0:0:
256,192,51544,1,4,0:0:0:0:
256,192,51897,1,12,0:0:0:0:
256,192,52250,1,4,0:0:0:0:
256,192,52426,1,8,0:0:0:0:
256,192,52603,1,4,0:0:0:0:
256,192,52956,1,4,0:0:0:0:
256,192,53309,1,12,0:0:0:0:
256,192,53485,1,0,0:0:0:0:
256,192,53662,1,12,0:0:0:0:
256,192,53838,1,0,0:0:0:0:
256,192,53926,1,0,0:0:0:0:
256,192,54015,1,8,0:0:0:0:
256,192,54191,1,8,0:0:0:0:
256,192,54279,1,8,0:0:0:0:
256,192,54367,1,0,0:0:0:0:
256,192,54456,1,0,0:0:0:0:
256,192,54544,1,8,0:0:0:0:
256,192,54720,1,8,0:0:0:0:
256,192,54779,1,8,0:0:0:0:
256,192,54838,1,8,0:0:0:0:
256,192,54897,1,0,0:0:0:0:
256,192,54985,1,0,0:0:0:0:
256,192,55073,1,8,0:0:0:0:
256,192,55250,1,4,0:0:0:0:
256,192,56838,5,12,0:0:0:0:
256,192,57015,1,0,0:0:0:0:
256,192,57191,1,8,0:0:0:0:
256,192,57367,1,8,0:0:0:0:
256,192,57456,1,0,0:0:0:0:
256,192,57544,1,8,0:0:0:0:
256,192,57720,1,0,0:0:0:0:
256,192,57897,1,8,0:0:0:0:
256,192,57985,1,8,0:0:0:0:
256,192,58073,1,0,0:0:0:0:
256,192,58162,1,8,0:0:0:0:
256,192,58250,1,0,0:0:0:0:
256,192,58426,1,0,0:0:0:0:
256,192,58603,1,8,0:0:0:0:
256,192,58779,1,8,0:0:0:0:
256,192,58867,1,0,0:0:0:0:
256,192,58956,1,8,0:0:0:0:
256,192,59044,1,8,0:0:0:0:
256,192,59132,1,0,0:0:0:0:
256,192,59220,1,0,0:0:0:0:
256,192,59309,1,8,0:0:0:0:
256,192,59485,1,0,0:0:0:0:
256,192,59662,1,8,0:0:0:0:
256,192,59838,1,0,0:0:0:0:
256,192,60015,1,8,0:0:0:0:
256,192,60191,1,0,0:0:0:0:
256,192,60279,1,8,0:0:0:0:
256,192,60367,1,0,0:0:0:0:
256,192,60544,1,0,0:0:0:0:
256,192,60720,1,8,0:0:0:0:
256,192,60809,1,0,0:0:0:0:
256,192,60897,1,8,0:0:0:0:
256,192,60985,1,8,0:0:0:0:
256,192,61073,1,0,0:0:0:0:
256,192,61250,1,0,0:0:0:0:
256,192,61426,1,8,0:0:0:0:
256,192,61603,1,0,0:0:0:0:
256,192,61691,1,0,0:0:0:0:
256,192,61779,1,8,0:0:0:0:
256,192,61867,1,0,0:0:0:0:
256,192,61956,1,8,0:0:0:0:
256,192,62044,1,8,0:0:0:0:
256,192,62132,1,8,0:0:0:0:
256,192,62309,1,8,0:0:0:0:
256,192,62485,1,4,0:0:0:0:
256,192,62662,1,0,0:0:0:0:
256,192,62838,1,8,0:0:0:0:
256,192,63015,1,0,0:0:0:0:
256,192,63103,1,0,0:0:0:0:
256,192,63191,1,8,0:0:0:0:
256,192,63367,1,0,0:0:0:0:
256,192,63544,1,8,0:0:0:0:
256,192,63720,1,8,0:0:0:0:
256,192,63809,1,0,0:0:0:0:
256,192,63897,1,8,0:0:0:0:
256,192,64073,1,0,0:0:0:0:
256,192,64250,1,8,0:0:0:0:
256,192,64426,1,8,0:0:0:0:
256,192,64603,1,0,0:0:0:0:
256,192,64779,1,0,0:0:0:0:
256,192,64956,1,8,0:0:0:0:
256,192,65309,1,0,0:0:0:0:
256,192,65485,1,0,0:0:0:0:
256,192,65573,1,0,0:0:0:0:
256,192,65662,1,8,0:0:0:0:
256,192,65750,1,0,0:0:0:0:
256,192,65838,1,8,0:0:0:0:
256,192,66015,1,0,0:0:0:0:
256,192,66191,1,8,0:0:0:0:
256,192,66279,1,0,0:0:0:0:
256,192,66367,1,8,0:0:0:0:
256,192,66544,1,0,0:0:0:0:
256,192,66632,1,0,0:0:0:0:
256,192,66720,1,8,0:0:0:0:
256,192,66897,1,0,0:0:0:0:
256,192,66985,1,0,0:0:0:0:
256,192,67073,1,8,0:0:0:0:
256,192,67162,1,0,0:0:0:0:
256,192,67250,1,8,0:0:0:0:
256,192,67338,1,0,0:0:0:0:
256,192,67426,1,0,0:0:0:0:
256,192,67515,1,8,0:0:0:0:
256,192,67603,1,8,0:0:0:0:
256,192,67691,1,0,0:0:0:0:
256,192,67779,1,8,0:0:0:0:
256,192,67867,1,0,0:0:0:0:
256,192,67956,1,8,0:0:0:0:
256,192,68044,1,8,0:0:0:0:
256,192,68132,1,4,0:0:0:0:
256,192,68485,1,0,0:0:0:0:
256,192,68662,1,0,0:0:0:0:
256,192,68838,1,12,0:0:0:0:
256,192,69191,1,8,0:0:0:0:
256,192,69544,1,4,0:0:0:0:
256,192,69897,1,0,0:0:0:0:
256,192,70073,1,0,0:0:0:0:
256,192,70250,1,12,0:0:0:0:
256,192,70426,1,0,0:0:0:0:
256,192,70603,1,8,0:0:0:0:
256,192,70779,1,0,0:0:0:0:
256,192,70956,1,4,0:0:0:0:
256,192,71220,1,0,0:0:0:0:
256,192,71309,1,8,0:0:0:0:
256,192,71485,1,0,0:0:0:0:
256,192,71662,1,12,0:0:0:0:
256,192,72015,1,0,0:0:0:0:
256,192,72191,1,8,0:0:0:0:
256,192,72367,1,4,0:0:0:0:
256,192,72720,1,0,0:0:0:0:
256,192,72897,1,0,0:0:0:0:
256,192,73073,1,12,0:0:0:0:
256,192,73250,1,0,0:0:0:0:
256,192,73426,1,12,0:0:0:0:
256,192,73603,1,0,0:0:0:0:
256,192,73691,1,0,0:0:0:0:
256,192,73779,1,12,0:0:0:0:
256,192,74132,1,0,0:0:0:0:
256,192,74309,1,12,0:0:0:0:
256,192,74662,1,0,0:0:0:0:
256,192,74838,1,12,0:0:0:0:
256,192,75015,1,0,0:0:0:0:
256,192,75191,1,0,0:0:0:0:
256,192,75367,1,8,0:0:0:0:
256,192,75544,1,8,0:0:0:0:
256,192,75720,1,0,0:0:0:0:
256,192,75897,1,12,0:0:0:0:
256,192,76603,5,4,0:0:0:0:
256,192,76779,1,0,0:0:0:0:
256,192,76956,1,8,0:0:0:0:
256,192,77132,1,0,0:0:0:0:
256,192,77309,1,8,0:0:0:0:
256,192,77485,1,0,0:0:0:0:
256,192,77662,1,8,0:0:0:0:
256,192,77838,1,8,0:0:0:0:
256,192,78015,1,0,0:0:0:0:
256,192,78191,1,0,0:0:0:0:
256,192,78367,1,8,0:0:0:0:
256,192,78544,1,8,0:0:0:0:
256,192,78720,1,0,0:0:0:0:
256,192,78897,1,0,0:0:0:0:
256,192,79073,1,8,0:0:0:0:
256,192,79250,1,8,0:0:0:0:
256,192,79426,1,4,0:0:0:0:
256,192,79603,1,0,0:0:0:0:
256,192,79779,1,8,0:0:0:0:
256,192,79956,1,0,0:0:0:0:
256,192,80132,1,8,0:0:0:0:
256,192,80309,1,0,0:0:0:0:
256,192,80485,1,8,0:0:0:0:
256,192,80662,1,8,0:0:0:0:
256,192,80838,1,0,0:0:0:0:
256,192,81015,1,0,0:0:0:0:
256,192,81191,1,8,0:0:0:0:
256,192,81367,1,0,0:0:0:0:
256,192,81544,1,12,0:0:0:0:
256,192,81720,1,0,0:0:0:0:
256,192,81897,1,12,0:0:0:0:
256,192,82073,1,8,0:0:0:0:
256,192,82250,1,4,0:0:0:0:
256,192,82426,1,0,0:0:0:0:
256,192,82603,1,8,0:0:0:0:
256,192,82779,1,0,0:0:0:0:
256,192,82956,1,8,0:0:0:0:
256,192,83132,1,0,0:0:0:0:
256,192,83309,1,8,0:0:0:0:
256,192,83485,1,8,0:0:0:0:
256,192,83662,1,0,0:0:0:0:
256,192,83838,1,0,0:0:0:0:
256,192,84015,1,8,0:0:0:0:
256,192,84191,1,8,0:0:0:0:
256,192,84367,1,0,0:0:0:0:
256,192,84544,1,0,0:0:0:0:
256,192,84720,1,8,0:0:0:0:
256,192,84897,1,8,0:0:0:0:
256,192,85073,1,4,0:0:0:0:
256,192,85250,1,0,0:0:0:0:
256,192,85426,1,8,0:0:0:0:
256,192,85603,1,0,0:0:0:0:
256,192,85779,1,0,0:0:0:0:
256,192,85956,1,0,0:0:0:0:
256,192,86132,1,12,0:0:0:0:
256,192,86309,1,0,0:0:0:0:
256,192,86397,1,0,0:0:0:0:
256,192,86485,1,12,0:0:0:0:
256,192,86662,1,0,0:0:0:0:
256,192,86838,1,12,0:0:0:0:
256,192,87015,1,0,0:0:0:0:
256,192,87191,1,12,0:0:0:0:
256,192,87367,1,0,0:0:0:0:
256,192,87544,1,12,0:0:0:0:
256,192,87897,5,0,0:0:0:0:
256,192,88073,1,0,0:0:0:0:
256,192,88250,1,8,0:0:0:0:
256,192,88426,1,0,0:0:0:0:
256,192,88515,1,0,0:0:0:0:
256,192,88603,1,8,0:0:0:0:
256,192,88779,1,0,0:0:0:0:
256,192,88867,1,8,0:0:0:0:
256,192,88956,1,8,0:0:0:0:
256,192,89132,1,0,0:0:0:0:
256,192,89309,1,8,0:0:0:0:
256,192,89485,1,0,0:0:0:0:
256,192,89573,1,0,0:0:0:0:
256,192,89662,1,8,0:0:0:0:
256,192,89838,1,0,0:0:0:0:
256,192,90015,1,8,0:0:0:0:
256,192,90191,1,8,0:0:0:0:
256,192,90279,1,0,0:0:0:0:
256,192,90367,1,8,0:0:0:0:
256,192,90544,1,0,0:0:0:0:
256,192,90720,1,0,0:0:0:0:
256,192,90897,1,0,0:0:0:0:
256,192,91073,1,8,0:0:0:0:
256,192,91250,1,0,0:0:0:0:
256,192,91338,1,8,0:0:0:0:
256,192,91426,1,0,0:0:0:0:
256,192,91603,1,0,0:0:0:0:
256,192,91691,1,0,0:0:0:0:
256,192,91779,1,8,0:0:0:0:
256,192,91956,1,0,0:0:0:0:
256,192,92132,1,8,0:0:0:0:
256,192,92309,1,0,0:0:0:0:
256,192,92485,1,8,0:0:0:0:
256,192,92662,1,0,0:0:0:0:
256,192,92750,1,8,0:0:0:0:
256,192,92838,1,8,0:0:0:0:
256,192,93015,1,0,0:0:0:0:
256,192,93191,1,8,0:0:0:0:
256,192,93279,1,8,0:0:0:0:
256,192,93367,1,0,0:0:0:0:
256,192,93456,1,8,0:0:0:0:
256,192,93544,1,0,0:0:0:0:
256,192,93720,1,0,0:0:0:0:
256,192,93897,1,8,0:0:0:0:
256,192,94073,1,0,0:0:0:0:
256,192,94162,1,0,0:0:0:0:
256,192,94250,1,8,0:0:0:0:
256,192,94426,1,0,0:0:0:0:
256,192,94515,1,8,0:0:0:0:
256,192,94603,1,8,0:0:0:0:
256,192,94779,1,0,0:0:0:0:
256,192,94956,1,8,0:0:0:0:
256,192,95132,1,8,0:0:0:0:
256,192,95220,1,0,0:0:0:0:
256,192,95309,1,8,0:0:0:0:
256,192,95485,1,0,0:0:0:0:
256,192,95662,1,8,0:0:0:0:
256,192,95838,1,0,0:0:0:0:
256,192,95926,1,8,0:0:0:0:
256,192,96015,1,8,0:0:0:0:
256,192,96191,1,0,0:0:0:0:
256,192,96367,1,0,0:0:0:0:
256,192,96544,1,0,0:0:0:0:
256,192,96720,1,8,0:0:0:0:
256,192,96897,1,0,0:0:0:0:
256,192,96985,1,8,0:0:0:0:
256,192,97073,1,0,0:0:0:0:
256,192,97250,1,0,0:0:0:0:
256,192,97338,1,0,0:0:0:0:
256,192,97426,1,8,0:0:0:0:
256,192,97603,1,0,0:0:0:0:
256,192,97691,1,8,0:0:0:0:
256,192,97779,1,8,0:0:0:0:
256,192,97956,1,0,0:0:0:0:
256,192,98132,1,8,0:0:0:0:
256,192,98309,1,0,0:0:0:0:
256,192,98397,1,8,0:0:0:0:
256,192,98485,1,8,0:0:0:0:
256,192,98573,1,8,0:0:0:0:
256,192,98662,1,0,0:0:0:0:
256,192,98838,1,8,0:0:0:0:
256,192,99015,1,0,0:0:0:0:
256,192,99103,1,0,0:0:0:0:
256,192,99191,5,12,0:0:0:0:
256,192,99367,1,0,0:0:0:0:
256,192,99456,1,0,0:0:0:0:
256,192,99544,1,0,0:0:0:0:
256,192,99720,1,12,0:0:0:0:
256,192,99897,1,0,0:0:0:0:
256,192,99985,1,0,0:0:0:0:
256,192,100073,1,0,0:0:0:0:
256,192,100250,1,12,0:0:0:0:
256,192,100426,1,0,0:0:0:0:
256,192,100515,1,0,0:0:0:0:
256,192,100603,1,0,0:0:0:0:
256,192,100779,1,12,0:0:0:0:
256,192,100956,1,0,0:0:0:0:
256,192,101132,1,0,0:0:0:0:
256,192,101309,1,12,0:0:0:0:
256,192,101485,1,0,0:0:0:0:
256,192,101662,1,12,0:0:0:0:
256,192,101838,1,0,0:0:0:0:
256,192,102015,1,12,0:0:0:0:
256,192,102191,1,0,0:0:0:0:
256,192,102279,1,0,0:0:0:0:
256,192,102367,1,0,0:0:0:0:
256,192,102544,1,12,0:0:0:0:
256,192,102720,1,0,0:0:0:0:
256,192,102809,1,0,0:0:0:0:
256,192,102897,1,0,0:0:0:0:
256,192,103073,1,12,0:0:0:0:
256,192,103250,1,0,0:0:0:0:
256,192,103338,1,0,0:0:0:0:
256,192,103426,1,0,0:0:0:0:
256,192,103603,1,12,0:0:0:0:
256,192,103779,1,12,0:0:0:0:
256,192,103956,1,0,0:0:0:0:
256,192,104044,1,8,0:0:0:0:
256,192,104132,1,8,0:0:0:0:
256,192,104309,1,0,0:0:0:0:
256,192,104397,1,8,0:0:0:0:
256,192,104485,1,8,0:0:0:0:
256,192,104573,1,0,0:0:0:0:
256,192,104662,1,0,0:0:0:0:
256,192,104838,1,4,0:0:0:0:
256,192,105191,1,4,0:0:0:0:
256,192,105544,1,12,0:0:0:0:
256,192,105897,1,4,0:0:0:0:
256,192,106073,1,8,0:0:0:0:
256,192,106250,1,4,0:0:0:0:
256,192,106603,1,4,0:0:0:0:
256,192,106956,1,12,0:0:0:0:
256,192,107132,1,0,0:0:0:0:
256,192,107309,1,12,0:0:0:0:
256,192,107485,1,0,0:0:0:0:
256,192,107573,1,0,0:0:0:0:
256,192,107662,1,8,0:0:0:0:
256,192,107838,1,0,0:0:0:0:
256,192,107926,1,8,0:0:0:0:
256,192,108015,1,0,0:0:0:0:
256,192,108103,1,0,0:0:0:0:
256,192,108191,1,8,0:0:0:0:
256,192,108279,1,0,0:0:0:0:
256,192,108367,1,8,0:0:0:0:
256,192,108426,1,8,0:0:0:0:
256,192,108485,1,8,0:0:0:0:
256,192,108544,1,0,0:0:0:0:
256,192,108632,1,0,0:0:0:0:
256,192,108720,1,8,0:0:0:0:
256,192,108897,1,4,0:0:0:0:
256,192,110485,5,12,0:0:0:0:
256,192,110662,1,0,0:0:0:0:
256,192,110838,1,8,0:0:0:0:
256,192,111015,1,8,0:0:0:0:
256,192,111103,1,8,0:0:0:0:
256,192,111191,1,0,0:0:0:0:
256,192,111279,1,8,0:0:0:0:
256,192,111367,1,0,0:0:0:0:
256,192,111544,1,8,0:0:0:0:
256,192,111720,1,0,0:0:0:0:
256,192,111809,1,8,0:0:0:0:
256,192,111897,1,8,0:0:0:0:
256,192,111985,1,0,0:0:0:0:
256,192,112073,1,0,0:0:0:0:
256,192,112250,1,8,0:0:0:0:
256,192,112426,1,8,0:0:0:0:
256,192,112515,1,0,0:0:0:0:
256,192,112603,1,8,0:0:0:0:
256,192,112691,1,8,0:0:0:0:
256,192,112779,1,0,0:0:0:0:
256,192,112867,1,0,0:0:0:0:
256,192,112956,1,8,0:0:0:0:
256,192,113132,1,0,0:0:0:0:
256,192,113309,1,8,0:0:0:0:
256,192,113485,1,0,0:0:0:0:
256,192,113662,1,8,0:0:0:0:
256,192,113838,1,8,0:0:0:0:
256,192,113926,1,0,0:0:0:0:
256,192,114015,1,8,0:0:0:0:
256,192,114103,1,0,0:0:0:0:
256,192,114191,1,0,0:0:0:0:
256,192,114367,1,8,0:0:0:0:
256,192,114544,1,0,0:0:0:0:
256,192,114632,1,8,0:0:0:0:
256,192,114720,1,0,0:0:0:0:
256,192,114809,1,0,0:0:0:0:
256,192,114897,1,0,0:0:0:0:
256,192,115073,1,8,0:0:0:0:
256,192,115250,1,0,0:0:0:0:
256,192,115338,1,0,0:0:0:0:
256,192,115426,1,8,0:0:0:0:
256,192,115515,1,8,0:0:0:0:
256,192,115603,1,0,0:0:0:0:
256,192,115691,1,8,0:0:0:0:
256,192,115779,1,8,0:0:0:0:
256,192,115956,1,8,0:0:0:0:
256,192,116132,1,4,0:0:0:0:
256,192,116309,1,0,0:0:0:0:
256,192,116485,1,8,0:0:0:0:
256,192,116662,1,0,0:0:0:0:
256,192,116750,1,8,0:0:0:0:
256,192,116838,1,0,0:0:0:0:
256,192,117015,1,0,0:0:0:0:
256,192,117191,1,8,0:0:0:0:
256,192,117367,1,8,0:0:0:0:
256,192,117456,1,8,0:0:0:0:
256,192,117544,1,0,0:0:0:0:
256,192,117720,1,0,0:0:0:0:
256,192,117897,1,8,0:0:0:0:
256,192,118073,1,0,0:0:0:0:
256,192,118162,1,8,0:0:0:0:
256,192,118250,1,0,0:0:0:0:
256,192,118426,1,0,0:0:0:0:
256,192,118603,1,8,0:0:0:0:
256,192,118956,1,0,0:0:0:0:
256,192,119132,1,0,0:0:0:0:
256,192,119220,1,0,0:0:0:0:
256,192,119309,1,8,0:0:0:0:
256,192,119397,1,0,0:0:0:0:
256,192,119485,1,8,0:0:0:0:
256,192,119662,1,8,0:0:0:0:
256,192,119838,1,8,0:0:0:0:
256,192,119926,1,0,0:0:0:0:
256,192,120015,1,8,0:0:0:0:
256,192,120191,1,0,0:0:0:0:
256,192,120279,1,0,0:0:0:0:
256,192,120367,1,8,0:0:0:0:
256,192,120544,1,0,0:0:0:0:
256,192,120632,1,0,0:0:0:0:
256,192,120720,1,8,0:0:0:0:
256,192,120809,1,8,0:0:0:0:
256,192,120897,1,8,0:0:0:0:
256,192,120985,1,0,0:0:0:0:
256,192,121073,1,8,0:0:0:0:
256,192,121162,1,0,0:0:0:0:
256,192,121250,1,0,0:0:0:0:
256,192,121338,1,0,0:0:0:0:
256,192,121426,1,8,0:0:0:0:
256,192,121515,1,8,0:0:0:0:
256,192,121603,1,8,0:0:0:0:
256,192,121691,1,8,0:0:0:0:
256,192,121779,1,4,0:0:0:0:
256,192,122132,1,0,0:0:0:0:
256,192,122309,1,0,0:0:0:0:
256,192,122485,1,12,0:0:0:0:
256,192,122838,1,8,0:0:0:0:
256,192,123015,1,10,0:0:0:0:
256,192,123191,1,4,0:0:0:0:
256,192,123544,1,0,0:0:0:0:
256,192,123720,1,0,0:0:0:0:
256,192,123897,1,12,0:0:0:0:
256,192,124073,1,0,0:0:0:0:
256,192,124250,1,8,0:0:0:0:
256,192,124426,1,0,0:0:0:0:
256,192,124603,1,4,0:0:0:0:
256,192,124867,1,8,0:0:0:0:
256,192,124956,1,0,0:0:0:0:
256,192,125132,1,0,0:0:0:0:
256,192,125309,1,12,0:0:0:0:
256,192,125662,1,0,0:0:0:0:
256,192,125838,1,8,0:0:0:0:
256,192,126015,1,4,0:0:0:0:
256,192,126367,1,0,0:0:0:0:
256,192,126544,1,0,0:0:0:0:
256,192,126720,1,12,0:0:0:0:
256,192,126897,1,0,0:0:0:0:
256,192,127073,1,12,0:0:0:0:
256,192,127250,1,0,0:0:0:0:
256,192,127426,1,12,0:0:0:0:
256,192,128838,5,4,0:0:0:0:
256,192,129367,1,0,0:0:0:0:
256,192,129544,1,12,0:0:0:0:
256,192,129720,1,0,0:0:0:0:
256,192,130073,1,0,0:0:0:0:
256,192,130250,1,12,0:0:0:0:
256,192,130426,1,0,0:0:0:0:
256,192,130603,1,0,0:0:0:0:
256,192,130956,1,12,0:0:0:0:
256,192,131132,1,0,0:0:0:0:
256,192,131309,1,8,0:0:0:0:
256,192,131485,1,0,0:0:0:0:
256,192,131573,1,0,0:0:0:0:
256,192,131662,1,0,0:0:0:0:
256,192,132191,1,0,0:0:0:0:
256,192,132367,1,12,0:0:0:0:
256,192,132544,1,0,0:0:0:0:
256,192,132897,1,0,0:0:0:0:
256,192,133073,1,12,0:0:0:0:
256,192,133250,1,0,0:0:0:0:
256,192,133426,1,0,0:0:0:0:
256,192,133779,1,12,0:0:0:0:
256,192,133956,1,0,0:0:0:0:
256,192,134132,1,8,0:0:0:0:
256,192,134309,1,8,0:0:0:0:
256,192,134397,1,8,0:0:0:0:
256,192,134485,1,4,0:0:0:0:
256,192,135015,1,0,0:0:0:0:
256,192,135191,1,12,0:0:0:0:
256,192,135367,1,0,0:0:0:0:
256,192,135544,1,0,0:0:0:0:
256,192,135720,1,0,0:0:0:0:
256,192,135897,1,12,0:0:0:0:
256,192,136073,1,0,0:0:0:0:
256,192,136250,1,0,0:0:0:0:
256,192,136603,1,12,0:0:0:0:
256,192,136779,1,0,0:0:0:0:
256,192,136956,1,8,0:0:0:0:
256,192,137132,1,0,0:0:0:0:
256,192,137220,1,0,0:0:0:0:
256,192,137309,1,0,0:0:0:0:
256,192,137838,1,0,0:0:0:0:
256,192,138015,1,12,0:0:0:0:
256,192,138191,1,0,0:0:0:0:
256,192,138544,1,0,0:0:0:0:
256,192,138720,1,12,0:0:0:0:
256,192,138897,1,0,0:0:0:0:
256,192,139073,1,0,0:0:0:0:
256,192,139426,1,12,0:0:0:0:
256,192,139603,1,0,0:0:0:0:
256,192,139779,1,8,0:0:0:0:
256,192,139867,1,8,0:0:0:0:
256,192,139956,1,0,0:0:0:0:
256,192,140044,1,0,0:0:0:0:
256,192,140132,1,12,0:0:0:0:
256,192,141544,1,0,0:0:0:0:
256,192,142956,1,8,0:0:0:0:
256,192,144367,1,0,0:0:0:0:
256,192,145779,1,8,0:0:0:0:
256,192,146132,1,0,0:0:0:0:
256,192,146309,1,0,0:0:0:0:
256,192,146485,1,8,0:0:0:0:
256,192,146662,1,0,0:0:0:0:
256,192,146838,1,8,0:0:0:0:
256,192,147015,1,0,0:0:0:0:
256,192,147191,1,8,0:0:0:0:
256,192,147367,1,8,0:0:0:0:
256,192,147544,1,0,0:0:0:0:
256,192,147720,1,0,0:0:0:0:
256,192,147897,1,8,0:0:0:0:
256,192,148073,1,0,0:0:0:0:
256,192,148250,1,8,0:0:0:0:
256,192,148426,1,0,0:0:0:0:
256,192,148603,1,0,0:0:0:0:
256,192,148956,1,0,0:0:0:0:
256,192,149132,1,0,0:0:0:0:
256,192,149309,1,8,0:0:0:0:
256,192,149485,1,0,0:0:0:0:
256,192,149662,1,8,0:0:0:0:
256,192,149838,1,0,0:0:0:0:
256,192,149926,1,0,0:0:0:0:
256,192,150015,1,8,0:0:0:0:
256,192,150103,1,0,0:0:0:0:
256,192,150191,1,0,0:0:0:0:
256,192,150279,1,0,0:0:0:0:
256,192,150367,1,8,0:0:0:0:
256,192,150456,1,0,0:0:0:0:
256,192,150544,1,8,0:0:0:0:
256,192,150632,1,0,0:0:0:0:
256,192,150720,1,0,0:0:0:0:
256,192,150809,1,8,0:0:0:0:
256,192,150897,1,0,0:0:0:0:
256,192,150985,1,0,0:0:0:0:
256,192,151073,1,8,0:0:0:0:
256,192,151162,1,8,0:0:0:0:
256,192,151250,1,8,0:0:0:0:
256,192,151338,1,8,0:0:0:0:
256,192,151426,5,4,0:0:0:0:
256,192,151603,1,0,0:0:0:0:
256,192,151779,1,12,0:0:0:0:
256,192,151956,1,0,0:0:0:0:
256,192,152044,1,8,0:0:0:0:
256,192,152132,1,0,0:0:0:0:
256,192,152309,1,0,0:0:0:0:
256,192,152485,1,8,0:0:0:0:
256,192,152662,1,0,0:0:0:0:
256,192,152750,1,0,0:0:0:0:
256,192,152838,1,8,0:0:0:0:
256,192,153015,1,0,0:0:0:0:
256,192,153191,1,8,0:0:0:0:
256,192,153367,1,8,0:0:0:0:
256,192,153456,1,8,0:0:0:0:
256,192,153544,1,0,0:0:0:0:
256,192,153720,1,0,0:0:0:0:
256,192,153897,1,8,0:0:0:0:
256,192,154250,1,0,0:0:0:0:
256,192,154426,1,0,0:0:0:0:
256,192,154515,1,0,0:0:0:0:
256,192,154603,1,8,0:0:0:0:
256,192,154691,1,0,0:0:0:0:
256,192,154779,1,8,0:0:0:0:
256,192,154956,1,0,0:0:0:0:
256,192,155132,1,0,0:0:0:0:
256,192,155220,1,0,0:0:0:0:
256,192,155309,1,8,0:0:0:0:
256,192,155485,1,0,0:0:0:0:
256,192,155662,1,8,0:0:0:0:
256,192,155838,1,0,0:0:0:0:
256,192,155926,1,0,0:0:0:0:
256,192,156015,1,8,0:0:0:0:
256,192,156103,1,8,0:0:0:0:
256,192,156191,1,0,0:0:0:0:
256,192,156279,1,0,0:0:0:0:
256,192,156367,1,8,0:0:0:0:
256,192,156456,1,0,0:0:0:0:
256,192,156544,1,8,0:0:0:0:
256,192,156632,1,8,0:0:0:0:
256,192,156720,1,8,0:0:0:0:
256,192,156809,1,0,0:0:0:0:
256,192,156897,1,8,0:0:0:0:
256,192,156985,1,8,0:0:0:0:
256,192,157073,1,4,0:0:0:0:
256,192,157426,1,0,0:0:0:0:
256,192,157603,1,0,0:0:0:0:
256,192,157779,1,12,0:0:0:0:
256,192,158132,1,8,0:0:0:0:
256,192,158309,1,8,0:0:0:0:
256,192,158485,1,4,0:0:0:0:
256,192,158838,1,0,0:0:0:0:
256,192,159015,1,0,0:0:0:0:
256,192,159191,1,12,0:0:0:0:
256,192,159367,1,0,0:0:0:0:
256,192,159544,1,8,0:0:0:0:
256,192,159720,1,0,0:0:0:0:
256,192,159897,1,4,0:0:0:0:
256,192,160162,1,0,0:0:0:0:
256,192,160250,1,8,0:0:0:0:
256,192,160426,1,0,0:0:0:0:
256,192,160603,1,12,0:0:0:0:
256,192,160956,1,0,0:0:0:0:
256,192,161132,1,8,0:0:0:0:
256,192,161309,1,4,0:0:0:0:
256,192,161662,1,0,0:0:0:0:
256,192,161838,1,0,0:0:0:0:
256,192,162015,1,12,0:0:0:0:
256,192,162191,1,0,0:0:0:0:
256,192,162367,1,12,0:0:0:0:
256,192,162544,1,0,0:0:0:0:
256,192,162632,1,0,0:0:0:0:
256,192,162720,1,12,0:0:0:0:
256,192,162897,1,0,0:0:0:0:
256,192,162985,1,0,0:0:0:0:
256,192,163073,1,0,0:0:0:0:
256,192,163250,1,12,0:0:0:0:
256,192,163426,1,0,0:0:0:0:
256,192,163515,1,0,0:0:0:0:
256,192,163603,1,0,0:0:0:0:
256,192,163779,1,12,0:0:0:0:
256,192,163956,1,0,0:0:0:0:
256,192,164132,1,0,0:0:0:0:
256,192,164309,1,8,0:0:0:0:
256,192,164485,1,8,0:0:0:0:
256,192,164662,1,0,0:0:0:0:
256,192,164838,1,12,0:0:0:0:
256,192,165544,5,4,0:0:0:0:
256,192,165720,1,0,0:0:0:0:
256,192,165897,1,8,0:0:0:0:
256,192,166073,1,0,0:0:0:0:
256,192,166250,1,8,0:0:0:0:
256,192,166426,1,0,0:0:0:0:
256,192,166603,1,8,0:0:0:0:
256,192,166779,1,8,0:0:0:0:
256,192,166956,1,0,0:0:0:0:
256,192,167132,1,0,0:0:0:0:
256,192,167309,1,8,0:0:0:0:
256,192,167485,1,8,0:0:0:0:
256,192,167662,1,0,0:0:0:0:
256,192,167838,1,0,0:0:0:0:
256,192,168015,1,8,0:0:0:0:
256,192,168191,1,8,0:0:0:0:
256,192,168367,1,4,0:0:0:0:
256,192,168544,1,0,0:0:0:0:
256,192,168720,1,8,0:0:0:0:
256,192,168897,1,0,0:0:0:0:
256,192,169073,1,8,0:0:0:0:
256,192,169250,1,0,0:0:0:0:
256,192,169426,1,8,0:0:0:0:
256,192,169603,1,8,0:0:0:0:
256,192,169779,1,0,0:0:0:0:
256,192,169956,1,0,0:0:0:0:
256,192,170132,1,8,0:0:0:0:
256,192,170309,1,0,0:0:0:0:
256,192,170485,1,12,0:0:0:0:
256,192,170662,1,0,0:0:0:0:
256,192,170750,1,0,0:0:0:0:
256,192,170838,1,8,0:0:0:0:
256,192,170926,1,0,0:0:0:0:
256,192,171015,1,8,0:0:0:0:
256,192,171103,1,8,0:0:0:0:
256,192,171191,1,4,0:0:0:0:
256,192,171367,1,0,0:0:0:0:
256,192,171544,1,12,0:0:0:0:
256,192,171720,1,0,0:0:0:0:
256,192,171897,1,8,0:0:0:0:
256,192,172073,1,0,0:0:0:0:
256,192,172250,1,8,0:0:0:0:
256,192,172426,1,8,0:0:0:0:
256,192,172603,1,0,0:0:0:0:
256,192,172779,1,0,0:0:0:0:
256,192,172956,1,8,0:0:0:0:
256,192,173132,1,8,0:0:0:0:
256,192,173309,1,0,0:0:0:0:
256,192,173485,1,0,0:0:0:0:
256,192,173662,1,8,0:0:0:0:
256,192,173838,1,8,0:0:0:0:
256,192,174015,1,4,0:0:0:0:
256,192,174191,1,0,0:0:0:0:
256,192,174367,1,8,0:0:0:0:
256,192,174544,1,0,0:0:0:0:
256,192,174720,1,0,0:0:0:0:
256,192,174897,1,0,0:0:0:0:
256,192,175073,1,12,0:0:0:0:
256,192,175250,1,0,0:0:0:0:
256,192,175338,1,0,0:0:0:0:
256,192,175426,1,12,0:0:0:0:
256,192,175603,1,12,0:0:0:0:
256,192,175779,1,0,0:0:0:0:
256,192,175956,1,12,0:0:0:0:
256,192,176132,1,12,0:0:0:0:
256,192,176309,1,0,0:0:0:0:
256,192,176485,1,12,0:0:0:0:
256,192,176662,1,4,0:0:0:0:
